osu file format v12

[General]
AudioFilename: Snow Song Show.mp3
AudioLeadIn: 1500
PreviewTime: 77520
Countdown: 0
SampleSet: Normal
StackLeniency: 0.7
Mode: 1
LetterboxInBreaks: 0
WidescreenStoryboard: 0

[Editor]
Bookmarks: 18607
DistanceSpacing: 1
BeatDivisor: 4
GridSize: 32

[Metadata]
Title:Snow Song Show
TitleUnicode:Snow Song Show
Artist:sasakure.UK x DECO*27
ArtistUnicode:sasakure.UK x DECO*27
Creator:captin1
Version:Oni
Source:
Tags:vocaloid christmas winter hatsune miku natsu moway gero -umi-
BeatmapID:343516
BeatmapSetID:131073

[Difficulty]
HPDrainRate:6
CircleSize:4
OverallDifficulty:6
ApproachRate:8
SliderMultiplier:1.6
SliderTickRate:2

[Events]
//Background and Video events
0,0,"Konachan.com - 152363 aqua_eyes aqua_hair candy christmas hat hatsune_miku long_hair neeta night snow stars thighhighs tree vocaloid.jpg",0,0
//Break Periods
//Storyboard Layer 0 (Background)
//Storyboard Layer 1 (Fail)
//Storyboard Layer 2 (Pass)
//Storyboard Layer 3 (Foreground)
//Storyboard Sound Samples
//Background Colour Transformations
3,100,163,162,255

[TimingPoints]
-218,352.941176470588,3,1,0,40,1,0
134,-133.333333333333,3,1,0,40,0,0
16648,437.956204379562,4,1,0,50,1,0
17521,434.782608695652,4,1,0,50,1,0
78390,-100,4,1,0,50,0,1
92303,-100,4,1,0,50,0,0

[Colours]
Combo1 : 240,5,5
Combo2 : 0,128,0
Combo3 : 23,123,183

[HitObjects]
256,192,840,1,12,0:0:0:0:
256,192,1193,1,0,0:0:0:0:
256,192,1546,1,8,0:0:0:0:
256,192,1899,1,8,0:0:0:0:
256,192,2252,1,0,0:0:0:0:
256,192,2605,1,8,0:0:0:0:
256,192,2958,1,8,0:0:0:0:
256,192,3311,1,0,0:0:0:0:
256,192,3664,1,8,0:0:0:0:
256,192,4017,1,8,0:0:0:0:
256,192,4370,1,8,0:0:0:0:
256,192,4723,1,0,0:0:0:0:
256,192,5076,1,8,0:0:0:0:
256,192,5429,1,0,0:0:0:0:
256,192,5781,1,8,0:0:0:0:
256,192,6134,1,8,0:0:0:0:
256,192,6487,1,0,0:0:0:0:
256,192,6840,1,0,0:0:0:0:
256,192,7193,1,8,0:0:0:0:
256,192,7546,1,8,0:0:0:0:
256,192,7899,1,0,0:0:0:0:
256,192,8252,1,0,0:0:0:0:
256,192,8605,1,8,0:0:0:0:
256,192,8958,1,8,0:0:0:0:
256,192,9311,1,12,0:0:0:0:
256,192,9664,1,0,0:0:0:0:
256,192,10017,1,8,0:0:0:0:
256,192,10370,1,8,0:0:0:0:
256,192,10723,1,0,0:0:0:0:
256,192,11076,1,8,0:0:0:0:
256,192,11429,1,8,0:0:0:0:
256,192,11781,1,0,0:0:0:0:
256,192,12134,1,8,0:0:0:0:
256,192,12487,1,8,0:0:0:0:
256,192,12840,1,8,0:0:0:0:
256,192,13193,1,0,0:0:0:0:
256,192,13546,1,8,0:0:0:0:
256,192,13899,1,0,0:0:0:0:
256,192,14252,1,8,0:0:0:0:
256,192,14605,1,8,0:0:0:0:
256,192,14958,1,0,0:0:0:0:
256,192,15311,1,0,0:0:0:0:
256,192,15664,2,0,L|320:192,2,60.0000022888184
256,192,16648,1,8,0:0:0:0:
256,192,16757,1,0,0:0:0:0:
256,192,16866,1,8,0:0:0:0:
256,192,16976,1,8,0:0:0:0:
256,192,17195,1,8,0:0:0:0:
256,192,17304,1,8,0:0:0:0:
256,192,17414,1,8,0:0:0:0:
256,192,17521,1,4,0:0:0:0:
256,192,17738,1,0,0:0:0:0:
256,192,17847,1,0,0:0:0:0:
256,192,17955,1,8,0:0:0:0:
256,192,18173,1,8,0:0:0:0:
256,192,18390,1,0,0:0:0:0:
256,192,18607,1,0,0:0:0:0:
256,192,18716,1,0,0:0:0:0:
256,192,18825,1,8,0:0:0:0:
256,192,19042,1,8,0:0:0:0:
256,192,19260,1,0,0:0:0:0:
256,192,19477,1,0,0:0:0:0:
256,192,19586,1,8,0:0:0:0:
256,192,19694,1,8,0:0:0:0:
256,192,19912,1,0,0:0:0:0:
256,192,20129,1,8,0:0:0:0:
256,192,20347,1,8,0:0:0:0:
256,192,20455,1,0,0:0:0:0:
256,192,20564,1,8,0:0:0:0:
256,192,20781,1,0,0:0:0:0:
256,192,20999,1,8,0:0:0:0:
256,192,21216,1,0,0:0:0:0:
256,192,21325,1,0,0:0:0:0:
256,192,21434,1,0,0:0:0:0:
256,192,21651,1,8,0:0:0:0:
256,192,21868,1,0,0:0:0:0:
256,192,22086,1,8,0:0:0:0:
256,192,22194,1,0,0:0:0:0:
256,192,22412,1,0,0:0:0:0:
256,192,22521,1,8,0:0:0:0:
256,192,22738,1,0,0:0:0:0:
256,192,22955,1,8,0:0:0:0:
256,192,23173,1,0,0:0:0:0:
256,192,23390,1,8,0:0:0:0:
256,192,23607,1,0,0:0:0:0:
256,192,23825,1,8,0:0:0:0:
256,192,23934,1,0,0:0:0:0:
256,192,24151,1,0,0:0:0:0:
256,192,24260,1,8,0:0:0:0:
256,192,24477,1,4,0:0:0:0:
256,192,24694,1,0,0:0:0:0:
256,192,24803,1,0,0:0:0:0:
256,192,24911,1,8,0:0:0:0:
256,192,25129,1,8,0:0:0:0:
256,192,25346,1,0,0:0:0:0:
256,192,25563,1,0,0:0:0:0:
256,192,25672,1,0,0:0:0:0:
256,192,25781,1,8,0:0:0:0:
256,192,25998,1,8,0:0:0:0:
256,192,26216,1,0,0:0:0:0:
256,192,26433,1,0,0:0:0:0:
256,192,26542,1,8,0:0:0:0:
256,192,26650,1,8,0:0:0:0:
256,192,26868,1,0,0:0:0:0:
256,192,27085,1,8,0:0:0:0:
256,192,27303,1,8,0:0:0:0:
256,192,27411,1,0,0:0:0:0:
256,192,27520,1,8,0:0:0:0:
256,192,27737,1,0,0:0:0:0:
256,192,27955,1,12,0:0:0:0:
256,192,28173,1,0,0:0:0:0:
256,192,28281,1,0,0:0:0:0:
256,192,28607,1,4,0:0:0:0:
256,192,28825,1,0,0:0:0:0:
256,192,28933,1,0,0:0:0:0:
256,192,29260,1,0,0:0:0:0:
256,192,29477,1,12,0:0:0:0:
256,192,29912,1,0,0:0:0:0:
256,192,30129,1,8,0:0:0:0:
256,192,30347,1,0,0:0:0:0:
256,192,30455,1,0,0:0:0:0:
256,192,30564,1,8,0:0:0:0:
256,192,30781,1,0,0:0:0:0:
256,192,30999,1,8,0:0:0:0:
256,192,31216,1,8,0:0:0:0:
256,192,31434,1,4,0:0:0:0:
256,192,31651,1,0,0:0:0:0:
256,192,31868,1,8,0:0:0:0:
256,192,32086,1,8,0:0:0:0:
256,192,32194,1,0,0:0:0:0:
256,192,32412,1,0,0:0:0:0:
256,192,32520,1,0,0:0:0:0:
256,192,32738,1,0,0:0:0:0:
256,192,32955,1,8,0:0:0:0:
256,192,33173,1,8,0:0:0:0:
256,192,33390,1,0,0:0:0:0:
256,192,33607,1,8,0:0:0:0:
256,192,33825,1,8,0:0:0:0:
256,192,33934,1,0,0:0:0:0:
256,192,34151,1,0,0:0:0:0:
256,192,34260,1,0,0:0:0:0:
256,192,34477,1,0,0:0:0:0:
256,192,34586,1,0,0:0:0:0:
256,192,34694,1,8,0:0:0:0:
256,192,34912,1,8,0:0:0:0:
256,192,35129,1,0,0:0:0:0:
256,192,35347,1,8,0:0:0:0:
256,192,35564,1,8,0:0:0:0:
256,192,35673,1,0,0:0:0:0:
256,192,35890,1,0,0:0:0:0:
256,192,35999,1,0,0:0:0:0:
256,192,36216,1,0,0:0:0:0:
256,192,36434,1,8,0:0:0:0:
256,192,36651,1,8,0:0:0:0:
256,192,36868,1,0,0:0:0:0:
256,192,37086,1,8,0:0:0:0:
256,192,37303,1,8,0:0:0:0:
256,192,37412,1,8,0:0:0:0:
256,192,37629,1,8,0:0:0:0:
256,192,37738,1,0,0:0:0:0:
256,192,37955,1,0,0:0:0:0:
256,192,38173,1,8,0:0:0:0:
256,192,38390,1,8,0:0:0:0:
256,192,38607,1,0,0:0:0:0:
256,192,38825,1,8,0:0:0:0:
256,192,39042,1,8,0:0:0:0:
256,192,39151,1,0,0:0:0:0:
256,192,39368,1,0,0:0:0:0:
256,192,39477,1,0,0:0:0:0:
256,192,39694,1,0,0:0:0:0:
256,192,39912,1,8,0:0:0:0:
256,192,40129,1,8,0:0:0:0:
256,192,40347,1,0,0:0:0:0:
256,192,40564,1,8,0:0:0:0:
256,192,40781,1,8,0:0:0:0:
256,192,40890,1,0,0:0:0:0:
256,192,41107,1,0,0:0:0:0:
256,192,41216,1,0,0:0:0:0:
256,192,41434,1,0,0:0:0:0:
256,192,41542,1,0,0:0:0:0:
256,192,41651,1,8,0:0:0:0:
256,192,41868,1,8,0:0:0:0:
256,192,42086,1,0,0:0:0:0:
256,192,42303,1,8,0:0:0:0:
256,192,42520,1,8,0:0:0:0:
256,192,42629,1,8,0:0:0:0:
256,192,42738,1,0,0:0:0:0:
256,192,42847,1,0,0:0:0:0:
256,192,42955,1,8,0:0:0:0:
256,192,43064,1,8,0:0:0:0:
256,192,43173,1,0,0:0:0:0:
256,192,43281,1,0,0:0:0:0:
256,192,43390,1,8,0:0:0:0:
256,192,43499,1,8,0:0:0:0:
256,192,43607,12,0,46216,0:0:0:0:
256,192,46651,6,0,L|352:192,2,80
256,192,47303,1,0,0:0:0:0:
256,192,47520,1,8,0:0:0:0:
256,192,47629,1,0,0:0:0:0:
256,192,47738,1,0,0:0:0:0:
256,192,47955,1,8,0:0:0:0:
256,192,48173,1,8,0:0:0:0:
256,192,48281,1,0,0:0:0:0:
256,192,48499,1,0,0:0:0:0:
256,192,48607,1,8,0:0:0:0:
256,192,48825,1,0,0:0:0:0:
256,192,49042,1,0,0:0:0:0:
256,192,49260,1,8,0:0:0:0:
256,192,49477,1,0,0:0:0:0:
256,192,49694,1,8,0:0:0:0:
256,192,49912,1,8,0:0:0:0:
256,192,50020,1,0,0:0:0:0:
256,192,50238,1,0,0:0:0:0:
256,192,50347,1,8,0:0:0:0:
256,192,50564,1,0,0:0:0:0:
256,192,50781,1,0,0:0:0:0:
256,192,50999,1,8,0:0:0:0:
256,192,51107,1,0,0:0:0:0:
256,192,51216,1,0,0:0:0:0:
256,192,51434,1,8,0:0:0:0:
256,192,51651,1,8,0:0:0:0:
256,192,51760,1,0,0:0:0:0:
256,192,51977,1,0,0:0:0:0:
256,192,52086,1,8,0:0:0:0:
256,192,52303,1,4,0:0:0:0:
256,192,52738,1,8,0:0:0:0:
256,192,53064,1,8,0:0:0:0:
256,192,53173,1,0,0:0:0:0:
256,192,53390,1,0,0:0:0:0:
256,192,53607,1,8,0:0:0:0:
256,192,53825,1,8,0:0:0:0:
256,192,53934,1,8,0:0:0:0:
256,192,54042,1,0,0:0:0:0:
256,192,54260,1,0,0:0:0:0:
256,192,54477,1,8,0:0:0:0:
256,192,54586,1,0,0:0:0:0:
256,192,54695,1,0,0:0:0:0:
256,192,54912,1,8,0:0:0:0:
256,192,55130,1,8,0:0:0:0:
256,192,55238,1,0,0:0:0:0:
256,192,55456,1,0,0:0:0:0:
256,192,55564,1,8,0:0:0:0:
256,192,55782,1,0,0:0:0:0:
256,192,55999,1,0,0:0:0:0:
256,192,56217,1,8,0:0:0:0:
256,192,56434,1,0,0:0:0:0:
256,192,56651,1,8,0:0:0:0:
256,192,56869,1,8,0:0:0:0:
256,192,56977,1,0,0:0:0:0:
256,192,57195,1,0,0:0:0:0:
256,192,57304,1,8,0:0:0:0:
256,192,57521,1,0,0:0:0:0:
256,192,57738,1,0,0:0:0:0:
256,192,57956,1,8,0:0:0:0:
256,192,58064,1,0,0:0:0:0:
256,192,58173,1,0,0:0:0:0:
256,192,58391,1,8,0:0:0:0:
256,192,58608,1,8,0:0:0:0:
256,192,58717,1,0,0:0:0:0:
256,192,58934,1,0,0:0:0:0:
256,192,59043,1,8,0:0:0:0:
256,192,59260,1,4,0:0:0:0:
256,192,59694,1,8,0:0:0:0:
256,192,60129,1,0,0:0:0:0:
256,192,60564,1,8,0:0:0:0:
256,192,60999,1,4,0:0:0:0:
256,192,61216,1,0,0:0:0:0:
256,192,61434,1,8,0:0:0:0:
256,192,61651,1,0,0:0:0:0:
256,192,61760,1,8,0:0:0:0:
256,192,61868,1,0,0:0:0:0:
256,192,61977,1,8,0:0:0:0:
256,192,62086,1,8,0:0:0:0:
256,192,62303,1,8,0:0:0:0:
256,192,62520,1,0,0:0:0:0:
256,192,62629,1,0,0:0:0:0:
256,192,62738,1,8,0:0:0:0:
256,192,62955,1,0,0:0:0:0:
256,192,63173,1,8,0:0:0:0:
256,192,63390,1,0,0:0:0:0:
256,192,63499,1,8,0:0:0:0:
256,192,63607,1,0,0:0:0:0:
256,192,63716,1,0,0:0:0:0:
256,192,63825,1,8,0:0:0:0:
256,192,64042,1,8,0:0:0:0:
256,192,64260,1,0,0:0:0:0:
256,192,64368,1,0,0:0:0:0:
256,192,64477,1,8,0:0:0:0:
256,192,64694,1,0,0:0:0:0:
256,192,64912,1,8,0:0:0:0:
256,192,65129,1,8,0:0:0:0:
256,192,65238,1,8,0:0:0:0:
256,192,65455,1,0,0:0:0:0:
256,192,65564,1,8,0:0:0:0:
256,192,65781,1,0,0:0:0:0:
256,192,65999,1,8,0:0:0:0:
256,192,66216,1,0,0:0:0:0:
256,192,66325,1,0,0:0:0:0:
256,192,66434,1,8,0:0:0:0:
256,192,66542,1,8,0:0:0:0:
256,192,66651,1,0,0:0:0:0:
256,192,66760,1,0,0:0:0:0:
256,192,66868,1,8,0:0:0:0:
256,192,67086,1,0,0:0:0:0:
256,192,67194,1,8,0:0:0:0:
256,192,67303,1,0,0:0:0:0:
256,192,67412,1,0,0:0:0:0:
256,192,67520,1,8,0:0:0:0:
256,192,67629,1,8,0:0:0:0:
256,192,67738,1,8,0:0:0:0:
256,192,67847,1,0,0:0:0:0:
256,192,67955,1,8,0:0:0:0:
256,192,68173,1,0,0:0:0:0:
256,192,68390,1,8,0:0:0:0:
256,192,68607,1,0,0:0:0:0:
256,192,68716,1,8,0:0:0:0:
256,192,68825,1,0,0:0:0:0:
256,192,68934,1,8,0:0:0:0:
256,192,69042,1,8,0:0:0:0:
256,192,69260,1,8,0:0:0:0:
256,192,69477,1,0,0:0:0:0:
256,192,69586,1,0,0:0:0:0:
256,192,69694,1,8,0:0:0:0:
256,192,69912,1,0,0:0:0:0:
256,192,70129,1,8,0:0:0:0:
256,192,70347,1,0,0:0:0:0:
256,192,70455,1,8,0:0:0:0:
256,192,70564,1,0,0:0:0:0:
256,192,70673,1,0,0:0:0:0:
256,192,70781,1,8,0:0:0:0:
256,192,70999,1,8,0:0:0:0:
256,192,71216,1,0,0:0:0:0:
256,192,71434,1,4,0:0:0:0:
256,192,71760,1,0,0:0:0:0:
256,192,72086,1,0,0:0:0:0:
256,192,72303,1,12,0:0:0:0:
256,192,72738,1,0,0:0:0:0:
256,192,72955,1,0,0:0:0:0:
256,192,73173,1,4,0:0:0:0:
256,192,73499,1,0,0:0:0:0:
256,192,73825,1,0,0:0:0:0:
256,192,74042,1,12,0:0:0:0:
256,192,74477,1,0,0:0:0:0:
256,192,74694,1,0,0:0:0:0:
256,192,74912,1,4,0:0:0:0:
256,192,75238,1,0,0:0:0:0:
256,192,75564,1,0,0:0:0:0:
256,192,75781,1,12,0:0:0:0:
256,192,75999,1,0,0:0:0:0:
256,192,76216,1,8,0:0:0:0:
256,192,76434,1,0,0:0:0:0:
256,192,76651,1,12,0:0:0:0:
256,192,76977,1,4,0:0:0:0:
256,192,77303,1,12,0:0:0:0:
256,192,77520,1,0,0:0:0:0:
256,192,77847,1,0,0:0:0:0:
256,192,78173,1,0,0:0:0:0:
256,192,78390,1,4,0:0:0:0:
256,192,78607,1,8,0:0:0:0:
256,192,78716,1,8,0:0:0:0:
256,192,78825,1,0,0:0:0:0:
256,192,79042,1,8,0:0:0:0:
256,192,79260,1,0,0:0:0:0:
256,192,79368,1,0,0:0:0:0:
256,192,79477,1,8,0:0:0:0:
256,192,79694,1,0,0:0:0:0:
256,192,79912,1,8,0:0:0:0:
256,192,80129,1,0,0:0:0:0:
256,192,80238,1,0,0:0:0:0:
256,192,80347,1,8,0:0:0:0:
256,192,80564,1,8,0:0:0:0:
256,192,80781,1,0,0:0:0:0:
256,192,80890,1,8,0:0:0:0:
256,192,80999,1,8,0:0:0:0:
256,192,81216,1,8,0:0:0:0:
256,192,81434,1,0,0:0:0:0:
256,192,81542,1,0,0:0:0:0:
256,192,81651,1,8,0:0:0:0:
256,192,81760,1,8,0:0:0:0:
256,192,81868,1,0,0:0:0:0:
256,192,82086,1,8,0:0:0:0:
256,192,82303,1,0,0:0:0:0:
256,192,82412,1,0,0:0:0:0:
256,192,82520,1,8,0:0:0:0:
256,192,82738,1,0,0:0:0:0:
256,192,82955,1,8,0:0:0:0:
256,192,83064,1,0,0:0:0:0:
256,192,83281,1,0,0:0:0:0:
256,192,83390,1,8,0:0:0:0:
256,192,83607,1,0,0:0:0:0:
256,192,83825,1,8,0:0:0:0:
256,192,84042,1,0,0:0:0:0:
256,192,84260,1,8,0:0:0:0:
256,192,84477,1,0,0:0:0:0:
256,192,84694,1,8,0:0:0:0:
256,192,84803,1,0,0:0:0:0:
256,192,85020,1,0,0:0:0:0:
256,192,85129,1,8,0:0:0:0:
256,192,85347,1,0,0:0:0:0:
256,192,85564,1,0,0:0:0:0:
256,192,85673,1,0,0:0:0:0:
256,192,85781,1,8,0:0:0:0:
256,192,85999,1,0,0:0:0:0:
256,192,86216,1,8,0:0:0:0:
256,192,86325,1,8,0:0:0:0:
256,192,86434,1,0,0:0:0:0:
256,192,86651,1,8,0:0:0:0:
256,192,86868,1,0,0:0:0:0:
256,192,87086,1,8,0:0:0:0:
256,192,87194,1,8,0:0:0:0:
256,192,87303,1,8,0:0:0:0:
256,192,87520,1,0,0:0:0:0:
256,192,87738,1,0,0:0:0:0:
256,192,87955,1,8,0:0:0:0:
256,192,88173,1,8,0:0:0:0:
256,192,88281,1,8,0:0:0:0:
256,192,88390,1,0,0:0:0:0:
256,192,88607,1,8,0:0:0:0:
256,192,88825,1,8,0:0:0:0:
256,192,89042,1,0,0:0:0:0:
256,192,89151,1,0,0:0:0:0:
256,192,89368,1,0,0:0:0:0:
256,192,89477,1,8,0:0:0:0:
256,192,89694,1,0,0:0:0:0:
256,192,89803,1,0,0:0:0:0:
256,192,89912,1,8,0:0:0:0:
256,192,90129,1,0,0:0:0:0:
256,192,90347,1,12,0:0:0:0:
256,192,90564,1,0,0:0:0:0:
256,192,90781,1,0,0:0:0:0:
256,192,90890,1,0,0:0:0:0:
256,192,90999,1,8,0:0:0:0:
256,192,91216,1,0,0:0:0:0:
256,192,91434,1,8,0:0:0:0:
256,192,91651,1,0,0:0:0:0:
256,192,91760,1,0,0:0:0:0:
256,192,91868,1,12,0:0:0:0:
256,192,92086,1,0,0:0:0:0:
256,192,92303,12,0,94042,0:0:0:0:
