osu file format v12

[General]
AudioFilename: Snow Song Show.mp3
AudioLeadIn: 1500
PreviewTime: 77520
Countdown: 0
SampleSet: Normal
StackLeniency: 0.7
Mode: 1
LetterboxInBreaks: 0
WidescreenStoryboard: 0

[Editor]
Bookmarks: 18607
DistanceSpacing: 1
BeatDivisor: 4
GridSize: 4

[Metadata]
Title:Snow Song Show
TitleUnicode:Snow Song Show
Artist:sasakure.UK x DECO*27
ArtistUnicode:sasakure.UK x DECO*27
Creator:captin1
Version:Muzukashii
Source:
Tags:vocaloid christmas winter hatsune miku natsu moway gero -umi-
BeatmapID:343515
BeatmapSetID:131073

[Difficulty]
HPDrainRate:5
CircleSize:4
OverallDifficulty:5
ApproachRate:5
SliderMultiplier:1.4
SliderTickRate:2

[Events]
//Background and Video events
0,0,"Konachan.com - 152363 aqua_eyes aqua_hair candy christmas hat hatsune_miku long_hair neeta night snow stars thighhighs tree vocaloid.jpg",0,0
//Break Periods
//Storyboard Layer 0 (Background)
//Storyboard Layer 1 (Fail)
//Storyboard Layer 2 (Pass)
//Storyboard Layer 3 (Foreground)
//Storyboard Sound Samples
//Background Colour Transformations
3,100,163,162,255

[TimingPoints]
-218,352.941176470588,3,1,0,40,1,0
840,-133.333333333333,3,1,0,40,0,0
16648,437.956204379562,4,1,0,50,1,0
17521,434.782608695652,4,1,0,50,1,0
78390,-100,4,1,0,50,0,1
92303,-100,4,1,0,50,0,0

[Colours]
Combo1 : 240,5,5
Combo2 : 0,128,0
Combo3 : 23,123,183

[HitObjects]
256,192,840,1,12,0:0:0:0:
256,192,1545,1,8,0:0:0:0:
256,192,1898,1,0,0:0:0:0:
256,192,2604,1,8,0:0:0:0:
256,192,2957,1,0,0:0:0:0:
256,192,3663,1,0,0:0:0:0:
256,192,4016,1,8,0:0:0:0:
256,192,4370,1,8,0:0:0:0:
256,192,4723,1,0,0:0:0:0:
256,192,5076,1,8,0:0:0:0:
256,192,5781,1,0,0:0:0:0:
256,192,6134,1,0,0:0:0:0:
256,192,6839,1,0,0:0:0:0:
256,192,7192,1,8,0:0:0:0:
256,192,7545,1,0,0:0:0:0:
256,192,8251,1,0,0:0:0:0:
256,192,8604,1,0,0:0:0:0:
256,192,8957,1,8,0:0:0:0:
256,192,9310,1,12,0:0:0:0:
256,192,10016,1,8,0:0:0:0:
256,192,10369,1,0,0:0:0:0:
256,192,11075,1,8,0:0:0:0:
256,192,11429,1,0,0:0:0:0:
256,192,12134,1,0,0:0:0:0:
256,192,12487,1,8,0:0:0:0:
256,192,12840,1,8,0:0:0:0:
256,192,13192,1,0,0:0:0:0:
256,192,13545,1,8,0:0:0:0:
256,192,14251,1,0,0:0:0:0:
256,192,14604,1,0,0:0:0:0:
256,192,15310,1,0,0:0:0:0:
256,192,15664,2,0,L|324:192,2,52.5000020027161
256,192,16648,1,8,0:0:0:0:
256,192,16866,1,8,0:0:0:0:
256,192,16976,1,8,0:0:0:0:
256,192,17304,1,8,0:0:0:0:
256,192,17521,1,4,0:0:0:0:
256,192,17738,1,8,0:0:0:0:
256,192,17955,1,0,0:0:0:0:
256,192,18390,1,0,0:0:0:0:
256,192,18607,1,8,0:0:0:0:
256,192,18825,1,0,0:0:0:0:
256,192,19260,1,0,0:0:0:0:
256,192,19477,1,0,0:0:0:0:
256,192,19694,1,8,0:0:0:0:
256,192,20129,1,8,0:0:0:0:
256,192,20347,1,8,0:0:0:0:
256,192,20564,1,8,0:0:0:0:
256,192,20781,1,0,0:0:0:0:
256,192,20999,1,8,0:0:0:0:
256,192,21216,1,0,0:0:0:0:
256,192,21434,1,0,0:0:0:0:
256,192,21651,1,8,0:0:0:0:
256,192,21868,1,0,0:0:0:0:
256,192,22194,1,0,0:0:0:0:
256,192,22521,1,8,0:0:0:0:
256,192,22738,1,0,0:0:0:0:
256,192,22955,1,8,0:0:0:0:
256,192,23173,1,0,0:0:0:0:
256,192,23607,1,8,0:0:0:0:
256,192,23934,1,0,0:0:0:0:
256,192,24260,1,8,0:0:0:0:
256,192,24477,1,4,0:0:0:0:
256,192,24694,1,8,0:0:0:0:
256,192,24912,1,0,0:0:0:0:
256,192,25347,1,0,0:0:0:0:
256,192,25564,1,8,0:0:0:0:
256,192,25781,1,0,0:0:0:0:
256,192,26216,1,0,0:0:0:0:
256,192,26434,1,0,0:0:0:0:
256,192,26650,1,8,0:0:0:0:
256,192,27085,1,8,0:0:0:0:
256,192,27303,1,8,0:0:0:0:
256,192,27520,1,8,0:0:0:0:
256,192,27737,1,0,0:0:0:0:
256,192,27955,1,12,0:0:0:0:
256,192,28281,1,0,0:0:0:0:
256,192,28607,1,12,0:0:0:0:
256,192,28934,1,0,0:0:0:0:
256,192,29260,1,0,0:0:0:0:
256,192,29477,1,12,0:0:0:0:
256,192,29912,1,0,0:0:0:0:
256,192,30129,1,8,0:0:0:0:
256,192,30347,1,0,0:0:0:0:
256,192,30564,1,8,0:0:0:0:
256,192,30781,1,0,0:0:0:0:
256,192,30999,1,8,0:0:0:0:
256,192,31434,1,4,0:0:0:0:
256,192,31868,1,8,0:0:0:0:
256,192,32303,1,0,0:0:0:0:
256,192,32738,1,8,0:0:0:0:
256,192,32955,1,8,0:0:0:0:
256,192,33173,1,0,0:0:0:0:
256,192,33607,1,8,0:0:0:0:
256,192,34042,1,0,0:0:0:0:
256,192,34477,1,8,0:0:0:0:
256,192,34694,1,0,0:0:0:0:
256,192,34912,1,0,0:0:0:0:
256,192,35347,1,8,0:0:0:0:
256,192,35782,1,0,0:0:0:0:
256,192,36217,1,8,0:0:0:0:
256,192,36434,1,8,0:0:0:0:
256,192,36652,1,0,0:0:0:0:
256,192,37086,1,8,0:0:0:0:
256,192,37521,1,8,0:0:0:0:
256,192,37738,1,0,0:0:0:0:
256,192,37955,1,8,0:0:0:0:
256,192,38173,1,0,0:0:0:0:
256,192,38390,1,0,0:0:0:0:
256,192,38825,1,8,0:0:0:0:
256,192,39260,1,0,0:0:0:0:
256,192,39695,1,8,0:0:0:0:
256,192,39912,1,8,0:0:0:0:
256,192,40130,1,0,0:0:0:0:
256,192,40564,1,8,0:0:0:0:
256,192,40999,1,0,0:0:0:0:
256,192,41434,1,8,0:0:0:0:
256,192,41651,1,0,0:0:0:0:
256,192,41869,1,0,0:0:0:0:
256,192,42303,1,8,0:0:0:0:
256,192,42738,1,0,0:0:0:0:
256,192,42955,1,8,0:0:0:0:
256,192,43173,1,0,0:0:0:0:
256,192,43390,1,8,0:0:0:0:
256,192,43607,8,0,46651,0:0:0:0:
256,192,47086,1,4,0:0:0:0:
256,192,47303,1,0,0:0:0:0:
256,192,47520,1,8,0:0:0:0:
256,192,47738,1,0,0:0:0:0:
256,192,47955,1,8,0:0:0:0:
256,192,48281,1,8,0:0:0:0:
256,192,48607,1,8,0:0:0:0:
256,192,48825,1,0,0:0:0:0:
256,192,49042,1,0,0:0:0:0:
256,192,49260,1,8,0:0:0:0:
256,192,49477,1,0,0:0:0:0:
256,192,49694,1,8,0:0:0:0:
256,192,50020,1,8,0:0:0:0:
256,192,50347,1,8,0:0:0:0:
256,192,50564,1,0,0:0:0:0:
256,192,50781,1,0,0:0:0:0:
256,192,50999,1,8,0:0:0:0:
256,192,51216,1,0,0:0:0:0:
256,192,51434,1,8,0:0:0:0:
256,192,51760,1,8,0:0:0:0:
256,192,52086,1,8,0:0:0:0:
256,192,52303,1,4,0:0:0:0:
256,192,52738,1,12,0:0:0:0:
256,192,53173,1,0,0:0:0:0:
256,192,53390,1,0,0:0:0:0:
256,192,53607,1,12,0:0:0:0:
256,192,54042,1,4,0:0:0:0:
256,192,54260,1,8,0:0:0:0:
256,192,54477,1,0,0:0:0:0:
256,192,54694,1,8,0:0:0:0:
256,192,54912,1,0,0:0:0:0:
256,192,55238,1,0,0:0:0:0:
256,192,55564,1,0,0:0:0:0:
256,192,55781,1,8,0:0:0:0:
256,192,55999,1,8,0:0:0:0:
256,192,56216,1,0,0:0:0:0:
256,192,56434,1,8,0:0:0:0:
256,192,56651,1,0,0:0:0:0:
256,192,56977,1,0,0:0:0:0:
256,192,57303,1,0,0:0:0:0:
256,192,57520,1,8,0:0:0:0:
256,192,57738,1,8,0:0:0:0:
256,192,57955,1,0,0:0:0:0:
256,192,58173,1,8,0:0:0:0:
256,192,58390,1,0,0:0:0:0:
256,192,58716,1,0,0:0:0:0:
256,192,59042,1,0,0:0:0:0:
256,192,59260,1,12,0:0:0:0:
256,192,59694,1,8,0:0:0:0:
256,192,59912,1,0,0:0:0:0:
256,192,60129,1,12,0:0:0:0:
256,192,60564,1,12,0:0:0:0:
256,192,60999,1,12,0:0:0:0:
256,192,61216,1,0,0:0:0:0:
256,192,61434,1,8,0:0:0:0:
256,192,61651,1,0,0:0:0:0:
256,192,61760,1,8,0:0:0:0:
256,192,61977,1,8,0:0:0:0:
256,192,62086,1,0,0:0:0:0:
256,192,62303,1,8,0:0:0:0:
256,192,62738,1,8,0:0:0:0:
256,192,62955,1,0,0:0:0:0:
256,192,63173,1,8,0:0:0:0:
256,192,63390,1,0,0:0:0:0:
256,192,63499,1,8,0:0:0:0:
256,192,63716,1,8,0:0:0:0:
256,192,63825,1,0,0:0:0:0:
256,192,64042,1,8,0:0:0:0:
256,192,64477,1,8,0:0:0:0:
256,192,64694,1,0,0:0:0:0:
256,192,64912,1,8,0:0:0:0:
256,192,65129,1,8,0:0:0:0:
256,192,65238,1,8,0:0:0:0:
256,192,65455,1,0,0:0:0:0:
256,192,65564,1,0,0:0:0:0:
256,192,65781,1,8,0:0:0:0:
256,192,65999,1,0,0:0:0:0:
256,192,66216,1,8,0:0:0:0:
256,192,66651,1,8,0:0:0:0:
256,192,67086,1,0,0:0:0:0:
256,192,67412,1,0,0:0:0:0:
256,192,67738,1,0,0:0:0:0:
256,192,67955,1,8,0:0:0:0:
256,192,68172,1,0,0:0:0:0:
256,192,68390,1,8,0:0:0:0:
256,192,68607,1,0,0:0:0:0:
256,192,68716,1,8,0:0:0:0:
256,192,68934,1,8,0:0:0:0:
256,192,69042,1,0,0:0:0:0:
256,192,69259,1,8,0:0:0:0:
256,192,69694,1,8,0:0:0:0:
256,192,69911,1,0,0:0:0:0:
256,192,70129,1,8,0:0:0:0:
256,192,70347,1,0,0:0:0:0:
256,192,70455,1,8,0:0:0:0:
256,192,70672,1,8,0:0:0:0:
256,192,70781,1,0,0:0:0:0:
256,192,70999,1,8,0:0:0:0:
256,192,71216,1,0,0:0:0:0:
256,192,71434,1,12,0:0:0:0:
256,192,72086,1,0,0:0:0:0:
256,192,72303,1,8,0:0:0:0:
256,192,72738,1,0,0:0:0:0:
256,192,73173,1,4,0:0:0:0:
256,192,73607,1,0,0:0:0:0:
256,192,73825,1,0,0:0:0:0:
256,192,74042,1,8,0:0:0:0:
256,192,74477,1,0,0:0:0:0:
256,192,74912,1,12,0:0:0:0:
256,192,75347,1,0,0:0:0:0:
256,192,75781,1,8,0:0:0:0:
256,192,76216,1,0,0:0:0:0:
256,192,76434,1,0,0:0:0:0:
256,192,76651,1,12,0:0:0:0:
256,192,76977,1,4,0:0:0:0:
256,192,77303,1,12,0:0:0:0:
256,192,78390,1,4,0:0:0:0:
256,192,78607,1,8,0:0:0:0:
256,192,78824,1,0,0:0:0:0:
256,192,79259,1,0,0:0:0:0:
256,192,79476,1,8,0:0:0:0:
256,192,79694,1,0,0:0:0:0:
256,192,79912,1,8,0:0:0:0:
256,192,80129,1,0,0:0:0:0:
256,192,80563,1,8,0:0:0:0:
256,192,80998,1,0,0:0:0:0:
256,192,81216,1,8,0:0:0:0:
256,192,81433,1,8,0:0:0:0:
256,192,81650,1,0,0:0:0:0:
256,192,81868,1,8,0:0:0:0:
256,192,82086,1,0,0:0:0:0:
256,192,82303,1,0,0:0:0:0:
256,192,82520,1,8,0:0:0:0:
256,192,82737,1,0,0:0:0:0:
256,192,83063,1,0,0:0:0:0:
256,192,83390,1,8,0:0:0:0:
256,192,83607,1,0,0:0:0:0:
256,192,83824,1,8,0:0:0:0:
256,192,84042,1,0,0:0:0:0:
256,192,84476,1,8,0:0:0:0:
256,192,84803,1,0,0:0:0:0:
256,192,85129,1,8,0:0:0:0:
256,192,85346,1,4,0:0:0:0:
256,192,85563,1,8,0:0:0:0:
256,192,85781,1,0,0:0:0:0:
256,192,86216,1,8,0:0:0:0:
256,192,86433,1,8,0:0:0:0:
256,192,86651,1,0,0:0:0:0:
256,192,86868,1,0,0:0:0:0:
256,192,87085,1,8,0:0:0:0:
256,192,87520,1,0,0:0:0:0:
256,192,87954,1,8,0:0:0:0:
256,192,88173,1,0,0:0:0:0:
256,192,88389,1,0,0:0:0:0:
256,192,88606,1,8,0:0:0:0:
256,192,88824,1,12,0:0:0:0:
256,192,89150,1,0,0:0:0:0:
256,192,89476,1,8,0:0:0:0:
256,192,89803,1,0,0:0:0:0:
256,192,90129,1,0,0:0:0:0:
256,192,90346,1,12,0:0:0:0:
256,192,90781,1,0,0:0:0:0:
256,192,90998,1,8,0:0:0:0:
256,192,91216,1,0,0:0:0:0:
256,192,91434,1,8,0:0:0:0:
256,192,91650,1,0,0:0:0:0:
256,192,91868,1,8,0:0:0:0:
256,192,92085,1,0,0:0:0:0:
256,192,92303,1,4,0:0:0:0:
256,192,92520,12,0,94042,0:0:0:0:
