osu file format v12

[General]
AudioFilename: Snow Song Show.mp3
AudioLeadIn: 1500
PreviewTime: 77520
Countdown: 0
SampleSet: Soft
StackLeniency: 0.7
Mode: 0
LetterboxInBreaks: 0
WidescreenStoryboard: 0

[Editor]
Bookmarks: 18607
DistanceSpacing: 1.5
BeatDivisor: 4
GridSize: 4

[Metadata]
Title:Snow Song Show
TitleUnicode:Snow Song Show
Artist:sasakure.UK x DECO*27
ArtistUnicode:sasakure.UK x DECO*27
Creator:captin1
Version:Insane
Source:
Tags:vocaloid christmas winter hatsune miku natsu moway -umi- gero
BeatmapID:330229
BeatmapSetID:131073

[Difficulty]
HPDrainRate:6
CircleSize:4
OverallDifficulty:7
ApproachRate:8
SliderMultiplier:2.4
SliderTickRate:2

[Events]
//Background and Video events
0,0,"Konachan.com - 152363 aqua_eyes aqua_hair candy christmas hat hatsune_miku long_hair neeta night snow stars thighhighs tree vocaloid.jpg",0,0
//Break Periods
//Storyboard Layer 0 (Background)
//Storyboard Layer 1 (Fail)
//Storyboard Layer 2 (Pass)
//Storyboard Layer 3 (Foreground)
//Storyboard Sound Samples
//Background Colour Transformations
3,100,163,162,255

[TimingPoints]
-218,352.941176470588,3,2,1,30,1,0
487,-166.666666666667,3,2,1,30,0,0
16648,437.956204379562,4,1,1,50,1,0
17521,434.782608695652,4,1,1,60,1,0
17521,-100,4,1,3,60,0,0
17575,-100,4,1,1,50,0,0
18390,-100,4,1,5,60,0,0
18444,-100,4,1,1,50,0,0
19260,-100,4,1,4,60,0,0
19314,-100,4,1,1,50,0,0
20129,-100,4,1,3,60,0,0
20184,-100,4,1,1,50,0,0
20999,-100,4,1,3,60,0,0
21053,-100,4,1,1,50,0,0
21868,-100,4,1,5,60,0,0
21923,-100,4,1,1,50,0,0
22738,-100,4,1,2,60,0,0
22792,-100,4,1,1,50,0,0
23607,-100,4,1,3,60,0,0
23662,-100,4,1,1,50,0,0
24477,-100,4,1,3,60,0,0
24531,-100,4,1,1,50,0,0
25347,-100,4,1,5,60,0,0
25401,-100,4,1,1,50,0,0
26216,-100,4,1,4,60,0,0
26270,-100,4,1,1,50,0,0
27086,-100,4,1,3,60,0,0
27140,-100,4,1,1,50,0,0
27955,-100,4,1,3,60,0,0
28010,-100,4,1,1,50,0,0
28825,-100,4,1,5,60,0,0
28879,-100,4,1,1,50,0,0
29694,-100,4,1,2,60,0,0
29749,-100,4,1,1,50,0,0
30564,-100,4,1,3,60,0,0
30618,-100,4,1,1,50,0,0
31434,-125,4,1,0,40,0,0
42738,-125,4,2,0,50,0,0
47086,-125,4,2,0,60,0,0
60999,-125,4,2,1,60,0,0
71434,-166.666666666667,4,2,0,60,0,0
72303,-166.666666666667,4,2,1,60,0,0
76651,-166.666666666667,4,2,0,60,0,0
78390,-100,4,1,3,60,0,1
78444,-100,4,1,1,50,0,1
79260,-100,4,1,5,60,0,1
79314,-100,4,1,1,50,0,1
80129,-100,4,1,4,60,0,1
80184,-100,4,1,1,50,0,1
80999,-100,4,1,3,60,0,1
81053,-100,4,1,1,50,0,1
81868,-100,4,1,3,60,0,1
81923,-100,4,1,1,50,0,1
82738,-100,4,1,5,60,0,1
82792,-100,4,1,1,50,0,1
83607,-100,4,1,2,60,0,1
83662,-100,4,1,1,50,0,1
84477,-100,4,1,3,60,0,1
84531,-100,4,1,1,50,0,1
85347,-100,4,1,3,60,0,1
85401,-100,4,1,1,50,0,1
86216,-100,4,1,5,60,0,1
86270,-100,4,1,1,50,0,1
87086,-100,4,1,4,60,0,1
87140,-100,4,1,1,50,0,1
87955,-100,4,1,3,60,0,1
88010,-100,4,1,1,50,0,1
88825,-100,4,1,3,60,0,1
88879,-100,4,1,1,50,0,1
89694,-100,4,1,5,60,0,1
89749,-100,4,1,1,50,0,1
90564,-100,4,1,2,60,0,1
90618,-100,4,1,1,50,0,1
91434,-100,4,1,3,60,0,1
91488,-100,4,1,1,50,0,1
92303,-100,4,1,0,5,0,0

[Colours]
Combo1 : 0,94,187
Combo2 : 23,142,38
Combo3 : 61,237,202
Combo4 : 210,45,45

[HitObjects]
72,60,664,2,0,L|72:96,3,23.9999992675782,0|0|0|2,0:0|0:0|0:0|0:0,0:0:0:0:
168,140,1545,5,0,0:0:0:0:
184,196,1898,1,2,0:0:0:0:
304,208,2604,5,0,0:0:0:0:
304,208,2781,2,0,L|312:240,3,23.9999992675782,0|0|0|2,0:0|0:0|0:0|0:0,0:0:0:0:
208,312,3663,5,0,0:0:0:0:
159,347,4016,1,2,0:0:0:0:
110,312,4369,1,0,0:0:0:0:
129,254,4722,1,0,0:0:0:0:
189,254,5075,5,2,0:0:0:0:
208,200,5429,1,0,0:0:0:0:
159,165,5782,1,2,0:0:0:0:
110,200,6135,1,2,0:0:0:0:
36,112,6839,5,0,0:0:0:0:
8,164,7192,1,2,0:0:0:0:
36,216,7545,1,0,0:0:0:0:
152,232,8251,5,0,0:0:0:0:
208,216,8604,1,0,0:0:0:0:
228,160,8957,1,0,0:0:0:0:
228,160,9134,2,0,L|216:128,3,23.9999992675782,0|0|0|2,0:0|0:0|0:0|0:0,0:0:0:0:
108,80,10016,5,0,0:0:0:0:
96,140,10369,1,2,0:0:0:0:
188,208,11075,5,0,0:0:0:0:
188,208,11252,2,0,L|192:176,3,23.9999992675782
288,92,12134,5,0,0:0:0:0:
337,57,12487,1,2,0:0:0:0:
386,92,12840,1,0,0:0:0:0:
367,150,13193,1,0,0:0:0:0:
307,150,13546,5,2,0:0:0:0:
288,204,13899,1,0,0:0:0:0:
337,239,14252,1,2,0:0:0:0:
386,204,14605,1,2,0:0:0:0:
352,316,15310,5,0,0:0:0:0:
272,288,15664,2,0,L|236:276,6,23.9999992675782
80,76,16648,5,8,0:0:0:0:
140,224,16866,2,0,L|112:292,1,60,0|8,0:0|0:0,0:0:0:0:
300,204,17195,2,0,L|328:136,1,60,0|8,0:0|0:0,0:0:0:0:
396,92,17414,1,8,0:0:0:0:
484,48,17521,6,0,P|484:136|460:180,1,120,6|8,0:0|0:0,0:0:0:0:
268,88,17955,1,0,0:0:0:0:
284,296,18173,1,8,0:0:0:0:
320,168,18390,2,0,P|236:172|200:156,1,120,2|8,0:0|0:0,0:0:0:0:
32,264,18825,2,0,P|116:260|152:276,1,120,0|8,0:0|0:0,0:0:0:0:
312,240,19260,5,2,0:0:0:0:
200,100,19477,1,8,0:0:0:0:
160,280,19694,1,0,0:0:0:0:
272,96,19912,1,8,0:0:0:0:
48,132,20129,1,2,0:0:0:0:
72,280,20347,2,0,L|116:332,1,60,8|0,0:0|0:0,0:0:0:0:
144,208,20564,2,0,L|132:132,1,60
240,248,20781,2,0,L|216:320,1,60,8|0,0:0|0:0,0:0:0:0:
60,204,20999,5,2,0:0:0:0:
272,128,21216,1,8,0:0:0:0:
304,128,21325,1,0,0:0:0:0:
332,116,21434,1,0,0:0:0:0:
448,52,21651,1,8,0:0:0:0:
396,232,21868,2,0,P|320:264|260:256,1,120,2|8,0:0|0:0,0:0:0:0:
184,256,22194,2,0,P|200:320|256:364,1,120
324,228,22521,1,8,0:0:0:0:
128,136,22738,5,2,0:0:0:0:
360,184,22955,1,8,0:0:0:0:
192,80,23173,2,0,P|128:52|76:64,1,120,0|8,0:0|0:0,0:0:0:0:
184,272,23607,1,2,0:0:0:0:
208,292,23716,1,0,0:0:0:0:
236,304,23825,1,8,0:0:0:0:
264,312,23934,1,0,0:0:0:0:
292,312,24042,2,0,P|356:312|412:272,1,120,0|8,0:0|0:0,0:0:0:0:
184,156,24477,5,2,0:0:0:0:
328,220,24694,1,8,0:0:0:0:
120,104,24912,2,0,P|104:176|132:220,1,120,0|8,0:0|0:0,0:0:0:0:
300,100,25347,2,0,P|360:60|388:8,1,120,2|8,0:0|0:0,0:0:0:0:
196,72,25781,1,0,0:0:0:0:
376,96,25999,1,8,0:0:0:0:
188,240,26216,6,8,P|128:264|60:252,1,120,2|8,0:0|0:0,0:0:0:0:
140,20,26651,1,0,0:0:0:0:
232,176,26868,1,8,0:0:0:0:
52,176,27086,1,2,0:0:0:0:
244,48,27303,2,0,L|312:48,1,60,8|0,0:0|0:0,0:0:0:0:
436,52,27520,2,0,L|402:110,1,60
336,220,27738,2,0,L|301:161,1,60,8|0,0:0|0:0,0:0:0:0:
368,32,27955,5,2,0:0:0:0:
408,256,28173,1,8,0:0:0:0:
388,276,28281,1,0,0:0:0:0:
360,292,28390,1,0,0:0:0:0:
156,220,28607,2,0,P|100:168|80:112,1,120,8|2,0:0|0:0,0:0:0:0:
88,100,28934,1,0,0:0:0:0:
100,72,29042,1,8,0:0:0:0:
264,196,29260,1,0,0:0:0:0:
28,100,29477,1,8,0:0:0:0:
180,72,29694,5,0,0:0:0:0:
44,288,29912,1,8,0:0:0:0:
256,276,30129,2,0,P|284:212|284:156,1,120,0|8,0:0|0:0,0:0:0:0:
160,24,30564,1,2,0:0:0:0:
200,224,30781,1,8,0:0:0:0:
236,24,30999,1,0,0:0:0:0:
128,216,31216,1,8,0:0:0:0:
304,328,31434,6,0,P|368:312|400:272,1,96,4|0,0:0|0:0,0:0:0:0:
384,160,31868,1,0,0:0:0:0:
212,144,32086,2,0,L|260:180,1,48,2|0,0:2|0:0,0:0:0:0:
136,256,32412,2,0,L|76:268,1,48
80,132,32738,1,0,0:0:0:0:
156,24,32955,1,2,0:2:0:0:
280,32,33173,6,0,P|328:52|388:44,1,96
412,184,33607,1,0,0:0:0:0:
292,296,33825,2,0,L|296:248,1,48,2|0,0:2|0:0,0:0:0:0:
190,101,34151,2,0,L|212:144,1,48
144,292,34477,1,0,0:0:0:0:
120,292,34586,1,0,0:0:0:0:
96,288,34694,1,2,0:2:0:0:
20,152,34912,6,0,P|55:103|60:52,1,96
200,36,35347,1,0,0:0:0:0:
207,175,35564,2,0,L|160:172,1,48,2|0,0:2|0:0,0:0:0:0:
96,336,35890,2,0,L|48:332,1,48
272,296,36216,1,0,0:0:0:0:
344,184,36434,1,2,0:2:0:0:
296,48,36651,6,0,P|228:44|200:36,1,96
116,164,37086,1,0,0:0:0:0:
264,220,37303,2,0,L|312:248,1,48,2|2,0:2|0:2,0:0:0:0:
356,276,37520,1,0,0:0:0:0:
408,304,37629,2,0,L|452:280,1,48,2|0,0:2|0:0,0:0:0:0:
432,124,37955,1,0,0:0:0:0:
260,120,38173,1,2,0:2:0:0:
180,272,38390,6,0,P|220:312|264:328,1,96
344,176,38825,1,0,0:0:0:0:
256,32,39042,2,0,L|208:48,1,48,2|0,0:2|0:0,0:0:0:0:
208,184,39368,2,0,L|244:232,1,48
100,336,39694,1,0,0:0:0:0:
116,184,39912,1,2,0:2:0:0:
252,312,40129,6,0,P|300:284|328:236,1,96
256,100,40564,1,0,0:0:0:0:
100,88,40781,2,0,L|76:144,1,48,2|0,0:2|0:0,0:0:0:0:
200,220,41107,2,0,L|256:232,1,48
312,52,41434,1,0,0:0:0:0:
172,136,41651,1,2,0:2:0:0:
324,212,41868,6,0,P|312:264|276:308,1,96
112,200,42303,1,0,0:0:0:0:
240,80,42520,2,0,L|204:48,1,48,2|0,0:2|0:0,0:0:0:0:
144,40,42738,2,0,L|100:24,3,24,2|0|0|0,0:0|0:0|0:0|0:0,0:0:0:0:
160,112,42955,2,0,L|200:124,3,24,2|0|0|0,0:0|0:0|0:0|0:0,0:0:0:0:
96,144,43173,2,0,L|52:128,3,24,2|0|0|0,0:0|0:0|0:0|0:0,0:0:0:0:
112,216,43390,2,0,L|156:232,3,24,2|0|0|0,0:0|0:0|0:0|0:0,0:0:0:0:
32,192,43607,5,6,0:0:0:0:
256,352,44042,5,2,0:0:0:0:
480,192,44477,5,2,0:0:0:0:
256,32,44912,5,2,0:0:0:0:
480,192,45347,5,2,0:0:0:0:
256,352,45782,5,2,0:0:0:0:
32,192,46217,5,2,0:0:0:0:
256,192,46651,6,0,L|288:192,7,24,2|0|0|0|0|0|0|0,0:0|0:0|0:0|0:0|0:0|0:0|0:0|0:0,0:0:0:0:
216,192,47086,5,2,0:0:0:0:
216,72,47303,1,2,0:0:0:0:
112,188,47520,2,0,P|124:236|156:280,1,96,8|0,0:0|0:0,0:0:0:0:
288,312,47955,2,0,P|328:340|340:356,2,48,0|0|2,0:0|0:0|0:0,0:0:0:0:
233,285,48281,2,0,P|218:239|216:192,1,96,0|0,0:0|0:0,0:0:0:0:
268,160,48607,1,2,0:0:0:0:
420,144,48825,5,2,0:0:0:0:
256,216,49042,1,2,0:0:0:0:
140,76,49260,2,0,P|100:116|92:172,1,96,8|0,0:0|0:0,0:0:0:0:
144,280,49694,2,0,P|128:296|112:332,2,48,0|0|2,0:0|0:0|0:0,0:0:0:0:
192,240,50020,2,0,P|232:192|244:152,1,96,0|0,0:0|0:0,0:0:0:0:
204,112,50347,1,2,0:0:0:0:
188,284,50564,5,2,0:0:0:0:
100,148,50781,1,2,0:0:0:0:
256,204,50999,2,0,P|311:194|351:166,1,96,8|0,0:0|0:0,0:0:0:0:
440,64,51434,1,0,0:0:0:0:
476,108,51542,1,0,0:0:0:0:
480,164,51651,1,2,0:0:0:0:
444,208,51760,2,0,P|432:256|440:308,1,96,0|0,0:0|0:0,0:0:0:0:
484,328,52086,1,2,0:0:0:0:
332,356,52303,5,2,0:0:0:0:
256,32,52738,2,0,P|252:88|224:136,1,96,8|0,0:0|0:0,0:0:0:0:
104,192,53173,1,2,0:0:0:0:
252,196,53390,1,0,0:0:0:0:
176,320,53607,1,8,0:0:0:0:
176,320,53825,1,0,0:0:0:0:
176,320,53934,1,0,0:0:0:0:
176,320,54042,5,2,0:0:0:0:
180,152,54260,1,2,0:0:0:0:
252,276,54477,2,0,P|308:296|344:296,1,96,8|0,0:0|0:0,0:0:0:0:
332,120,54912,2,0,P|364:108|388:88,2,48,0|0|2,0:0|0:0|0:0,0:0:0:0:
270,123,55238,2,0,P|222:131|180:152,1,96
160,208,55564,1,2,0:0:0:0:
304,196,55781,5,2,0:0:0:0:
132,132,55999,1,2,0:0:0:0:
256,48,56216,2,0,P|312:52|372:36,1,96,8|0,0:0|0:0,0:0:0:0:
432,180,56651,2,0,P|472:164|496:140,2,48,0|0|2,0:0|0:0|0:0,0:0:0:0:
380,216,56977,2,0,P|364:264|368:316,1,96
400,360,57303,1,2,0:0:0:0:
208,332,57520,5,2,0:0:0:0:
320,232,57738,1,2,0:0:0:0:
172,264,57955,2,0,P|120:240|96:200,1,96,8|0,0:0|0:0,0:0:0:0:
116,80,58390,1,0,0:0:0:0:
172,104,58499,1,0,0:0:0:0:
236,104,58607,1,2,0:0:0:0:
292,80,58716,2,0,P|344:80|400:96,1,96
432,132,59042,1,0,0:0:0:0:
256,192,59260,12,4,60999,0:0:0:0:
256,240,61216,5,0,0:0:0:0:
112,284,61434,2,0,L|68:256,1,48,8|0,0:0|0:0,0:0:0:0:
92,168,61651,1,0,0:0:0:0:
172,148,61760,2,0,L|212:192,1,48,0|8,0:0|0:0,0:0:0:0:
256,240,61977,1,0,0:0:0:0:
348,280,62086,1,2,0:0:0:0:
348,280,62303,2,0,L|348:176,1,96,10|0,0:0|0:0,0:0:0:0:
172,148,62738,6,0,L|152:191,1,48,8|0,0:0|0:0,0:0:0:0:
208,308,62955,2,0,L|179:269,1,48,0|0,0:0|0:0,0:0:0:0:
80,296,63173,1,8,0:0:0:0:
12,240,63281,1,0,0:0:0:0:
16,152,63390,1,0,0:0:0:0:
84,88,63499,2,0,P|116:84|144:72,2,48,0|8|0,0:0|0:0|0:0,0:0:0:0:
200,108,63825,1,0,0:0:0:0:
400,240,64042,2,0,P|324:248|280:232,1,96,10|0,0:0|0:0,0:0:0:0:
144,168,64477,5,8,0:0:0:0:
288,64,64694,1,0,0:0:0:0:
208,240,64912,2,0,L|180:292,1,48,8|0,0:0|0:0,0:0:0:0:
232,376,65129,1,0,0:0:0:0:
328,328,65238,2,0,L|332:276,1,48,0|8,0:0|0:0,0:0:0:0:
288,192,65455,1,0,0:0:0:0:
212,128,65564,1,0,0:0:0:0:
324,184,65781,2,0,P|396:216|436:224,1,96,8|0,0:0|0:0,0:0:0:0:
120,100,66216,6,0,L|96:152,1,48,2|0,0:0|0:0,0:0:0:0:
116,268,66434,2,0,L|164:236,1,48
204,96,66651,2,0,L|204:144,1,48,8|0,0:0|0:0,0:0:0:0:
312,240,66868,2,0,L|264:240,1,48,0|0,0:0|0:0,0:0:0:0:
84,176,67085,2,0,L|60:228,1,48,10|0,0:0|0:0,0:0:0:0:
164,328,67303,2,0,L|216:328,1,48,0|2,0:0|0:0,0:0:0:0:
356,340,67520,2,0,L|304:340,1,48,8|0,0:0|0:0,0:0:0:0:
220,236,67738,2,0,L|192:184,1,48,0|2,0:0|0:0,0:0:0:0:
232,72,67955,1,8,0:0:0:0:
392,160,68173,5,0,0:0:0:0:
208,116,68390,2,0,P|172:128|136:120,2,48,8|0|0,0:0|0:0|0:0,0:0:0:0:
260,92,68716,2,0,P|292:88|324:76,2,48,0|8|0,0:0|0:0|0:0,0:0:0:0:
400,100,69042,1,2,0:0:0:0:
316,232,69260,1,10,0:0:0:0:
464,168,69477,1,0,0:0:0:0:
256,172,69694,6,0,L|252:232,1,48,8|0,0:0|0:0,0:0:0:0:
104,292,69912,2,0,L|161:286,1,48,0|0,0:0|0:0,0:0:0:0:
408,292,70129,2,0,L|351:286,1,48,0|0,0:0|0:0,0:0:0:0:
376,176,70347,1,0,0:0:0:0:
316,108,70455,2,0,L|280:68,1,48,0|8,0:0|0:0,0:0:0:0:
184,48,70673,2,0,P|148:52|120:44,2,48
284,36,70999,2,0,P|344:28|396:8,1,96,10|0,0:0|0:0,0:0:0:0:
460,192,71434,6,0,P|436:240|344:256,1,143.999995605469,4|0,0:0|0:0,0:0:0:0:
272,216,72086,1,0,0:0:0:0:
160,204,72303,2,0,P|164:252|188:292,1,71.9999978027344,8|0,0:0|0:0,0:0:0:0:
352,172,72738,2,0,P|348:124|324:84,1,71.9999978027344
164,104,73173,6,0,P|96:125|59:202,1,143.999995605469,12|0,0:0|0:0,0:0:0:0:
92,280,73825,1,0,0:0:0:0:
196,256,74042,2,0,P|256:280|288:360,2,143.999995605469,12|0|8,0:0|0:0|0:0,0:0:0:0:
140,144,75238,1,0,0:0:0:0:
140,144,75347,2,0,P|196:144|232:136,1,71.9999978027344
320,184,75781,2,0,P|288:240|204:260,1,143.999995605469,12|0,0:0|0:0,0:0:0:0:
196,48,76651,5,4,0:0:0:0:
80,332,76977,1,4,0:0:0:0:
196,48,77303,1,4,0:0:0:0:
251,248,78390,6,0,P|326:227|355:182,1,120,6|8,0:0|0:0,0:0:0:0:
132,128,78825,1,0,0:0:0:0:
272,152,79042,1,8,0:0:0:0:
112,224,79260,2,0,P|48:180|36:128,1,120,2|8,0:0|0:0,0:0:0:0:
284,64,79694,2,0,P|348:108|360:160,1,120,0|8,0:0|0:0,0:0:0:0:
196,284,80129,5,2,0:0:0:0:
176,136,80347,1,8,0:0:0:0:
280,276,80564,2,0,P|260:340|212:368,1,120,0|8,0:0|0:0,0:0:0:0:
64,232,80999,1,2,0:0:0:0:
272,176,81216,2,0,L|308:124,1,60,8|0,0:0|0:0,0:0:0:0:
380,28,81434,2,0,L|376:100,1,60
376,208,81651,2,0,L|328:276,1,60,8|0,0:0|0:0,0:0:0:0:
464,256,81868,5,2,0:0:0:0:
344,356,82086,1,8,0:0:0:0:
312,352,82195,1,0,0:0:0:0:
284,336,82303,1,0,0:0:0:0:
192,192,82520,1,8,0:0:0:0:
56,256,82738,2,0,P|108:292|164:300,1,120,2|8,0:0|0:0,0:0:0:0:
284,224,83064,2,0,P|296:162|282:107,1,120
132,124,83390,1,8,0:0:0:0:
240,284,83607,5,2,0:0:0:0:
200,92,83825,1,8,0:0:0:0:
328,164,84042,2,0,P|364:216|420:232,1,120,0|8,0:0|0:0,0:0:0:0:
440,352,84477,1,2,0:0:0:0:
408,352,84586,1,0,0:0:0:0:
380,348,84694,1,8,0:0:0:0:
352,340,84803,1,0,0:0:0:0:
324,328,84912,2,0,P|252:284|232:236,1,120,0|8,0:0|0:0,0:0:0:0:
288,84,85347,5,2,0:0:0:0:
220,204,85564,1,8,0:0:0:0:
400,128,85781,2,0,P|440:112|456:88,2,60,0|0|8,0:0|0:0|0:0,0:0:0:0:
160,140,86216,2,0,P|100:168|64:212,1,120,2|8,0:0|0:0,0:0:0:0:
236,316,86651,2,0,P|296:288|332:244,1,120,0|8,0:0|0:0,0:0:0:0:
216,64,87086,5,2,0:0:0:0:
228,208,87303,1,8,0:0:0:0:
352,120,87520,2,0,P|404:88|444:32,1,120,0|8,0:0|0:0,0:0:0:0:
388,196,87955,1,2,0:0:0:0:
280,348,88173,1,8,0:0:0:0:
448,296,88390,1,0,0:0:0:0:
280,236,88607,1,8,0:0:0:0:
388,384,88825,5,2,0:0:0:0:
208,292,89042,1,8,0:0:0:0:
188,272,89151,1,0,0:0:0:0:
172,248,89260,1,0,0:0:0:0:
216,88,89477,1,8,0:0:0:0:
344,184,89694,1,2,0:0:0:0:
364,204,89803,1,0,0:0:0:0:
380,228,89912,1,8,0:0:0:0:
256,360,90129,1,0,0:0:0:0:
64,276,90347,6,0,P|40:192|72:96,1,180,8|0,0:0|0:0,0:0:0:0:
100,80,90781,1,8,0:0:0:0:
296,96,90999,1,0,0:0:0:0:
152,228,91216,1,8,0:0:0:0:
360,148,91434,1,2,0:0:0:0:
206,174,91651,1,8,0:0:0:0:
308,212,91868,1,0,0:0:0:0:
304,292,92086,1,8,0:0:0:0:
256,192,92303,12,0,94042,0:0:0:0:
