osu file format v12

[General]
AudioFilename: Snow Song Show.mp3
AudioLeadIn: 1500
PreviewTime: 77520
Countdown: 0
SampleSet: Normal
StackLeniency: 0.7
Mode: 0
LetterboxInBreaks: 0
WidescreenStoryboard: 0

[Editor]
Bookmarks: 18607
DistanceSpacing: 1
BeatDivisor: 4
GridSize: 4

[Metadata]
Title:Snow Song Show
TitleUnicode:Snow Song Show
Artist:sasakure.UK x DECO*27
ArtistUnicode:sasakure.UK x DECO*27
Creator:captin1
Version:Easy
Source:
Tags:vocaloid christmas winter hatsune miku natsu moway -umi- gero
BeatmapID:330228
BeatmapSetID:131073

[Difficulty]
HPDrainRate:2
CircleSize:3
OverallDifficulty:2
ApproachRate:3
SliderMultiplier:0.999999999999999
SliderTickRate:2

[Events]
//Background and Video events
0,0,"Konachan.com - 152363 aqua_eyes aqua_hair candy christmas hat hatsune_miku long_hair neeta night snow stars thighhighs tree vocaloid.jpg",0,0
//Break Periods
//Storyboard Layer 0 (Background)
//Storyboard Layer 1 (Fail)
//Storyboard Layer 2 (Pass)
//Storyboard Layer 3 (Foreground)
//Storyboard Sound Samples
//Background Colour Transformations
3,100,163,162,255

[TimingPoints]
-218,352.941176470588,3,2,1,30,1,0
840,-166.666666666667,3,2,1,30,0,0
16648,437.956204379562,4,1,1,60,1,0
17521,434.782608695652,4,1,1,60,1,0
17521,-100,4,1,3,60,0,0
18390,-100,4,1,5,60,0,0
19260,-100,4,1,4,60,0,0
19314,-100,4,1,1,60,0,0
20129,-100,4,1,3,60,0,0
21053,-100,4,1,1,60,0,0
21868,-100,4,1,5,60,0,0
22738,-100,4,1,2,60,0,0
22792,-100,4,1,1,60,0,0
23607,-100,4,1,3,60,0,0
23662,-100,4,1,1,60,0,0
24477,-100,4,1,3,60,0,0
25347,-100,4,1,5,60,0,0
25401,-100,4,1,1,60,0,0
26216,-100,4,1,4,60,0,0
26270,-100,4,1,1,60,0,0
27086,-100,4,1,3,60,0,0
28010,-100,4,1,1,60,0,0
28825,-100,4,1,5,60,0,0
29694,-100,4,1,2,60,0,0
29749,-100,4,1,1,60,0,0
30564,-100,4,1,3,60,0,0
30618,-100,4,1,1,60,0,0
31434,-100,4,1,1,40,0,0
47086,-100,4,2,0,40,0,0
60999,-100,4,2,1,40,0,0
76651,-100,4,2,0,40,0,0
78390,-100,4,1,3,60,0,1
78444,-100,4,1,1,50,0,1
79260,-100,4,1,5,60,0,1
79314,-100,4,1,1,50,0,1
80129,-100,4,1,4,60,0,1
80184,-100,4,1,1,50,0,1
80999,-100,4,1,3,60,0,1
81053,-100,4,1,1,50,0,1
81868,-100,4,1,3,60,0,1
81923,-100,4,1,1,50,0,1
82738,-100,4,1,5,60,0,1
82792,-100,4,1,1,50,0,1
83607,-100,4,1,2,60,0,1
83662,-100,4,1,1,50,0,1
84477,-100,4,1,3,60,0,1
84531,-100,4,1,1,50,0,1
85347,-100,4,1,3,60,0,1
85401,-100,4,1,1,50,0,1
86216,-100,4,1,5,60,0,1
86270,-100,4,1,1,50,0,1
87086,-100,4,1,4,60,0,1
87140,-100,4,1,1,50,0,1
87955,-100,4,1,3,60,0,1
88010,-100,4,1,1,50,0,1
88825,-100,4,1,3,60,0,1
88879,-100,4,1,1,50,0,1
89694,-100,4,1,5,60,0,1
89749,-100,4,1,1,50,0,1
90564,-100,4,1,2,60,0,1
90618,-100,4,1,1,50,0,1
91434,-100,4,1,3,60,0,1
91488,-100,4,1,1,50,0,1
92303,-100,4,1,0,5,0,0

[Colours]
Combo1 : 0,94,187
Combo2 : 23,142,38
Combo3 : 61,237,202
Combo4 : 210,45,45

[HitObjects]
96,96,840,5,6,0:0:0:0:
96,276,1898,1,0,0:0:0:0:
276,272,2958,2,0,P|292:172|272:96,2,179.999994506836
116,352,6134,5,0,0:0:0:0:
224,208,7193,1,4,0:0:0:0:
80,104,8251,1,0,0:0:0:0:
256,64,9310,5,6,0:0:0:0:
432,104,10369,1,0,0:0:0:0:
428,284,11429,1,0,0:0:0:0:
256,340,12487,6,0,P|204:268|208:172,1,179.999994506836,0|4,0:0|0:0,0:0:0:0:
376,120,14605,1,0,0:0:0:0:
256,192,15663,12,6,17521,0:0:0:0:
260,296,18390,5,2,0:0:0:0:
168,256,18825,1,0,0:0:0:0:
116,172,19260,2,0,P|204:128|244:220,1,200,2|2,0:0|0:0,0:0:0:0:
448,200,20999,6,0,P|468:134|467:100,2,99.9999999999999,2|0|2,0:0|0:0|0:0,0:0:0:0:
352,232,22303,1,0,0:0:0:0:
368,132,22738,2,0,P|336:92|256:72,1,99.9999999999999,2|0,0:0|0:0,0:0:0:0:
224,148,23607,2,0,B|192:124|188:88|188:88|116:60|116:60|88:72|52:64,1,200,2|0,0:0|0:0,0:0:0:0:
52,164,24912,5,0,0:0:0:0:
116,244,25347,2,0,P|156:280|212:284,1,99.9999999999999,2|0,0:0|0:0,0:0:0:0:
196,188,26216,2,0,P|132:144|28:208,1,200,2|2,0:0|0:0,0:0:0:0:
200,304,27955,6,0,P|244:300|188:204,1,200,2|2,0:0|0:0,0:0:0:0:
116,244,29260,1,0,0:0:0:0:
120,144,29694,2,0,L|200:76,1,99.9999999999999,2|0,0:0|0:0,0:0:0:0:
284,131,30564,2,0,L|208:196,1,99.9999999999999,2|0,0:0|0:0,0:0:0:0:
172,290,31434,6,0,P|222:291|268:272,2,99.9999999999999,0|0|2,0:0|0:0|0:2,0:0:0:0:
144,92,33173,2,0,P|188:68|256:72,2,99.9999999999999,0|0|2,0:0|0:0|0:2,0:0:0:0:
232,269,34912,6,0,P|196:303|188:352,1,99.9999999999999,2|0,0:2|0:0,0:0:0:0:
287,350,35781,1,2,0:2:0:0:
332,156,36651,2,0,L|430:145,1,99.9999999999999
426,244,37520,1,2,0:2:0:0:
232,272,38390,6,0,P|191:234|183:186,2,99.9999999999999,0|0|2,0:0|0:0|0:2,0:0:0:0:
432,272,40129,2,0,P|473:234|481:186,2,99.9999999999999,0|0|2,0:0|0:0|0:2,0:0:0:0:
256,176,41868,6,0,P|216:128|172:112,1,99.9999999999999
88,148,42738,2,0,P|128:196|172:212,1,99.9999999999999
256,192,43607,12,4,47086,0:0:0:0:
256,52,48825,5,0,0:0:0:0:
368,216,49694,2,0,P|372:272|356:312,1,99.9999999999999
256,332,50564,1,0,0:0:0:0:
216,136,51434,2,0,P|222:87|205:40,1,99.9999999999999,2|8,0:0|0:0,0:0:0:0:
116,84,52303,6,0,P|110:133|127:180,1,99.9999999999999,2|8,0:0|0:0,0:0:0:0:
128,280,53173,2,0,P|72:276|16:304,1,99.9999999999999,2|8,0:0|0:0,0:0:0:0:
92,372,54042,5,0,0:0:0:0:
192,356,54477,2,0,P|248:360|304:332,2,99.9999999999999,10|0|8,0:0|0:0|0:0,0:0:0:0:
180,256,55781,1,0,0:0:0:0:
256,188,56216,2,0,P|224:142|227:86,2,99.9999999999999,8|0|8,0:0|0:0|0:0,0:0:0:0:
348,148,57520,5,0,0:0:0:0:
400,232,57955,2,0,P|460:212|488:180,2,99.9999999999999,10|0|8,0:0|0:0|0:0,0:0:0:0:
306,268,59260,2,0,P|314:316|306:368,1,99.9999999999999,2|0,0:0|0:0,0:0:0:0:
205,366,60129,2,0,P|197:317|206:268,1,99.9999999999999,2|0,0:0|0:0,0:0:0:0:
256,180,60999,6,0,L|256:72,2,99.9999999999999,4|8|8,0:0|0:0|0:0,0:0:0:0:
156,184,62303,1,8,0:0:0:0:
56,176,62738,6,0,P|44:125|53:71,1,99.9999999999999,8|8,0:0|0:0,0:0:0:0:
136,24,63607,2,0,P|196:40|240:76,1,99.9999999999999,8|8,0:0|0:0,0:0:0:0:
328,64,64477,2,0,P|369:37|418:26,1,99.9999999999999,8|8,0:0|0:0,0:0:0:0:
408,124,65347,2,8,P|432:184|424:236,2,99.9999999999999
336,192,66651,5,8,0:0:0:0:
296,284,67086,2,8,P|260:253|193:241,1,99.9999999999999
224,140,67955,6,8,P|172:168|116:168,1,99.9999999999999
36,140,68825,2,8,P|40:200|60:244,1,99.9999999999999
148,272,69694,6,8,P|108:320|60:332,2,99.9999999999999
192,184,70999,1,8,0:0:0:0:
248,100,71434,6,8,P|284:140|248:268,1,200,4|0,0:0|0:0,0:0:0:0:
68,352,73173,2,0,P|32:312|68:184,1,200,4|8,0:0|0:0,0:0:0:0:
248,267,74912,6,8,P|294:183|248:100,2,200
256,108,78390,5,2,0:0:0:0:
348,148,78825,1,0,0:0:0:0:
264,204,79260,2,0,P|192:188|172:64,1,200,2|2,0:0|0:0,0:0:0:0:
240,12,80564,1,0,0:0:0:0:
332,56,80999,2,0,P|404:64|436:56,1,99.9999999999999,2|0,0:0|0:0,0:0:0:0:
480,144,81868,6,0,L|480:252,2,99.9999999999999,2|0|2,0:0|0:0|0:0,0:0:0:0:
388,192,83173,1,0,0:0:0:0:
324,268,83607,2,0,P|260:284|208:272,1,99.9999999999999,2|0,0:0|0:0,0:0:0:0:
172,196,84477,2,0,P|236:180|288:192,1,99.9999999999999,2|0,0:0|0:0,0:0:0:0:
332,104,85347,6,0,P|266:45|145:39,2,200,2|2|2,0:0|0:0|0:0,0:0:0:0:
368,196,87520,1,0,0:0:0:0:
432,120,87955,2,0,P|464:176|456:228,1,99.9999999999999,2|0,0:0|0:0,0:0:0:0:
404,288,88825,6,0,P|404:328|432:384,2,99.9999999999999,2|0|2,0:0|0:0|0:0,0:0:0:0:
344,208,90129,1,0,0:0:0:0:
244,204,90564,2,0,P|204:232|188:288,1,99.9999999999999,2|0,0:0|0:0,0:0:0:0:
148,372,91434,2,0,P|108:344|92:288,1,99.9999999999999,2|0,0:0|0:0,0:0:0:0:
256,192,92303,12,0,94042,0:0:0:0:
