osu file format v14

[General]
AudioFilename: Tiger Rampage.mp3
AudioLeadIn: 0
PreviewTime: 62950
Countdown: 0
SampleSet: Normal
StackLeniency: 0.7
Mode: 1
LetterboxInBreaks: 0
WidescreenStoryboard: 0

[Editor]
DistanceSpacing: 1
BeatDivisor: 4
GridSize: 32
TimelineZoom: 0.9999999

[Metadata]
Title:Tiger Rampage
TitleUnicode:タイガーランペイジ
Artist:sasakure.UK feat. Kagamine Rin
ArtistUnicode:sasakure.UK feat. 鏡音リン
Creator:tasuke912
Version:Rampage Oni
Source:
Tags:vocaloid ささくれP 幻実アイソーポス Genjitsu Aesop JUDYDANNY
BeatmapID:632241
BeatmapSetID:279175

[Difficulty]
HPDrainRate:6
CircleSize:5
OverallDifficulty:6
ApproachRate:5
SliderMultiplier:1.4
SliderTickRate:1

[Events]
//Background and Video events
0,0,"bg.png",0,0
//Break Periods
//Storyboard Layer 0 (Background)
//Storyboard Layer 1 (Fail)
//Storyboard Layer 2 (Pass)
//Storyboard Layer 3 (Foreground)
//Storyboard Sound Samples

[TimingPoints]
13850,400,4,1,0,95,1,0
13850,-66.6666666666667,4,1,0,95,0,0
15450,400,4,1,0,95,1,0
15450,-66.6666666666667,4,1,0,95,0,0
29850,400,6,1,0,95,1,0
29850,-66.6666666666667,6,1,0,95,0,0
49050,400,4,1,0,95,1,0
49050,-66.6666666666667,4,1,0,95,0,0
49450,-100,4,1,0,95,0,0
60250,-86.9565217391304,4,1,0,95,0,0
61846,400,4,1,0,95,1,0
61846,-76.9230769230769,4,1,0,95,0,0
63446,400,4,1,0,95,1,0
63446,-66.6666666666667,4,1,0,95,0,1
97046,-66.6666666666667,4,1,0,95,0,0
98646,400,6,1,0,95,1,0
98646,-66.6666666666667,6,1,0,95,0,0

[HitObjects]
256,192,13850,5,0,0:0:0:0:
256,192,13950,1,0,0:0:0:0:
256,192,14050,1,2,0:0:0:0:
256,192,14150,1,0,0:0:0:0:
256,192,14250,1,2,0:0:0:0:
256,192,14316,1,2,0:0:0:0:
256,192,14383,1,2,0:0:0:0:
256,192,14450,1,0,0:0:0:0:
256,192,14550,1,2,0:0:0:0:
256,192,14650,1,0,0:0:0:0:
256,192,14950,1,0,0:0:0:0:
256,192,15050,1,2,0:0:0:0:
256,192,15350,1,6,0:0:0:0:
256,192,15550,5,0,0:0:0:0:
256,192,15850,1,0,0:0:0:0:
256,192,16050,1,2,0:0:0:0:
256,192,16150,1,0,0:0:0:0:
256,192,16350,1,2,0:0:0:0:
256,192,16650,1,0,0:0:0:0:
256,192,16950,1,0,0:0:0:0:
256,192,17150,1,2,0:0:0:0:
256,192,17350,1,0,0:0:0:0:
256,192,17450,1,2,0:0:0:0:
256,192,17750,1,0,0:0:0:0:
256,192,17950,1,2,0:0:0:0:
256,192,18150,1,0,0:0:0:0:
256,192,18250,1,2,0:0:0:0:
256,192,18350,1,2,0:0:0:0:
256,192,18550,1,2,0:0:0:0:
256,192,18750,5,0,0:0:0:0:
256,192,19050,1,0,0:0:0:0:
256,192,19250,1,2,0:0:0:0:
256,192,19350,1,0,0:0:0:0:
256,192,19550,1,2,0:0:0:0:
256,192,19850,1,0,0:0:0:0:
256,192,20150,1,0,0:0:0:0:
256,192,20350,1,2,0:0:0:0:
256,192,20550,1,0,0:0:0:0:
256,192,20650,1,2,0:0:0:0:
256,192,20750,1,2,0:0:0:0:
256,192,20950,1,2,0:0:0:0:
256,192,21050,1,0,0:0:0:0:
256,192,21183,1,0,0:0:0:0:
256,192,21316,1,0,0:0:0:0:
256,192,21450,1,2,0:0:0:0:
256,192,21583,1,2,0:0:0:0:
256,192,21716,1,0,0:0:0:0:
256,192,21950,5,0,0:0:0:0:
256,192,22250,1,0,0:0:0:0:
256,192,22450,1,2,0:0:0:0:
256,192,22550,1,0,0:0:0:0:
256,192,22750,1,2,0:0:0:0:
256,192,22950,1,0,0:0:0:0:
256,192,23050,1,2,0:0:0:0:
256,192,23350,1,0,0:0:0:0:
256,192,23550,1,2,0:0:0:0:
256,192,23650,1,0,0:0:0:0:
256,192,23850,1,2,0:0:0:0:
256,192,24050,1,0,0:0:0:0:
256,192,24150,1,2,0:0:0:0:
256,192,24350,1,2,0:0:0:0:
256,192,24550,1,0,0:0:0:0:
256,192,24650,1,2,0:0:0:0:
256,192,24750,1,2,0:0:0:0:
256,192,24950,1,2,0:0:0:0:
256,192,25150,5,0,0:0:0:0:
256,192,25350,1,2,0:0:0:0:
256,192,25450,1,0,0:0:0:0:
256,192,25650,1,0,0:0:0:0:
256,192,25750,1,2,0:0:0:0:
256,192,25950,1,0,0:0:0:0:
256,192,26250,1,2,0:0:0:0:
256,192,26550,1,0,0:0:0:0:
256,192,26750,1,0,0:0:0:0:
256,192,26850,1,2,0:0:0:0:
256,192,26916,1,2,0:0:0:0:
256,192,26983,1,2,0:0:0:0:
256,192,27050,1,0,0:0:0:0:
256,192,27150,1,2,0:0:0:0:
256,192,27350,1,2,0:0:0:0:
256,192,27450,1,0,0:0:0:0:
256,192,27850,1,0,0:0:0:0:
256,192,28250,5,2,0:0:0:0:
256,192,28350,1,2,0:0:0:0:
256,192,28450,1,2,0:0:0:0:
256,192,28550,1,2,0:0:0:0:
256,192,28850,1,2,0:0:0:0:
256,192,28950,1,2,0:0:0:0:
256,192,29050,1,2,0:0:0:0:
256,192,29150,1,2,0:0:0:0:
256,192,29450,1,2,0:0:0:0:
256,192,29550,1,2,0:0:0:0:
256,192,29650,1,2,0:0:0:0:
256,192,29750,1,2,0:0:0:0:
256,192,29850,5,0,0:0:0:0:
256,192,30150,1,0,0:0:0:0:
256,192,30250,1,2,0:0:0:0:
256,192,30350,1,2,0:0:0:0:
256,192,30550,1,0,0:0:0:0:
256,192,30750,1,2,0:0:0:0:
256,192,30850,1,0,0:0:0:0:
256,192,31050,1,2,0:0:0:0:
256,192,31350,1,2,0:0:0:0:
256,192,31450,1,0,0:0:0:0:
256,192,31550,1,0,0:0:0:0:
256,192,31750,1,0,0:0:0:0:
256,192,31850,1,2,0:0:0:0:
256,192,32050,1,2,0:0:0:0:
256,192,32150,1,2,0:0:0:0:
256,192,32250,5,0,0:0:0:0:
256,192,32550,1,0,0:0:0:0:
256,192,32650,1,2,0:0:0:0:
256,192,32850,1,0,0:0:0:0:
256,192,32950,1,0,0:0:0:0:
256,192,33150,1,2,0:0:0:0:
256,192,33250,1,0,0:0:0:0:
256,192,33450,1,2,0:0:0:0:
256,192,33750,1,0,0:0:0:0:
256,192,33950,1,2,0:0:0:0:
256,192,34150,1,0,0:0:0:0:
256,192,34250,1,2,0:0:0:0:
256,192,34350,1,0,0:0:0:0:
256,192,34450,1,0,0:0:0:0:
256,192,34550,1,2,0:0:0:0:
256,192,34650,5,0,0:0:0:0:
256,192,35050,1,2,0:0:0:0:
256,192,35250,1,0,0:0:0:0:
256,192,35350,1,2,0:0:0:0:
256,192,35550,1,0,0:0:0:0:
256,192,35750,1,0,0:0:0:0:
256,192,35850,1,2,0:0:0:0:
256,192,35950,1,2,0:0:0:0:
256,192,36150,1,2,0:0:0:0:
256,192,36250,1,0,0:0:0:0:
256,192,36350,1,0,0:0:0:0:
256,192,36550,1,0,0:0:0:0:
256,192,36650,1,2,0:0:0:0:
256,192,36850,1,0,0:0:0:0:
256,192,37050,5,0,0:0:0:0:
256,192,37350,1,0,0:0:0:0:
256,192,37450,1,2,0:0:0:0:
256,192,37550,1,0,0:0:0:0:
256,192,37650,1,0,0:0:0:0:
256,192,37750,1,2,0:0:0:0:
256,192,37950,1,2,0:0:0:0:
256,192,38050,1,0,0:0:0:0:
256,192,38250,1,2,0:0:0:0:
256,192,38350,1,0,0:0:0:0:
256,192,38450,1,2,0:0:0:0:
256,192,38550,1,2,0:0:0:0:
256,192,38650,1,0,0:0:0:0:
256,192,38850,1,0,0:0:0:0:
256,192,38950,1,2,0:0:0:0:
256,192,39150,1,2,0:0:0:0:
256,192,39250,1,0,0:0:0:0:
256,192,39350,1,0,0:0:0:0:
256,192,39450,5,0,0:0:0:0:
256,192,39650,1,0,0:0:0:0:
256,192,39850,1,2,0:0:0:0:
256,192,40050,1,0,0:0:0:0:
256,192,40150,1,2,0:0:0:0:
256,192,40350,1,0,0:0:0:0:
256,192,40550,1,0,0:0:0:0:
256,192,40650,1,2,0:0:0:0:
256,192,40750,1,0,0:0:0:0:
256,192,40950,1,2,0:0:0:0:
256,192,41050,1,0,0:0:0:0:
256,192,41150,1,0,0:0:0:0:
256,192,41350,1,0,0:0:0:0:
256,192,41450,1,2,0:0:0:0:
256,192,41650,1,2,0:0:0:0:
256,192,41750,1,2,0:0:0:0:
256,192,41850,5,0,0:0:0:0:
256,192,42150,1,2,0:0:0:0:
256,192,42250,1,0,0:0:0:0:
256,192,42350,1,2,0:0:0:0:
256,192,42550,1,0,0:0:0:0:
256,192,42750,1,2,0:0:0:0:
256,192,42850,1,0,0:0:0:0:
256,192,43050,1,0,0:0:0:0:
256,192,43150,1,2,0:0:0:0:
256,192,43350,1,2,0:0:0:0:
256,192,43450,1,0,0:0:0:0:
256,192,43550,1,2,0:0:0:0:
256,192,43650,1,2,0:0:0:0:
256,192,43750,1,0,0:0:0:0:
256,192,43850,1,2,0:0:0:0:
256,192,44050,1,0,0:0:0:0:
256,192,44150,1,0,0:0:0:0:
256,192,44250,5,0,0:0:0:0:
256,192,44550,1,0,0:0:0:0:
256,192,44650,1,2,0:0:0:0:
256,192,44850,1,0,0:0:0:0:
256,192,44950,1,0,0:0:0:0:
256,192,45150,1,2,0:0:0:0:
256,192,45250,1,0,0:0:0:0:
256,192,45450,1,2,0:0:0:0:
256,192,45550,1,2,0:0:0:0:
256,192,45750,1,2,0:0:0:0:
256,192,45850,1,0,0:0:0:0:
256,192,45950,1,2,0:0:0:0:
256,192,46050,1,2,0:0:0:0:
256,192,46150,1,0,0:0:0:0:
256,192,46350,1,0,0:0:0:0:
256,192,46450,1,2,0:0:0:0:
256,192,46650,5,0,0:0:0:0:
256,192,46750,1,0,0:0:0:0:
256,192,46850,1,2,0:0:0:0:
256,192,47050,1,0,0:0:0:0:
256,192,47150,1,2,0:0:0:0:
256,192,47350,1,2,0:0:0:0:
256,192,47450,1,0,0:0:0:0:
256,192,47550,1,0,0:0:0:0:
256,192,47650,1,2,0:0:0:0:
256,192,47750,1,0,0:0:0:0:
256,192,47850,1,0,0:0:0:0:
256,192,47916,1,0,0:0:0:0:
256,192,47983,1,0,0:0:0:0:
256,192,48050,1,2,0:0:0:0:
256,192,48150,1,2,0:0:0:0:
256,192,48350,1,2,0:0:0:0:
256,192,48550,1,0,0:0:0:0:
256,192,48650,1,2,0:0:0:0:
256,192,48716,1,2,0:0:0:0:
256,192,48783,1,2,0:0:0:0:
256,192,48850,1,2,0:0:0:0:
256,192,48916,1,2,0:0:0:0:
256,192,48983,1,2,0:0:0:0:
256,192,49050,5,0,0:0:0:0:
256,192,49650,1,0,0:0:0:0:
256,192,49850,1,2,0:0:0:0:
256,192,50250,1,2,0:0:0:0:
256,192,50550,1,0,0:0:0:0:
256,192,51050,1,0,0:0:0:0:
256,192,51150,1,0,0:0:0:0:
256,192,51250,1,0,0:0:0:0:
256,192,51350,1,2,0:0:0:0:
256,192,51650,1,2,0:0:0:0:
256,192,52050,1,2,0:0:0:0:
256,192,52150,5,0,0:0:0:0:
256,192,52650,1,2,0:0:0:0:
256,192,52850,1,0,0:0:0:0:
256,192,53250,1,0,0:0:0:0:
256,192,53450,1,2,0:0:0:0:
256,192,53650,1,0,0:0:0:0:
256,192,54050,1,2,0:0:0:0:
256,192,54250,1,0,0:0:0:0:
256,192,54350,1,2,0:0:0:0:
256,192,54450,1,0,0:0:0:0:
256,192,54550,1,2,0:0:0:0:
256,192,54650,1,0,0:0:0:0:
256,192,54850,1,0,0:0:0:0:
256,192,54950,1,0,0:0:0:0:
256,192,55050,1,2,0:0:0:0:
256,192,55150,1,2,0:0:0:0:
256,192,55350,1,2,0:0:0:0:
256,192,55450,5,0,0:0:0:0:
256,192,55850,1,2,0:0:0:0:
256,192,56050,1,0,0:0:0:0:
256,192,56250,1,2,0:0:0:0:
256,192,56650,1,2,0:0:0:0:
256,192,56950,1,0,0:0:0:0:
256,192,57450,1,2,0:0:0:0:
256,192,57650,1,0,0:0:0:0:
256,192,57750,1,2,0:0:0:0:
256,192,58050,1,2,0:0:0:0:
256,192,58250,1,0,0:0:0:0:
256,192,58450,1,2,0:0:0:0:
256,192,58550,5,0,0:0:0:0:
256,192,59050,1,0,0:0:0:0:
256,192,59150,1,0,0:0:0:0:
256,192,59350,1,0,0:0:0:0:
256,192,59850,1,2,0:0:0:0:
256,192,59950,1,2,0:0:0:0:
256,192,60150,1,2,0:0:0:0:
256,192,60450,5,2,0:0:0:0:
256,192,60516,1,2,0:0:0:0:
256,192,60583,1,2,0:0:0:0:
256,192,60650,1,2,0:0:0:0:
256,192,60750,1,2,0:0:0:0:
256,192,60850,1,2,0:0:0:0:
256,192,61050,1,2,0:0:0:0:
256,192,61250,1,2,0:0:0:0:
256,192,61350,1,2,0:0:0:0:
256,192,61450,1,2,0:0:0:0:
256,192,61650,1,0,0:0:0:0:
256,192,61750,1,2,0:0:0:0:
256,192,61846,5,0,0:0:0:0:
256,192,61946,1,0,0:0:0:0:
256,192,62046,1,2,0:0:0:0:
256,192,62146,1,0,0:0:0:0:
256,192,62246,1,2,0:0:0:0:
256,192,62312,1,2,0:0:0:0:
256,192,62379,1,2,0:0:0:0:
256,192,62446,1,0,0:0:0:0:
256,192,62546,1,2,0:0:0:0:
256,192,62646,1,0,0:0:0:0:
256,192,62746,1,2,0:0:0:0:
256,192,62846,1,0,0:0:0:0:
256,192,62946,1,0,0:0:0:0:
256,192,63046,1,2,0:0:0:0:
256,192,63112,1,2,0:0:0:0:
256,192,63179,1,2,0:0:0:0:
256,192,63246,1,2,0:0:0:0:
256,192,63312,1,2,0:0:0:0:
256,192,63379,1,2,0:0:0:0:
256,192,63446,5,0,0:0:0:0:
256,192,63746,1,0,0:0:0:0:
256,192,63846,1,2,0:0:0:0:
256,192,64046,1,0,0:0:0:0:
256,192,64146,1,0,0:0:0:0:
256,192,64346,1,2,0:0:0:0:
256,192,64446,1,0,0:0:0:0:
256,192,64646,1,2,0:0:0:0:
256,192,64846,1,2,0:0:0:0:
256,192,64946,1,2,0:0:0:0:
256,192,65046,1,0,0:0:0:0:
256,192,65146,1,2,0:0:0:0:
256,192,65246,1,0,0:0:0:0:
256,192,65446,1,2,0:0:0:0:
256,192,65646,1,0,0:0:0:0:
256,192,65746,1,0,0:0:0:0:
256,192,65946,1,0,0:0:0:0:
256,192,66046,1,2,0:0:0:0:
256,192,66246,1,0,0:0:0:0:
256,192,66346,1,0,0:0:0:0:
256,192,66446,1,2,0:0:0:0:
256,192,66546,1,2,0:0:0:0:
256,192,66646,5,0,0:0:0:0:
256,192,66846,1,2,0:0:0:0:
256,192,66946,1,0,0:0:0:0:
256,192,67146,1,0,0:0:0:0:
256,192,67246,1,2,0:0:0:0:
256,192,67346,1,2,0:0:0:0:
256,192,67446,1,0,0:0:0:0:
256,192,67546,1,2,0:0:0:0:
256,192,67646,1,0,0:0:0:0:
256,192,67846,1,0,0:0:0:0:
256,192,67946,1,0,0:0:0:0:
256,192,68046,1,2,0:0:0:0:
256,192,68146,1,2,0:0:0:0:
256,192,68246,1,0,0:0:0:0:
256,192,68346,1,2,0:0:0:0:
256,192,68546,1,0,0:0:0:0:
256,192,68746,1,2,0:0:0:0:
256,192,68846,1,0,0:0:0:0:
256,192,68946,1,0,0:0:0:0:
256,192,69046,1,2,0:0:0:0:
256,192,69146,1,0,0:0:0:0:
256,192,69346,1,0,0:0:0:0:
256,192,69446,1,2,0:0:0:0:
256,192,69646,1,2,0:0:0:0:
256,192,69746,1,2,0:0:0:0:
256,192,69846,5,0,0:0:0:0:
256,192,70046,1,2,0:0:0:0:
256,192,70146,1,0,0:0:0:0:
256,192,70246,1,2,0:0:0:0:
256,192,70446,1,0,0:0:0:0:
256,192,70546,1,2,0:0:0:0:
256,192,70746,1,2,0:0:0:0:
256,192,70846,1,0,0:0:0:0:
256,192,71046,1,2,0:0:0:0:
256,192,71146,1,2,0:0:0:0:
256,192,71246,1,0,0:0:0:0:
256,192,71346,1,0,0:0:0:0:
256,192,71446,1,2,0:0:0:0:
256,192,71646,1,0,0:0:0:0:
256,192,71746,1,2,0:0:0:0:
256,192,71846,1,0,0:0:0:0:
256,192,72046,1,2,0:0:0:0:
256,192,72146,1,0,0:0:0:0:
256,192,72346,1,0,0:0:0:0:
256,192,72446,1,2,0:0:0:0:
256,192,72646,1,0,0:0:0:0:
256,192,72746,1,0,0:0:0:0:
256,192,72846,1,2,0:0:0:0:
256,192,72946,1,2,0:0:0:0:
256,192,73046,5,0,0:0:0:0:
256,192,73246,1,0,0:0:0:0:
256,192,73346,1,0,0:0:0:0:
256,192,73446,1,2,0:0:0:0:
256,192,73646,1,0,0:0:0:0:
256,192,73746,1,2,0:0:0:0:
256,192,73946,1,2,0:0:0:0:
256,192,74046,1,0,0:0:0:0:
256,192,74146,1,2,0:0:0:0:
256,192,74246,1,0,0:0:0:0:
256,192,74346,1,0,0:0:0:0:
256,192,74446,1,2,0:0:0:0:
256,192,74546,1,2,0:0:0:0:
256,192,74646,1,0,0:0:0:0:
256,192,74846,1,2,0:0:0:0:
256,192,74946,1,0,0:0:0:0:
256,192,75046,1,2,0:0:0:0:
256,192,75112,1,2,0:0:0:0:
256,192,75179,1,2,0:0:0:0:
256,192,75246,1,0,0:0:0:0:
256,192,75346,1,2,0:0:0:0:
256,192,75446,1,0,0:0:0:0:
256,192,75546,1,0,0:0:0:0:
256,192,75646,1,0,0:0:0:0:
256,192,75746,1,2,0:0:0:0:
256,192,75846,1,0,0:0:0:0:
256,192,75912,1,0,0:0:0:0:
256,192,75979,1,0,0:0:0:0:
256,192,76046,1,2,0:0:0:0:
256,192,76112,1,2,0:0:0:0:
256,192,76179,1,2,0:0:0:0:
256,192,76246,5,0,0:0:0:0:
256,192,76446,1,2,0:0:0:0:
256,192,76546,1,0,0:0:0:0:
256,192,76746,1,0,0:0:0:0:
256,192,76846,1,2,0:0:0:0:
256,192,76946,1,2,0:0:0:0:
256,192,77046,1,0,0:0:0:0:
256,192,77146,1,2,0:0:0:0:
256,192,77246,1,0,0:0:0:0:
256,192,77446,1,0,0:0:0:0:
256,192,77546,1,0,0:0:0:0:
256,192,77646,1,2,0:0:0:0:
256,192,77746,1,2,0:0:0:0:
256,192,77846,1,0,0:0:0:0:
256,192,77946,1,2,0:0:0:0:
256,192,78146,1,0,0:0:0:0:
256,192,78346,1,2,0:0:0:0:
256,192,78446,1,0,0:0:0:0:
256,192,78546,1,0,0:0:0:0:
256,192,78746,1,2,0:0:0:0:
256,192,78846,1,0,0:0:0:0:
256,192,78946,1,2,0:0:0:0:
256,192,79046,1,0,0:0:0:0:
256,192,79146,1,0,0:0:0:0:
256,192,79246,1,2,0:0:0:0:
256,192,79346,1,2,0:0:0:0:
256,192,79446,5,0,0:0:0:0:
256,192,79646,1,2,0:0:0:0:
256,192,79746,1,0,0:0:0:0:
256,192,79946,1,0,0:0:0:0:
256,192,80046,1,2,0:0:0:0:
256,192,80146,1,2,0:0:0:0:
256,192,80246,1,0,0:0:0:0:
256,192,80346,1,2,0:0:0:0:
256,192,80446,1,0,0:0:0:0:
256,192,80646,1,0,0:0:0:0:
256,192,80746,1,0,0:0:0:0:
256,192,80846,1,2,0:0:0:0:
256,192,80946,1,2,0:0:0:0:
256,192,81046,1,0,0:0:0:0:
256,192,81146,1,2,0:0:0:0:
256,192,81346,1,0,0:0:0:0:
256,192,81546,1,2,0:0:0:0:
256,192,81646,1,0,0:0:0:0:
256,192,81746,1,0,0:0:0:0:
256,192,81846,1,2,0:0:0:0:
256,192,81946,1,0,0:0:0:0:
256,192,82146,1,0,0:0:0:0:
256,192,82246,1,2,0:0:0:0:
256,192,82446,1,2,0:0:0:0:
256,192,82546,1,2,0:0:0:0:
256,192,82646,5,0,0:0:0:0:
256,192,82846,1,2,0:0:0:0:
256,192,82946,1,0,0:0:0:0:
256,192,83046,1,2,0:0:0:0:
256,192,83246,1,0,0:0:0:0:
256,192,83346,1,2,0:0:0:0:
256,192,83546,1,2,0:0:0:0:
256,192,83646,1,0,0:0:0:0:
256,192,83846,1,2,0:0:0:0:
256,192,83946,1,2,0:0:0:0:
256,192,84046,1,0,0:0:0:0:
256,192,84146,1,0,0:0:0:0:
256,192,84246,1,2,0:0:0:0:
256,192,84446,1,0,0:0:0:0:
256,192,84546,1,2,0:0:0:0:
256,192,84646,1,0,0:0:0:0:
256,192,84746,1,0,0:0:0:0:
256,192,84846,1,2,0:0:0:0:
256,192,84946,1,0,0:0:0:0:
256,192,85146,1,0,0:0:0:0:
256,192,85246,1,2,0:0:0:0:
256,192,85446,1,0,0:0:0:0:
256,192,85546,1,0,0:0:0:0:
256,192,85646,1,2,0:0:0:0:
256,192,85746,1,2,0:0:0:0:
256,192,85846,5,0,0:0:0:0:
256,192,86046,1,0,0:0:0:0:
256,192,86146,1,0,0:0:0:0:
256,192,86246,1,2,0:0:0:0:
256,192,86446,1,0,0:0:0:0:
256,192,86546,1,2,0:0:0:0:
256,192,86746,1,2,0:0:0:0:
256,192,86846,1,0,0:0:0:0:
256,192,86946,1,2,0:0:0:0:
256,192,87046,1,0,0:0:0:0:
256,192,87146,1,0,0:0:0:0:
256,192,87246,1,2,0:0:0:0:
256,192,87446,1,0,0:0:0:0:
256,192,87546,1,0,0:0:0:0:
256,192,87646,1,2,0:0:0:0:
256,192,87746,1,0,0:0:0:0:
256,192,87846,1,2,0:0:0:0:
256,192,87912,1,0,0:0:0:0:
256,192,87979,1,0,0:0:0:0:
256,192,88046,1,0,0:0:0:0:
256,192,88146,1,2,0:0:0:0:
256,192,88346,1,2,0:0:0:0:
256,192,88446,1,0,0:0:0:0:
256,192,88546,1,2,0:0:0:0:
256,192,88646,1,0,0:0:0:0:
256,192,88746,1,0,0:0:0:0:
256,192,88846,1,2,0:0:0:0:
256,192,88946,1,2,0:0:0:0:
256,192,89046,5,0,0:0:0:0:
256,192,89146,1,2,0:0:0:0:
256,192,89346,1,0,0:0:0:0:
256,192,89546,1,2,0:0:0:0:
256,192,89646,1,0,0:0:0:0:
256,192,89746,1,0,0:0:0:0:
256,192,89946,1,2,0:0:0:0:
256,192,90046,1,0,0:0:0:0:
256,192,90246,1,2,0:0:0:0:
256,192,90446,1,2,0:0:0:0:
256,192,90546,1,2,0:0:0:0:
256,192,90646,1,0,0:0:0:0:
256,192,90846,1,2,0:0:0:0:
256,192,90946,1,0,0:0:0:0:
256,192,91046,1,2,0:0:0:0:
256,192,91112,1,2,0:0:0:0:
256,192,91179,1,2,0:0:0:0:
256,192,91246,1,0,0:0:0:0:
256,192,91346,1,2,0:0:0:0:
256,192,91546,1,2,0:0:0:0:
256,192,91646,1,0,0:0:0:0:
256,192,91746,1,0,0:0:0:0:
256,192,91846,1,2,0:0:0:0:
256,192,91912,1,2,0:0:0:0:
256,192,91979,1,2,0:0:0:0:
256,192,92046,1,0,0:0:0:0:
256,192,92146,1,0,0:0:0:0:
256,192,92246,5,0,0:0:0:0:
256,192,92446,1,2,0:0:0:0:
256,192,92546,1,0,0:0:0:0:
256,192,92646,1,2,0:0:0:0:
256,192,92712,1,2,0:0:0:0:
256,192,92779,1,2,0:0:0:0:
256,192,92846,1,0,0:0:0:0:
256,192,92946,1,2,0:0:0:0:
256,192,93046,1,0,0:0:0:0:
256,192,93146,1,0,0:0:0:0:
256,192,93246,1,2,0:0:0:0:
256,192,93346,1,2,0:0:0:0:
256,192,93446,1,0,0:0:0:0:
256,192,93512,1,0,0:0:0:0:
256,192,93579,1,0,0:0:0:0:
256,192,93646,1,2,0:0:0:0:
256,192,93712,1,2,0:0:0:0:
256,192,93779,1,2,0:0:0:0:
256,192,93846,5,0,0:0:0:0:
256,192,94046,1,0,0:0:0:0:
256,192,94146,1,2,0:0:0:0:
256,192,94246,1,0,0:0:0:0:
256,192,94312,1,0,0:0:0:0:
256,192,94379,1,0,0:0:0:0:
256,192,94446,1,2,0:0:0:0:
256,192,94546,1,2,0:0:0:0:
256,192,94646,1,0,0:0:0:0:
256,192,94746,1,2,0:0:0:0:
256,192,94846,1,0,0:0:0:0:
256,192,94946,1,0,0:0:0:0:
256,192,95046,1,2,0:0:0:0:
256,192,95112,1,2,0:0:0:0:
256,192,95179,1,2,0:0:0:0:
256,192,95246,1,0,0:0:0:0:
256,192,95346,1,0,0:0:0:0:
256,192,95446,1,2,0:0:0:0:
256,192,95546,1,0,0:0:0:0:
256,192,95646,1,0,0:0:0:0:
256,192,95746,1,2,0:0:0:0:
256,192,95846,1,0,0:0:0:0:
256,192,95912,1,0,0:0:0:0:
256,192,95979,1,0,0:0:0:0:
256,192,96046,1,2,0:0:0:0:
256,192,96146,1,2,0:0:0:0:
256,192,96246,1,0,0:0:0:0:
256,192,96346,1,2,0:0:0:0:
256,192,96446,1,0,0:0:0:0:
256,192,96546,1,0,0:0:0:0:
256,192,96646,1,2,0:0:0:0:
256,192,96712,1,2,0:0:0:0:
256,192,96779,1,2,0:0:0:0:
256,192,96846,1,0,0:0:0:0:
256,192,96946,1,0,0:0:0:0:
256,192,98646,5,0,0:0:0:0:
256,192,99046,1,2,0:0:0:0:
256,192,99246,1,0,0:0:0:0:
256,192,99346,1,2,0:0:0:0:
256,192,99546,1,0,0:0:0:0:
256,192,99746,1,0,0:0:0:0:
256,192,99846,1,2,0:0:0:0:
256,192,99946,1,2,0:0:0:0:
256,192,100146,1,2,0:0:0:0:
256,192,100246,1,0,0:0:0:0:
256,192,100346,1,0,0:0:0:0:
256,192,100546,1,0,0:0:0:0:
256,192,100646,1,2,0:0:0:0:
256,192,101046,5,0,0:0:0:0:
256,192,101246,1,0,0:0:0:0:
256,192,101346,1,0,0:0:0:0:
256,192,101446,1,2,0:0:0:0:
256,192,101646,1,0,0:0:0:0:
256,192,101746,1,2,0:0:0:0:
256,192,101946,1,0,0:0:0:0:
256,192,102146,1,2,0:0:0:0:
256,192,102246,1,0,0:0:0:0:
256,192,102346,1,0,0:0:0:0:
256,192,102546,1,2,0:0:0:0:
256,192,102746,1,0,0:0:0:0:
256,192,102846,1,2,0:0:0:0:
256,192,102946,1,2,0:0:0:0:
256,192,103146,1,2,0:0:0:0:
256,192,103246,1,0,0:0:0:0:
256,192,103446,5,0,0:0:0:0:
256,192,103646,1,0,0:0:0:0:
256,192,103746,1,0,0:0:0:0:
256,192,103846,1,2,0:0:0:0:
256,192,104046,1,0,0:0:0:0:
256,192,104146,1,2,0:0:0:0:
256,192,104346,1,0,0:0:0:0:
256,192,104546,1,2,0:0:0:0:
256,192,104646,1,0,0:0:0:0:
256,192,104746,1,0,0:0:0:0:
256,192,104946,1,2,0:0:0:0:
256,192,105146,1,0,0:0:0:0:
256,192,105246,1,2,0:0:0:0:
256,192,105346,1,2,0:0:0:0:
256,192,105446,1,0,0:0:0:0:
256,192,105646,1,2,0:0:0:0:
256,192,105846,5,0,0:0:0:0:
256,192,106046,1,0,0:0:0:0:
256,192,106146,1,0,0:0:0:0:
256,192,106246,1,2,0:0:0:0:
256,192,106446,1,0,0:0:0:0:
256,192,106546,1,2,0:0:0:0:
256,192,106746,1,0,0:0:0:0:
256,192,106946,1,2,0:0:0:0:
256,192,107046,1,0,0:0:0:0:
256,192,107146,1,0,0:0:0:0:
256,192,107346,1,2,0:0:0:0:
256,192,107546,1,0,0:0:0:0:
256,192,107646,1,2,0:0:0:0:
256,192,107746,1,2,0:0:0:0:
256,192,107946,1,2,0:0:0:0:
256,192,108046,1,0,0:0:0:0:
256,192,108246,5,0,0:0:0:0:
256,192,108446,1,0,0:0:0:0:
256,192,108546,1,0,0:0:0:0:
256,192,108646,1,2,0:0:0:0:
256,192,108846,1,0,0:0:0:0:
256,192,108946,1,2,0:0:0:0:
256,192,109146,1,0,0:0:0:0:
256,192,109346,1,2,0:0:0:0:
256,192,109446,1,0,0:0:0:0:
256,192,109546,1,0,0:0:0:0:
256,192,109746,1,2,0:0:0:0:
256,192,109846,5,2,0:0:0:0:
256,192,109946,1,0,0:0:0:0:
256,192,110046,1,0,0:0:0:0:
256,192,110146,1,2,0:0:0:0:
256,192,110246,1,2,0:0:0:0:
256,192,110346,1,0,0:0:0:0:
256,192,110546,1,2,0:0:0:0:
256,192,110746,1,0,0:0:0:0:
256,192,110846,1,0,0:0:0:0:
256,192,110946,1,2,0:0:0:0:
256,192,111146,1,0,0:0:0:0:
256,192,111246,1,2,0:0:0:0:
256,192,111346,1,2,0:0:0:0:
256,192,111546,1,2,0:0:0:0:
256,192,111646,1,0,0:0:0:0:
256,192,111746,1,2,0:0:0:0:
256,192,111946,1,0,0:0:0:0:
256,192,112046,1,2,0:0:0:0:
256,192,112146,1,2,0:0:0:0:
256,192,112446,5,2,0:0:0:0:
256,192,112512,1,2,0:0:0:0:
256,192,112579,1,2,0:0:0:0:
256,192,112646,1,0,0:0:0:0:
256,192,112746,1,0,0:0:0:0:
256,192,112846,1,0,0:0:0:0:
256,192,112946,1,0,0:0:0:0:
256,192,113046,5,2,0:0:0:0:
256,192,113112,1,0,0:0:0:0:
256,192,113179,1,0,0:0:0:0:
256,192,113246,1,2,0:0:0:0:
256,192,113346,1,0,0:0:0:0:
256,192,113446,1,2,0:0:0:0:
256,192,113512,1,0,0:0:0:0:
256,192,113579,1,0,0:0:0:0:
256,192,113646,1,2,0:0:0:0:
256,192,113746,1,0,0:0:0:0:
256,192,113846,1,2,0:0:0:0:
256,192,113912,1,0,0:0:0:0:
256,192,113979,1,0,0:0:0:0:
256,192,114046,1,2,0:0:0:0:
256,192,114146,1,0,0:0:0:0:
256,192,114246,1,2,0:0:0:0:
256,192,114312,1,0,0:0:0:0:
256,192,114379,1,0,0:0:0:0:
256,192,114446,1,2,0:0:0:0:
256,192,114546,1,0,0:0:0:0:
256,192,114646,1,0,0:0:0:0:
256,192,114712,1,0,0:0:0:0:
256,192,114779,1,0,0:0:0:0:
256,192,114846,1,2,0:0:0:0:
256,192,114946,1,2,0:0:0:0:
256,192,115046,1,0,0:0:0:0:
256,192,115146,1,2,0:0:0:0:
256,192,115246,1,2,0:0:0:0:
256,192,115312,1,2,0:0:0:0:
256,192,115379,1,2,0:0:0:0:
256,192,115446,5,0,0:0:0:0:
256,192,115546,1,2,0:0:0:0:
256,192,115646,1,0,0:0:0:0:
256,192,115712,1,2,0:0:0:0:
256,192,115779,1,2,0:0:0:0:
256,192,115846,1,0,0:0:0:0:
256,192,115946,1,2,0:0:0:0:
256,192,116046,1,0,0:0:0:0:
256,192,116112,1,2,0:0:0:0:
256,192,116179,1,2,0:0:0:0:
256,192,116246,1,0,0:0:0:0:
256,192,116346,1,2,0:0:0:0:
256,192,116446,1,2,0:0:0:0:
256,192,116546,1,0,0:0:0:0:
256,192,116646,1,2,0:0:0:0:
256,192,116712,1,2,0:0:0:0:
256,192,116779,1,2,0:0:0:0:
256,192,116846,1,0,0:0:0:0:
256,192,116946,1,2,0:0:0:0:
256,192,117046,1,0,0:0:0:0:
256,192,117146,1,2,0:0:0:0:
256,192,117246,1,0,0:0:0:0:
256,192,117346,1,0,0:0:0:0:
256,192,117446,1,2,0:0:0:0:
256,192,117512,1,2,0:0:0:0:
256,192,117579,1,2,0:0:0:0:
256,192,117646,1,0,0:0:0:0:
256,192,117712,1,0,0:0:0:0:
256,192,117779,1,0,0:0:0:0:
256,192,117846,5,0,0:0:0:0:
256,192,118146,1,4,0:0:0:0:
256,192,118446,1,4,0:0:0:0:
256,192,118746,1,4,0:0:0:0:
256,192,119046,1,4,0:0:0:0:
256,192,119346,1,4,0:0:0:0:
256,192,119646,1,4,0:0:0:0:
256,192,119946,1,4,0:0:0:0:
256,192,120246,1,6,0:0:0:0:
256,192,120546,1,6,0:0:0:0:
256,192,120846,1,6,0:0:0:0:
256,192,121146,1,6,0:0:0:0:
256,192,121446,1,6,0:0:0:0:
256,192,121746,1,6,0:0:0:0:
256,192,122046,1,6,0:0:0:0:
256,192,122346,1,6,0:0:0:0:
256,192,122646,1,4,0:0:0:0:
256,192,122946,1,6,0:0:0:0:
256,192,123246,1,4,0:0:0:0:
256,192,123546,1,6,0:0:0:0:
256,192,123846,1,4,0:0:0:0:
256,192,124146,1,6,0:0:0:0:
256,192,124446,1,4,0:0:0:0:
256,192,124746,1,6,0:0:0:0:
256,192,125046,8,0,129646,0:0:0:0:
256,192,129946,5,2,0:0:0:0:
256,192,129996,1,2,0:0:0:0:
256,192,130046,1,2,0:0:0:0:
256,192,130096,1,0,0:0:0:0:
