osu file format v7

[General]
AudioFilename: shibuya_sasakure_.mp3
AudioLeadIn: 0
PreviewTime: 83361
Countdown: 0
SampleSet: Soft
StackLeniency: 0.7
Mode: 0
LetterboxInBreaks: 1

[Editor]
DistanceSpacing: 0.800000011920929
BeatDivisor: 4
GridSize: 32

[Metadata]
Title:Shibuya -NEO ShibuyaK RemiX-
Artist:sasakure.UK feat. Hatsune Miku
Creator:Emco
Version:Ordinary Person
Source:Shibuya
Tags:HatsuneMiku sasakure.UK VOCALOID Emco Becca HDLV

[Difficulty]
HPDrainRate:0
CircleSize:3
OverallDifficulty:7
SliderMultiplier:1.4
SliderTickRate:1

[Events]
//Background and Video events
Video,-300,"BADAK]Shibuya -NEO ShibuyaK RemiX- HDLV PV.avi"
0,0,"shibuya1.jpg"
//Break Periods
2,58305,66047
2,111358,119731
//Storyboard Layer 0 (Background)
//Storyboard Layer 1 (Fail)
//Storyboard Layer 2 (Pass)
//Storyboard Layer 3 (Foreground)
//Storyboard Sound Samples
//Background Colour Transformations
3,100,255,255,255

[TimingPoints]
13888,315.789473684211,4,2,0,50,1,0

[Colours]
Combo1 : 128,255,128
Combo2 : 192,192,224
Combo3 : 255,255,128
Combo4 : 128,255,255
Combo5 : 255,128,128

[HitObjects]
192,192,13894,1,0
256,192,14052,1,0
320,192,14210,1,0
352,96,15157,6,0,B|192:96,1,140
128,96,15789,2,0,B|128:256,1,140
128,320,16263,2,0,B|288:320|416:320|416:192,1,350
415,199,17368,1,8
256,160,17684,5,0
256,160,18000,1,8
256,160,18315,1,0
288,96,18473,1,0
224,96,18631,1,8
224,96,18789,1,0
160,160,19105,2,0,B|160:256|256:256|352:256|352:160,1,280
351,168,20052,1,8
256,160,20210,6,0,B|256:320,1,140
192,288,20684,1,0
128,288,20842,1,0
128,288,21000,1,0
128,224,21315,2,0,B|128:128|192:64|256:64|320:64|384:128|384:224,1,420
320,224,22578,1,0
256,224,22736,1,0
192,224,22894,1,0
128,224,23052,1,8
288,128,23368,1,0
192,128,23526,1,0
96,128,23684,2,8,B|96:224|96:288|160:352|224:352|320:352|384:352,1,420
320,128,25263,5,0
64,320,25578,1,0
96,352,25736,1,0
96,224,25894,1,0
128,256,26052,1,0
192,320,26210,1,0
160,288,26368,1,0
192,192,26526,2,8,B|192:96|256:64|320:32|416:32|480:96|480:192,1,420
384,224,27789,5,0
384,160,27947,1,0
448,256,28105,1,8
448,192,28263,1,0
448,128,28421,1,0
320,160,28578,1,0
320,224,28736,1,8
320,224,28894,1,8
320,288,29210,1,8
224,128,30315,5,0
192,160,30473,1,0
224,192,30631,1,0
192,224,30789,1,0
224,256,30947,1,8
224,256,31105,1,8
288,256,31421,5,0
320,224,31578,1,0
288,128,31894,1,0
320,160,32052,1,0
256,192,32210,2,8,B|96:192,1,140
96,288,32842,5,0
96,224,33157,1,8
64,160,33315,1,8
96,96,33473,1,0
160,64,33631,1,0
224,96,33789,1,8
256,160,33947,1,8
224,224,34105,1,0
160,256,34263,1,0
160,192,34421,1,8
160,160,34578,1,8
224,160,34736,2,8,B|384:160,1,140
256,256,35368,5,12
128,256,36000,5,0
256,160,36315,1,8
320,160,36473,1,0
288,96,36789,1,0
224,96,36947,1,8
160,96,37263,2,0,B|64:96|64:192|64:288|192:288,1,280
256,288,38210,5,8
384,288,38526,5,0
384,224,38684,1,0
128,224,39000,1,0
96,160,39315,1,0
128,96,39473,1,8
224,160,39789,1,0
256,96,39947,2,0,B|384:96|448:192,1,210
288,320,40736,5,8
160,320,41052,5,0
192,256,41210,1,0
224,192,41368,1,8
256,128,41526,2,0,B|320:64|384:128,1,140
416,192,42000,1,8
352,192,42157,1,0
320,256,42315,1,0
384,256,42473,1,0
352,320,42631,1,8
288,320,42789,1,0
256,256,42947,6,0,B|160:256,4,70
224,192,43736,5,8
224,192,43894,1,8
192,128,44052,6,0,B|96:128|96:224,1,140
96,256,44526,1,8
96,256,44684,1,0
96,160,44842,1,0
160,192,45000,5,8
160,192,45157,1,8
256,256,45473,5,12
256,160,46105,5,0
320,128,46263,1,0
384,96,46421,1,8
448,64,46578,2,0,B|352:32|288:32,1,140
247,65,47052,1,8
192,96,47210,1,0
128,128,47368,1,0
64,160,47526,1,0
128,192,47684,2,8,B|32:192|32:288,1,140
64,320,48631,5,0
96,288,48789,2,0,B|160:224,1,70
192,192,49105,2,0,B|320:96,1,140
128,160,49578,2,0,B|256:64,1,140
448,288,50210,5,8
384,288,50368,1,8
96,224,51157,5,0
128,256,51315,1,0
160,192,51473,1,8
192,224,51631,1,0
224,160,51789,2,0,B|288:128,1,70
320,192,52105,1,8
384,192,52263,1,0
352,256,52421,1,0
416,256,52578,1,0
320,320,52736,1,8
384,320,52894,1,0
288,256,53052,5,0
224,256,53210,1,0
288,256,53368,1,8
224,256,53526,1,0
288,256,53684,1,0
256,192,53842,5,8
256,192,54000,1,8
288,128,54157,6,0,B|128:128,1,140
160,192,54631,2,0,B|64:192,1,70
64,256,54947,1,0
64,128,55263,1,8
128,128,55421,1,8
224,224,56526,5,0
288,160,56684,1,0
192,128,57000,1,0
320,256,57315,1,0
160,288,57631,5,8
224,224,57789,1,8
288,160,57947,1,8
352,96,58105,1,12
160,192,66947,5,8
352,192,67263,1,8
384,96,68210,6,0,B|224:96,1,140
352,192,68842,2,0,B|192:192,1,140
320,288,69473,2,0,B|160:288|32:192|32:128|160:64,1,420
192,160,70736,5,0
256,128,70894,1,0
64,224,71210,1,0
64,224,71368,1,0
128,192,71526,1,0
64,224,71684,1,0
64,224,71842,1,0
64,320,72157,5,0
128,288,72315,1,0
192,256,72473,1,0
256,224,72631,1,0
320,192,72789,1,8
320,192,73105,1,8
256,96,73263,6,0,B|416:96,1,140
480,96,73736,1,0
480,160,73894,2,0,B|480:320,1,140
416,288,74368,2,0,B|256:288|192:224|192:128,1,280
160,96,75315,5,0
128,160,75473,1,8
352,160,75789,5,0
352,160,75947,1,0
352,160,76105,1,8
288,160,76263,1,0
352,160,76421,1,0
224,224,76578,1,0
224,224,76736,1,8
160,224,76894,1,0
224,224,77052,1,0
352,288,77210,5,8
160,288,77526,1,8
288,224,77842,2,0,B|256:192,2,35
224,160,78078,2,0,B|256:192,2,35
160,96,78315,5,0
160,96,78631,2,0,B|256:96,1,70
288,96,78947,1,0
288,96,79105,1,0
288,96,79263,1,0
352,96,79421,2,8,B|512:96|512:288|416:352,1,350
352,288,80526,1,8
96,160,80842,5,0
128,128,81000,1,0
160,96,81157,2,0,B|256:96|256:192,1,140
288,128,81631,1,0
224,224,81789,1,0
192,256,81947,1,0
192,256,82105,1,0
160,288,82263,5,0
224,288,82421,1,0
288,256,82578,1,0
352,256,82736,1,0
416,224,82894,1,8
416,224,83210,1,8
288,128,83368,5,0
224,160,83526,1,0
288,128,83684,1,8
224,160,83842,1,0
288,192,84000,5,8
288,192,84315,1,8
160,224,84631,5,0
128,160,84789,1,0
160,224,84947,1,8
160,96,85263,2,8,B|256:64|320:96,1,140
384,128,85894,5,0
416,160,86052,1,0
448,192,86210,1,8
448,288,86526,5,0
416,256,86684,1,0
384,224,86842,1,8
352,192,87000,1,0
288,96,87157,5,0
256,160,87315,2,0,B|256:224,2,35
192,160,87631,2,0,B|192:224,2,35
128,256,87947,5,0
192,256,88105,1,0
256,256,88263,1,0
320,256,88421,1,12
96,160,89052,6,0,B|256:160,1,140
160,96,89526,2,0,B|320:96,1,140
352,160,90000,1,0
352,224,90157,1,0
288,224,90315,2,0,B|96:224|96:64,1,280
352,96,91263,5,8
160,160,91578,2,0,B|224:96,1,70
224,192,92052,6,0,B|288:224|384:224,1,140
384,160,92526,1,0
320,128,92842,1,0
320,192,93000,5,0
256,160,93158,1,0
192,128,93315,1,0
128,96,93473,1,0
32,32,93789,5,8
96,160,94105,5,0
128,224,94263,1,0
96,288,94421,1,0
160,288,94578,2,0,B|256:288|256:192,1,140
320,224,95052,1,0
320,224,95210,1,0
384,256,95368,1,0
384,256,95526,1,0
448,224,95684,1,0
448,224,95842,1,0
448,96,96000,6,0,B|384:128,1,70
320,96,96315,2,0,B|256:128,1,70
192,96,96631,1,0
128,128,96789,5,8
128,128,96947,1,8
96,192,97105,6,0,B|96:352,1,140
160,288,97578,2,0,B|160:192,1,70
224,256,97894,1,0
288,288,98052,5,8
352,320,98210,1,8
192,128,98526,5,12
320,192,98842,1,8
256,160,99157,5,0
256,160,99315,1,0
288,96,99473,1,0
352,64,99631,2,0,B|448:64|448:160,1,140
416,192,100105,1,0
416,192,100263,1,0
352,224,100421,1,0
384,288,100578,6,0,B|256:320|160:288,1,210
256,192,101368,5,8
96,160,101684,5,0
128,96,101842,1,0
128,224,102000,1,8
224,96,102157,2,0,B|384:96,1,140
256,160,102631,2,0,B|416:160,1,140
224,224,103105,5,0
288,224,103263,1,0
352,224,103421,1,0
416,224,103578,1,0
256,160,103894,5,8
128,160,104210,5,0
192,96,104368,1,0
256,64,104526,1,0
320,96,104684,1,0
384,160,104842,2,0,B|384:256|288:256,1,140
224,256,105315,1,0
256,320,105473,1,0
256,320,105631,1,0
160,320,105789,1,0
160,320,105947,1,0
128,192,106105,5,0
96,224,106263,1,0
128,192,106421,1,8
96,224,106578,1,0
128,192,106736,1,0
224,160,106894,5,8
224,160,107052,1,8
320,128,107210,6,0,B|320:288,1,140
384,224,107684,2,8,B|384:128,1,70
448,192,108000,1,0
448,128,108157,5,0
384,96,108315,1,8
448,64,108473,1,8
224,160,108947,5,0
256,128,109026,1,0
288,96,109105,1,0
160,64,109263,1,0
96,128,109421,1,0
256,320,109578,5,0
256,256,109736,1,0
160,224,110052,1,0
384,192,110368,1,0
96,128,110684,5,8
160,128,110842,1,8
224,128,111000,1,8
288,128,111158,1,12
256,96,120631,5,0
246,175,120789,1,0
260,203,120947,1,0
224,272,121105,1,0
192,288,121263,5,0
64,288,121894,1,0
64,96,122526,1,0
192,96,123157,1,0
320,96,123789,1,0
448,96,124421,1,0
448,288,125052,1,0
320,288,125684,1,0
256,288,125842,5,8
256,288,126000,1,8
256,64,126473,6,0,B|160:64,1,70
128,96,126789,2,0,B|64:160,1,70
64,192,127105,2,0,B|96:256,1,70
128,320,127421,2,0,B|224:320,1,70
256,320,127736,2,0,B|352:320,1,70
384,288,128052,2,0,B|416:224,1,70
416,160,128368,2,0,B|384:64,1,70
352,64,128684,2,0,B|256:64,1,70
256,128,129473,5,0
224,224,129789,1,0
288,224,129947,2,0,B|384:224|384:128,1,140
384,128,130894,5,8
384,128,131052,1,8
448,64,131368,5,0
320,64,132000,1,0
192,64,132631,1,0
64,64,133263,1,0
64,320,133894,1,0
192,320,134526,1,0
320,320,135157,1,0
448,320,135789,1,0
448,224,135947,5,0
384,224,136105,2,0,B|320:224|352:224,4,35
448,160,136572,5,0
448,96,136730,1,8
384,96,136888,1,0
384,160,137052,1,0
320,160,137210,1,0
288,224,137368,1,8
224,256,137526,1,0
224,192,137684,1,0
256,128,137842,1,0
288,64,138000,1,8
224,64,138157,1,0
192,128,138315,1,0
160,192,138473,1,0
160,256,138631,1,8
96,224,138789,1,0
96,160,138947,5,0
32,192,139263,1,0
32,256,139421,1,0
96,288,139736,1,8
96,288,139894,1,8
224,96,140210,5,0
160,128,140526,1,0
160,192,140684,1,0
224,224,141000,1,8
224,224,141157,1,8
352,32,141473,5,0
288,64,141789,1,0
288,128,141947,1,0
352,160,142263,1,8
352,160,142421,1,8
224,224,142736,6,8,B|160:160,1,70
288,288,143210,1,8
224,96,143684,2,0,B|288:96,18,35
256,192,145263,5,12
