osu file format v14

[General]
AudioFilename: SeventH-HeaveN.mp3
AudioLeadIn: 0
PreviewTime: 55749
Countdown: 0
SampleSet: Soft
StackLeniency: 0.7
Mode: 3
LetterboxInBreaks: 0
EpilepsyWarning: 1
SpecialStyle: 0
WidescreenStoryboard: 1

[Editor]
Bookmarks: 58249,58749,58916,59249,59583,59916,60083,60249,60583,60916,61416,61583,61916,62249,62749,62916,63333
DistanceSpacing: 1
BeatDivisor: 4
GridSize: 8
TimelineZoom: 1.712

[Metadata]
Title:SeventH-HeaveN
TitleUnicode:SeventH-HeaveN
Artist:sasakure.UK feat. Hatsune Miku
ArtistUnicode:sasakure.UK feat. 初音ミク
Creator:Starry-
Version:NM
Source:セブンスドラゴン2020
Tags:vocaloid seventh dragon ExUsagi -_[_S_o_r_a_]_-
BeatmapID:501162
BeatmapSetID:213087

[Difficulty]
HPDrainRate:7.5
CircleSize:4
OverallDifficulty:7.5
ApproachRate:5
SliderMultiplier:1.4
SliderTickRate:1

[Events]
//Background and Video events
0,0,"seventhheavenbg.png",0,0
//Break Periods
//Storyboard Layer 0 (Background)
//Storyboard Layer 1 (Fail)
//Storyboard Layer 2 (Pass)
//Storyboard Layer 3 (Foreground)
//Storyboard Sound Samples

[TimingPoints]
7387,333.333333333333,4,2,0,30,1,0
48720,333.333333333333,3,1,0,40,1,0
51720,333.333333333333,4,1,0,40,1,0
56220,-100,4,1,0,5,0,0
56386,-100,4,1,0,35,0,0
57219,333.333333333333,4,1,0,35,1,1
78552,-100,4,1,0,35,0,0
86385,-100,4,2,0,15,0,0

[HitObjects]
64,192,8053,5,2,0:0:0:0:
192,192,8386,1,2,0:0:0:0:
448,192,8720,128,2,9386:0:0:0:0:
320,192,9553,1,2,0:0:0:0:
192,192,9720,1,2,0:0:0:0:
64,192,9886,128,2,10886:0:0:0:0:
320,192,10386,1,0,0:0:0:0:
448,192,11053,128,2,11386:0:0:0:0:
320,192,11386,1,2,0:0:0:0:
192,192,11720,1,2,0:0:0:0:
64,192,11886,128,2,13053:0:0:0:0:
448,192,12553,1,0,0:0:0:0:
192,192,13053,1,0,0:0:0:0:
320,192,13386,1,2,0:0:0:0:
64,192,13720,1,2,0:0:0:0:
448,192,14053,128,2,15720:0:0:0:0:
192,192,14053,1,0,0:0:0:0:
320,192,14553,1,0,0:0:0:0:
192,192,15053,1,0,0:0:0:0:
64,192,15720,1,0,0:0:0:0:
64,192,16720,128,2,18386:0:0:0:0:
320,192,16720,1,0,0:0:0:0:
448,192,17220,1,0,0:0:0:0:
192,192,17720,1,0,0:0:0:0:
448,192,18386,1,0,0:0:0:0:
192,192,18720,1,2,0:0:0:0:
320,192,19053,1,2,0:0:0:0:
448,192,19386,128,2,20720:0:0:0:0:
64,192,19386,1,4,0:0:0:0:
320,192,19720,1,0,0:0:0:0:
192,192,20053,1,8,0:0:0:0:
320,192,20220,1,2,0:0:0:0:
192,192,20386,1,2,0:0:0:0:
64,192,20553,1,2,0:0:0:0:
320,192,20720,1,0,0:0:0:0:
64,192,21053,1,0,0:0:0:0:
448,192,21386,1,8,0:0:0:0:
320,192,21720,1,2,0:0:0:0:
192,192,22053,1,2,0:0:0:0:
64,192,22053,128,2,24053:0:0:0:0:
448,192,22386,1,2,0:0:0:0:
192,192,22720,1,8,0:0:0:0:
448,192,22886,1,0,0:0:0:0:
320,192,23053,1,0,0:0:0:0:
192,192,23220,1,0,0:0:0:0:
320,192,23386,1,0,0:0:0:0:
448,192,23553,1,0,0:0:0:0:
192,192,23720,1,2,0:0:0:0:
448,192,23886,1,0,0:0:0:0:
320,192,24053,1,10,0:0:0:0:
192,192,24386,1,0,0:0:0:0:
448,192,24720,128,2,26053:0:0:0:0:
64,192,24720,1,0,0:0:0:0:
320,192,25053,1,0,0:0:0:0:
192,192,25220,1,0,0:0:0:0:
64,192,25386,1,8,0:0:0:0:
320,192,25720,1,0,0:0:0:0:
320,192,26220,1,0,0:0:0:0:
192,192,26386,1,0,0:0:0:0:
64,192,26553,1,0,0:0:0:0:
320,192,26720,1,8,0:0:0:0:
192,192,26886,1,0,0:0:0:0:
320,192,27220,1,0,0:0:0:0:
64,192,27386,1,0,0:0:0:0:
448,192,27386,1,0,0:0:0:0:
192,192,27553,1,0,0:0:0:0:
320,192,27720,1,0,0:0:0:0:
448,192,27886,1,0,0:0:0:0:
64,192,28053,1,8,0:0:0:0:
320,192,28053,1,0,0:0:0:0:
192,192,28386,1,0,0:0:0:0:
320,192,28553,128,0,29053:0:0:0:0:
448,192,29053,1,0,0:0:0:0:
64,192,29386,1,0,0:0:0:0:
192,192,29553,1,0,0:0:0:0:
320,192,29720,1,0,0:0:0:0:
448,192,29886,1,0,0:0:0:0:
64,192,30053,1,4,0:0:0:0:
192,192,30053,1,2,0:0:0:0:
320,192,30386,1,2,0:0:0:0:
64,192,30553,1,2,0:0:0:0:
448,192,30553,1,0,0:0:0:0:
320,192,30886,1,2,0:0:0:0:
192,192,30886,1,0,0:0:0:0:
448,192,31220,1,2,0:0:0:0:
64,192,31553,1,2,0:0:0:0:
320,192,31886,1,2,0:0:0:0:
448,192,32220,128,2,32553:0:0:0:0:
192,192,32220,1,0,0:0:0:0:
320,192,32720,1,2,0:0:0:0:
64,192,32886,1,2,0:0:0:0:
448,192,33220,1,0,0:0:0:0:
192,192,33220,1,2,0:0:0:0:
320,192,33553,1,2,0:0:0:0:
192,192,33886,1,2,0:0:0:0:
64,192,33886,1,0,0:0:0:0:
448,192,34220,1,2,0:0:0:0:
64,192,34553,128,2,35053:0:0:0:0:
448,192,34886,128,2,35053:0:0:0:0:
320,192,35220,1,2,0:0:0:0:
448,192,35386,1,2,0:0:0:0:
64,192,35386,1,0,0:0:0:0:
192,192,35720,1,2,0:0:0:0:
320,192,35886,1,2,0:0:0:0:
448,192,35886,1,0,0:0:0:0:
64,192,36220,1,0,0:0:0:0:
320,192,36220,1,2,0:0:0:0:
192,192,36553,1,2,0:0:0:0:
64,192,36886,1,2,0:0:0:0:
192,192,37220,1,2,0:0:0:0:
320,192,37386,1,2,0:0:0:0:
448,192,37553,1,2,0:0:0:0:
64,192,37720,1,2,0:0:0:0:
192,192,37886,1,2,0:0:0:0:
320,192,38053,1,2,0:0:0:0:
448,192,38053,128,0,38553:0:0:0:0:
64,192,38220,1,0,0:0:0:0:
192,192,38386,1,0,0:0:0:0:
64,192,38553,128,0,39053:0:0:0:0:
320,192,38553,1,2,0:0:0:0:
192,192,38720,1,0,0:0:0:0:
320,192,38886,1,0,0:0:0:0:
448,192,39053,128,2,40386:0:0:0:0:
192,192,39053,1,0,0:0:0:0:
320,192,39553,1,0,0:0:0:0:
64,192,39886,1,0,0:0:0:0:
192,192,40053,1,0,0:0:0:0:
320,192,40220,1,0,0:0:0:0:
192,192,40386,1,0,0:0:0:0:
64,192,40553,1,2,0:0:0:0:
320,192,40720,1,2,0:0:0:0:
448,192,40720,1,4,0:0:0:0:
64,192,41053,1,2,0:0:0:0:
448,192,41220,1,2,0:0:0:0:
320,192,41553,1,2,0:0:0:0:
192,192,41886,1,2,0:0:0:0:
448,192,41886,1,0,0:0:0:0:
64,192,42220,1,2,0:0:0:0:
192,192,42553,1,2,0:0:0:0:
320,192,42720,1,2,0:0:0:0:
448,192,42886,128,2,43386:0:0:0:0:
320,192,43386,1,2,0:0:0:0:
192,192,43553,1,2,0:0:0:0:
64,192,43886,1,0,0:0:0:0:
320,192,43886,1,2,0:0:0:0:
192,192,44220,1,0,0:0:0:0:
448,192,44220,1,2,0:0:0:0:
320,192,44553,1,2,0:0:0:0:
192,192,44886,1,2,0:0:0:0:
64,192,45220,128,2,46053:0:0:0:0:
448,192,45220,128,2,46053:0:0:0:0:
192,192,46053,1,2,0:0:0:0:
320,192,46386,1,2,0:0:0:0:
448,192,46553,1,2,0:0:0:0:
64,192,46886,1,2,0:0:0:0:
320,192,47220,1,2,0:0:0:0:
448,192,47220,1,0,0:0:0:0:
64,192,47553,1,0,0:0:0:0:
192,192,47553,1,2,0:0:0:0:
320,192,47886,1,2,0:0:0:0:
448,192,48220,128,2,48720:0:0:0:0:
320,192,48720,1,2,0:0:0:0:
192,192,48886,1,2,0:0:0:0:
64,192,49053,1,8,0:0:0:0:
448,192,49220,1,2,0:0:0:0:
320,192,49386,1,2,0:0:0:0:
192,192,49553,1,0,0:0:0:0:
320,192,49720,1,2,0:0:0:0:
192,192,49886,1,2,0:0:0:0:
64,192,50053,1,8,0:0:0:0:
448,192,50220,1,2,0:0:0:0:
320,192,50386,1,2,0:0:0:0:
192,192,50553,1,0,0:0:0:0:
64,192,50720,1,2,0:0:0:0:
192,192,50886,1,2,0:0:0:0:
320,192,51053,1,8,0:0:0:0:
448,192,51220,1,2,0:0:0:0:
320,192,51386,1,2,0:0:0:0:
192,192,51553,1,8,0:0:0:0:
448,192,51720,1,2,0:0:0:0:
320,192,51720,1,0,0:0:0:0:
448,192,51886,1,0,0:0:0:0:
64,192,51886,1,2,0:0:0:0:
64,192,52220,1,0,0:0:0:0:
192,192,52220,1,2,0:0:0:0:
448,192,52386,1,2,0:0:0:0:
64,192,52386,1,0,0:0:0:0:
192,192,52720,1,0,0:0:0:0:
320,192,52720,1,2,0:0:0:0:
448,192,52886,1,0,0:0:0:0:
64,192,52886,1,2,0:0:0:0:
64,192,53220,1,0,0:0:0:0:
448,192,53220,1,2,0:0:0:0:
320,192,53386,1,0,0:0:0:0:
192,192,53386,1,2,0:0:0:0:
64,192,53720,1,2,0:0:0:0:
320,192,53886,1,2,0:0:0:0:
448,192,54053,1,0,0:0:0:0:
192,192,54053,1,2,0:0:0:0:
64,192,54386,128,4,56386:0:0:0:0:
320,192,54386,128,2,56386:0:0:0:0:
448,192,56386,5,0,0:0:0:0:
320,192,56553,1,0,0:0:0:0:
192,192,56719,1,0,0:0:0:0:
64,192,56886,1,0,0:0:0:0:
192,192,57053,1,0,0:0:0:0:
64,192,57219,1,4,0:0:0:0:
448,192,57219,1,2,0:0:0:0:
320,192,57552,128,0,57885:0:0:0:0:
448,192,57885,1,8,0:0:0:0:
192,192,58052,1,0,0:0:0:0:
64,192,58385,128,0,58719:0:0:0:0:
192,192,58719,1,0,0:0:0:0:
448,192,58885,1,0,0:0:0:0:
320,192,59052,1,0,0:0:0:0:
64,192,59219,1,0,0:0:0:0:
192,192,59219,1,8,0:0:0:0:
320,192,59552,128,0,59885:0:0:0:0:
448,192,59552,128,0,59885:0:0:0:0:
64,192,59885,1,2,0:0:0:0:
192,192,60052,1,0,0:0:0:0:
448,192,60219,1,0,0:0:0:0:
320,192,60385,1,0,0:0:0:0:
64,192,60552,1,8,0:0:0:0:
192,192,60719,1,0,0:0:0:0:
320,192,60885,1,0,0:0:0:0:
192,192,61052,1,0,0:0:0:0:
448,192,61218,1,2,0:0:0:0:
320,192,61385,1,0,0:0:0:0:
192,192,61552,1,0,0:0:0:0:
320,192,61718,1,0,0:0:0:0:
448,192,61718,128,0,62052:0:0:0:0:
64,192,62052,128,0,62385:0:0:0:0:
192,192,62385,1,0,0:0:0:0:
320,192,62552,1,0,0:0:0:0:
448,192,62552,1,2,0:0:0:0:
320,192,62885,1,0,0:0:0:0:
192,192,63052,1,0,0:0:0:0:
64,192,63385,128,0,63718:0:0:0:0:
320,192,63385,1,0,0:0:0:0:
192,192,63718,128,0,64052:0:0:0:0:
448,192,63718,1,0,0:0:0:0:
448,192,64052,128,0,64385:0:0:0:0:
64,192,64385,1,0,0:0:0:0:
320,192,64385,128,0,64718:0:0:0:0:
192,192,64718,1,0,0:0:0:0:
64,192,65052,1,0,0:0:0:0:
320,192,65218,1,2,0:0:0:0:
448,192,65218,1,0,0:0:0:0:
192,192,65552,1,0,0:0:0:0:
448,192,65718,1,0,0:0:0:0:
64,192,65718,1,2,0:0:0:0:
192,192,66052,1,0,0:0:0:0:
320,192,66052,1,0,0:0:0:0:
64,192,66385,1,0,0:0:0:0:
448,192,66385,1,0,0:0:0:0:
448,192,66718,1,0,0:0:0:0:
320,192,66718,1,0,0:0:0:0:
64,192,67052,1,0,0:0:0:0:
192,192,67052,1,0,0:0:0:0:
320,192,67385,128,0,67885:0:0:0:0:
192,192,67385,1,0,0:0:0:0:
64,192,67718,1,0,0:0:0:0:
192,192,67885,1,2,0:0:0:0:
448,192,67885,128,4,70552:0:0:0:0:
320,192,68218,1,8,0:0:0:0:
192,192,68552,1,0,0:0:0:0:
64,192,68718,1,0,0:0:0:0:
192,192,69052,1,0,0:0:0:0:
320,192,69385,1,0,0:0:0:0:
64,192,69718,1,0,0:0:0:0:
192,192,69885,1,0,0:0:0:0:
320,192,70218,1,8,0:0:0:0:
64,192,70552,128,0,71718:0:0:0:0:
192,192,70552,1,2,0:0:0:0:
320,192,70718,1,0,0:0:0:0:
448,192,71052,1,0,0:0:0:0:
320,192,71218,1,0,0:0:0:0:
192,192,71385,1,0,0:0:0:0:
320,192,71552,1,8,0:0:0:0:
448,192,71718,128,0,73218:0:0:0:0:
192,192,71718,1,0,0:0:0:0:
320,192,71885,1,2,0:0:0:0:
192,192,72052,1,0,0:0:0:0:
64,192,72218,1,8,0:0:0:0:
320,192,72385,1,0,0:0:0:0:
192,192,72718,1,0,0:0:0:0:
64,192,73052,1,0,0:0:0:0:
320,192,73218,1,2,0:0:0:0:
192,192,73218,1,0,0:0:0:0:
448,192,73552,1,0,0:0:0:0:
192,192,73718,1,0,0:0:0:0:
320,192,73718,1,2,0:0:0:0:
192,192,74052,128,0,74385:0:0:0:0:
448,192,74052,128,0,74385:0:0:0:0:
320,192,74385,128,0,74718:0:0:0:0:
64,192,74385,128,0,74718:0:0:0:0:
192,192,74718,1,0,0:0:0:0:
448,192,74718,1,0,0:0:0:0:
320,192,75052,1,0,0:0:0:0:
448,192,75052,1,0,0:0:0:0:
64,192,75385,1,0,0:0:0:0:
192,192,75385,1,0,0:0:0:0:
320,192,75718,1,0,0:0:0:0:
192,192,75885,1,0,0:0:0:0:
448,192,75885,1,2,0:0:0:0:
320,192,76218,1,0,0:0:0:0:
64,192,76385,128,0,76718:0:0:0:0:
448,192,76385,128,0,76718:0:0:0:0:
192,192,76718,128,0,77052:0:0:0:0:
320,192,76718,128,0,77052:0:0:0:0:
448,192,77052,1,0,0:0:0:0:
64,192,77218,1,0,0:0:0:0:
448,192,77385,1,2,0:0:0:0:
320,192,77468,1,2,0:0:0:0:
192,192,77552,1,2,0:0:0:0:
64,192,77635,1,2,0:0:0:0:
448,192,77718,1,0,0:0:0:0:
320,192,77885,1,0,0:0:0:0:
192,192,77968,1,2,0:0:0:0:
64,192,78052,1,2,0:0:0:0:
192,192,78135,1,2,0:0:0:0:
320,192,78218,1,2,0:0:0:0:
448,192,78302,1,2,0:0:0:0:
64,192,78385,1,0,0:0:0:0:
192,192,78385,1,0,0:0:0:0:
320,192,78552,1,4,0:0:0:0:
448,192,78552,1,0,0:0:0:0:
192,192,78885,1,2,2:0:0:0:
320,192,79218,1,2,2:0:0:0:
448,192,79718,1,2,2:0:0:0:
192,192,79718,1,0,0:0:0:0:
64,192,80218,1,2,2:0:0:0:
192,192,80885,1,2,2:0:0:0:
320,192,81218,1,2,2:0:0:0:
448,192,81718,1,2,2:0:0:0:
320,192,82218,1,2,2:0:0:0:
64,192,82885,1,2,2:0:0:0:
192,192,83218,1,2,2:0:0:0:
320,192,83718,1,0,0:0:0:0:
448,192,83718,1,2,2:0:0:0:
192,192,84218,1,2,2:0:0:0:
320,192,84885,128,2,85218:0:0:0:0:
64,192,85218,1,0,0:0:0:0:
448,192,85218,128,2,85718:0:0:0:0:
320,192,85718,128,2,86052:0:0:0:0:
192,192,86052,128,2,86218:0:0:0:0:
64,192,86218,128,2,86552:0:0:0:0:
448,192,86885,1,2,0:0:0:0:
320,192,87218,1,2,0:0:0:0:
192,192,87718,1,2,0:0:0:0:
64,192,88052,1,2,0:0:0:0:
64,192,88218,1,2,0:0:0:0:
