osu file format v14

[General]
AudioFilename: SeventH-HeaveN.mp3
AudioLeadIn: 0
PreviewTime: 55749
Countdown: 0
SampleSet: Soft
StackLeniency: 0.7
Mode: 3
LetterboxInBreaks: 0
EpilepsyWarning: 1
SpecialStyle: 0
WidescreenStoryboard: 1

[Editor]
Bookmarks: 57082,58249,58749,58916,59249,59583,59916,60083,60249,60583,60916,61416,61583,61916,62249,62749,62916,63333
DistanceSpacing: 1
BeatDivisor: 4
GridSize: 8
TimelineZoom: 1.912

[Metadata]
Title:SeventH-HeaveN
TitleUnicode:SeventH-HeaveN
Artist:sasakure.UK feat. Hatsune Miku
ArtistUnicode:sasakure.UK feat. 初音ミク
Creator:Starry-
Version:HD
Source:セブンスドラゴン2020
Tags:vocaloid seventh dragon ExUsagi -_[_S_o_r_a_]_-
BeatmapID:501087
BeatmapSetID:213087

[Difficulty]
HPDrainRate:8
CircleSize:4
OverallDifficulty:8
ApproachRate:5
SliderMultiplier:1.4
SliderTickRate:1

[Events]
//Background and Video events
0,0,"seventhheavenbg.png",0,0
//Break Periods
//Storyboard Layer 0 (Background)
//Storyboard Layer 1 (Fail)
//Storyboard Layer 2 (Pass)
//Storyboard Layer 3 (Foreground)
//Storyboard Sound Samples

[TimingPoints]
7387,333.333333333333,4,2,0,30,1,0
48720,333.333333333333,3,1,0,40,1,0
51720,333.333333333333,4,1,0,40,1,0
56220,-100,4,1,0,5,0,0
56386,-100,4,1,0,35,0,0
57219,333.333333333333,4,1,0,35,1,1
78552,-100,4,1,0,35,0,0
86385,-100,4,1,0,15,0,0

[HitObjects]
192,192,8053,5,2,0:0:0:0:
320,192,8386,1,2,0:0:0:0:
64,192,8720,128,0,9220:0:0:0:0:
448,192,8720,128,2,9220:0:0:0:0:
192,192,9053,1,0,0:0:0:0:
320,192,9220,1,0,0:0:0:0:
448,192,9553,1,2,0:0:0:0:
320,192,9720,1,2,0:0:0:0:
64,192,9886,128,0,10386:0:0:0:0:
448,192,9886,128,2,10386:0:0:0:0:
192,192,10386,1,0,0:0:0:0:
320,192,11053,1,2,0:0:0:0:
64,192,11386,128,0,11886:0:0:0:0:
192,192,11386,128,2,11886:0:0:0:0:
448,192,11720,1,2,0:0:0:0:
320,192,11886,1,2,0:0:0:0:
64,192,12220,1,0,0:0:0:0:
192,192,12386,1,0,0:0:0:0:
320,192,12553,128,0,13053:0:0:0:0:
448,192,12553,128,2,13053:0:0:0:0:
192,192,13053,1,0,0:0:0:0:
320,192,13386,1,2,0:0:0:0:
64,192,13720,1,2,0:0:0:0:
448,192,14053,1,2,0:0:0:0:
64,192,14053,128,0,14386:0:0:0:0:
192,192,14386,128,0,14553:0:0:0:0:
320,192,14553,1,2,0:0:0:0:
64,192,14886,128,0,15053:0:0:0:0:
320,192,15053,1,2,0:0:0:0:
192,192,15053,128,0,15220:0:0:0:0:
448,192,15220,128,2,15720:0:0:0:0:
64,192,15220,128,0,15720:0:0:0:0:
192,192,15720,1,0,0:0:0:0:
192,192,16720,1,2,0:0:0:0:
448,192,16720,128,0,17053:0:0:0:0:
320,192,17053,128,0,17220:0:0:0:0:
64,192,17220,1,2,0:0:0:0:
64,192,17553,128,0,17720:0:0:0:0:
320,192,17720,1,2,0:0:0:0:
192,192,17720,128,0,17886:0:0:0:0:
448,192,17886,128,2,18386:0:0:0:0:
64,192,17886,128,0,18386:0:0:0:0:
320,192,18386,1,0,0:0:0:0:
192,192,18553,1,0,0:0:0:0:
320,192,18720,1,0,0:0:0:0:
448,192,18720,1,2,0:0:0:0:
192,192,18886,1,0,0:0:0:0:
64,192,19053,1,0,0:0:0:0:
320,192,19053,1,2,0:0:0:0:
192,192,19220,1,0,0:0:0:0:
448,192,19220,1,0,0:0:0:0:
448,192,19386,128,2,20053:0:0:0:0:
64,192,19386,1,4,0:0:0:0:
320,192,19720,1,0,0:0:0:0:
64,192,20053,1,0,0:0:0:0:
192,192,20053,1,8,0:0:0:0:
320,192,20220,1,2,0:0:0:0:
192,192,20386,1,2,0:0:0:0:
64,192,20553,128,2,21220:0:0:0:0:
448,192,20720,1,0,0:0:0:0:
320,192,20886,1,0,0:0:0:0:
192,192,21053,1,0,0:0:0:0:
320,192,21220,1,0,0:0:0:0:
192,192,21386,1,0,0:0:0:0:
448,192,21386,1,8,0:0:0:0:
64,192,21553,1,0,0:0:0:0:
320,192,21720,128,2,22053:0:0:0:0:
192,192,21720,1,0,0:0:0:0:
448,192,22053,128,2,22386:0:0:0:0:
64,192,22053,1,0,0:0:0:0:
192,192,22220,1,0,0:0:0:0:
320,192,22386,128,2,22553:0:0:0:0:
192,192,22553,128,2,23220:0:0:0:0:
64,192,22720,1,8,0:0:0:0:
448,192,22720,1,0,0:0:0:0:
320,192,22886,1,0,0:0:0:0:
448,192,23053,1,0,0:0:0:0:
64,192,23220,1,0,0:0:0:0:
448,192,23386,1,0,0:0:0:0:
320,192,23553,1,0,0:0:0:0:
192,192,23720,1,0,0:0:0:0:
64,192,23720,128,2,24053:0:0:0:0:
320,192,23886,1,0,0:0:0:0:
192,192,24053,128,2,24386:0:0:0:0:
448,192,24053,1,8,0:0:0:0:
320,192,24386,128,2,24720:0:0:0:0:
64,192,24386,1,0,0:0:0:0:
192,192,24720,1,0,0:0:0:0:
448,192,24720,1,0,0:0:0:0:
64,192,24886,128,0,25053:0:0:0:0:
192,192,25053,128,0,25220:0:0:0:0:
320,192,25220,128,0,25386:0:0:0:0:
448,192,25386,1,8,0:0:0:0:
64,192,25386,1,0,0:0:0:0:
192,192,25553,128,0,25720:0:0:0:0:
320,192,25720,128,0,25886:0:0:0:0:
448,192,25886,128,0,26053:0:0:0:0:
64,192,26053,1,0,0:0:0:0:
192,192,26220,1,2,0:0:0:0:
448,192,26386,1,2,0:0:0:0:
320,192,26553,1,2,0:0:0:0:
192,192,26720,1,10,0:0:0:0:
448,192,26720,1,0,0:0:0:0:
64,192,26886,1,2,0:0:0:0:
320,192,27220,1,0,0:0:0:0:
192,192,27386,1,0,0:0:0:0:
448,192,27386,1,0,0:0:0:0:
64,192,27553,1,0,0:0:0:0:
320,192,27553,1,0,0:0:0:0:
192,192,27720,1,0,0:0:0:0:
320,192,27886,1,0,0:0:0:0:
64,192,27886,1,0,0:0:0:0:
448,192,28053,1,0,0:0:0:0:
192,192,28053,1,8,0:0:0:0:
320,192,28386,1,0,0:0:0:0:
192,192,28553,128,0,29053:0:0:0:0:
448,192,28553,128,0,29053:0:0:0:0:
64,192,29053,1,0,0:0:0:0:
320,192,29053,1,0,0:0:0:0:
64,192,29386,1,0,0:0:0:0:
192,192,29470,1,0,0:0:0:0:
320,192,29553,1,0,0:0:0:0:
448,192,29636,1,0,0:0:0:0:
64,192,29720,1,0,0:0:0:0:
192,192,29803,1,0,0:0:0:0:
320,192,29886,1,0,0:0:0:0:
448,192,29970,1,0,0:0:0:0:
192,192,30053,1,4,0:0:0:0:
320,192,30053,128,2,30553:0:0:0:0:
64,192,30053,1,0,0:0:0:0:
64,192,30386,1,2,0:0:0:0:
448,192,30553,128,2,31220:0:0:0:0:
192,192,30553,1,0,0:0:0:0:
64,192,30886,1,0,0:0:0:0:
320,192,30886,1,2,0:0:0:0:
64,192,31220,128,2,31886:0:0:0:0:
192,192,31220,1,0,0:0:0:0:
320,192,31553,1,2,0:0:0:0:
192,192,31886,128,2,32720:0:0:0:0:
448,192,31886,1,0,0:0:0:0:
320,192,32220,128,2,32720:0:0:0:0:
64,192,32720,128,2,33386:0:0:0:0:
448,192,32886,1,2,0:0:0:0:
320,192,33220,1,2,0:0:0:0:
192,192,33386,128,2,33886:0:0:0:0:
448,192,33553,128,2,33886:0:0:0:0:
320,192,33886,128,2,35220:0:0:0:0:
64,192,34053,1,0,0:0:0:0:
192,192,34220,1,2,0:0:0:0:
448,192,34553,1,2,0:0:0:0:
192,192,34636,1,0,0:0:0:0:
64,192,34720,1,2,0:0:0:0:
448,192,34886,1,2,0:0:0:0:
192,192,35053,1,2,0:0:0:0:
64,192,35220,1,0,0:0:0:0:
192,192,35303,1,0,0:0:0:0:
448,192,35386,1,0,0:0:0:0:
320,192,35386,1,0,0:0:0:0:
64,192,35386,128,2,35886:0:0:0:0:
320,192,35720,1,0,0:0:0:0:
192,192,35886,128,2,36553:0:0:0:0:
448,192,35886,1,0,0:0:0:0:
64,192,36220,1,0,0:0:0:0:
320,192,36220,1,2,0:0:0:0:
64,192,36553,128,0,37220:0:0:0:0:
320,192,36553,128,2,37220:0:0:0:0:
448,192,36886,1,2,0:0:0:0:
448,192,37220,128,2,38053:0:0:0:0:
192,192,37220,1,0,0:0:0:0:
64,192,37386,1,0,0:0:0:0:
320,192,37386,1,2,0:0:0:0:
192,192,37553,1,2,0:0:0:0:
64,192,37720,1,2,0:0:0:0:
320,192,37886,1,2,0:0:0:0:
64,192,38053,1,0,0:0:0:0:
192,192,38053,1,2,0:0:0:0:
320,192,38220,1,2,0:0:0:0:
448,192,38386,1,2,0:0:0:0:
192,192,38553,1,2,0:0:0:0:
64,192,38553,1,0,0:0:0:0:
320,192,38720,1,2,0:0:0:0:
448,192,38720,1,0,0:0:0:0:
192,192,38886,1,2,0:0:0:0:
64,192,39053,128,2,39553:0:0:0:0:
320,192,39220,1,0,0:0:0:0:
448,192,39386,1,0,0:0:0:0:
192,192,39553,1,8,0:0:0:0:
448,192,39720,1,2,0:0:0:0:
320,192,39803,1,0,0:0:0:0:
64,192,39886,1,0,0:0:0:0:
192,192,39886,1,8,0:0:0:0:
320,192,39970,1,0,0:0:0:0:
448,192,40053,1,2,0:0:0:0:
64,192,40136,1,0,0:0:0:0:
320,192,40220,1,8,0:0:0:0:
192,192,40220,1,0,0:0:0:0:
64,192,40303,1,0,0:0:0:0:
448,192,40386,1,2,0:0:0:0:
320,192,40470,1,0,0:0:0:0:
192,192,40553,1,0,0:0:0:0:
64,192,40553,1,2,0:0:0:0:
64,192,40720,128,0,41053:0:0:0:0:
192,192,40720,128,2,41053:0:0:0:0:
448,192,40720,1,4,0:0:0:0:
320,192,41053,1,10,0:0:0:0:
448,192,41220,128,0,41886:0:0:0:0:
192,192,41220,1,0,0:0:0:0:
320,192,41553,1,0,0:0:0:0:
192,192,41720,1,8,0:0:0:0:
64,192,41886,128,2,42386:0:0:0:0:
320,192,42053,1,0,0:0:0:0:
192,192,42220,1,2,0:0:0:0:
320,192,42386,1,0,0:0:0:0:
448,192,42386,1,8,0:0:0:0:
192,192,42553,1,2,0:0:0:0:
320,192,42720,1,2,0:0:0:0:
448,192,42886,128,2,43386:0:0:0:0:
64,192,43053,1,8,0:0:0:0:
320,192,43220,1,0,0:0:0:0:
64,192,43386,128,2,44053:0:0:0:0:
192,192,43553,1,2,0:0:0:0:
448,192,43720,1,8,0:0:0:0:
320,192,43886,1,2,0:0:0:0:
192,192,44053,128,0,44220:0:0:0:0:
448,192,44053,1,0,0:0:0:0:
320,192,44220,128,2,44386:0:0:0:0:
448,192,44386,128,8,44553:0:0:0:0:
192,192,44553,128,2,44720:0:0:0:0:
64,192,44720,128,0,44886:0:0:0:0:
192,192,44886,128,2,45053:0:0:0:0:
320,192,45053,1,8,0:0:0:0:
64,192,45220,1,0,0:0:0:0:
448,192,45220,1,2,0:0:0:0:
320,192,45303,1,2,0:0:0:0:
192,192,45386,1,2,0:0:0:0:
64,192,45386,128,0,45553:0:0:0:0:
320,192,45553,128,0,45720:0:0:0:0:
448,192,45720,128,8,45886:0:0:0:0:
192,192,45886,128,0,46053:0:0:0:0:
64,192,46053,128,2,46553:0:0:0:0:
448,192,46053,1,0,0:0:0:0:
320,192,46386,1,10,0:0:0:0:
192,192,46553,1,2,0:0:0:0:
64,192,46886,1,2,0:0:0:0:
448,192,47053,1,10,0:0:0:0:
64,192,47220,128,0,47886:0:0:0:0:
192,192,47220,1,2,0:0:0:0:
320,192,47553,1,2,0:0:0:0:
448,192,47720,1,8,0:0:0:0:
192,192,47886,128,0,48386:0:0:0:0:
320,192,47886,1,2,0:0:0:0:
448,192,48053,1,0,0:0:0:0:
320,192,48220,1,2,0:0:0:0:
64,192,48386,1,8,0:0:0:0:
320,192,48553,1,0,0:0:0:0:
448,192,48720,128,2,48886:0:0:0:0:
64,192,48720,1,0,0:0:0:0:
320,192,48886,128,2,49053:0:0:0:0:
192,192,49053,128,8,49220:0:0:0:0:
64,192,49053,128,0,49220:0:0:0:0:
448,192,49220,128,2,49386:0:0:0:0:
320,192,49220,1,0,0:0:0:0:
192,192,49386,128,2,49553:0:0:0:0:
64,192,49553,128,0,49720:0:0:0:0:
320,192,49553,128,8,49720:0:0:0:0:
448,192,49720,128,2,49886:0:0:0:0:
192,192,49720,1,0,0:0:0:0:
320,192,49886,128,2,50053:0:0:0:0:
192,192,50053,128,8,50220:0:0:0:0:
64,192,50053,128,0,50220:0:0:0:0:
448,192,50220,128,2,50386:0:0:0:0:
320,192,50220,1,0,0:0:0:0:
64,192,50386,128,2,50553:0:0:0:0:
192,192,50553,128,0,50720:0:0:0:0:
320,192,50553,128,8,50720:0:0:0:0:
448,192,50720,128,2,50886:0:0:0:0:
64,192,50720,1,0,0:0:0:0:
320,192,50886,128,2,51053:0:0:0:0:
192,192,51053,128,8,51220:0:0:0:0:
64,192,51053,128,0,51220:0:0:0:0:
448,192,51220,128,2,51386:0:0:0:0:
320,192,51220,1,0,0:0:0:0:
192,192,51386,128,2,51553:0:0:0:0:
64,192,51553,1,0,0:0:0:0:
320,192,51553,1,8,0:0:0:0:
448,192,51636,1,0,0:0:0:0:
64,192,51720,1,0,0:0:0:0:
192,192,51803,1,0,0:0:0:0:
320,192,51886,128,2,52053:0:0:0:0:
448,192,51886,128,4,52053:0:0:0:0:
64,192,52220,1,0,0:0:0:0:
192,192,52220,1,2,0:0:0:0:
64,192,52386,128,4,52553:0:0:0:0:
192,192,52386,128,2,52553:0:0:0:0:
192,192,52720,1,2,0:0:0:0:
448,192,52720,1,0,0:0:0:0:
192,192,52886,128,2,53053:0:0:0:0:
448,192,52886,128,4,53053:0:0:0:0:
64,192,53220,1,0,0:0:0:0:
320,192,53220,1,2,0:0:0:0:
64,192,53386,128,4,53553:0:0:0:0:
320,192,53386,128,2,53553:0:0:0:0:
320,192,53720,1,2,0:0:0:0:
448,192,53720,1,0,0:0:0:0:
192,192,53886,1,0,0:0:0:0:
320,192,53886,1,2,0:0:0:0:
64,192,54053,1,0,0:0:0:0:
192,192,54053,1,2,0:0:0:0:
448,192,54386,128,2,56386:0:0:0:0:
64,192,54386,128,2,56386:0:0:0:0:
320,192,54386,1,4,0:0:0:0:
320,192,56386,5,2,2:0:0:0:
192,192,56553,1,2,2:0:0:0:
64,192,56719,1,2,2:0:0:0:
192,192,56886,1,2,2:0:0:0:
320,192,57053,1,2,2:0:0:0:
64,192,57219,128,2,57552:0:0:0:0:
192,192,57219,1,0,0:0:0:0:
448,192,57219,1,4,0:0:0:0:
320,192,57385,1,0,0:0:0:0:
448,192,57552,128,8,57885:0:0:0:0:
192,192,57552,1,0,0:0:0:0:
320,192,57885,1,0,0:0:0:0:
192,192,58052,1,2,0:0:0:0:
64,192,58219,1,0,0:0:0:0:
448,192,58219,1,8,0:0:0:0:
320,192,58302,1,0,0:0:0:0:
192,192,58385,1,0,0:0:0:0:
320,192,58469,1,0,0:0:0:0:
64,192,58552,1,0,0:0:0:0:
192,192,58552,1,2,0:0:0:0:
320,192,58719,1,0,0:0:0:0:
448,192,58719,1,0,0:0:0:0:
448,192,58885,128,0,59052:0:0:0:0:
192,192,58885,1,8,0:0:0:0:
320,192,59052,128,0,59219:0:0:0:0:
64,192,59052,1,0,0:0:0:0:
448,192,59219,1,0,0:0:0:0:
192,192,59219,128,0,59385:0:0:0:0:
64,192,59385,1,2,0:0:0:0:
192,192,59552,1,0,0:0:0:0:
448,192,59552,1,8,0:0:0:0:
320,192,59635,1,0,0:0:0:0:
64,192,59719,1,0,0:0:0:0:
192,192,59802,1,0,0:0:0:0:
448,192,59885,128,2,60052:0:0:0:0:
320,192,59885,128,0,60052:0:0:0:0:
192,192,60052,128,0,60219:0:0:0:0:
64,192,60219,128,0,60385:0:0:0:0:
320,192,60219,1,8,0:0:0:0:
448,192,60385,128,0,60552:0:0:0:0:
320,192,60552,128,0,60719:0:0:0:0:
64,192,60552,1,0,0:0:0:0:
192,192,60719,128,2,60885:0:0:0:0:
64,192,60885,128,0,61052:0:0:0:0:
448,192,60885,1,8,0:0:0:0:
320,192,61052,128,0,61218:0:0:0:0:
192,192,61218,128,0,61385:0:0:0:0:
448,192,61218,1,2,0:0:0:0:
64,192,61385,128,0,61552:0:0:0:0:
192,192,61552,128,0,61718:0:0:0:0:
320,192,61552,1,8,0:0:0:0:
448,192,61718,128,0,62052:0:0:0:0:
64,192,61718,1,0,0:0:0:0:
192,192,62052,1,2,0:0:0:0:
448,192,62218,1,0,0:0:0:0:
64,192,62218,1,8,0:0:0:0:
320,192,62302,1,0,0:0:0:0:
192,192,62385,1,0,0:0:0:0:
448,192,62552,128,4,62885:0:0:0:0:
64,192,62552,1,2,0:0:0:0:
320,192,62552,128,0,62885:0:0:0:0:
192,192,62885,1,8,0:0:0:0:
64,192,63052,1,0,0:0:0:0:
448,192,63052,1,0,0:0:0:0:
320,192,63135,1,0,0:0:0:0:
192,192,63218,1,0,0:0:0:0:
320,192,63302,1,0,0:0:0:0:
192,192,63385,128,0,63718:0:0:0:0:
64,192,63385,1,2,0:0:0:0:
320,192,63718,128,0,64052:0:0:0:0:
448,192,63718,128,0,64052:0:0:0:0:
64,192,64052,1,0,0:0:0:0:
448,192,64218,1,8,0:0:0:0:
192,192,64218,1,0,0:0:0:0:
320,192,64385,1,0,0:0:0:0:
192,192,64468,1,0,0:0:0:0:
64,192,64552,1,0,0:0:0:0:
448,192,64552,1,0,0:0:0:0:
192,192,64635,1,0,0:0:0:0:
320,192,64718,1,2,0:0:0:0:
192,192,64885,1,0,0:0:0:0:
64,192,64885,1,8,0:0:0:0:
320,192,64968,1,0,0:0:0:0:
448,192,65052,1,0,0:0:0:0:
320,192,65135,1,0,0:0:0:0:
64,192,65218,128,2,65552:0:0:0:0:
192,192,65218,128,0,65552:0:0:0:0:
448,192,65552,1,8,0:0:0:0:
320,192,65718,128,0,66052:0:0:0:0:
192,192,66052,1,2,0:0:0:0:
64,192,66218,1,0,0:0:0:0:
448,192,66218,1,8,0:0:0:0:
192,192,66302,1,0,0:0:0:0:
320,192,66385,1,0,0:0:0:0:
64,192,66552,1,2,0:0:0:0:
192,192,66552,1,0,0:0:0:0:
320,192,66718,128,0,67052:0:0:0:0:
448,192,66718,128,0,67052:0:0:0:0:
64,192,67052,1,0,0:0:0:0:
192,192,67135,1,0,0:0:0:0:
320,192,67218,1,0,0:0:0:0:
448,192,67218,1,0,0:0:0:0:
64,192,67302,1,0,0:0:0:0:
192,192,67385,1,2,0:0:0:0:
320,192,67468,1,0,0:0:0:0:
448,192,67552,1,8,0:0:0:0:
64,192,67552,1,0,0:0:0:0:
320,192,67635,1,0,0:0:0:0:
192,192,67718,1,0,0:0:0:0:
64,192,67802,1,0,0:0:0:0:
192,192,67885,128,4,68052:0:0:0:0:
448,192,67885,128,2,68052:0:0:0:0:
64,192,68052,128,0,68218:0:0:0:0:
320,192,68218,128,0,68385:0:0:0:0:
448,192,68218,128,0,68385:0:0:0:0:
192,192,68218,1,8,0:0:0:0:
64,192,68385,128,0,68552:0:0:0:0:
192,192,68552,128,0,68718:0:0:0:0:
320,192,68718,128,2,68885:0:0:0:0:
448,192,68718,128,0,68885:0:0:0:0:
192,192,68885,128,8,69052:0:0:0:0:
64,192,69052,128,0,69218:0:0:0:0:
320,192,69218,128,0,69385:0:0:0:0:
448,192,69218,128,0,69385:0:0:0:0:
192,192,69218,1,2,0:0:0:0:
64,192,69385,128,0,69552:0:0:0:0:
320,192,69552,128,8,69718:0:0:0:0:
448,192,69718,128,0,69885:0:0:0:0:
192,192,69718,128,0,69885:0:0:0:0:
64,192,69718,1,0,0:0:0:0:
320,192,69885,128,0,70052:0:0:0:0:
192,192,70052,128,2,70218:0:0:0:0:
448,192,70218,128,8,70552:0:0:0:0:
320,192,70218,128,0,70385:0:0:0:0:
64,192,70385,128,0,70552:0:0:0:0:
192,192,70552,1,2,0:0:0:0:
320,192,70552,1,0,0:0:0:0:
192,192,70718,1,0,0:0:0:0:
448,192,70718,1,0,0:0:0:0:
320,192,70885,1,8,0:0:0:0:
64,192,70885,1,0,0:0:0:0:
192,192,71052,1,0,0:0:0:0:
320,192,71218,1,0,0:0:0:0:
448,192,71218,1,0,0:0:0:0:
192,192,71385,1,2,0:0:0:0:
64,192,71385,1,0,0:0:0:0:
320,192,71552,1,8,0:0:0:0:
192,192,71718,1,0,0:0:0:0:
448,192,71718,1,0,0:0:0:0:
320,192,71885,1,0,0:0:0:0:
192,192,72052,1,0,0:0:0:0:
320,192,72218,1,8,0:0:0:0:
64,192,72218,1,0,0:0:0:0:
448,192,72385,1,0,0:0:0:0:
192,192,72552,1,0,0:0:0:0:
320,192,72718,1,2,0:0:0:0:
192,192,72885,1,8,0:0:0:0:
448,192,72885,1,0,0:0:0:0:
64,192,73052,1,0,0:0:0:0:
320,192,73052,1,0,0:0:0:0:
192,192,73218,128,4,73552:0:0:0:0:
448,192,73218,128,2,73552:0:0:0:0:
64,192,73552,1,8,0:0:0:0:
320,192,73718,128,0,74052:0:0:0:0:
448,192,73718,128,0,74052:0:0:0:0:
192,192,74052,1,2,0:0:0:0:
64,192,74218,1,0,0:0:0:0:
448,192,74218,1,8,0:0:0:0:
320,192,74302,1,0,0:0:0:0:
192,192,74385,1,0,0:0:0:0:
64,192,74468,1,0,0:0:0:0:
320,192,74552,1,0,0:0:0:0:
448,192,74552,1,2,0:0:0:0:
192,192,74718,1,0,0:0:0:0:
64,192,74885,1,0,0:0:0:0:
320,192,74885,1,8,0:0:0:0:
192,192,75052,1,0,0:0:0:0:
448,192,75052,128,0,75218:0:0:0:0:
320,192,75218,128,0,75385:0:0:0:0:
64,192,75218,1,0,0:0:0:0:
192,192,75385,128,2,75552:0:0:0:0:
64,192,75552,128,0,75718:0:0:0:0:
320,192,75552,1,8,0:0:0:0:
192,192,75718,128,0,75885:0:0:0:0:
448,192,75718,1,2,0:0:0:0:
320,192,75885,1,0,0:0:0:0:
64,192,76218,128,0,76385:0:0:0:0:
192,192,76218,128,8,76385:0:0:0:0:
320,192,76385,128,0,76718:0:0:0:0:
448,192,76385,128,0,76718:0:0:0:0:
64,192,76718,1,2,0:0:0:0:
320,192,76885,1,0,0:0:0:0:
448,192,76885,1,8,0:0:0:0:
192,192,76968,1,0,0:0:0:0:
64,192,77052,1,0,0:0:0:0:
320,192,77135,1,0,0:0:0:0:
192,192,77218,1,0,0:0:0:0:
448,192,77218,1,2,0:0:0:0:
320,192,77385,1,8,0:0:0:0:
192,192,77468,1,0,0:0:0:0:
448,192,77552,1,0,0:0:0:0:
64,192,77552,1,2,0:0:0:0:
320,192,77635,1,0,0:0:0:0:
192,192,77718,1,8,0:0:0:0:
448,192,77885,1,0,0:0:0:0:
64,192,77885,1,2,0:0:0:0:
192,192,77968,1,0,0:0:0:0:
320,192,78052,1,8,0:0:0:0:
448,192,78135,1,0,0:0:0:0:
64,192,78218,1,2,0:0:0:0:
192,192,78218,1,4,0:0:0:0:
320,192,78302,1,0,0:0:0:0:
64,192,78385,1,8,0:0:0:0:
448,192,78385,1,4,0:0:0:0:
192,192,78468,1,0,0:0:0:0:
448,192,78552,1,2,0:0:0:0:
320,192,78552,1,4,0:0:0:0:
64,192,78885,1,2,0:0:0:0:
448,192,78885,1,0,0:0:0:0:
192,192,78968,1,0,0:0:0:0:
320,192,79052,1,0,0:0:0:0:
448,192,79135,1,0,0:0:0:0:
64,192,79218,1,0,0:0:0:0:
192,192,79218,1,0,0:0:0:0:
320,192,79302,1,0,0:0:0:0:
448,192,79385,1,0,0:0:0:0:
320,192,79468,1,0,0:0:0:0:
192,192,79552,1,0,0:0:0:0:
64,192,79552,1,2,0:0:0:0:
320,192,79885,1,0,0:0:0:0:
448,192,79885,1,4,0:0:0:0:
64,192,80218,1,0,0:0:0:0:
448,192,80218,1,2,0:0:0:0:
320,192,80302,1,0,0:0:0:0:
192,192,80385,1,0,0:0:0:0:
64,192,80468,1,0,0:0:0:0:
320,192,80552,1,0,0:0:0:0:
448,192,80552,1,0,0:0:0:0:
192,192,80635,1,0,0:0:0:0:
64,192,80718,1,0,0:0:0:0:
192,192,80802,1,0,0:0:0:0:
320,192,80885,1,0,0:0:0:0:
448,192,80885,1,2,0:0:0:0:
192,192,81218,1,0,0:0:0:0:
320,192,81218,1,4,0:0:0:0:
64,192,81552,1,2,0:0:0:0:
192,192,81552,1,0,0:0:0:0:
320,192,81635,1,0,0:0:0:0:
448,192,81718,1,0,0:0:0:0:
64,192,81802,1,0,0:0:0:0:
320,192,81885,1,0,0:0:0:0:
192,192,81885,1,2,0:0:0:0:
448,192,81968,1,0,0:0:0:0:
64,192,82052,1,0,0:0:0:0:
192,192,82135,1,0,0:0:0:0:
320,192,82218,1,0,0:0:0:0:
448,192,82218,1,2,0:0:0:0:
192,192,82552,1,0,0:0:0:0:
320,192,82552,1,4,0:0:0:0:
320,192,82885,1,0,0:0:0:0:
448,192,82885,1,2,0:0:0:0:
192,192,82968,1,0,0:0:0:0:
64,192,83052,1,0,0:0:0:0:
448,192,83135,1,0,0:0:0:0:
192,192,83218,1,0,0:0:0:0:
320,192,83218,1,2,0:0:0:0:
64,192,83302,1,0,0:0:0:0:
448,192,83385,1,0,0:0:0:0:
320,192,83468,1,0,0:0:0:0:
192,192,83552,1,0,0:0:0:0:
64,192,83552,1,2,0:0:0:0:
64,192,83885,1,0,0:0:0:0:
448,192,83885,1,4,0:0:0:0:
192,192,84218,1,0,0:0:0:0:
320,192,84218,1,2,0:0:0:0:
64,192,84302,1,0,0:0:0:0:
192,192,84385,1,0,0:0:0:0:
320,192,84468,1,0,0:0:0:0:
448,192,84552,1,2,0:0:0:0:
64,192,84552,1,0,0:0:0:0:
320,192,84635,1,0,0:0:0:0:
192,192,84718,1,0,0:0:0:0:
64,192,84802,1,0,0:0:0:0:
192,192,84885,1,0,0:0:0:0:
320,192,84885,1,2,0:0:0:0:
448,192,85218,1,4,0:0:0:0:
64,192,85218,1,0,0:0:0:0:
320,192,85552,1,2,0:0:0:0:
192,192,85552,1,0,0:0:0:0:
448,192,85635,1,0,0:0:0:0:
320,192,85718,1,0,0:0:0:0:
192,192,85802,1,0,0:0:0:0:
64,192,85885,1,0,0:0:0:0:
448,192,85885,1,2,0:0:0:0:
192,192,85968,1,0,0:0:0:0:
320,192,86052,1,0,0:0:0:0:
448,192,86135,1,0,0:0:0:0:
192,192,86218,1,4,0:0:0:0:
320,192,86218,1,0,0:0:0:0:
64,192,86302,1,0,0:0:0:0:
448,192,86302,1,0,0:0:0:0:
192,192,86385,1,4,0:0:0:0:
320,192,86385,1,0,0:0:0:0:
448,192,86468,1,0,0:0:0:0:
64,192,86468,1,0,0:0:0:0:
448,192,86885,1,2,2:0:0:0:
320,192,87218,128,2,87552:2:0:0:0:
192,192,87718,1,2,2:0:0:0:
64,192,88052,1,2,2:0:0:0:
64,192,88218,128,2,90552:2:0:0:0:
