osu file format v12

[General]
AudioFilename: SeventH-HeaveN.mp3
AudioLeadIn: 0
PreviewTime: 55748
Countdown: 0
SampleSet: Soft
StackLeniency: 0.7
Mode: 0
LetterboxInBreaks: 1
WidescreenStoryboard: 0

[Editor]
DistanceSpacing: 1
BeatDivisor: 4
GridSize: 4
TimelineZoom: 1

[Metadata]
Title:SeventH-HeaveN
TitleUnicode:SeventH-HeaveN
Artist:sasakure.UK feat. Hatsune Miku
ArtistUnicode:sasakure.UK feat. 初音ミク
Creator:Loli -[Koinuri]
Version:Normal
Source:セブンスドラゴン2020
Tags:Seventh Dragon 2020 Vocaloid captin1 Genjitsu Aesop
BeatmapID:385123
BeatmapSetID:154058

[Difficulty]
HPDrainRate:4
CircleSize:4
OverallDifficulty:4
ApproachRate:5
SliderMultiplier:1.2
SliderTickRate:1

[Events]
//Background and Video events
0,0,"notloveiswar.jpg",0,0
//Break Periods
//Storyboard Layer 0 (Background)
//Storyboard Layer 1 (Fail)
//Storyboard Layer 2 (Pass)
//Storyboard Layer 3 (Foreground)
//Storyboard Sound Samples
//Background Colour Transformations
3,100,163,162,255

[TimingPoints]
6750,333.333333333333,4,2,1,75,1,0
8083,-100,4,2,1,40,0,0
18749,-100,4,2,1,60,0,0
48083,333.333333333333,3,2,1,75,1,0
50083,333.333333333333,4,2,1,75,1,0
51249,333.333333333333,3,2,1,75,1,0
53748,333.333333333333,6,2,1,75,1,0
56581,333.333333333333,4,2,1,75,1,0
56581,-100,4,1,1,75,0,1
77914,333.333333333333,6,2,1,75,1,0
77914,-100,6,2,1,60,0,0
86247,-100,6,2,1,40,0,0

[Colours]
Combo1 : 0,147,73
Combo2 : 255,0,255
Combo3 : 255,26,19

[HitObjects]
43,35,8083,6,0,L|191:39,1,120,4|0,0:0|0:0,0:0:0:0:
223,40,8583,1,0,0:0:0:0:
162,143,8916,2,0,L|42:139,2,120
222,146,9749,1,0,0:0:0:0:
429,24,10416,1,8,0:0:0:0:
320,90,10749,6,0,L|172:94,1,120,0|0,0:0|0:0,0:0:0:0:
140,95,11249,1,0,0:0:0:0:
142,214,11582,2,0,L|22:218,2,120
202,213,12416,1,0,0:0:0:0:
255,320,12749,2,0,P|328:327|382:315,1,120,0|8,1:0|0:0,0:0:0:0:
408,201,13416,6,0,P|427:138|423:55,1,120,2|0,0:0|0:0,0:0:0:0:
376,53,13916,2,0,P|308:56|256:103,1,120,2|0,0:0|0:0,0:0:0:0:
231,133,14416,2,0,P|181:165|122:165,1,120,2|0,0:0|0:0,0:0:0:0:
147,48,15083,1,0,0:0:0:0:
307,340,16083,6,0,P|389:346|430:332,1,120,2|0,0:0|0:0,0:0:0:0:
464,290,16583,2,0,P|470:208|456:167,1,120,2|0,0:0|0:0,0:0:0:0:
419,127,17083,2,0,P|337:121|296:135,1,120,2|0,0:0|0:0,0:0:0:0:
233,216,17749,1,0,0:0:0:0:
259,99,18083,1,8,0:0:0:0:
377,83,18416,1,0,0:0:0:0:
437,186,18749,6,0,L|443:318,1,120,4|8,0:0|0:0,0:0:0:0:
443,365,19249,1,0,0:0:0:0:
340,301,19583,2,0,L|330:360,2,60,0|8|0,0:0|0:0|0:0,0:0:0:0:
322,240,20083,2,0,P|243:199|169:213,1,120,0|8,0:0|0:0,0:0:0:0:
101,240,20749,2,0,P|180:281|254:267,1,120,0|8,0:0|0:0,0:0:0:0:
304,208,21416,6,0,L|346:90,1,120,0|8,0:0|0:0,0:0:0:0:
365,38,21916,1,0,0:0:0:0:
245,51,22249,2,0,L|162:60,2,60,0|8|0,0:0|0:0|0:0,0:0:0:0:
304,45,22749,2,0,L|437:30,1,120,0|8,0:0|0:0,0:0:0:0:
504,119,23416,2,0,L|369:132,1,120,0|8,0:0|0:0,0:0:0:0:
376,251,24083,6,0,P|315:250|244:214,1,120,2|0,0:0|0:0,3:0:0:0:
205,205,24583,2,0,P|138:186|79:192,1,120,2|0,0:0|0:0,0:0:0:0:
67,134,25083,2,0,P|32:140|1:132,1,60,2|0,0:0|0:0,0:0:0:0:
108,68,25583,2,0,P|134:52|181:48,2,60,0|0|0,0:0|0:0|0:0,0:0:0:0:
67,134,26083,2,0,L|63:208,1,60,8|0,0:0|0:0,0:0:0:0:
12,302,26583,1,0,0:0:0:0:
69,285,26749,6,0,P|140:266|213:273,1,120,2|0,0:0|0:0,0:0:0:0:
243,285,27249,2,0,P|302:284|360:267,1,120,2|0,0:0|0:0,0:0:0:0:
403,225,27749,2,0,P|427:243|448:271,1,60,2|0,0:0|0:0,0:0:0:0:
355,346,28249,1,0,0:0:0:0:
296,360,28416,2,0,P|265:364|230:359,1,60,8|0,0:0|0:0,0:0:0:0:
178,345,28749,2,0,P|116:296|104:180,1,180,0|0,0:0|0:0,0:0:0:0:
100,140,29416,6,0,P|107:77|83:7,1,120,4|0,0:0|0:0,0:0:0:0:
32,16,29916,1,2,0:0:0:0:
165,21,30249,1,0,0:0:0:0:
100,140,30583,2,0,B|187:130|187:130|225:141,1,120,0|2,0:0|0:0,0:0:0:0:
302,226,31249,1,0,0:0:0:0:
353,117,31583,2,0,B|377:95|377:95|460:67,1,120
463,127,32083,6,0,L|462:201,1,60
460,307,32583,1,2,0:0:0:0:
349,261,32916,1,0,0:0:0:0:
229,249,33249,2,0,P|154:255|107:279,1,120,0|2,0:0|0:0,0:0:0:0:
104,333,33749,2,0,P|74:347|36:355,2,60
61,220,34416,1,2,0:0:0:0:
146,136,34749,6,0,P|225:122|277:132,1,120,0|0,0:0|0:0,0:0:0:0:
292,75,35249,2,0,P|393:77|419:69,1,120,2|0,0:0|0:0,0:0:0:0:
384,189,35916,1,0,0:0:0:0:
390,308,36249,1,2,0:0:0:0:
279,260,36583,2,0,L|202:267,2,60,0|0|0,0:0|0:0|0:0,0:0:0:0:
338,249,37083,6,0,L|333:189,1,60
273,190,37416,2,0,L|134:200,1,120,4|2,0:0|0:0,0:0:0:0:
92,202,37916,2,0,P|35:193|-1:147,1,120,2|0,0:0|0:0,0:0:0:0:
6,88,38416,1,4,0:0:0:0:
121,56,38749,1,0,0:0:0:0:
241,53,39083,1,0,0:0:0:0:
349,105,39416,2,0,B|385:186|385:186|380:238,1,120,4|2,0:0|0:0,0:0:0:0:
359,335,40083,6,0,P|296:354|243:340,1,120,4|0,0:0|0:0,0:0:0:0:
198,303,40583,1,2,0:0:0:0:
295,234,40916,1,0,0:0:0:0:
414,234,41249,2,0,P|469:275|473:345,2,120,0|2|0,0:0|0:0|0:0,0:0:0:0:
356,252,42083,1,0,0:0:0:0:
295,234,42249,2,0,P|240:193|236:123,1,120
225,85,42749,6,0,P|198:59|151:46,1,60
284,121,43249,2,0,P|317:70|393:41,1,120
488,49,43916,2,0,P|455:100|379:129,1,120
361,239,44583,2,0,P|411:245|434:239,1,60,2|2,0:0|0:0,0:0:0:0:
305,205,45083,1,0,0:0:0:0:
247,310,45416,6,0,P|305:322|363:309,1,120
416,280,45916,2,0,P|454:234|470:176,1,120,2|0,0:0|0:0,0:0:0:0:
412,71,46583,2,0,P|353:58|295:76,1,120,0|2,0:0|0:0,0:0:0:0:
358,177,47249,1,0,0:0:0:0:
478,174,47583,2,0,P|461:231|424:277,1,120,2|0,0:0|0:0,0:0:0:0:
373,309,48083,6,0,P|320:329|257:326,1,120,2|0,0:0|0:0,0:0:0:0:
204,298,48583,2,0,P|160:262|131:206,1,120,2|0,0:0|0:0,3:0:0:0:
130,147,49083,6,0,P|139:91|173:38,1,120,2|0,0:0|0:0,3:0:0:0:
233,38,49583,2,0,P|276:73|305:129,1,120,2|0,0:0|0:0,3:0:0:0:
306,188,50083,6,0,P|296:243|262:296,1,120,2|0,0:0|0:0,3:0:0:0:
212,326,50583,2,0,P|159:346|96:343,1,120,2|0,0:0|0:0,3:0:0:0:
45,311,51083,1,0,0:0:0:0:
69,256,51249,6,0,P|92:186|92:130,1,120,4|0,0:0|0:0,0:0:0:0:
152,124,51749,2,0,P|196:64|243:33,1,120,4|0,0:0|0:0,0:0:0:0:
293,39,52249,6,0,P|342:71|379:118,1,120,4|0,0:0|0:0,0:0:0:0:
439,130,52749,2,0,P|446:188|470:242,1,120,4|0,0:0|0:0,0:0:0:0:
460,297,53249,2,0,P|473:330|477:365,1,60,4|4,0:0|0:0,0:0:0:0:
256,192,53748,12,2,55748,0:0:0:0:
256,311,56581,6,0,P|336:307|384:315,1,120,4|8,2:0|0:0,0:0:0:0:
466,235,57247,2,0,P|434:242|391:235,1,60
288,217,57747,2,0,P|227:210|160:230,1,120
121,258,58247,2,0,P|106:281|97:321,1,60,8|0,0:0|0:0,0:0:0:0:
46,279,58581,2,0,P|49:220|24:153,1,120,0|8,0:0|0:0,0:0:0:0:
12,44,59247,6,0,P|88:36|132:46,1,120,4|8,2:0|0:0,0:0:0:0:
177,82,59747,1,0,0:0:0:0:
205,197,60081,1,0,0:0:0:0:
241,311,60414,2,0,L|266:376,1,60
332,269,60914,2,0,L|357:204,1,60,8|0,0:0|0:0,0:0:0:0:
378,95,61414,2,0,P|312:55|268:46,1,120,0|0,0:0|0:0,0:0:0:0:
210,53,61914,6,0,P|153:82|117:144,1,120,4|8,2:0|0:0,0:0:0:0:
62,133,62414,2,0,P|80:200|66:269,1,120
18,356,63080,1,2,2:0:0:0:
136,378,63414,1,2,2:0:0:0:
247,334,63747,1,2,2:0:0:0:
321,239,64081,1,2,2:0:0:0:
423,177,64414,1,0,0:0:0:0:
423,177,64580,6,0,L|333:81,1,120,4|8,2:0|0:0,0:0:0:0:
284,67,65080,2,0,P|197:58|163:73,1,120
231,172,65747,1,2,2:0:0:0:
342,128,66080,1,2,2:0:0:0:
322,246,66414,1,2,2:0:0:0:
211,290,66747,1,2,2:0:0:0:
120,215,67080,1,0,0:0:0:0:
120,215,67247,6,0,P|113:147|142:84,1,120,4|8,2:0|0:0,0:0:0:0:
228,30,67914,2,0,P|256:22|293:26,1,60
406,36,68414,2,0,P|450:78|454:143,1,120
416,179,68914,2,0,P|407:217|412:247,1,60,8|0,0:0|0:0,0:0:0:0:
458,271,69247,2,0,P|445:328|389:366,1,120,0|8,0:0|0:0,0:0:0:0:
339,258,69914,6,0,P|313:162|336:126,1,120,4|8,2:0|0:0,0:0:0:0:
273,109,70414,2,0,P|281:50|252:0,1,120,0|0,1:0|1:0,0:0:0:0:
147,56,71080,2,0,P|116:48|82:48,1,60
35,155,71580,2,0,P|66:163|100:163,1,60,8|0,0:0|0:0,0:0:0:0:
214,164,72080,2,0,P|280:172|341:154,1,120
382,127,72580,6,0,P|452:104|507:115,1,120,4|8,2:0|0:0,0:0:0:0:
495,171,73080,2,0,P|518:241|507:296,1,120
394,244,73747,1,2,2:0:0:0:
284,196,74080,1,2,2:0:0:0:
380,125,74414,1,2,2:0:0:0:
394,244,74747,1,2,2:0:0:0:
298,315,75080,1,0,0:0:0:0:
298,315,75247,6,0,P|225:286|150:287,1,120,4|8,2:0|0:0,0:0:0:0:
124,291,75747,2,0,P|62:339|25:405,1,120
3,258,76414,1,2,2:0:0:0:
110,204,76747,1,2,2:0:0:0:
14,131,77080,1,2,2:0:0:0:
121,77,77413,1,2,2:0:0:0:
217,150,77747,1,0,0:0:0:0:
217,150,77914,6,0,L|352:161,1,120,4|2,0:0|0:0,0:0:0:0:
456,170,78580,1,2,0:0:0:0:
327,295,79080,2,0,L|341:105,1,180,2|2,0:0|0:0,0:0:0:0:
453,74,79914,6,0,P|447:134|392:188,1,120,4|2,0:0|0:0,0:0:0:0:
290,170,80580,1,2,0:0:0:0:
202,327,81080,2,0,P|139:340|32:298,1,180,2|2,0:0|0:0,0:0:0:0:
12,181,81914,5,4,0:0:0:0:
85,86,82247,2,0,P|146:80|211:103,1,120,2|2,0:0|0:0,0:0:0:0:
301,246,83080,2,0,P|377:268|485:220,1,180,2|2,0:0|0:0,0:0:0:0:
395,346,83914,5,4,0:0:0:0:
384,194,84247,2,0,L|373:60,1,120,2|2,0:0|0:0,0:0:0:0:
277,226,85080,1,2,0:0:0:0:
212,327,85413,2,0,L|146:339,2,60
60,229,86247,6,0,P|51:166|58:99,1,120
233,74,87080,1,0,0:0:0:0:
265,189,87413,2,0,P|271:232|268:260,1,60
