osu file format v12

[General]
AudioFilename: SeventH-HeaveN.mp3
AudioLeadIn: 0
PreviewTime: 55748
Countdown: 0
SampleSet: Soft
StackLeniency: 0.7
Mode: 0
LetterboxInBreaks: 1
WidescreenStoryboard: 0

[Editor]
DistanceSpacing: 0.8
BeatDivisor: 4
GridSize: 4
TimelineZoom: 1

[Metadata]
Title:SeventH-HeaveN
TitleUnicode:SeventH-HeaveN
Artist:sasakure.UK feat. Hatsune Miku
ArtistUnicode:sasakure.UK feat. 初音ミク
Creator:Loli -[Koinuri]
Version:Easy
Source:セブンスドラゴン2020
Tags:Seventh Dragon 2020 Vocaloid captin1 Genjitsu Aesop
BeatmapID:380445
BeatmapSetID:154058

[Difficulty]
HPDrainRate:3
CircleSize:3
OverallDifficulty:2
ApproachRate:3
SliderMultiplier:0.899999999999999
SliderTickRate:1

[Events]
//Background and Video events
0,0,"notloveiswar.jpg",0,0
//Break Periods
//Storyboard Layer 0 (Background)
//Storyboard Layer 1 (Fail)
//Storyboard Layer 2 (Pass)
//Storyboard Layer 3 (Foreground)
//Storyboard Sound Samples
//Background Colour Transformations
3,100,163,162,255

[TimingPoints]
6750,333.333333333333,4,2,1,75,1,0
8083,-100,4,2,1,40,0,0
15416,-100,4,2,1,10,0,0
15499,-100,4,2,1,40,0,0
18749,-100,4,2,1,60,0,0
31083,-100,4,2,3,60,0,0
31166,-100,4,2,1,60,0,0
33749,-100,4,2,3,60,0,0
33832,-100,4,2,1,60,0,0
36416,-100,4,2,3,60,0,0
36499,-100,4,2,1,60,0,0
41749,-100,4,2,3,60,0,0
41833,-100,4,2,1,60,0,0
44416,-100,4,2,3,60,0,0
44499,-100,4,2,1,60,0,0
47083,-100,4,2,3,60,0,0
47166,-100,4,2,1,60,0,0
48083,333.333333333333,3,2,1,75,1,0
50083,333.333333333333,4,2,1,75,1,0
51249,333.333333333333,3,2,1,75,1,0
53748,333.333333333333,6,2,1,75,1,0
56581,333.333333333333,4,2,1,75,1,0
56581,-100,4,1,1,75,0,1
77914,333.333333333333,6,2,1,75,1,0
77914,-100,6,2,1,60,0,0
86247,-100,6,2,1,40,0,0

[Colours]
Combo1 : 0,147,73
Combo2 : 255,0,255
Combo3 : 255,26,19

[HitObjects]
51,78,8083,6,0,P|146:66|229:105,1,180,4|0,0:0|0:0,0:0:0:0:
310,295,9416,2,0,P|215:307|132:268,1,180,0|8,0:0|0:0,0:0:0:0:
341,196,10749,6,0,B|390:210|390:210|439:255|429:334,1,180
249,315,12083,2,0,B|176:325|131:276|131:276|117:227,1,180,0|8,0:0|0:0,0:0:0:0:
141,49,13416,6,0,P|76:28|9:23,2,135,4|2|0,0:0|0:0|0:0,0:0:0:0:
223,118,14749,2,0,B|190:154|148:156|148:156|106:198|110:250,1,180,0|8,1:0|0:0,0:0:0:0:
321,194,16083,6,0,P|385:215|452:220,2,135,4|2|0,0:0|0:0|0:0,0:0:0:0:
236,262,17416,2,0,B|267:300|314:302|314:302|353:342|349:394,1,180,0|8,1:0|0:0,0:0:0:0:
427,180,18749,6,0,L|437:86,2,89.9999999999999,4|8|0,0:0|0:0|0:0,0:0:0:0:
412,288,19749,1,8,0:0:0:0:
309,322,20083,2,0,P|257:331|210:318,2,89.9999999999999,0|8|0,0:0|0:0|0:0,0:0:0:0:
324,215,21083,1,8,0:0:0:0:
217,197,21416,6,0,P|180:173|154:134,2,89.9999999999999,0|8|0,0:0|0:0|0:0,0:0:0:0:
256,97,22416,1,8,0:0:0:0:
161,43,22749,1,0,0:0:0:0:
65,94,23083,2,0,P|51:132|59:192,1,89.9999999999999,8|0,0:0|0:0,0:0:0:0:
160,152,23749,1,8,0:0:0:0:
244,223,24083,6,0,P|269:162|256:97,2,135,4|2|0,0:0|0:0|0:0,0:0:0:0:
161,152,25416,2,0,B|144:208|144:208|113:217|113:217|77:256|82:319,1,180,0|8,1:0|0:0,0:0:0:0:
288,360,26749,6,0,P|224:340|185:286,2,135,4|2|0,0:0|0:0|0:0,0:0:0:0:
289,252,28083,2,0,B|306:196|306:196|337:187|337:187|373:148|368:85,1,180,0|8,1:0|0:0,0:0:0:0:
186,222,29416,6,0,P|138:234|83:214,1,89.9999999999999,4|8,0:0|0:0,0:0:0:0:
56,125,30083,2,0,P|104:113|159:133,1,89.9999999999999,0|8,0:0|0:0,0:0:0:0:
250,112,30749,2,0,B|258:165|258:165|287:181|307:205|307:205|320:245|318:272,1,180
210,264,31749,1,8,0:0:0:0:
176,161,32083,6,0,P|209:131|250:112,1,89.9999999999999,0|8,0:0|0:0,0:0:0:0:
357,123,32749,2,0,P|394:147|422:182,1,89.9999999999999,0|8,0:0|0:0,0:0:0:0:
320,211,33416,2,0,P|264:148|297:50,1,180
389,20,34416,1,8,0:0:0:0:
441,112,34749,6,0,P|405:129|357:123,1,89.9999999999999,0|8,0:0|0:0,0:0:0:0:
248,111,35416,2,0,P|203:111|161:127,1,89.9999999999999,0|8,0:0|0:0,0:0:0:0:
91,209,36083,2,0,P|107:298|196:334,1,180
285,303,37083,1,8,0:0:0:0:
381,254,37416,6,0,P|405:189|394:97,1,135,4|0,0:0|0:0,0:0:0:0:
235,68,38416,2,0,P|211:133|222:225,2,135,4|0|4,0:0|0:0|0:0,0:0:0:0:
330,17,39749,1,0,0:0:0:0:
407,92,40083,6,0,P|353:123|313:123,1,89.9999999999999,4|8,0:0|0:0,0:0:0:0:
235,68,40749,2,0,P|179:37|138:40,1,89.9999999999999,0|8,0:0|0:0,0:0:0:0:
56,83,41416,2,0,P|37:135|71:258,1,180
150,320,42416,1,8,0:0:0:0:
253,289,42749,6,0,P|293:256|316:195,1,89.9999999999999,0|8,0:0|0:0,0:0:0:0:
304,114,43416,2,0,P|276:69|219:38,1,89.9999999999999,0|8,0:0|0:0,0:0:0:0:
200,146,44083,2,0,P|129:197|43:179,1,180
107,92,45083,5,8,0:0:0:0:
201,39,45416,2,0,P|245:51|281:81,1,89.9999999999999,0|8,0:0|0:0,0:0:0:0:
300,184,46083,2,0,P|334:211|378:223,1,89.9999999999999,0|8,0:0|0:0,0:0:0:0:
377,331,46749,2,0,P|290:316|220:254,1,180,0|0,0:0|0:0,0:0:0:0:
192,157,47749,1,0,0:0:0:0:
137,63,48083,6,0,B|182:45|227:52|227:52|277:99,1,135,2|2,0:0|0:0,0:0:0:0:
416,63,49083,2,0,B|370:45|325:52|325:52|275:99,1,135,2|2,0:0|0:0,0:0:0:0:
280,242,50083,2,0,L|280:377,2,135,2|2|0,0:0|0:0|0:0,0:0:0:0:
226,242,51249,6,0,B|194:326|194:326|134:348,1,135,4|4,0:0|0:0,0:0:0:0:
108,185,52249,2,0,B|140:101|140:101|200:79,1,135,4|4,0:0|0:0,0:0:0:0:
343,64,53249,2,0,L|407:51,1,45,4|4,0:0|0:0,0:0:0:0:
256,192,53748,12,2,55748,0:0:0:0:
76,72,56581,5,4,0:2:0:0:
180,46,56914,2,0,P|222:32|281:38,1,89.9999999999999,8|0,0:0|0:0,0:0:0:0:
409,111,57747,2,0,P|415:179|368:228,1,135,0|8,0:0|0:0,0:0:0:0:
265,238,58581,1,0,0:0:0:0:
160,215,58914,1,8,0:0:0:0:
102,123,59247,5,4,0:2:0:0:
160,32,59581,2,0,B|197:39|230:13|230:13|268:19|293:48,1,135,8|0,0:0|0:0,0:0:0:0:
427,112,60580,2,0,P|366:138|301:125,1,135,0|0,0:0|0:2,0:0:0:0:
352,220,61414,2,0,B|342:270|342:270|359:307|359:307|352:362,1,135,0|4,0:0|2:0,0:0:0:0:
251,314,62247,6,0,B|236:277|236:277|245:227,1,89.9999999999999,8|0,1:0|1:0,0:0:0:0:
304,137,62914,1,8,2:2:0:0:
257,39,63247,2,0,L|153:30,1,89.9999999999999,2|2,2:0|2:0,0:0:0:0:
107,121,63914,2,0,L|196:128,1,89.9999999999999,2|2,2:0|2:0,0:0:0:0:
304,137,64580,5,4,0:2:0:0:
304,252,64914,2,0,B|342:275|342:275|399:270,1,89.9999999999999,8|0,0:0|0:0,0:0:0:0:
466,196,65580,1,8,2:2:0:0:
470,88,65914,2,0,B|432:65|432:65|375:70,1,89.9999999999999,2|2,2:0|2:0,0:0:0:0:
311,145,66580,2,0,L|267:187,2,45,2|0|2,2:0|2:0|2:0,0:0:0:0:
387,69,67247,5,4,0:2:0:0:
414,173,67580,2,0,B|427:231|427:231|451:269|451:269|425:309,1,135,8|0,0:0|0:0,0:0:0:0:
336,340,68414,2,0,P|244:352|172:332,1,135,0|8,0:0|0:0,0:0:0:0:
104,300,69247,2,0,L|68:212,1,89.9999999999999,0|8,0:0|0:0,0:0:0:0:
30,115,69914,5,4,0:2:0:0:
135,138,70247,2,0,B|181:155|181:155|195:194|195:194|250:210,1,135,8|0,0:0|0:0,0:0:0:0:
399,224,71247,2,0,P|441:214|499:133,1,135,0|0,0:0|0:2,0:0:0:0:
402,92,72080,2,0,P|359:101|301:182,1,135,0|4,0:0|0:2,0:0:0:0:
261,268,72914,5,8,0:0:0:0:
155,247,73247,2,0,L|60:216,1,89.9999999999999,0|8,0:0|2:2,0:0:0:0:
77,111,73914,1,2,2:0:0:0:
179,145,74248,1,2,2:0:0:0:
155,247,74580,1,2,2:0:0:0:
258,280,74914,1,2,2:0:0:0:
360,247,75247,6,0,L|338:147,1,89.9999999999999,4|8,0:2|0:0,0:0:0:0:
436,111,75914,2,0,L|458:211,1,89.9999999999999,0|8,0:0|2:0,0:0:0:0:
474,305,76580,2,0,B|411:313|411:313|381:342,1,89.9999999999999,2|2,2:0|2:0,0:0:0:0:
293,286,77247,2,0,B|230:298|230:298|193:281,1,89.9999999999999,2|2,2:0|2:0,0:0:0:0:
120,352,77914,5,4,0:0:0:0:
115,244,78247,2,0,L|111:122,1,89.9999999999999,2|2,0:0|0:0,0:0:0:0:
208,25,79080,2,0,P|271:8|367:34,1,135,2|2,0:0|0:0,0:0:0:0:
443,49,79914,5,4,0:0:0:0:
450,157,80247,2,0,L|454:279,1,89.9999999999999,2|2,0:0|0:0,0:0:0:0:
315,333,81080,2,0,P|252:350|156:324,1,135,2|2,0:0|0:0,0:0:0:0:
82,301,81914,5,4,0:0:0:0:
24,209,82247,2,0,P|78:190|121:198,1,89.9999999999999,2|2,0:0|0:0,0:0:0:0:
247,279,83080,2,0,P|313:291|378:274,1,135,2|2,0:0|0:0,0:0:0:0:
479,235,83914,5,4,0:0:0:0:
381,189,84247,2,0,P|372:147|379:83,1,89.9999999999999,2|2,0:0|0:0,0:0:0:0:
221,153,85080,2,0,P|207:87|211:19,1,135,2|2,0:0|0:0,0:0:0:0:
208,236,86247,6,0,P|145:218|99:221,1,89.9999999999999
33,354,87080,1,0,0:0:0:0:
123,295,87413,2,0,P|145:296|168:304,1,45
