osu file format v12

[General]
AudioFilename: SeventH-HeaveN.mp3
AudioLeadIn: 0
PreviewTime: 55748
Countdown: 0
SampleSet: Soft
StackLeniency: 0.7
Mode: 0
LetterboxInBreaks: 1
WidescreenStoryboard: 0

[Editor]
DistanceSpacing: 0.8
BeatDivisor: 4
GridSize: 8
TimelineZoom: 1

[Metadata]
Title:SeventH-HeaveN
TitleUnicode:SeventH-HeaveN
Artist:sasakure.UK feat. Hatsune Miku
ArtistUnicode:sasakure.UK feat. 初音ミク
Creator:Loli -[Koinuri]
Version:Beginner
Source:セブンスドラゴン2020
Tags:Seventh Dragon 2020 Vocaloid captin1 Genjitsu Aesop
BeatmapID:385047
BeatmapSetID:154058

[Difficulty]
HPDrainRate:2
CircleSize:2
OverallDifficulty:1
ApproachRate:2
SliderMultiplier:0.649999999999999
SliderTickRate:1

[Events]
//Background and Video events
0,0,"notloveiswar.jpg",0,0
//Break Periods
//Storyboard Layer 0 (Background)
//Storyboard Layer 1 (Fail)
//Storyboard Layer 2 (Pass)
//Storyboard Layer 3 (Foreground)
//Storyboard Sound Samples
//Background Colour Transformations
3,100,163,162,255

[TimingPoints]
6750,333.333333333333,4,2,1,75,1,0
8083,-100,4,2,1,40,0,0
18749,-100,4,2,1,60,0,0
19083,-100,4,2,5,60,0,0
19416,-100,4,2,3,60,0,0
19499,-100,4,2,1,60,0,0
21749,-100,4,2,5,60,0,0
22083,-100,4,2,3,60,0,0
22166,-100,4,2,1,60,0,0
24749,-100,4,2,3,60,0,0
24833,-100,4,2,1,60,0,0
27416,-100,4,2,3,60,0,0
27499,-100,4,2,1,60,0,0
48083,333.333333333333,3,2,1,75,1,0
50083,333.333333333333,4,2,1,75,1,0
51249,333.333333333333,3,2,1,75,1,0
53748,333.333333333333,6,2,1,75,1,0
56581,333.333333333333,4,2,1,75,1,0
56581,-100,4,1,1,75,0,1
77914,333.333333333333,6,2,1,75,1,0
77914,-100,6,2,1,60,0,0
86247,-100,6,2,1,40,0,0

[Colours]
Combo1 : 0,147,73
Combo2 : 255,0,255
Combo3 : 255,26,19

[HitObjects]
24,64,8083,6,0,B|121:64|121:64|192:112|212:207,1,260,4|0,0:0|0:0,0:0:0:0:
256,320,10083,1,8,0:0:0:0:
302,196,10749,6,0,B|319:111|390:63|390:63|487:63,1,260
490,192,12749,1,8,0:0:0:0:
389,272,13416,6,0,P|312:312|185:207,1,260,2|0,0:0|0:0,0:0:0:0:
307,170,15416,1,8,0:0:0:0:
186,122,16083,6,0,P|270:32|388:68,1,260,2|0,0:0|0:0,0:0:0:0:
426,193,18083,1,8,0:0:0:0:
338,99,18749,6,0,B|288:64|288:64|220:60|220:60|164:19|96:40,1,260,4|0,0:0|0:0,0:0:0:0:
45,160,20749,1,8,0:0:0:0:
99,279,21416,6,0,B|164:300|221:256|221:256|289:252|289:252|341:216,1,260
436,136,23416,1,8,0:0:0:0:
312,92,24083,6,0,B|296:128|261:149|261:149|241:209|295:239|295:239|336:232|372:248,1,260,2|0,0:0|0:0,0:0:0:0:
320,368,26083,1,8,0:0:0:0:
203,311,26749,6,0,B|217:277|253:255|253:255|273:196|218:165|218:165|178:173|142:157,1,260,2|0,0:0|0:0,0:0:0:0:
196,39,28749,1,8,0:0:0:0:
142,157,29416,6,0,P|82:180|21:161,1,130,4|8,0:0|0:0,0:0:0:0:
76,43,30749,2,0,P|136:20|197:39,1,130,0|8,0:0|0:0,0:0:0:0:
228,164,32083,6,0,P|287:187|348:168,1,130,0|8,0:0|0:0,0:0:0:0:
377,41,33416,1,0,0:0:0:0:
465,136,34083,1,8,0:0:0:0:
440,263,34749,6,0,P|379:282|319:259,1,130,0|8,0:0|0:0,0:0:0:0:
381,144,36083,1,0,0:0:0:0:
259,189,36749,1,8,0:0:0:0:
129,175,37416,6,0,B|155:117|155:117|222:95|227:18,2,195,4|4|4,0:0|0:0|0:0,0:0:0:0:
140,304,40083,6,0,P|208:324|272:300,1,130,4|8,0:0|0:0,0:0:0:0:
332,196,41416,2,0,P|264:176|200:200,1,130,0|8,0:0|0:0,0:0:0:0:
140,304,42749,5,0,0:0:0:0:
78,184,43416,1,8,0:0:0:0:
208,192,44083,2,0,P|269:209|330:189,1,130,0|8,0:0|0:0,0:0:0:0:
386,71,45416,6,0,P|325:54|264:74,1,130,0|8,0:0|0:0,0:0:0:0:
143,124,46749,1,0,0:0:0:0:
111,250,47416,1,8,0:0:0:0:
236,284,48083,6,0,B|279:298|309:345|309:345|342:296|394:279,3,195,2|2|2|2,0:0|0:0|0:0|0:0,0:0:0:0:
256,192,51249,12,2,55748,0:0:0:0:
97,59,56581,6,0,L|245:59,1,130,4|8,2:0|0:0,0:0:0:0:
352,96,57914,1,0,0:0:0:0:
440,192,58581,1,8,0:0:0:0:
316,230,59247,6,0,P|252:194|228:134,1,130,4|8,2:0|0:0,0:0:0:0:
354,106,60580,2,0,P|418:142|442:202,1,130,0|8,0:0|0:0,0:0:0:0:
407,312,61914,6,0,P|353:346|285:344,1,130,4|8,2:0|0:0,0:0:0:0:
320,220,63247,1,2,2:0:0:0:
356,96,63914,1,2,2:0:0:0:
228,119,64580,6,0,P|186:185|186:239,1,130,4|8,2:0|0:0,0:0:0:0:
320,220,65914,1,2,2:0:0:0:
450,177,66580,1,2,2:0:0:0:
346,94,67247,6,0,L|391:241,1,130,4|8,2:0|0:0,0:0:0:0:
318,330,68580,2,0,P|256:347|193:330,1,130,0|8,0:0|0:0,0:0:0:0:
127,218,69914,6,0,L|166:94,1,130,4|8,2:0|0:0,0:0:0:0:
68,180,71247,1,0,0:0:0:0:
192,220,71914,1,8,1:0:0:0:
316,257,72580,6,0,L|449:294,1,130,4|8,2:0|0:0,0:0:0:0:
405,166,73914,2,0,L|279:131,1,130,2|2,2:0|2:0,0:0:0:0:
153,98,75247,6,0,B|64:75|64:75|16:102,1,130,4|8,2:0|0:0,0:0:0:0:
84,212,76580,2,0,B|173:235|173:235|221:208,1,130,2|2,2:0|2:0,0:0:0:0:
336,211,77914,6,0,P|394:184|432:132,2,130,4|2|4,0:0|0:0|3:0,0:0:0:0:
212,169,79914,2,0,P|205:233|231:292,2,130,4|2|4,2:0|0:0|0:3,0:0:0:0:
311,85,81914,6,0,P|258:47|194:40,2,130,4|2|4,2:0|0:0|3:0,3:0:0:0:
336,211,83914,2,0,P|394:184|432:132,2,130,4|2|4,2:0|0:0|3:0,0:0:0:0:
185,87,86247,6,0,B|157:76|124:96|124:96|105:141|56:157|56:157|35:195|32:222|32:222|39:243|53:255,1,260
