osu file format v11

[General]
AudioFilename: Hello,Planet..mp3
AudioLeadIn: 4000
PreviewTime: 86485
Countdown: 0
SampleSet: Soft
StackLeniency: 0.7
Mode: 0
LetterboxInBreaks: 1

[Editor]
Bookmarks: 179285,225285,263685,290885
DistanceSpacing: 0.9
BeatDivisor: 12
GridSize: 4

[Metadata]
Title:*Hello,Planet.
TitleUnicode:*Hello,Planet.
Artist:sasakure.UK feat. Hatsune Miku
ArtistUnicode:sasakure.UK feat. Hatsune Miku
Creator:Faust
Version:SOLO MISSION
Source:
Tags:Vocaloid goodbye Lalarun NatsumeRin Patchouli Suzully yuca eveless
BeatmapID:124522
BeatmapSetID:38950

[Difficulty]
HPDrainRate:7
CircleSize:4
OverallDifficulty:6
ApproachRate:8
SliderMultiplier:1.7
SliderTickRate:2

[Events]
//Background and Video events
0,0,"SAVETHEPLANET.jpg"
Video,-3920,"helloplanet.avi"
//Break Periods
2,179485,190735
2,263885,273935
//Storyboard Layer 0 (Background)
//Storyboard Layer 1 (Fail)
//Storyboard Layer 2 (Pass)
//Storyboard Layer 3 (Foreground)
//Storyboard Sound Samples
//Background Colour Transformations
3,100,0,0,0

[TimingPoints]
85,400,4,2,0,100,1,0
85585,-200,4,2,0,80,0,0
86385,-100,4,2,0,80,0,0
86485,-100,4,2,0,80,0,1
110285,-100,4,2,0,80,0,0
110385,-100,4,2,0,5,0,0
111885,-100,4,2,0,80,0,0
153685,-100,4,2,0,80,0,1
179285,-100,4,2,0,80,0,0
204685,-200,4,2,0,60,0,0
204985,-200,4,2,0,5,0,0
205585,-200,4,2,0,50,0,0
206585,-200,4,2,0,5,0,0
207185,-200,4,2,0,50,0,0
207385,-200,4,2,0,5,0,0
207985,-200,4,2,0,50,0,0
208185,-200,4,2,0,5,0,0
208785,-200,4,2,0,50,0,0
209785,-200,4,2,0,20,0,0
210385,-200,4,2,0,50,0,0
211185,-142.857142857143,4,2,0,80,0,0
214385,-100,4,2,0,80,0,0
222385,-200,4,2,0,80,0,0
222585,-200,4,2,0,5,0,0
225285,400,4,2,0,80,1,1
225285,-100,4,2,0,80,0,1
250885,-100,4,2,0,80,0,0
259385,-142.857142857143,4,2,0,80,0,0
259985,-100,4,2,0,80,0,0
260185,-142.857142857143,4,2,0,80,0,0
278585,-200,4,2,0,80,0,0
279385,-142.857142857143,4,2,0,80,0,0
279985,-200,4,2,0,80,0,0
286385,-100,4,2,0,80,0,0
287385,-200,4,2,0,80,0,0
287585,-200,4,2,0,5,0,0
290985,-100,4,2,0,60,0,0
292285,-100,4,2,0,40,0,0
294185,-100,4,2,0,5,0,0

[Colours]
Combo1 : 247,30,117
Combo2 : 12,252,186
Combo3 : 167,252,116
Combo4 : 63,231,142
Combo5 : 255,113,208
Combo6 : 202,196,202

[HitObjects]
80,96,85,2,0,B|22:110|1:192|57:230,1,170,2|0,0:0|0:0,0:0:0
132,296,618,1,0,0:0:0
132,296,751,1,0,0:0:0
132,296,885,2,0,B|184:276|248:280,1,113.333333333333,0|0,0:0|0:0,0:0:0
352,292,1285,2,0,B|404:320|468:312,1,113.333333333333,2|0,0:0|0:0,0:0:0
460,312,1685,6,0,B|496:352,2,42.5
432,228,2085,1,2,0:0:0
476,144,2285,1,0,0:0:0
476,144,2485,2,0,B|520:128,2,42.5
384,156,2885,1,2,0:0:0
292,144,3085,1,0,0:0:0
292,144,3185,1,0,0:0:0
292,144,3285,6,0,B|224:132|216:40|288:20,1,170,0|2,0:0|0:0,0:0:0
376,40,3885,1,0,0:0:0
376,40,3985,1,0,0:0:0
376,40,4085,2,0,B|436:72|460:144,1,127.5
376,248,4685,1,2,0:0:0
300,300,4885,2,0,B|232:332|124:304,1,170,0|2,0:0|0:0,0:0:0
124,304,5418,1,0,0:0:0
116,300,5551,1,0,0:0:0
108,296,5685,1,2,0:0:0
52,60,6485,5,2,0:0:0
120,128,6685,1,0,0:0:0
212,104,6885,1,0,0:0:0
212,104,7085,2,0,B|280:72|380:88,1,170
436,160,7685,1,0,0:0:0
436,160,7885,1,0,0:0:0
436,160,7985,1,0,0:0:0
436,160,8085,22,0,B|404:188|356:200,1,85,2|0,0:0|0:0,0:0:0
268,204,8485,1,0,0:0:0
220,284,8685,1,0,0:0:0
128,308,8885,1,0,0:0:0
84,224,9085,1,0,0:0:0
144,152,9285,1,0,0:0:0
232,188,9485,1,0,0:0:0
232,188,9585,1,0,0:0:0
232,188,9685,1,2,0:0:0
324,204,9885,6,0,B|312:244,2,42.5
348,112,10285,1,0,0:0:0
348,112,10385,1,0,0:0:0
348,112,10485,2,0,B|392:100|432:108,1,85,2|0,0:0|0:0,0:0:0
476,192,10885,1,0,0:0:0
476,192,11085,5,0,0:0:0
476,192,11185,1,0,0:0:0
476,192,11285,2,0,B|456:232|420:256,1,85,2|0,0:0|0:0,0:0:0
332,284,11685,1,0,0:0:0
284,292,11785,1,0,0:0:0
236,288,11885,1,0,0:0:0
192,272,11985,1,0,0:0:0
152,244,12085,2,0,B|120:220|72:208,1,85,2|0,0:0|0:0,0:0:0
36,124,12485,1,2,0:0:0
84,132,12585,1,0,0:0:0
132,124,12685,1,0,0:0:0
176,108,12785,1,0,0:0:0
216,84,12885,6,0,B|256:60|304:56,1,85,2|0,0:0|0:0,0:0:0
328,144,13285,1,0,0:0:0
328,144,13485,1,0,0:0:0
328,144,13685,1,2,0:0:0
408,192,13885,1,0,0:0:0
480,132,14085,1,0,0:0:0
448,44,14285,5,0,0:0:0
448,44,14385,1,0,0:0:0
448,44,14485,2,0,B|400:28|356:32,1,85,2|0,0:0|0:0,0:0:0
272,36,14885,2,0,B|184:40|104:80,1,170,0|2,0:0|0:0,0:0:0
160,156,15485,1,0,0:0:0
72,192,15685,1,2,0:0:0
20,112,15885,1,0,0:0:0
20,112,15985,1,0,0:0:0
20,112,16085,22,0,B|84:72|188:64,2,170,0|2|0,0:0|0:0|0:0,0:0:0
72,192,17085,2,0,B|120:176,2,42.5,0|0|2,0:0|0:0|0:0,0:0:0
84,284,17485,2,0,B|128:280,2,42.5,0|0|2,0:0|0:0|0:0,0:0:0
72,192,17885,1,0,0:0:0
116,172,17985,1,0,0:0:0
160,160,18085,1,2,0:0:0
208,156,18185,1,0,0:0:0
256,160,18285,1,0,0:0:0
292,248,18485,2,0,B|240:320|140:332,2,170,0|2|0,0:0|0:0|0:0,0:0:0
324,160,19485,5,0,0:0:0
412,188,19685,1,2,0:0:0
460,268,19885,1,0,0:0:0
420,352,20085,2,0,B|336:352,1,85
132,232,20485,2,0,B|216:232,1,85,2|0,0:0|0:0,0:0:0
217,232,20785,1,0,0:0:0
217,232,20885,1,0,0:0:0
312,228,21085,6,0,B|380:216|388:124|316:104,1,170,2|0,0:0|0:0,0:0:0
228,92,21685,1,2,0:0:0
136,108,21885,1,0,0:0:0
56,156,22085,2,0,B|24:188|16:240,1,85,2|0,0:0|0:0,0:0:0
17,230,22385,1,0,0:0:0
17,230,22485,1,0,0:0:0
112,232,22685,1,0,0:0:0
112,232,22885,2,0,B|128:320,1,85,2|0,0:0|0:0,0:0:0
216,352,23285,1,0,0:0:0
216,351,23485,2,0,B|292:312,1,85,2|0,0:0|0:0,0:0:0
300,308,23751,6,0,B|328:316,5,28.3333333333333
280,212,24285,1,0,0:0:0
280,212,24485,2,0,B|328:192,3,42.5,2|0|0|0,0:0|0:0|0:0|0:0,0:0:0
280,212,24885,2,0,B|196:240|100:224,1,170,0|2,0:0|0:0,0:0:0
28,184,25485,1,0,0:0:0
36,92,25685,1,0,0:0:0
112,36,25885,6,0,B|148:120,1,85,0|2,0:0|0:0,0:0:0
184,200,26285,1,0,0:0:0
184,200,26485,2,0,B|256:140,1,85
320,84,26885,1,2,0:0:0
320,84,27085,2,0,B|356:168,1,85
392,248,27485,2,0,B|404:308|356:364|292:352,1,170,0|2,0:0|0:0,0:0:0
204,336,28085,2,0,B|120:320,1,85
36,156,28485,1,2,0:0:0
36,156,28685,2,0,B|108:192|208:176,1,170
292,160,29285,1,2,0:0:0
336,76,29485,21,0,0:0:0
336,76,29585,1,0,0:0:0
336,76,29685,1,0,0:0:0
248,40,29885,1,0,0:0:0
176,100,30085,1,2,0:0:0
192,192,30285,1,0,0:0:0
336,268,30485,1,0,0:0:0
192,192,30885,5,4,0:0:0
336,268,31285,1,4,0:0:0
192,192,31685,1,0,0:0:0
192,192,32085,2,0,B|228:216|284:216,1,85,4|0,0:0|0:0,0:0:0
308,220,32385,1,0,0:0:0
340,216,32485,1,0,0:0:0
476,112,32685,1,0,0:0:0
444,96,32785,1,0,0:0:0
412,88,32885,2,0,B|368:76|320:80,1,85
220,120,33285,1,0,0:0:0
172,40,33485,5,0,0:0:0
172,40,33585,1,0,0:0:0
172,40,33685,2,0,B|232:16|292:44|308:104,1,170
204,256,34285,1,0,0:0:0
204,256,34485,2,0,B|144:280|84:252|68:192,1,170
92,104,35085,5,0,0:0:0
92,104,35185,1,0,0:0:0
92,104,35285,2,0,B|176:120,1,85
308,140,35685,2,0,B|392:128,1,85
428,124,35985,1,0,0:0:0
460,120,36085,2,0,B|520:136|536:212|476:260,1,170
292,292,36685,1,0,0:0:0
292,292,36885,2,0,P|248:224|272:144,1,170
360,124,37485,1,0,0:0:0
360,124,37685,2,0,P|312:64|216:76,1,170
68,228,38285,1,0,0:0:0
68,228,38385,1,0,0:0:0
68,228,38485,6,0,B|92:312|164:356|280:332,1,255,6|0,0:0|0:0,0:0:0
360,292,39285,2,0,B|432:248|420:136,1,170
420,143,39885,1,0,0:0:0
328,156,40085,2,0,B|268:216|168:208,1,170,6|0,0:0|0:0,0:0:0
80,192,40685,1,0,0:0:0
80,192,40885,22,0,B|92:276,1,85
220,348,41285,2,0,B|232:260,1,85
296,152,41685,2,0,B|340:104|424:136|416:212,1,170,6|0,0:0|0:0,0:0:0
396,292,42285,1,0,0:0:0
396,292,42385,1,0,0:0:0
396,292,42485,1,0,0:0:0
308,320,42685,1,0,0:0:0
252,244,42885,1,2,0:0:0
304,168,43085,1,0,0:0:0
396,192,43285,1,0,0:0:0
396,192,43685,6,0,B|440:180,3,42.5
396,192,44085,2,0,B|272:228,1,127.5
140,272,44685,1,0,0:0:0
140,272,44885,1,6,0:0:0
140,272,45085,6,0,B|96:252|76:208,1,85
216,152,45485,1,0,0:0:0
216,152,45585,1,0,0:0:0
216,152,45685,2,0,B|256:172|312:168,1,85,2|0,0:0|0:0,0:0:0
392,156,46085,1,0,0:0:0
464,96,46285,2,0,B|464:28|396:-12|336:28,1,170
292,96,46885,1,2,0:0:0
200,84,47085,1,0,0:0:0
108,68,47285,2,0,B|96:156,1,85
160,316,47685,2,0,B|171:231,1,85,2|0,0:0|0:0,0:0:0
171,231,48085,1,0,0:0:0
256,268,48285,5,0,0:0:0
288,280,48385,1,0,0:0:0
320,292,48485,1,0,0:0:0
448,244,48685,1,0,0:0:0
416,232,48785,1,0,0:0:0
384,220,48885,1,0,0:0:0
332,96,49085,1,0,0:0:0
364,112,49185,1,0,0:0:0
396,128,49285,1,0,0:0:0
220,156,49485,5,0,0:0:0
192,140,49585,1,0,0:0:0
160,124,49685,2,0,B|100:120|52:168|60:236,1,170
88,316,50285,1,0,0:0:0
88,316,50385,1,0,0:0:0
88,316,50485,2,0,B|136:360|216:364,1,127.5,0|0,0:0|0:0,0:0:0
203,363,50885,1,0,0:0:0
344,352,51085,1,0,0:0:0
344,352,51285,1,6,0:0:0
356,260,51485,22,0,B|364:168,2,85
264,272,52085,1,2,0:0:0
172,248,52285,1,0,0:0:0
96,192,52485,2,0,B|140:120,1,85
160,92,52785,1,0,0:0:0
180,64,52885,1,2,0:0:0
256,132,53085,2,0,B|336:80,1,85
472,152,53485,1,0,0:0:0
472,152,53685,2,0,B|484:248,1,85,2|0,0:0|0:0,0:0:0
400,300,54085,2,0,B|308:268,1,85
319,272,54485,1,2,0:0:0
220,284,54685,5,0,0:0:0
188,292,54885,1,0,0:0:0
156,300,55085,1,0,0:0:0
124,308,55285,1,2,0:0:0
92,300,55485,1,0,0:0:0
60,292,55685,1,0,0:0:0
28,284,55885,1,0,0:0:0
124,192,56285,5,0,0:0:0
124,192,56385,1,0,0:0:0
124,192,56485,1,0,0:0:0
156,184,56685,1,0,0:0:0
188,176,56885,1,2,0:0:0
220,168,57085,1,0,0:0:0
252,176,57285,1,0,0:0:0
284,184,57485,1,0,0:0:0
316,192,57685,1,6,0:0:0
404,220,57885,6,0,B|472:232|508:152|440:108,1,170
444,110,58485,1,2,0:0:0
360,72,58685,2,0,B|296:40|184:56,1,170
72,172,59285,2,0,B|152:144,1,85,2|0,0:0|0:0,0:0:0
296,192,59685,2,0,B|220:264,1,85
136,344,60085,1,2,0:0:0
168,252,60285,1,0,0:0:0
280,300,60485,1,0,0:0:0
364,240,60685,5,0,0:0:0
364,240,60785,1,0,0:0:0
364,240,60885,2,0,B|412:264|424:316|380:360,1,127.5,2|0,0:0|0:0,0:0:0
391,346,61285,1,0,0:0:0
220,296,61485,1,0,0:0:0
220,296,61585,1,0,0:0:0
220,296,61685,2,0,B|172:272|160:220|192:192,1,127.5,2|0,0:0|0:0,0:0:0
192,192,62085,22,0,B|276:192,1,85
472,156,62485,2,0,B|384:156,1,85,2|0,0:0|0:0,0:0:0
352,156,62785,1,0,0:0:0
320,156,62885,1,0,0:0:0
192,192,63085,1,0,0:0:0
192,192,63285,2,0,B|132:128,1,85,2|0,0:0|0:0,0:0:0
192,192,63685,2,0,B|172:280,1,85
148,364,64085,1,2,0:0:0
148,364,64285,6,0,B|96:400|20:364|24:292,1,170
36,212,64885,2,0,B|48:168|96:152,1,85
180,192,65285,1,0,0:0:0
268,228,65485,5,0,0:0:0
268,228,65585,1,0,0:0:0
268,228,65685,2,0,B|312:244|364:228,1,85,6|0,0:0|0:0,0:0:0
408,156,66085,1,0,0:0:0
388,64,66285,1,0,0:0:0
300,32,66485,2,0,B|256:20|216:20,1,85,6|0,0:0|0:0,0:0:0
124,36,66885,1,0,0:0:0
236,88,67085,2,0,B|286:133|266:201|201:224,1,170,0|0,0:0|0:0,0:0:0
72,198,67685,5,0,0:0:0
108,200,67785,1,0,0:0:0
140,204,67885,1,0,0:0:0
172,212,67985,1,0,0:0:0
204,224,68085,1,0,0:0:0
232,240,68185,1,0,0:0:0
264,252,68285,1,0,0:0:0
296,256,68385,1,0,0:0:0
328,256,68485,1,0,0:0:0
360,252,68585,1,0,0:0:0
392,244,68685,1,0,0:0:0
424,232,68785,1,0,0:0:0
452,212,68885,1,6,0:0:0
372,44,69285,5,0,0:0:0
196,104,69685,1,0,0:0:0
336,228,70085,1,0,0:0:0
192,348,70485,1,6,0:0:0
108,304,70685,21,0,0:0:0
84,284,70785,1,0,0:0:0
64,256,70885,2,0,B|40:216|48:168,1,85,0|0,0:0|0:0,0:0:0
148,88,71285,1,2,0:0:0
292,60,71485,1,0,0:0:0
324,72,71585,1,0,0:0:0
352,92,71685,2,0,B|384:116|396:164,1,85
395,162,71985,1,0,0:0:0
395,162,72085,6,0,B|308:172,1,85,0|0,0:0|0:0,0:0:0
208,184,72485,2,0,B|121:194,1,85,2|0,0:0|0:0,0:0:0
36,320,72885,2,0,B|136:332,1,85
220,344,73285,2,0,B|320:356,1,85,2|0,0:0|0:0,0:0:0
404,340,73685,2,0,B|480:344|504:256|436:220,1,170,0|2,0:0|0:0,0:0:0
344,192,74285,1,0,0:0:0
344,192,74385,1,0,0:0:0
344,192,74485,2,0,B|272:232|172:208,1,170,2|0,0:0|0:0,0:0:0
88,192,75085,1,0,0:0:0
36,112,75285,2,0,B|28:52|80:-4|156:20,1,170
220,72,75885,1,0,0:0:0
220,72,75985,1,0,0:0:0
220,72,76085,1,2,0:0:0
196,156,76285,5,0,0:0:0
300,264,76485,1,0,0:0:0
416,124,76685,1,2,0:0:0
324,60,76885,2,0,P|304:140|348:212,1,170,4|0,0:0|0:0,0:0:0
420,324,77485,2,0,P|348:312|256:344,1,170,4|0,0:0|0:0,0:0:0
128,336,78085,2,0,P|136:256|96:176,1,170,4|0,0:0|0:0,0:0:0
36,64,78685,2,0,P|112:100|196:100,1,170,4|0,0:0|0:0,0:0:0
296,92,79285,1,2,0:0:0
364,156,79485,1,0,0:0:0
304,228,79685,1,6,0:0:0
232,168,79885,5,14,0:0:0
232,168,79985,1,0,0:0:0
232,168,80085,2,0,B|56:192,1,170,0|8,0:0|0:0,0:0:0
36,280,80685,1,0,0:0:0
36,280,80785,1,0,0:0:0
36,280,80885,2,0,B|191:348,1,170,0|8,0:0|0:0,0:0:0
284,348,81485,1,0,0:0:0
284,348,81585,1,0,0:0:0
284,348,81685,2,0,B|228:300|256:220|332:216,1,170,0|8,0:0|0:0,0:0:0
432,232,82285,5,0,0:0:0
432,232,82385,1,0,0:0:0
432,232,82485,2,0,B|516:240,1,85
304,140,82885,2,0,B|216:132,1,85,12|0,0:0|0:0,0:0:0
128,120,83285,2,0,B|56:116|20:180|52:240,1,170,0|8,0:0|0:0,0:0:0
104,308,83885,1,6,0:0:0
192,340,84085,2,0,B|264:344|300:280|268:220,1,170,0|8,0:0|0:0,0:0:0
208,156,84685,1,0,0:0:0
208,156,84785,1,0,0:0:0
208,156,84885,2,0,B|179:102|215:38|287:42,1,170,6|8,0:0|0:0,0:0:0
380,60,85485,1,2,0:0:0
380,60,85685,22,0,B|324:92|304:160,1,127.5,0|0,0:0|0:0,0:0:0
276,248,86485,5,4,0:0:0
164,144,86685,1,0,0:0:0
80,276,86885,1,8,0:0:0
196,368,87085,2,0,B|224:304|200:196,1,170
216,40,87685,1,8,0:0:0
216,40,87885,2,0,B|221:109|293:193,1,170,4|0,0:0|0:0,0:0:0
376,228,88485,1,8,0:0:0
468,228,88685,2,0,B|472:168|420:124|356:128,1,170,0|8,0:0|0:0,0:0:0
264,136,89285,1,8,0:0:0
200,288,89485,2,0,P|164:224|176:128,1,170,4|0,0:0|0:0,0:0:0
36,60,90085,2,0,P|80:124|60:216,1,170,8|0,0:0|0:0,0:0:0
32,276,90685,5,0,0:0:0
200,288,90885,1,8,0:0:0
340,348,91085,2,0,P|340:276|396:192,1,170,4|0,0:0|0:0,0:0:0
484,64,91685,2,0,P|528:136|516:228,1,170,8|0,0:0|0:0,0:0:0
492,288,92285,1,8,0:0:0
456,296,92385,1,0,0:0:0
420,304,92485,1,8,0:0:0
384,312,92585,1,0,0:0:0
348,320,92685,1,0,0:0:0
312,328,92785,1,0,0:0:0
276,336,92885,6,0,B|208:324|184:244|248:196,1,170,0|8,0:0|0:0,0:0:0
328,192,93485,1,0,0:0:0
328,192,93585,1,0,0:0:0
328,192,93685,2,0,B|424:180,1,85
300,64,94085,2,0,B|216:56,1,85,8|0,0:0|0:0,0:0:0
180,52,94385,1,0,0:0:0
148,48,94485,1,0,0:0:0
36,192,94685,6,0,B|120:172,1,85,0|8,0:0|0:0,0:0:0
228,148,95085,2,0,B|296:200|288:308,1,170,0|8,0:0|0:0,0:0:0
128,348,95685,1,8,0:0:0
128,348,95885,2,0,P|204:308|296:300,1,170
472,228,96485,2,0,P|380:228|304:184,1,170,8|0,0:0|0:0,0:0:0
268,128,97085,21,0,0:0:0
332,48,97285,1,8,0:0:0
416,108,97485,2,0,P|412:200|376:272,1,170
220,308,98085,2,0,P|160:264|116:180,1,170
84,92,98685,1,2,0:0:0
120,100,98785,1,0,0:0:0
156,104,98885,1,2,0:0:0
196,104,98985,1,0,0:0:0
236,100,99085,6,0,B|284:100|324:80,1,85,0|4,0:0|0:0,0:0:0
412,124,99485,1,0,0:0:0
488,192,99685,2,0,B|477:229|486:276,1,85,8|0,0:0|0:0,0:0:0
412,348,100085,1,0,0:0:0
412,348,100285,2,0,B|368:328|320:332,1,85,0|8,0:0|0:0,0:0:0
204,344,100685,2,0,B|124:372|32:356,1,170
208,344,101285,1,8,0:0:0
212,344,101485,2,0,B|292:316|384:332,1,170,0|8,0:0|0:0,0:0:0
428,232,102085,1,8,0:0:0
332,192,102285,2,0,B|268:188|236:112|288:60,1,170
180,192,102885,2,0,B|244:196|276:272|224:324,1,170,8|0,0:0|0:0,0:0:0
132,348,103485,5,0,0:0:0
36,312,103685,1,8,0:0:0
180,264,103885,2,0,B|248:220|344:224,1,170,4|0,0:0|0:0,0:0:0
456,240,104485,1,8,0:0:0
348,156,104685,2,0,B|276:116|176:152,1,170,2|8,0:0|0:0,0:0:0
144,160,105185,1,0,0:0:0
108,164,105285,1,8,0:0:0
72,152,105385,1,0,0:0:0
44,128,105485,1,0,0:0:0
40,88,105585,1,0,0:0:0
52,52,105685,6,0,B|92:64|136:56,1,85
292,116,106085,1,8,0:0:0
292,116,106285,2,0,B|320:152|324:200,1,85
220,256,106685,1,0,0:0:0
128,300,106885,1,8,0:0:0
28,304,107085,1,0,0:0:0
128,300,107285,2,0,B|152:384,1,85
151,381,107585,1,0,0:0:0
151,381,107685,1,8,0:0:0
292,348,107885,1,0,0:0:0
292,348,107985,1,0,0:0:0
292,348,108085,2,0,B|288:264,1,85,0|8,0:0|0:0,0:0:0
304,164,108485,5,8,0:0:0
472,232,108685,2,0,B|408:280|308:272,1,170,4|0,0:0|0:0,0:0:0
201,272,109285,2,0,B|104:280|40:232,1,170,8|2,0:0|0:0,0:0:0
112,156,109885,1,2,0:0:0
256,192,110085,1,8,0:0:0
400,156,110285,1,4,0:0:0
256,192,110385,12,0,111685,0:0:0
208,240,112085,21,4,0:0:0
312,280,112285,1,0,0:0:0
312,280,112385,1,0,0:0:0
312,280,112485,2,0,B|352:296|408:292,1,85
476,232,112885,1,0,0:0:0
384,112,113085,1,0,0:0:0
256,152,113285,1,0,0:0:0
256,312,113485,5,0,0:0:0
256,312,113585,1,0,0:0:0
256,312,113685,2,0,B|216:332|176:336,1,85
36,232,114085,2,0,B|76:252|120:248,1,85
152,248,114385,1,0,0:0:0
184,244,114485,1,0,0:0:0
296,140,114685,1,0,0:0:0
396,228,114885,1,0,0:0:0
440,104,115085,1,0,0:0:0
380,40,115285,6,0,B|368:128,1,85,2|0,0:0|0:0,0:0:0
364,160,115585,1,0,0:0:0
360,192,115685,1,0,0:0:0
292,348,115885,1,0,0:0:0
292,348,115985,1,0,0:0:0
292,348,116085,2,0,B|256:268,1,85,2|0,0:0|0:0,0:0:0
212,180,116485,1,0,0:0:0
212,180,116685,5,0,0:0:0
212,180,116785,1,0,0:0:0
212,180,116885,2,0,B|128:232,1,85,2|0,0:0|0:0,0:0:0
112,240,117185,1,0,0:0:0
84,256,117285,1,0,0:0:0
4,192,117485,1,0,0:0:0
36,96,117685,1,0,0:0:0
120,36,117885,1,0,0:0:0
196,104,118085,1,0,0:0:0
292,140,118285,1,0,0:0:0
292,140,118485,6,0,B|300:152|316:156|316:156|456:156,1,170,2|0,0:0|0:0,0:0:0
400,272,119085,1,0,0:0:0
400,272,119185,1,0,0:0:0
400,272,119285,2,0,B|392:260|376:256|376:256|236:256,1,170
235,256,119885,2,0,B|196:220,2,42.5
235,256,120285,2,0,B|200:340|92:352,1,170
36,276,120885,1,0,0:0:0
96,156,121085,1,0,0:0:0
212,192,121285,1,0,0:0:0
256,324,121485,21,0,0:0:0
256,324,121585,1,0,0:0:0
256,324,121685,2,0,B|348:344|424:308,1,170,2|0,0:0|0:0,0:0:0
476,156,122285,1,0,0:0:0
476,156,122385,1,0,0:0:0
476,156,122485,2,0,B|428:228,1,85,2|0,0:0|0:0,0:0:0
340,268,123085,1,0,0:0:0
340,268,123185,1,0,0:0:0
340,268,123285,2,0,B|252:292,1,85,2|0,0:0|0:0,0:0:0
224,300,123585,1,0,0:0:0
192,308,123685,1,0,0:0:0
188,192,123885,5,0,0:0:0
60,156,124085,1,2,0:0:0
36,296,124285,1,0,0:0:0
152,360,124485,1,2,0:0:0
144,240,124685,1,0,0:0:0
144,240,124785,1,0,0:0:0
144,240,124885,6,0,B|180:260|228:264,1,85,0|0,0:0|0:0,0:0:0
320,256,125285,1,2,0:0:0
388,192,125485,1,0,0:0:0
388,192,125685,2,0,B|436:144|392:64|320:88,1,170,0|2,0:0|0:0,0:0:0
196,160,126285,1,0,0:0:0
196,160,126485,2,0,B|220:200|220:240,1,85
60,348,126885,2,0,B|36:308|36:268,1,85,2|0,0:0|0:0,0:0:0
60,168,127285,1,0,0:0:0
160,192,127485,1,0,0:0:0
260,180,127685,1,2,0:0:0
352,140,127885,5,0,0:0:0
352,140,127985,1,0,0:0:0
352,140,128085,2,0,B|416:152|432:244|360:276,1,170,0|0,0:0|0:0,0:0:0
180,320,128685,1,0,0:0:0
180,320,128785,1,0,0:0:0
180,320,128885,2,0,B|116:308|100:216|172:184,1,170,2|0,0:0|0:0,0:0:0
256,168,129485,1,0,0:0:0
256,168,129585,1,0,0:0:0
256,168,129685,2,0,B|352:180,1,85,2|0,0:0|0:0,0:0:0
460,192,130085,1,0,0:0:0
512,68,130285,5,0,0:0:0
388,36,130485,1,2,0:0:0
280,100,130685,1,0,0:0:0
304,224,130885,1,2,0:0:0
172,312,131085,1,0,0:0:0
172,312,131185,1,0,0:0:0
172,312,131285,22,0,B|256:300,1,85
356,320,131685,1,2,0:0:0
408,232,131885,1,0,0:0:0
404,132,132085,2,0,B|352:120|304:120,1,85
216,232,132485,2,0,B|168:248|116:244,2,85
216,232,133085,6,0,B|280:212|288:128|224:96,1,170
104,92,133685,1,2,0:0:0
196,164,133885,1,0,0:0:0
328,160,134085,1,0,0:0:0
328,160,134285,2,0,B|300:240|324:332,1,170
424,344,134885,1,0,0:0:0
424,344,135085,5,0,0:0:0
424,344,135185,1,0,0:0:0
424,344,135285,1,0,0:0:0
512,292,135485,1,0,0:0:0
492,260,135585,1,0,0:0:0
460,236,135685,1,2,0:0:0
424,220,135785,1,0,0:0:0
388,212,135885,1,0,0:0:0
348,208,135985,1,0,0:0:0
308,212,136085,1,0,0:0:0
156,228,136485,5,0,0:0:0
60,192,136685,2,0,B|16:200,2,42.5
172,52,137085,2,0,B|216:44,2,42.5
72,68,137485,1,0,0:0:0
72,68,137585,1,0,0:0:0
72,68,137685,6,0,B|80:112|120:144,1,85
144,164,137985,1,0,0:0:0
180,176,138085,1,0,0:0:0
220,184,138185,1,0,0:0:0
256,176,138285,1,0,0:0:0
292,164,138385,1,0,0:0:0
324,144,138485,1,0,0:0:0
360,132,138585,1,0,0:0:0
400,132,138685,1,0,0:0:0
436,144,138785,1,0,0:0:0
464,168,138885,1,0,0:0:0
480,204,138985,1,0,0:0:0
480,244,139085,1,0,0:0:0
468,280,139185,1,0,0:0:0
440,308,139285,22,0,B|384:360|280:360,1,170
212,272,139885,1,0,0:0:0
104,216,140085,2,0,B|140:136|248:124,1,170
324,128,140685,1,0,0:0:0
324,128,140785,1,0,0:0:0
324,128,140885,2,0,B|372:140|408:168,1,85
356,268,141285,1,0,0:0:0
260,336,141485,5,0,0:0:0
260,336,141585,1,0,0:0:0
260,336,141685,2,0,B|216:356|176:356,1,85
148,360,141985,1,0,0:0:0
120,356,142085,1,0,0:0:0
40,156,142285,1,0,0:0:0
40,156,142385,1,0,0:0:0
40,156,142485,2,0,B|68:188|80:232,1,85
184,272,142885,2,0,B|216:240|264:228,1,85
288,220,143185,1,0,0:0:0
320,216,143285,1,0,0:0:0
356,104,143485,5,0,0:0:0
356,104,143685,1,0,0:0:0
356,104,143885,1,0,0:0:0
220,40,144085,2,0,B|160:28|112:96|160:152,1,170,4|0,0:0|0:0,0:0:0
320,140,144685,2,0,B|380:128|424:196|380:256,1,170,4|0,0:0|0:0,0:0:0
220,304,145285,2,0,B|160:316|116:248|160:188,1,170,4|0,0:0|0:0,0:0:0
320,140,145885,2,0,B|373:109|361:29|289:13,1,170,4|8,0:0|0:0,0:0:0
192,36,146485,1,0,0:0:0
204,136,146685,2,0,B|212:188,2,42.5,0|0|0,0:0|0:0|0:0,0:0:0
108,100,147085,5,8,0:0:0
108,100,147185,1,0,0:0:0
108,100,147285,2,0,B|16:128|24:244,1,170,0|8,0:0|0:0,0:0:0
140,344,147885,1,0,0:0:0
140,344,147985,1,0,0:0:0
140,344,148085,2,0,B|120:248,1,85
220,192,148485,2,0,B|292:244,1,85,8|0,0:0|0:0,0:0:0
316,260,148785,1,0,0:0:0
344,280,148885,1,0,0:0:0
476,116,149085,1,0,0:0:0
476,116,149285,2,0,B|400:156,1,85,8|0,0:0|0:0,0:0:0
372,172,149585,1,0,0:0:0
344,188,149685,6,0,B|308:144|232:136,1,127.5
231,135,150085,1,8,0:0:0
88,192,150285,1,0,0:0:0
88,192,150385,1,0,0:0:0
88,192,150485,2,0,B|56:112,1,85
180,36,150885,2,0,B|260:72,1,85,8|0,0:0|0:0,0:0:0
288,84,151185,1,0,0:0:0
320,100,151285,2,0,B|384:76|436:144|392:204,1,170,0|8,0:0|0:0,0:0:0
220,292,151885,21,0,0:0:0
220,292,151985,1,0,0:0:0
220,292,152085,2,0,B|156:316|104:248|148:188,1,170,0|8,0:0|0:0,0:0:0
220,124,152685,1,0,0:0:0
196,96,152785,1,0,0:0:0
164,76,152885,1,0,0:0:0
128,68,152985,1,0,0:0:0
88,68,153085,1,0,0:0:0
52,80,153185,1,0,0:0:0
24,104,153285,1,8,0:0:0
8,136,153385,1,0,0:0:0
8,176,153485,1,0,0:0:0
20,212,153585,1,0,0:0:0
44,244,153685,5,4,0:0:0
176,292,153885,1,0,0:0:0
296,172,154085,1,8,0:0:0
220,68,154285,1,0,0:0:0
220,68,154385,1,0,0:0:0
220,68,154485,2,0,B|196:156,1,85
176,292,154885,1,8,0:0:0
324,344,155085,1,0,0:0:0
324,344,155185,1,0,0:0:0
324,344,155285,2,0,B|392:292,1,85
416,272,155585,1,0,0:0:0
444,252,155685,1,8,0:0:0
296,232,155885,5,0,0:0:0
296,232,155985,1,0,0:0:0
296,232,156085,2,0,B|208:232,1,85,0|8,0:0|0:0,0:0:0
72,232,156485,1,8,0:0:0
168,348,156685,2,0,B|196:280|156:176,1,170
144,160,157185,1,0,0:0:0
128,136,157285,1,8,0:0:0
256,76,157485,5,0,0:0:0
256,76,157585,1,0,0:0:0
256,76,157685,2,0,B|284:108|328:132,1,85
352,144,157985,1,0,0:0:0
384,156,158085,1,8,0:0:0
392,296,158285,2,0,B|336:344|224:328,1,170
200,320,158785,1,0,0:0:0
172,308,158885,1,8,0:0:0
40,152,159085,2,0,B|128:144|200:208,1,170
224,232,159585,1,0,0:0:0
256,256,159685,1,8,0:0:0
292,264,159785,1,0,0:0:0
332,264,159885,5,0,0:0:0
428,156,160085,1,0,0:0:0
356,40,160285,1,0,0:0:0
356,40,160385,1,0,0:0:0
356,40,160485,2,0,B|348:124,1,85,8|0,0:0|0:0,0:0:0
344,160,160785,1,0,0:0:0
340,192,160885,1,0,0:0:0
296,344,161085,1,0,0:0:0
296,344,161185,1,0,0:0:0
296,344,161285,2,0,B|256:268,1,85,8|0,0:0|0:0,0:0:0
240,240,161585,1,0,0:0:0
224,208,161685,1,0,0:0:0
96,136,161885,22,0,B|60:156,2,42.5,0|0|8,0:0|0:0|0:0,0:0:0
292,96,162285,2,0,B|328:116,2,42.5
184,44,162685,1,8,0:0:0
352,52,162885,1,8,0:0:0
412,192,163085,1,0,0:0:0
412,192,163185,1,0,0:0:0
412,192,163285,1,0,0:0:0
292,284,163485,1,0,0:0:0
196,156,163685,1,8,0:0:0
300,72,163885,5,0,0:0:0
300,72,163985,1,0,0:0:0
300,72,164085,2,0,B|264:160,1,85
152,228,164485,1,8,0:0:0
216,328,164685,2,0,B|396:288,1,170
416,284,165185,1,0,0:0:0
444,276,165285,1,8,0:0:0
480,156,165485,2,0,B|314:192,1,170
276,200,165985,1,0,0:0:0
240,208,166085,1,8,0:0:0
204,216,166185,1,0,0:0:0
168,224,166285,1,0,0:0:0
132,232,166385,1,0,0:0:0
96,240,166485,6,0,B|44:168,1,85
120,40,166885,1,8,0:0:0
120,40,167085,2,0,B|220:176,1,170,0|8,0:0|0:0,0:0:0
344,92,167685,1,8,0:0:0
400,228,167885,1,0,0:0:0
400,228,167985,1,0,0:0:0
400,228,168085,2,0,B|324:192,1,85
208,136,168485,1,8,0:0:0
156,252,168685,1,0,0:0:0
156,252,168785,1,0,0:0:0
156,252,168885,6,0,B|124:332,2,85,0|8|8,0:0|0:0|0:0,0:0:0
208,136,169485,2,0,P|268:184|368:184,1,170
448,280,170085,2,0,P|376:288|304:352,1,170,8|0,0:0|0:0,0:0:0
256,276,170685,1,0,0:0:0
344,192,170885,1,8,0:0:0
220,156,171085,1,0,0:0:0
220,156,171185,1,0,0:0:0
220,156,171285,1,0,0:0:0
92,100,171485,1,0,0:0:0
48,228,171685,1,8,0:0:0
144,348,171885,2,0,P|164:296|148:184,1,170
136,152,172385,1,0,0:0:0
116,120,172485,1,8,0:0:0
84,96,172585,1,0,0:0:0
48,84,172685,5,0,0:0:0
176,56,172885,1,0,0:0:0
260,156,173085,1,0,0:0:0
260,156,173185,1,0,0:0:0
260,156,173285,1,8,0:0:0
376,100,173485,2,0,P|328:48|248:92,1,170
200,228,174085,1,8,0:0:0
36,156,174285,2,0,P|80:92|164:120,1,170
256,192,174885,1,8,0:0:0
376,176,175085,21,0,0:0:0
376,176,175185,1,0,0:0:0
376,176,175285,1,0,0:0:0
304,80,175485,2,0,B|208:88,1,85,8|8,0:0|0:0,0:0:0
84,212,175885,1,0,0:0:0
84,212,175985,1,0,0:0:0
84,212,176085,2,0,B|168:204,1,85
224,280,176485,2,0,B|260:332|344:328|376:264,1,170,8|0,0:0|0:0,0:0:0
256,192,177085,1,0,0:0:0
336,80,177285,1,8,0:0:0
172,40,177485,6,0,B|116:40|60:96|68:164,1,170,4|2,0:0|0:0,0:0:0
72,192,177985,1,0,0:0:0
88,228,178085,1,0,0:0:0
112,256,178185,1,0,0:0:0
148,272,178285,1,0,0:0:0
184,280,178385,1,0,0:0:0
224,280,178485,1,0,0:0:0
260,272,178585,1,0,0:0:0
296,256,178685,1,0,0:0:0
324,232,178785,1,0,0:0:0
344,200,178885,1,0,0:0:0
356,164,178985,1,0,0:0:0
356,124,179085,1,0,0:0:0
348,88,179185,1,0,0:0:0
328,56,179285,1,4,0:0:0
176,156,191485,6,0,B|224:120|292:120|340:160,2,170,0|0|0,0:0|0:0|0:0,0:0:0
116,240,192485,1,8,0:0:0
24,192,192685,5,0,0:0:0
24,192,192785,1,0,0:0:0
24,192,192885,2,0,B|0:108,1,85
116,240,193285,1,8,0:0:0
208,288,193485,1,0,0:0:0
208,288,193585,1,0,0:0:0
208,288,193685,2,0,B|300:268,2,85,0|0|8,0:0|0:0|0:0,0:0:0
116,240,194285,6,0,B|204:88,1,170,0|0,0:0|0:0,0:0:0
308,92,194885,1,8,0:0:0
308,92,195085,2,0,B|393:239,1,170
308,292,195685,2,0,B|268:320|220:336,1,85,8|0,0:0|0:0,0:0:0
108,308,196085,2,0,B|112:268|96:224,1,85
204,156,196485,22,0,B|204:112|232:72,1,85,8|0,0:0|0:0,0:0:0
248,48,196785,1,0,0:0:0
272,24,196885,1,0,0:0:0
420,104,197085,1,0,0:0:0
420,104,197185,1,0,0:0:0
420,104,197285,2,0,B|441:142|436:191,1,85,8|0,0:0|0:0,0:0:0
433,219,197585,1,0,0:0:0
424,252,197685,1,0,0:0:0
264,196,197885,1,8,0:0:0
228,188,197985,1,0,0:0:0
192,180,198085,1,8,0:0:0
156,172,198185,1,0,0:0:0
120,164,198285,1,0,0:0:0
84,156,198385,1,0,0:0:0
92,192,198485,6,0,B|116:280,1,85
180,332,198885,2,0,B|216:308,3,42.5,8|0|0|0,0:0|0:0|0:0|0:0,0:0:0
252,300,199285,2,0,B|292:308,2,42.5
368,244,199685,1,8,0:0:0
332,156,199885,2,0,B|256:172|156:160,1,170
180,60,200485,1,8,0:0:0
140,260,200685,2,0,B|216:276|316:264,1,170
332,156,201285,1,8,0:0:0
336,348,201485,6,0,B|384:344,2,42.5,0|0|0,0:0|0:0|0:0,0:0:0
296,344,201785,1,0,0:0:0
260,332,201885,1,0,0:0:0
224,320,201985,1,0,0:0:0
184,320,202085,1,8,0:0:0
148,328,202185,1,0,0:0:0
116,348,202285,1,0,0:0:0
60,232,202485,1,0,0:0:0
180,112,202685,5,0,0:0:0
212,96,202785,1,0,0:0:0
252,96,202885,1,8,0:0:0
288,108,202985,1,0,0:0:0
316,136,203085,1,0,0:0:0
324,172,203185,1,0,0:0:0
320,212,203285,1,0,0:0:0
292,236,203385,1,0,0:0:0
256,248,203485,1,0,0:0:0
216,248,203585,1,0,0:0:0
180,236,203685,5,10,0:0:0
120,192,204085,1,2,0:0:0
120,196,204485,1,2,0:0:0
120,200,204885,6,0,B|88:248|112:328|184:328,1,170
312,348,206285,1,0,0:0:0
312,348,206385,1,0,0:0:0
312,348,206485,2,0,B|372:360|432:320|432:248,3,170
292,192,209285,1,0,0:0:0
372,88,209685,2,0,B|308:36|200:52,1,170
210,50,210685,1,0,0:0:0
208,56,210885,1,0,0:0:0
204,60,211085,1,2,0:0:0
200,64,211285,6,0,B|164:88|168:152|216:168,1,118.999997162819,4|0,0:0|0:0,0:0:0
396,224,211885,2,0,B|432:200|428:136|380:120,1,118.999997162819,4|0,0:0|0:0,0:0:0
204,164,212485,2,0,B|168:188|172:252|220:268,1,118.999997162819,4|0,0:0|0:0,0:0:0
436,324,213085,2,0,B|472:300|468:236|420:220,1,118.999997162819,4|0,0:0|0:0,0:0:0
424,224,213685,1,0,0:0:0
416,224,213885,1,0,0:0:0
408,224,214085,1,2,0:0:0
400,224,214285,1,0,0:0:0
392,224,214485,6,0,B|291:232,1,85
203,230,214885,2,0,B|118:224,1,85
84,220,215185,1,0,0:0:0
52,216,215285,2,0,B|12:160|48:92|120:88,2,170
116,296,216285,1,0,0:0:0
212,324,216485,1,0,0:0:0
312,320,216685,5,0,0:0:0
312,320,216785,1,0,0:0:0
312,320,216885,2,0,B|296:240|352:184,1,141.666666666667
460,216,217485,1,0,0:0:0
460,216,217685,2,0,B|500:160|464:92|392:88,2,170
360,228,218685,1,0,0:0:0
260,240,218885,1,0,0:0:0
160,252,219085,6,0,B|164:304,2,42.5,0|0|4,0:0|0:0|0:0,0:0:0
140,152,219485,1,0,0:0:0
120,52,219685,1,0,0:0:0
220,52,219885,2,0,B|212:8,2,42.5,0|0|4,0:0|0:0|0:0,0:0:0
236,152,220285,1,0,0:0:0
256,252,220485,1,0,0:0:0
256,252,220685,5,0,0:0:0
256,252,220785,1,0,0:0:0
256,252,220885,2,0,B|276:352,1,85,4|0,0:0|0:0,0:0:0
316,192,221285,2,0,B|416:172,1,85,0|0,0:0|0:0,0:0:0
256,132,221685,2,0,B|236:32,1,85,4|0,0:0|0:0,0:0:0
196,192,222085,2,0,B|96:212,1,85,0|0,0:0|0:0,0:0:0
256,304,222485,22,0,B|216:312|212:352|244:384|292:376|328:348|336:296|312:248|260:236|244:212|248:176|256:132,1,340,4|0,0:0|0:0,0:0:0
252,60,225285,22,0,B|292:80|348:80,1,85,4|0,0:0|0:0,0:0:0
368,80,225585,1,0,0:0:0
400,76,225685,1,8,0:0:0
464,156,225885,2,0,B|424:236|432:332,1,170
432,328,226385,1,0,0:0:0
432,336,226485,1,8,0:0:0
292,228,226685,2,0,B|372:252|468:224,1,170
468,224,227185,1,0,0:0:0
476,224,227285,1,8,0:0:0
220,228,227485,2,0,B|140:252|44:224,1,170,0|8,0:0|0:0,0:0:0
44,224,227985,1,0,0:0:0
36,224,228085,1,8,0:0:0
128,344,228285,5,0,0:0:0
128,344,228385,1,0,0:0:0
128,344,228485,2,0,B|160:272|148:176,1,170,0|8,0:0|0:0,0:0:0
292,228,229085,1,0,0:0:0
292,228,229185,1,0,0:0:0
292,228,229285,2,0,B|297:149|353:70,1,170,0|8,0:0|0:0,0:0:0
412,192,229885,2,0,B|360:136|252:124,1,170
144,252,230485,1,8,0:0:0
36,120,230685,2,0,B|124:140|208:92,1,170,4|8,0:0|0:0,0:0:0
232,80,231185,1,0,0:0:0
264,72,231285,1,8,0:0:0
296,72,231385,1,0,0:0:0
328,80,231485,1,0,0:0:0
356,96,231585,1,0,0:0:0
380,120,231685,6,0,B|408:148|420:200,1,85
296,348,232085,1,8,0:0:0
296,348,232285,2,0,B|324:300|324:300|444:300,1,170
216,300,232885,1,8,0:0:0
216,300,233085,2,0,B|188:348|188:348|68:348,1,170
40,244,233685,1,8,0:0:0
80,140,233885,1,0,0:0:0
80,140,233985,1,0,0:0:0
80,140,234085,1,0,0:0:0
180,192,234285,1,8,0:0:0
292,192,234485,21,8,0:0:0
292,192,234685,2,0,B|348:224|412:204|412:204|428:160,1,170
220,192,235285,2,0,B|164:224|100:204|100:204|84:160,1,170,8|0,0:0|0:0,0:0:0
148,68,235885,1,0,0:0:0
256,36,236085,1,8,0:0:0
364,68,236285,2,0,B|428:112|408:180|408:180|364:192,1,170
144,192,236885,1,8,0:0:0
143,193,237085,2,0,B|104:204|104:204|84:272|148:316,1,170,0|8,0:0|0:0,0:0:0
184,328,237585,1,0,0:0:0
220,336,237685,1,8,0:0:0
256,340,237785,1,0,0:0:0
296,340,237885,1,0,0:0:0
336,336,237985,1,0,0:0:0
372,328,238085,5,0,0:0:0
440,172,238285,1,0,0:0:0
440,172,238385,1,0,0:0:0
440,172,238485,2,0,B|416:92,1,85,8|0,0:0|0:0,0:0:0
404,56,238785,1,0,0:0:0
392,24,238885,1,0,0:0:0
256,44,239085,1,0,0:0:0
288,176,239285,1,8,0:0:0
160,220,239485,1,0,0:0:0
224,340,239685,2,0,B|260:248,1,85
452,156,240085,2,0,B|432:240,1,85,8|0,0:0|0:0,0:0:0
424,268,240385,1,0,0:0:0
416,300,240485,1,0,0:0:0
292,256,240685,5,0,0:0:0
220,368,240885,2,0,B|156:292,1,85,8|0,0:0|0:0,0:0:0
144,276,241185,1,0,0:0:0
124,248,241285,1,0,0:0:0
220,124,241485,1,0,0:0:0
340,228,241685,1,8,0:0:0
212,296,241885,1,0,0:0:0
80,192,242085,5,0,0:0:0
80,192,242285,1,0,0:0:0
220,124,242485,1,8,0:0:0
340,228,242685,2,0,B|416:192,1,85
412,72,243085,1,0,0:0:0
288,36,243285,2,0,B|204:44,1,85,8|0,0:0|0:0,0:0:0
168,48,243585,1,0,0:0:0
136,52,243685,1,0,0:0:0
40,192,243885,1,8,0:0:0
64,224,243985,1,0,0:0:0
88,252,244085,1,8,0:0:0
112,280,244185,1,0,0:0:0
136,308,244285,1,0,0:0:0
160,336,244385,1,0,0:0:0
188,364,244485,70,0,B|288:352,1,85
312,348,244785,1,0,0:0:0
352,344,244885,1,8,0:0:0
476,228,245085,2,0,B|480:164|432:120|352:140,1,170
328,140,245585,1,0,0:0:0
296,144,245685,1,8,0:0:0
256,272,245885,2,0,B|228:192,1,85
60,236,246285,2,0,B|40:152,1,85,0|8,0:0|0:0,0:0:0
140,36,246685,2,0,B|208:196,1,170
220,224,247185,1,0,0:0:0
232,252,247285,1,8,0:0:0
380,332,247485,6,0,B|364:268|296:244|240:284,1,170
216,296,247985,1,0,0:0:0
188,312,248085,1,8,0:0:0
64,200,248285,2,0,B|156:192|236:128,1,170,0|0,0:0|0:0,0:0:0
256,232,248885,1,8,0:0:0
448,200,249085,2,0,B|356:192|276:128,1,170,4|8,0:0|0:0,0:0:0
196,36,249685,1,8,0:0:0
128,192,249885,1,0,0:0:0
128,192,250085,2,0,B|216:200,1,85,0|8,0:0|0:0,0:0:0
384,252,250485,2,0,B|296:244,1,85,8|0,0:0|0:0,0:0:0
156,336,250885,5,0,0:0:0
176,272,251085,1,0,0:0:0
196,208,251285,1,0,0:0:0
196,208,251485,2,0,B|148:204,2,42.5
332,228,251885,21,0,0:0:0
380,276,252085,1,0,0:0:0
444,304,252285,2,0,B|440:352,2,42.5
444,304,252685,1,0,0:0:0
444,304,252885,1,0,0:0:0
476,244,253085,2,0,B|516:260,2,42.5
412,124,253485,21,2,0:0:0
356,84,253685,1,2,0:0:0
292,60,253885,2,0,B|304:20,2,42.5
272,124,254285,1,0,0:0:0
252,188,254485,1,0,0:0:0
232,252,254685,2,0,B|276:264,2,42.5
164,228,255085,2,0,B|64:196,1,85
40,72,255485,6,0,B|212:36,1,170
256,128,256085,1,2,0:0:0
288,224,256285,2,0,B|460:188,1,170
454,189,256785,1,0,0:0:0
460,224,256885,1,2,0:0:0
464,256,256985,1,0,0:0:0
480,288,257085,1,0,0:0:0
484,320,257185,1,0,0:0:0
488,352,257285,5,0,0:0:0
352,252,257485,1,0,0:0:0
192,192,257685,1,2,0:0:0
192,192,257885,1,0,0:0:0
192,192,258285,21,2,0:0:0
340,156,258485,1,0,0:0:0
432,36,258685,1,0,0:0:0
432,36,259085,21,0,0:0:0
340,156,259285,1,2,0:0:0
220,56,259485,2,0,B|96:72,1,118.999997162819,0|2,0:0|0:0,0:0:0
40,152,260085,1,0,0:0:0
40,152,260285,2,0,B|156:192,1,118.999997162819
220,216,260885,1,2,0:0:0
220,216,261085,2,0,B|336:256,2,118.999997162819
256,192,262085,12,0,263685,0:0:0
256,192,274685,12,0,276085,0:0:0
64,100,276485,5,0,0:0:0
88,168,276685,1,0,0:0:0
156,152,276885,1,0,0:0:0
224,132,277085,1,0,0:0:0
424,216,277485,1,0,0:0:0
356,232,277685,1,0,0:0:0
288,252,277885,1,0,0:0:0
288,252,278285,5,0,0:0:0
220,236,278485,1,0,0:0:0
156,208,278685,2,0,B|132:292,1,85
112,356,279285,1,0,0:0:0
224,372,279485,2,0,B|288:376|344:356,1,118.999996368408
428,308,280085,22,0,B|436:252|408:188|340:172|284:196,2,212.5
332,340,282485,1,0,0:0:0
332,340,282885,21,0,0:0:0
292,284,283085,1,0,0:0:0
252,228,283285,1,0,0:0:0
252,228,283485,2,0,B|168:236,1,85
36,156,284085,1,0,0:0:0
36,156,284285,2,0,B|120:147,1,85
292,156,284885,5,0,0:0:0
292,156,285085,2,0,B|376:164,1,85
220,228,285685,1,0,0:0:0
220,228,285885,2,0,B|136:236,1,85
160,336,286485,1,0,0:0:0
280,340,286685,1,0,0:0:0
280,340,286785,1,0,0:0:0
280,340,286885,1,0,0:0:0
388,288,287085,1,0,0:0:0
316,200,287285,1,0,0:0:0
256,232,287485,22,0,B|217:235|197:179|197:115|249:67|321:63|393:87|444:156|437:235|401:315|337:375|249:371|173:347|129:287|123:222,1,722.5
84,84,291285,5,0,0:0:0
196,40,291685,1,0,0:0:0
316,40,292085,1,0,0:0:0
316,40,292485,5,0,0:0:0
428,84,292885,1,0,0:0:0
480,192,293285,1,0,0:0:0
368,236,293685,1,0,0:0:0
256,192,294085,5,0,0:0:0
256,192,294185,12,0,297885,0:0:0
