osu file format v13

[General]
AudioFilename: SeventH-HeaveN.mp3
AudioLeadIn: 0
PreviewTime: 55733
Countdown: 1
SampleSet: None
StackLeniency: 0.7
Mode: 1
LetterboxInBreaks: 1
WidescreenStoryboard: 0

[Editor]
DistanceSpacing: 0.8
BeatDivisor: 8
GridSize: 8
TimelineZoom: 1.5

[Metadata]
Title:SeventH-HeaveN
TitleUnicode:
Artist:sasakure.UK Feat.
ArtistUnicode:
Creator:-[ ix Ishida xi ]-
Version:-[ ix SeventH-IshidA xi ]-
Source:
Tags:
BeatmapID:500483
BeatmapSetID:212806

[Difficulty]
HPDrainRate:5
CircleSize:5
OverallDifficulty:5
ApproachRate:5
SliderMultiplier:1.4
SliderTickRate:1

[Events]
//Background and Video events
0,0,"25846826.jpg",0,0
//Break Periods
//Storyboard Layer 0 (Background)
//Storyboard Layer 1 (Fail)
//Storyboard Layer 2 (Pass)
//Storyboard Layer 3 (Foreground)
//Storyboard Sound Samples
//Background Colour Transformations
3,100,163,162,255

[TimingPoints]
6728,333.333333333333,4,3,0,5,1,0
7977,-100,4,1,0,50,0,0
48073,333.333333333333,3,1,0,70,1,0
50073,333.333333333333,4,1,0,70,1,0
51234,333.333333333333,3,1,0,70,1,0
56567,-100,3,1,0,70,0,1
77904,333.333333333333,6,1,0,50,1,1
85862,-100,6,1,0,50,0,0
85903,-200,6,1,0,50,0,1
85945,-100,6,1,0,50,0,0
86153,-66.6666666666667,6,1,0,50,0,0
86237,-66.6666666666667,6,1,0,70,0,1
86320,-66.6666666666667,6,1,0,30,0,1
86528,-66.6666666666667,6,1,0,70,0,1
86612,-66.6666666666667,6,1,0,30,0,1
87028,-66.6666666666667,6,1,0,70,0,1
87112,-66.6666666666667,6,1,0,30,0,1
87320,-66.6666666666667,6,1,0,50,0,1
87487,-66.6666666666667,6,1,0,80,0,1
87903,-50,6,1,0,80,0,1
89903,-50,6,1,0,70,0,0

[HitObjects]
368,192,8061,5,2,0:0:0:0:
424,176,8394,1,0,0:0:0:0:
384,216,8561,1,2,0:0:0:0:
464,136,8894,1,2,0:0:0:0:
456,192,9061,1,0,0:0:0:0:
424,176,9227,1,2,0:0:0:0:
384,216,9561,1,2,0:0:0:0:
384,216,9727,1,2,0:0:0:0:
336,56,10227,1,0,0:0:0:0:
376,128,10394,1,2,0:0:0:0:
392,160,10727,1,0,0:0:0:0:
448,184,11061,1,0,0:0:0:0:
424,176,11227,1,2,0:0:0:0:
424,176,11561,1,0,0:0:0:0:
376,208,11727,1,0,0:0:0:0:
424,184,11894,1,2,0:0:0:0:
352,272,12227,1,2,0:0:0:0:
384,224,12394,1,2,0:0:0:0:
504,112,12894,1,0,0:0:0:0:
464,152,13061,1,2,0:0:0:0:
424,184,13227,1,0,0:0:0:0:
392,224,13394,1,0,0:0:0:0:
496,272,13727,1,0,0:0:0:0:
424,184,13894,1,2,0:0:0:0:
464,80,14227,1,2,0:0:0:0:
456,136,14394,1,0,0:0:0:0:
424,184,14561,1,2,0:0:0:0:
392,224,14894,1,2,0:0:0:0:
392,224,15061,1,2,0:0:0:0:
408,160,16061,1,2,0:0:0:0:
440,272,16394,1,0,0:0:0:0:
408,224,16561,1,2,0:0:0:0:
472,128,16894,1,0,0:0:0:0:
440,176,17061,1,0,0:0:0:0:
408,216,17227,1,2,0:0:0:0:
464,120,17561,1,2,0:0:0:0:
440,168,17727,1,2,0:0:0:0:
440,176,18061,1,0,0:0:0:0:
424,200,18144,1,0,0:0:0:0:
408,224,18227,1,0,0:0:0:0:
440,176,18394,1,2,0:0:0:0:
440,176,18561,1,0,0:0:0:0:
408,216,18727,1,6,0:0:0:0:
416,104,19061,1,2,0:0:0:0:
456,168,19283,1,0,0:0:0:0:
440,200,19394,1,2,0:0:0:0:
440,176,19727,1,2,0:0:0:0:
384,184,19894,1,0,0:0:0:0:
392,208,19977,1,0,0:0:0:0:
392,208,20061,1,0,0:0:0:0:
408,136,20283,1,2,0:0:0:0:
384,184,20394,1,2,0:0:0:0:
384,184,20450,1,2,0:0:0:0:
392,208,20505,1,2,0:0:0:0:
456,168,20616,1,0,0:0:0:0:
416,176,20727,1,2,0:0:0:0:
384,184,20977,1,0,0:0:0:0:
384,184,21227,1,0,0:0:0:0:
416,176,21394,1,2,0:0:0:0:
384,184,21616,1,0,0:0:0:0:
400,152,21727,1,2,0:0:0:0:
384,184,21783,1,2,0:0:0:0:
376,200,21839,1,2,0:0:0:0:
384,160,21950,1,0,0:0:0:0:
416,176,22061,1,2,0:0:0:0:
416,176,22283,1,0,0:0:0:0:
456,176,22394,1,2,0:0:0:0:
424,152,22616,1,0,0:0:0:0:
416,176,22894,1,2,0:0:0:0:
400,192,22950,1,2,0:0:0:0:
416,184,23005,1,0,0:0:0:0:
416,176,23394,1,2,0:0:0:0:
480,136,23616,1,0,0:0:0:0:
400,192,23727,1,2,0:0:0:0:
288,192,24061,1,2,0:0:0:0:
360,208,24283,1,0,0:0:0:0:
376,200,24339,1,0,0:0:0:0:
392,192,24394,1,2,0:0:0:0:
376,120,24616,1,0,0:0:0:0:
384,160,24727,1,2,0:0:0:0:
488,208,25061,1,0,0:0:0:0:
432,208,25283,1,2,0:0:0:0:
376,200,25617,1,0,0:0:0:0:
376,200,25672,1,0,0:0:0:0:
432,208,25728,1,2,0:0:0:0:
416,176,25839,1,2,0:0:0:0:
448,160,25950,1,0,0:0:0:0:
424,184,26061,1,2,0:0:0:0:
368,184,26227,1,0,0:0:0:0:
368,184,26616,1,0,0:0:0:0:
376,200,26727,1,0,0:0:0:0:
432,152,26950,1,0,0:0:0:0:
416,176,27283,1,2,0:0:0:0:
368,184,27394,1,2,0:0:0:0:
432,152,27616,1,2,0:0:0:0:
456,184,27727,1,0,0:0:0:0:
456,184,27950,1,2,0:0:0:0:
368,120,28283,1,2,0:0:0:0:
400,144,28394,1,2,0:0:0:0:
400,144,28727,1,0,0:0:0:0:
392,168,28811,1,0,0:0:0:0:
384,192,28894,1,0,0:0:0:0:
408,176,28977,1,2,0:0:0:0:
432,160,29061,1,0,0:0:0:0:
408,176,29144,1,0,0:0:0:0:
384,192,29227,1,0,0:0:0:0:
392,216,29311,1,0,0:0:0:0:
416,216,29394,1,6,0:0:0:0:
432,160,29561,1,2,0:0:0:0:
408,176,29644,1,2,0:0:0:0:
432,192,29727,1,0,0:0:0:0:
432,192,29894,1,2,0:0:0:0:
416,216,30061,1,2,0:0:0:0:
432,160,30144,1,0,0:0:0:0:
384,192,30227,1,0,0:0:0:0:
432,168,30394,1,2,0:0:0:0:
456,160,30477,1,0,0:0:0:0:
432,192,30561,1,2,0:0:0:0:
408,176,30727,1,2,0:0:0:0:
408,176,30783,1,2,0:0:0:0:
408,176,30839,1,2,0:0:0:0:
432,160,30894,1,0,0:0:0:0:
408,168,30977,1,0,0:0:0:0:
432,160,31061,1,2,0:0:0:0:
456,144,31144,1,2,0:0:0:0:
456,168,31227,1,0,0:0:0:0:
400,160,31394,1,2,0:0:0:0:
384,216,31561,1,0,0:0:0:0:
416,168,31727,1,0,0:0:0:0:
432,168,31811,1,0,0:0:0:0:
416,192,31894,1,2,0:0:0:0:
400,248,32061,1,6,0:0:0:0:
432,200,32227,1,0,0:0:0:0:
416,192,32394,1,0,0:0:0:0:
416,192,32477,1,0,0:0:0:0:
408,168,32561,1,2,0:0:0:0:
400,160,32616,1,2,0:0:0:0:
384,176,32672,1,2,0:0:0:0:
384,176,32727,1,2,0:0:0:0:
416,192,32811,1,2,0:0:0:0:
408,216,32894,1,0,0:0:0:0:
416,168,33061,1,0,0:0:0:0:
392,216,33227,1,2,0:0:0:0:
336,232,33394,1,2,0:0:0:0:
352,232,33450,1,2,0:0:0:0:
336,232,33505,1,2,0:0:0:0:
408,216,33561,1,0,0:0:0:0:
392,216,33727,1,0,0:0:0:0:
432,176,33894,1,0,0:0:0:0:
392,216,34061,1,2,0:0:0:0:
400,192,34144,1,2,0:0:0:0:
416,192,34227,1,0,0:0:0:0:
376,232,34394,1,0,0:0:0:0:
408,216,34561,1,2,0:0:0:0:
336,232,34727,1,4,0:0:0:0:
432,296,35061,1,0,0:0:0:0:
400,192,35227,1,2,0:0:0:0:
392,208,35283,1,2,0:0:0:0:
384,224,35339,1,2,0:0:0:0:
368,216,35394,1,2,0:0:0:0:
368,216,35477,1,2,0:0:0:0:
392,216,35561,1,0,0:0:0:0:
400,192,35727,1,0,0:0:0:0:
456,200,35894,1,2,0:0:0:0:
424,152,36061,1,2,0:0:0:0:
392,208,36227,1,2,0:0:0:0:
400,192,36311,1,0,0:0:0:0:
392,208,36394,1,0,0:0:0:0:
400,264,36561,1,0,0:0:0:0:
416,208,36727,1,2,0:0:0:0:
400,192,36783,1,2,0:0:0:0:
392,208,36839,1,2,0:0:0:0:
416,208,36894,1,0,0:0:0:0:
392,216,37061,1,0,0:0:0:0:
400,192,37144,1,0,0:0:0:0:
416,208,37227,1,2,0:0:0:0:
376,248,37394,1,6,0:0:0:0:
432,256,37561,1,2,0:0:0:0:
400,264,37644,1,2,0:0:0:0:
376,272,37727,1,2,0:0:0:0:
424,240,37894,1,4,0:0:0:0:
432,256,38061,1,0,0:0:0:0:
376,248,38227,1,0,0:0:0:0:
424,216,38394,1,6,0:0:0:0:
408,160,38561,1,2,0:0:0:0:
408,160,38644,1,2,0:0:0:0:
424,176,38727,1,0,0:0:0:0:
408,160,38811,1,0,0:0:0:0:
400,184,38894,1,0,0:0:0:0:
400,184,38977,1,0,0:0:0:0:
432,184,39061,1,2,0:0:0:0:
432,184,39116,1,2,0:0:0:0:
448,176,39172,1,0,0:0:0:0:
408,160,39227,1,0,0:0:0:0:
424,176,39311,1,2,0:0:0:0:
424,216,39394,1,0,0:0:0:0:
424,176,39477,1,2,0:0:0:0:
416,152,39561,1,0,0:0:0:0:
400,152,39616,1,2,0:0:0:0:
384,160,39672,1,2,0:0:0:0:
368,176,39727,1,2,0:0:0:0:
368,176,39783,1,2,0:0:0:0:
408,160,39839,1,0,0:0:0:0:
400,176,39894,1,0,0:0:0:0:
392,200,39977,1,0,0:0:0:0:
416,208,40061,1,6,0:0:0:0:
392,200,40227,1,0,0:0:0:0:
368,216,40311,1,0,0:0:0:0:
392,200,40394,1,0,0:0:0:0:
416,248,40561,1,2,0:0:0:0:
448,176,40727,1,0,0:0:0:0:
456,152,40811,1,2,0:0:0:0:
424,176,40894,1,2,0:0:0:0:
424,176,40977,1,0,0:0:0:0:
400,192,41061,1,0,0:0:0:0:
384,208,41116,1,2,0:0:0:0:
368,224,41172,1,2,0:0:0:0:
424,176,41227,1,0,0:0:0:0:
392,200,41311,1,0,0:0:0:0:
416,208,41394,1,0,0:0:0:0:
400,176,41450,1,2,0:0:0:0:
392,200,41505,1,2,0:0:0:0:
392,200,41561,1,0,0:0:0:0:
392,200,41644,1,0,0:0:0:0:
424,176,41727,1,2,0:0:0:0:
472,152,41894,1,0,0:0:0:0:
472,152,42061,1,2,0:0:0:0:
424,176,42144,1,2,0:0:0:0:
448,200,42227,1,0,0:0:0:0:
432,144,42394,1,2,0:0:0:0:
392,200,42561,1,0,0:0:0:0:
408,256,42727,1,6,0:0:0:0:
424,176,42894,1,0,0:0:0:0:
392,200,42977,1,0,0:0:0:0:
368,216,43061,1,0,0:0:0:0:
392,200,43116,1,0,0:0:0:0:
392,200,43172,1,0,0:0:0:0:
424,208,43227,1,2,0:0:0:0:
424,176,43394,1,2,0:0:0:0:
400,168,43477,1,2,0:0:0:0:
424,176,43561,1,0,0:0:0:0:
416,232,43727,1,0,0:0:0:0:
432,144,43894,1,2,0:0:0:0:
400,168,44061,1,2,0:0:0:0:
384,176,44116,1,2,0:0:0:0:
368,184,44172,1,2,0:0:0:0:
424,208,44227,1,0,0:0:0:0:
400,224,44311,1,0,0:0:0:0:
424,176,44394,1,2,0:0:0:0:
400,168,44561,1,0,0:0:0:0:
400,168,44644,1,0,0:0:0:0:
424,176,44727,1,2,0:0:0:0:
448,160,44811,1,2,0:0:0:0:
432,184,44894,1,0,0:0:0:0:
424,176,45061,1,2,0:0:0:0:
432,144,45227,1,2,0:0:0:0:
448,160,45311,1,0,0:0:0:0:
440,184,45394,1,6,0:0:0:0:
400,168,45561,1,0,0:0:0:0:
392,192,45644,1,0,0:0:0:0:
408,168,45727,1,2,0:0:0:0:
408,168,45783,1,2,0:0:0:0:
400,168,45839,1,2,0:0:0:0:
432,184,45894,1,0,0:0:0:0:
432,144,46061,1,2,0:0:0:0:
400,168,46144,1,2,0:0:0:0:
424,176,46227,1,0,0:0:0:0:
400,224,46394,1,0,0:0:0:0:
392,192,46561,1,2,0:0:0:0:
392,192,46644,1,2,0:0:0:0:
416,200,46727,1,2,0:0:0:0:
400,224,46783,1,2,0:0:0:0:
400,224,46839,1,2,0:0:0:0:
408,168,46894,1,0,0:0:0:0:
400,168,46977,1,0,0:0:0:0:
400,224,47061,1,2,0:0:0:0:
384,200,47144,1,0,0:0:0:0:
408,168,47227,1,0,0:0:0:0:
432,144,47394,1,2,0:0:0:0:
400,168,47450,1,2,0:0:0:0:
400,168,47505,1,2,0:0:0:0:
416,160,47561,1,0,0:0:0:0:
400,168,47644,1,0,0:0:0:0:
424,176,47727,1,2,0:0:0:0:
416,200,47811,1,0,0:0:0:0:
424,176,47894,1,2,0:0:0:0:
416,200,47950,1,0,0:0:0:0:
392,192,48005,1,0,0:0:0:0:
416,200,48061,1,6,0:0:0:0:
440,256,48239,1,2,0:0:0:0:
424,232,48323,1,2,0:0:0:0:
400,224,48406,1,0,0:0:0:0:
392,192,48573,1,2,0:0:0:0:
384,200,48739,1,2,0:0:0:0:
400,224,48823,1,2,0:0:0:0:
416,160,48906,1,0,0:0:0:0:
360,176,49073,1,2,0:0:0:0:
336,184,49156,1,2,0:0:0:0:
320,208,49239,1,2,0:0:0:0:
320,208,49323,1,2,0:0:0:0:
392,192,49406,1,0,0:0:0:0:
336,192,49573,1,2,0:0:0:0:
392,192,49656,1,2,0:0:0:0:
384,200,49739,1,2,0:0:0:0:
384,200,49823,1,2,0:0:0:0:
408,192,49906,1,0,0:0:0:0:
456,216,50073,1,6,0:0:0:0:
408,192,50239,1,2,0:0:0:0:
384,200,50323,1,2,0:0:0:0:
400,184,50406,1,0,0:0:0:0:
456,176,50573,1,2,0:0:0:0:
400,184,50739,1,2,0:0:0:0:
392,160,50823,1,2,0:0:0:0:
408,192,50906,1,0,0:0:0:0:
456,168,51073,1,2,0:0:0:0:
408,192,51234,1,0,0:0:0:0:
448,152,51400,1,0,0:0:0:0:
408,192,51484,1,0,0:0:0:0:
400,216,51567,1,0,0:0:0:0:
448,192,51734,1,0,0:0:0:0:
408,192,51900,1,0,0:0:0:0:
408,192,51984,1,0,0:0:0:0:
408,192,52067,1,0,0:0:0:0:
456,216,52234,1,2,0:0:0:0:
424,168,52400,1,0,0:0:0:0:
400,184,52484,1,0,0:0:0:0:
384,208,52567,1,0,0:0:0:0:
432,184,52734,1,2,0:0:0:0:
408,192,52900,1,2,0:0:0:0:
400,216,52984,1,0,0:0:0:0:
400,216,53067,1,0,0:0:0:0:
448,192,53234,1,6,0:0:0:0:
432,184,53400,1,4,0:0:0:0:
352,256,53734,1,6,0:0:0:0:
296,184,54067,1,2,0:0:0:0:
400,216,54234,1,2,0:0:0:0:
408,192,54400,1,2,0:0:0:0:
408,192,54567,1,2,0:0:0:0:
408,192,54734,1,2,0:0:0:0:
408,192,54900,1,2,0:0:0:0:
400,248,55067,1,2,0:0:0:0:
400,248,55150,1,2,0:0:0:0:
416,224,55233,1,0,0:0:0:0:
408,192,55317,1,2,0:0:0:0:
400,216,55400,1,2,0:0:0:0:
376,216,55483,1,2,0:0:0:0:
400,216,55567,1,0,0:0:0:0:
408,192,55650,1,2,0:0:0:0:
400,168,55733,1,2,0:0:0:0:
384,192,55817,1,2,0:0:0:0:
408,184,55900,1,0,0:0:0:0:
432,168,55983,1,2,0:0:0:0:
432,168,56067,1,2,0:0:0:0:
456,160,56150,1,0,0:0:0:0:
440,184,56233,1,2,0:0:0:0:
456,160,56317,1,0,0:0:0:0:
408,192,56400,1,2,0:0:0:0:
408,192,56483,1,2,0:0:0:0:
432,200,56567,1,4,0:0:0:0:
384,176,56733,1,0,0:0:0:0:
384,192,56817,1,0,0:0:0:0:
432,200,56900,1,2,0:0:0:0:
432,168,57067,1,2,0:0:0:0:
400,168,57150,1,2,0:0:0:0:
384,192,57233,1,2,0:0:0:0:
384,192,57317,1,2,0:0:0:0:
392,216,57400,1,0,0:0:0:0:
408,192,57567,1,0,0:0:0:0:
408,192,57733,1,2,0:0:0:0:
408,192,57900,1,0,0:0:0:0:
408,192,57983,1,0,0:0:0:0:
408,192,58067,1,2,0:0:0:0:
424,136,58233,1,2,0:0:0:0:
424,136,58400,1,2,0:0:0:0:
448,144,58483,1,0,0:0:0:0:
424,136,58567,1,0,0:0:0:0:
384,192,58733,1,0,0:0:0:0:
408,192,58817,1,0,0:0:0:0:
416,168,58900,1,2,0:0:0:0:
392,176,58983,1,2,0:0:0:0:
384,192,59067,1,2,0:0:0:0:
384,192,59150,1,2,0:0:0:0:
408,208,59233,1,6,0:0:0:0:
416,168,59400,1,2,0:0:0:0:
384,192,59483,1,2,0:0:0:0:
384,192,59567,1,2,0:0:0:0:
408,208,59733,1,0,0:0:0:0:
384,192,59817,1,0,0:0:0:0:
408,192,59900,1,2,0:0:0:0:
408,192,59983,1,2,0:0:0:0:
384,192,60067,1,2,0:0:0:0:
416,168,60233,1,0,0:0:0:0:
408,192,60317,1,0,0:0:0:0:
432,200,60400,1,2,0:0:0:0:
464,248,60567,1,6,0:0:0:0:
456,192,60733,1,2,0:0:0:0:
408,208,60817,1,2,0:0:0:0:
432,200,60900,1,0,0:0:0:0:
376,184,61067,1,6,0:0:0:0:
432,200,61233,1,0,0:0:0:0:
408,208,61317,1,0,0:0:0:0:
392,184,61400,1,2,0:0:0:0:
408,192,61567,1,6,0:0:0:0:
464,200,61650,1,2,0:0:0:0:
456,192,61733,1,2,0:0:0:0:
424,192,61817,1,0,0:0:0:0:
432,200,61900,1,4,0:0:0:0:
408,248,62067,1,0,0:0:0:0:
416,224,62150,1,0,0:0:0:0:
432,200,62233,1,2,0:0:0:0:
400,152,62400,1,2,0:0:0:0:
376,184,62483,1,2,0:0:0:0:
376,184,62567,1,2,0:0:0:0:
376,208,62650,1,2,0:0:0:0:
432,200,62733,1,0,0:0:0:0:
408,208,62900,1,0,0:0:0:0:
424,192,62983,1,2,0:0:0:0:
376,184,63067,1,2,0:0:0:0:
432,184,63233,1,0,0:0:0:0:
408,176,63317,1,0,0:0:0:0:
376,184,63400,1,0,0:0:0:0:
360,208,63483,1,0,0:0:0:0:
384,192,63567,1,2,0:0:0:0:
432,184,63733,1,2,0:0:0:0:
408,176,63817,1,2,0:0:0:0:
408,208,63900,1,2,0:0:0:0:
376,208,63983,1,2,0:0:0:0:
392,232,64067,1,0,0:0:0:0:
432,200,64233,1,2,0:0:0:0:
432,200,64317,1,2,0:0:0:0:
408,184,64400,1,0,0:0:0:0:
432,232,64567,1,4,0:0:0:0:
432,200,64733,1,0,0:0:0:0:
408,208,64817,1,0,0:0:0:0:
408,176,64900,1,2,0:0:0:0:
432,232,65067,1,0,0:0:0:0:
408,176,65233,1,0,0:0:0:0:
408,176,65317,1,2,0:0:0:0:
408,184,65400,1,2,0:0:0:0:
408,208,65567,1,2,0:0:0:0:
432,192,65650,1,0,0:0:0:0:
448,168,65733,1,2,0:0:0:0:
448,168,65817,1,0,0:0:0:0:
448,168,65900,1,0,0:0:0:0:
432,200,66067,1,0,0:0:0:0:
432,200,66150,1,0,0:0:0:0:
448,168,66233,1,2,0:0:0:0:
408,184,66400,1,0,0:0:0:0:
432,168,66483,1,2,0:0:0:0:
408,176,66567,1,2,0:0:0:0:
448,168,66650,1,0,0:0:0:0:
448,168,66733,1,2,0:0:0:0:
432,168,66817,1,2,0:0:0:0:
400,224,66900,1,0,0:0:0:0:
384,184,66983,1,2,0:0:0:0:
384,184,67067,1,2,0:0:0:0:
376,208,67150,1,2,0:0:0:0:
400,224,67233,1,4,0:0:0:0:
392,168,67400,1,0,0:0:0:0:
376,208,67483,1,0,0:0:0:0:
408,208,67567,1,2,0:0:0:0:
432,168,67733,1,0,0:0:0:0:
376,208,67900,1,0,0:0:0:0:
392,168,67983,1,2,0:0:0:0:
408,208,68067,1,2,0:0:0:0:
376,208,68233,1,2,0:0:0:0:
376,208,68317,1,2,0:0:0:0:
376,232,68400,1,2,0:0:0:0:
376,232,68483,1,2,0:0:0:0:
400,216,68567,1,0,0:0:0:0:
432,168,68733,1,2,0:0:0:0:
392,168,68817,1,2,0:0:0:0:
392,168,68900,1,2,0:0:0:0:
336,184,69067,1,0,0:0:0:0:
392,192,69233,1,2,0:0:0:0:
392,192,69317,1,2,0:0:0:0:
432,168,69400,1,0,0:0:0:0:
408,208,69567,1,2,0:0:0:0:
392,168,69733,1,0,0:0:0:0:
392,192,69900,1,0,0:0:0:0:
416,144,70067,1,2,0:0:0:0:
400,120,70150,1,2,0:0:0:0:
376,136,70233,1,2,0:0:0:0:
408,208,70400,1,0,0:0:0:0:
416,152,70567,1,2,0:0:0:0:
392,168,70650,1,2,0:0:0:0:
296,192,70733,1,0,0:0:0:0:
336,232,70900,1,2,0:0:0:0:
408,192,71067,1,0,0:0:0:0:
400,168,71150,1,2,0:0:0:0:
392,144,71233,1,2,0:0:0:0:
312,248,71400,1,0,0:0:0:0:
360,216,71567,1,0,0:0:0:0:
368,160,71733,1,2,0:0:0:0:
392,112,71900,1,2,0:0:0:0:
368,160,71983,1,2,0:0:0:0:
376,224,72067,1,0,0:0:0:0:
392,168,72233,1,2,0:0:0:0:
392,168,72317,1,2,0:0:0:0:
376,192,72400,1,2,0:0:0:0:
376,192,72483,1,2,0:0:0:0:
400,200,72567,1,4,0:0:0:0:
456,200,72733,1,0,0:0:0:0:
400,200,72817,1,0,0:0:0:0:
416,176,72900,1,2,0:0:0:0:
416,176,73067,1,2,0:0:0:0:
376,192,73150,1,2,0:0:0:0:
376,192,73233,1,2,0:0:0:0:
360,216,73317,1,2,0:0:0:0:
384,200,73400,1,0,0:0:0:0:
400,200,73567,1,0,0:0:0:0:
416,176,73650,1,2,0:0:0:0:
392,168,73733,1,2,0:0:0:0:
448,184,73900,1,0,0:0:0:0:
384,200,73983,1,0,0:0:0:0:
360,216,74067,1,0,0:0:0:0:
360,216,74150,1,0,0:0:0:0:
384,208,74233,1,2,0:0:0:0:
440,216,74400,1,0,0:0:0:0:
448,184,74567,1,0,0:0:0:0:
448,184,74650,1,0,0:0:0:0:
456,160,74733,1,2,0:0:0:0:
448,184,74900,1,0,0:0:0:0:
448,184,75067,1,2,0:0:0:0:
416,176,75150,1,2,0:0:0:0:
416,200,75233,1,0,0:0:0:0:
472,184,75400,1,2,0:0:0:0:
448,184,75483,1,0,0:0:0:0:
480,136,75650,1,2,0:0:0:0:
440,216,75733,1,0,0:0:0:0:
416,176,75900,1,0,0:0:0:0:
416,200,75983,1,2,0:0:0:0:
448,184,76067,1,0,0:0:0:0:
416,200,76150,1,0,0:0:0:0:
440,192,76233,1,2,0:0:0:0:
416,200,76317,1,2,0:0:0:0:
440,216,76400,1,2,0:0:0:0:
416,232,76483,1,2,0:0:0:0:
440,216,76567,1,0,0:0:0:0:
448,184,76733,1,2,0:0:0:0:
416,200,76817,1,2,0:0:0:0:
400,224,76900,1,2,0:0:0:0:
416,232,76983,1,2,0:0:0:0:
416,176,77067,1,0,0:0:0:0:
440,192,77233,1,2,0:0:0:0:
416,200,77317,1,2,0:0:0:0:
432,176,77400,1,0,0:0:0:0:
416,176,77483,1,0,0:0:0:0:
416,200,77567,1,2,0:0:0:0:
416,200,77650,1,2,0:0:0:0:
408,176,77733,1,0,0:0:0:0:
392,176,77775,1,0,0:0:0:0:
376,176,77817,1,0,0:0:0:0:
360,184,77858,1,0,0:0:0:0:
360,184,77900,1,0,0:0:0:0:
312,152,78070,1,0,0:0:0:0:
336,168,78154,1,0,0:0:0:0:
392,176,78237,1,2,0:0:0:0:
368,128,78404,1,2,0:0:0:0:
352,152,78487,1,2,0:0:0:0:
344,176,78570,1,2,0:0:0:0:
352,152,78654,1,2,0:0:0:0:
376,152,78737,1,0,0:0:0:0:
392,208,78904,1,0,0:0:0:0:
416,200,78987,1,2,0:0:0:0:
392,216,79070,1,2,0:0:0:0:
432,176,79237,1,0,0:0:0:0:
408,176,79320,1,0,0:0:0:0:
392,208,79404,1,0,0:0:0:0:
392,208,79487,1,0,0:0:0:0:
416,200,79570,1,2,0:0:0:0:
416,200,79737,1,0,0:0:0:0:
392,200,79820,1,0,0:0:0:0:
432,176,79904,1,2,0:0:0:0:
376,168,80070,1,0,0:0:0:0:
368,232,80154,1,0,0:0:0:0:
416,200,80237,1,2,0:0:0:0:
392,208,80320,1,2,0:0:0:0:
368,232,80404,1,2,0:0:0:0:
368,232,80487,1,2,0:0:0:0:
416,200,80570,1,0,0:0:0:0:
368,232,80654,1,0,0:0:0:0:
416,200,80737,1,2,0:0:0:0:
360,216,80904,1,2,0:0:0:0:
368,232,80987,1,2,0:0:0:0:
416,200,81070,1,2,0:0:0:0:
416,200,81154,1,0,0:0:0:0:
392,200,81237,1,0,0:0:0:0:
432,240,81404,1,0,0:0:0:0:
440,184,81570,1,2,0:0:0:0:
408,224,81737,1,2,0:0:0:0:
440,184,81820,1,0,0:0:0:0:
392,208,81904,1,0,0:0:0:0:
408,224,82070,1,0,0:0:0:0:
408,224,82154,1,0,0:0:0:0:
440,184,82237,1,2,0:0:0:0:
416,200,82320,1,2,0:0:0:0:
368,232,82404,1,0,0:0:0:0:
440,184,82487,1,2,0:0:0:0:
416,200,82570,1,2,0:0:0:0:
392,192,82654,1,0,0:0:0:0:
408,224,82737,1,2,0:0:0:0:
416,200,82904,1,2,0:0:0:0:
392,208,82987,1,0,0:0:0:0:
392,208,83070,1,0,0:0:0:0:
440,184,83154,1,2,0:0:0:0:
424,200,83237,1,0,0:0:0:0:
416,200,83404,1,0,0:0:0:0:
392,208,83487,1,0,0:0:0:0:
416,200,83570,1,2,0:0:0:0:
416,200,83737,1,0,0:0:0:0:
392,192,83820,1,0,0:0:0:0:
416,200,83904,1,2,0:0:0:0:
416,200,83987,1,2,0:0:0:0:
392,192,84070,1,2,0:0:0:0:
440,184,84154,1,0,0:0:0:0:
440,184,84237,1,2,0:0:0:0:
416,200,84320,1,2,0:0:0:0:
416,200,84404,1,0,0:0:0:0:
392,208,84487,1,0,0:0:0:0:
368,224,84570,1,0,0:0:0:0:
352,248,84654,1,0,0:0:0:0:
392,208,84737,1,2,0:0:0:0:
384,264,84904,1,2,0:0:0:0:
360,248,84987,1,0,0:0:0:0:
352,248,85070,1,2,0:0:0:0:
440,184,85153,1,0,0:0:0:0:
416,200,85237,1,2,0:0:0:0:
392,208,85320,1,2,0:0:0:0:
440,184,85403,1,0,0:0:0:0:
392,192,85487,1,0,0:0:0:0:
392,208,85570,1,0,0:0:0:0:
368,224,85653,1,0,0:0:0:0:
384,200,85737,1,0,0:0:0:0:
392,192,85820,1,0,0:0:0:0:
368,56,86237,1,0,0:0:0:0:
384,112,86403,1,0,0:0:0:0:
392,136,86487,1,0,0:0:0:0:
408,160,86570,1,6,0:0:0:0:
440,208,86737,1,2,0:0:0:0:
400,240,86903,1,2,0:0:0:0:
440,184,86987,1,2,0:0:0:0:
456,248,87070,1,6,0:0:0:0:
408,280,87237,1,2,0:0:0:0:
440,208,87403,1,0,0:0:0:0:
400,240,87570,1,4,0:0:0:0:
