osu file format v14

[General]
AudioFilename: tig-hug - sasakure.UK.mp3
AudioLeadIn: 0
PreviewTime: -1
Countdown: 0
SampleSet: Soft
StackLeniency: 0.7
Mode: 0
LetterboxInBreaks: 1
WidescreenStoryboard: 1

[Editor]
DistanceSpacing: 0.9
BeatDivisor: 4
GridSize: 4
TimelineZoom: 0.3999999

[Metadata]
Title:tig-hug
TitleUnicode:tig-hug
Artist:sasakure.UK
ArtistUnicode:sasakure.UK
Creator:hetaneko-chan
Version:Normal
Source:Vocaloid
Tags:
BeatmapID:659686
BeatmapSetID:291555

[Difficulty]
HPDrainRate:4
CircleSize:4
OverallDifficulty:4
ApproachRate:4
SliderMultiplier:1.4
SliderTickRate:1

[Events]
//Background and Video events
0,0,"gumi_wallpaper_by_blubbaz-d6y4ls7.png",0,0
//Break Periods
2,11923,16596
2,95799,106866
2,126533,133720
2,143100,148405
//Storyboard Layer 0 (Background)
//Storyboard Layer 1 (Fail)
//Storyboard Layer 2 (Pass)
//Storyboard Layer 3 (Foreground)
//Storyboard Sound Samples

[TimingPoints]
45,413.793103448276,4,2,0,100,1,0

[Colours]
Combo1 : 0,128,128
Combo2 : 0,128,192
Combo3 : 0,64,128
Combo4 : 128,0,128
Combo5 : 128,128,192

[HitObjects]
72,76,5853,6,0,L|192:80,1,105
224,168,6483,2,0,L|116:224,1,105
224,336,7172,1,0,0:0:0:0:
340,336,8116,2,0,L|420:312,1,70
320,80,9105,6,0,L|252:116,1,70
176,168,9630,2,0,L|92:176,1,70
72,272,10364,2,0,L|20:200,1,70
64,112,11413,2,0,L|168:88,1,105
76,80,17916,5,0,0:0:0:0:
144,256,18651,1,0,0:0:0:0:
280,304,19280,2,0,L|388:304,3,105
420,236,20958,6,0,L|420:144,1,70
412,64,21693,1,0,0:0:0:0:
288,104,22217,2,0,P|220:160|196:168,1,105
220,104,24105,5,0,0:0:0:0:
204,272,25049,1,0,0:0:0:0:
80,220,25574,2,0,L|24:132,3,105
32,56,26937,1,0,0:0:0:0:
152,72,27881,2,0,L|232:88,1,70
264,184,28406,2,0,L|348:120,3,105
432,120,30189,6,0,L|404:156,1,35
340,288,30818,2,0,L|376:236,1,35
472,300,31343,2,0,L|512:200,3,105
512,116,33021,1,0,0:0:0:0:
336,72,33606,2,0,L|264:132,3,70
272,216,35074,1,0,0:0:0:0:
172,92,36063,5,0,0:0:0:0:
216,224,36693,1,0,0:0:0:0:
364,216,37592,2,0,L|280:296,3,105
168,308,38956,1,0,0:0:0:0:
64,208,39480,2,0,P|52:116|72:104,1,105
168,68,40319,1,0,0:0:0:0:
316,92,40739,2,0,L|392:132,1,70
104,228,42102,6,0,L|40:136,3,105
136,72,43361,2,0,P|240:72|264:112,1,140
276,188,44095,2,0,L|340:224,1,70
256,192,45040,12,0,47872,0:0:0:0:
244,192,48081,5,0,0:0:0:0:
368,280,48816,1,0,0:0:0:0:
420,176,49340,2,0,P|436:88|376:80,2,140
432,260,51019,2,0,L|520:296,1,70
496,168,51543,2,0,L|416:144,1,70
308,96,52277,2,0,L|248:160,1,70
40,96,53851,6,0,L|112:96,1,70
192,140,54480,2,0,L|268:200,1,70
288,284,55109,2,0,L|200:324,1,70
288,284,56578,1,0,0:0:0:0:
352,200,57207,2,0,L|304:112,1,70
436,56,58046,5,0,0:0:0:0:
448,144,58676,2,0,L|384:184,1,70
108,80,60249,6,0,L|216:160,1,105
124,248,60984,1,0,0:0:0:0:
288,288,61508,6,0,L|424:288,1,105
464,192,62137,1,0,0:0:0:0:
72,140,62977,6,0,P|136:72|168:68,1,105
288,92,63711,1,0,0:0:0:0:
288,92,64130,1,0,0:0:0:0:
404,180,64445,2,0,L|456:276,2,105
288,248,65914,6,0,L|208:252,2,70
236,156,66753,2,0,L|168:112,2,70
112,64,67487,2,0,L|60:128,2,70
256,192,68956,12,0,71893,0:0:0:0:
420,164,72522,6,0,L|340:92,1,105
232,128,73361,2,0,L|168:216,1,105
300,320,74095,2,0,L|408:320,1,105
464,232,75249,6,0,L|400:196,1,70
504,140,76088,2,0,L|424:112,1,70
348,52,76613,2,0,L|292:104,1,70
328,208,77137,2,0,L|256:168,1,70
200,96,78081,6,0,P|192:196|168:216,1,105
44,192,78606,2,0,P|24:120|60:76,1,105
104,320,79550,1,0,0:0:0:0:
264,272,79970,1,0,0:0:0:0:
456,320,80389,1,0,0:0:0:0:
428,188,81333,6,0,L|424:88,2,70
272,112,82172,1,0,0:0:0:0:
108,116,82697,2,0,L|48:152,2,70
136,332,83746,6,0,L|244:332,1,105
284,240,84480,2,0,L|148:240,1,105
128,144,85424,2,0,L|48:208,1,70
4,68,86053,2,0,L|-24:148,3,70
192,60,87312,6,0,L|280:96,2,70
192,192,88361,1,0,0:0:0:0:
316,280,88991,1,0,0:0:0:0:
480,156,90040,5,0,0:0:0:0:
268,100,90669,1,0,0:0:0:0:
88,136,91298,2,0,L|40:200,1,70
140,272,92033,2,0,L|224:308,3,70
348,220,93291,6,0,L|348:128,2,70
244,220,94026,2,0,L|244:132,1,70
112,144,94760,2,0,L|112:236,1,70
140,308,95599,1,0,0:0:0:0:
100,84,108186,6,0,L|24:152,1,70
120,256,108816,2,0,L|192:296,1,70
344,284,109340,2,0,L|408:204,3,70
188,200,110809,5,0,0:0:0:0:
64,208,111858,2,0,L|-12:156,1,70
72,84,112382,2,0,L|172:64,1,70
212,192,114165,5,0,0:0:0:0:
328,268,114585,2,0,L|384:188,1,70
392,60,115214,2,0,L|280:72,3,105
124,100,117207,6,0,P|52:144|36:88,1,140
72,288,118046,2,0,P|132:232|144:228,1,70
240,300,118781,2,0,P|208:232|200:228,1,70
96,72,120144,6,0,L|96:168,1,70
228,156,120669,1,0,0:0:0:0:
340,56,121088,2,0,P|368:156|368:188,1,105
416,252,121823,5,0,0:0:0:0:
416,252,122242,2,0,L|328:288,1,70
256,192,122977,12,0,126333,0:0:0:0:
68,128,135040,5,0,0:0:0:0:
68,128,135354,1,0,0:0:0:0:
68,128,135774,1,0,0:0:0:0:
68,128,136298,1,0,0:0:0:0:
212,132,136823,6,0,P|284:72|384:140,1,210
424,248,138186,2,0,P|372:316|256:228,1,245
116,204,139655,2,0,L|20:248,1,105
8,116,140389,2,0,L|112:72,1,105
264,80,141228,2,0,L|316:80,1,35
376,228,141753,5,0,0:0:0:0:
376,228,142172,1,0,0:0:0:0:
376,320,142487,2,0,L|300:324,2,70
68,96,149725,6,0,B|136:172|160:200|224:64,1,210
248,304,150984,2,0,B|312:232|320:224|424:304,1,210
436,204,152033,2,0,L|352:144,1,70
248,104,152557,1,0,0:0:0:0:
112,156,153186,1,0,0:0:0:0:
112,156,153606,1,0,0:0:0:0:
112,156,154026,1,0,0:0:0:0:
256,192,154445,12,0,157802,0:0:0:0:
56,88,158641,6,0,L|120:128,3,70
220,160,159585,1,0,0:0:0:0:
392,116,160214,1,0,0:0:0:0:
440,216,160634,2,0,L|380:260,1,70
256,292,161263,1,0,0:0:0:0:
112,248,161683,2,0,L|28:200,1,70
40,128,162312,2,0,L|100:80,2,70
280,64,163466,5,0,0:0:0:0:
376,184,163886,1,0,0:0:0:0:
244,272,164305,1,0,0:0:0:0:
36,92,164830,1,0,0:0:0:0:
256,192,165669,12,0,168921,0:0:0:0:
256,192,168921,12,0,171648,0:0:0:0:
340,56,172277,5,0,0:0:0:0:
392,156,172802,2,0,L|276:216,2,105
224,264,173746,2,0,L|128:316,2,105
56,180,174690,6,0,P|88:88|96:88,1,105
192,104,175529,2,0,L|248:180,2,70
336,68,176368,1,0,0:0:0:0:
356,176,176893,2,0,L|324:208,1,35
256,288,177627,5,0,0:0:0:0:
168,144,178466,1,0,0:0:0:0:
368,68,179095,1,0,0:0:0:0:
376,192,179620,2,0,L|412:280,4,70
416,324,180984,6,0,B|280:328|204:304|160:320,1,245
72,304,182033,1,0,0:0:0:0:
72,304,182452,1,0,0:0:0:0:
72,304,182872,1,0,0:0:0:0:
64,140,183606,6,0,B|136:116|180:160|236:124|192:80,1,175
288,160,184550,2,0,L|336:216,3,70
448,128,185599,2,0,L|420:204,3,70
440,316,186648,2,0,L|352:316,3,70
256,316,187592,2,0,L|156:316,4,70
84,288,188956,2,0,L|36:212,1,70
116,88,189585,5,0,0:0:0:0:
300,192,190319,1,0,0:0:0:0:
456,108,191158,2,0,L|472:208,3,70
392,296,192417,1,0,0:0:0:0:
208,268,193046,6,0,P|120:228|92:192,1,140
108,92,194305,5,0,0:0:0:0:
232,184,194725,1,0,0:0:0:0:
324,64,195040,2,0,L|372:128,1,70
416,232,195669,6,0,L|348:288,1,70
256,280,196298,2,0,L|156:264,1,70
96,196,197033,2,0,P|104:136|140:88,1,105
264,88,197872,2,0,L|328:88,1,35
432,124,199130,6,0,L|440:212,1,70
436,272,199550,2,0,L|376:312,1,70
296,316,200074,1,0,0:0:0:0:
272,272,200914,1,0,0:0:0:0:
140,168,201753,5,0,0:0:0:0:
64,104,202277,2,0,L|144:56,1,70
244,72,203012,2,0,L|304:124,2,70
400,80,204060,2,0,L|456:132,1,70
440,228,204795,5,0,0:0:0:0:
292,288,205424,1,0,0:0:0:0:
124,180,206053,1,0,0:0:0:0:
212,128,206683,2,0,L|292:80,1,70
392,112,207837,6,0,L|440:180,1,70
464,252,208361,2,0,L|396:292,1,70
288,252,208991,1,0,0:0:0:0:
208,176,209515,2,0,L|156:104,5,70
104,108,211088,6,0,L|32:80,1,70
16,204,211718,2,0,L|104:236,1,70
184,248,212242,1,0,0:0:0:0:
312,200,212662,1,0,0:0:0:0:
148,336,213186,1,0,0:0:0:0:
152,116,213816,6,0,P|228:64|264:64,1,105
328,124,214445,2,0,L|368:188,1,70
408,256,215389,2,0,L|436:320,2,70
324,336,216333,2,0,L|308:252,2,70
156,256,217172,2,0,L|76:204,1,70
268,68,218221,1,0,0:0:0:0:
388,176,218641,1,0,0:0:0:0:
456,288,218956,2,0,L|364:296,1,70
120,276,219795,5,0,0:0:0:0:
248,120,220319,1,0,0:0:0:0:
256,192,221053,12,0,222732,0:0:0:0:
