osu file format v13

[General]
AudioFilename: Hello,Planet..mp3
AudioLeadIn: 0
PreviewTime: 86100
Countdown: 0
SampleSet: Soft
StackLeniency: 0.7
Mode: 3
LetterboxInBreaks: 0
SpecialStyle: 0
WidescreenStoryboard: 0

[Editor]
DistanceSpacing: 0.8
BeatDivisor: 4
GridSize: 4
TimelineZoom: 1

[Metadata]
Title:*hello,Planet.
TitleUnicode:*ハロー、プラネット。
Artist:sasakure.UK
ArtistUnicode:sasakure.UK
Creator:AILK
Version:7K Hard++
Source:niconico
Tags:vocaloid
BeatmapID:501796
BeatmapSetID:213460

[Difficulty]
HPDrainRate:7
CircleSize:7
OverallDifficulty:7
ApproachRate:5
SliderMultiplier:1.4
SliderTickRate:1

[Events]
//Background and Video events
0,0,"BG.png",0,0
Video,-3860,"helloplanet.avi"
//Break Periods
//Storyboard Layer 0 (Background)
//Storyboard Layer 1 (Fail)
//Storyboard Layer 2 (Pass)
//Storyboard Layer 3 (Foreground)
//Storyboard Sound Samples
//Background Colour Transformations
3,100,163,162,255

[TimingPoints]
100,400,4,2,0,20,1,0
225300,400,4,2,0,20,1,0

[HitObjects]
256,192,100,128,0,500:0:0:0:0:
36,192,100,128,0,700:0:0:0:0:
475,192,300,1,0,0:0:0:0:
329,192,500,128,0,900:0:0:0:0:
182,192,700,1,0,0:0:0:0:
402,192,900,128,0,1300:0:0:0:0:
109,192,900,128,0,1100:0:0:0:0:
256,192,1100,1,0,0:0:0:0:
475,192,1300,128,0,1700:0:0:0:0:
36,192,1300,128,0,1500:0:0:0:0:
182,192,1500,1,0,0:0:0:0:
256,192,1700,128,0,2100:0:0:0:0:
329,192,1700,1,0,0:0:0:0:
402,192,1800,1,0,0:0:0:0:
475,192,1900,1,0,0:0:0:0:
182,192,2100,128,0,2500:0:0:0:0:
402,192,2100,1,0,0:0:0:0:
329,192,2300,1,0,0:0:0:0:
109,192,2500,128,0,2900:0:0:0:0:
329,192,2500,1,0,0:0:0:0:
402,192,2600,1,0,0:0:0:0:
475,192,2700,1,0,0:0:0:0:
36,192,2900,128,0,3300:0:0:0:0:
402,192,2900,1,0,0:0:0:0:
329,192,3100,1,0,0:0:0:0:
256,192,3300,128,0,4900:0:0:0:0:
182,192,3300,1,0,0:0:0:0:
36,192,3500,1,0,0:0:0:0:
109,192,3600,1,0,0:0:0:0:
182,192,3700,1,0,0:0:0:0:
475,192,3900,1,0,0:0:0:0:
475,192,4000,1,0,0:0:0:0:
475,192,4100,128,0,6100:0:0:0:0:
329,192,4100,128,0,4400:0:0:0:0:
182,192,4400,128,0,4700:0:0:0:0:
329,192,4700,128,0,4900:0:0:0:0:
36,192,4900,128,0,6100:0:0:0:0:
256,192,5300,1,0,0:0:0:0:
256,192,5400,1,0,0:0:0:0:
256,192,5500,1,0,0:0:0:0:
182,192,5600,128,0,6100:0:0:0:0:
329,192,5600,128,0,6100:0:0:0:0:
329,192,6500,1,0,0:0:0:0:
36,192,6500,128,0,6900:0:0:0:0:
475,192,6700,1,0,0:0:0:0:
329,192,6900,1,0,0:0:0:0:
475,192,7100,1,0,0:0:0:0:
182,192,7100,1,0,0:0:0:0:
109,192,7200,1,0,0:0:0:0:
329,192,7300,1,0,0:0:0:0:
36,192,7300,128,0,7700:0:0:0:0:
475,192,7500,1,0,0:0:0:0:
329,192,7700,1,0,0:0:0:0:
475,192,7900,1,0,0:0:0:0:
329,192,7900,1,0,0:0:0:0:
402,192,8000,1,0,0:0:0:0:
182,192,8100,1,0,0:0:0:0:
475,192,8100,128,0,8500:0:0:0:0:
36,192,8300,1,0,0:0:0:0:
182,192,8500,1,0,0:0:0:0:
36,192,8700,1,0,0:0:0:0:
329,192,8700,1,0,0:0:0:0:
402,192,8800,1,0,0:0:0:0:
182,192,8900,1,0,0:0:0:0:
475,192,8900,128,0,9300:0:0:0:0:
36,192,9100,1,0,0:0:0:0:
182,192,9300,1,0,0:0:0:0:
36,192,9500,1,0,0:0:0:0:
182,192,9500,1,0,0:0:0:0:
109,192,9600,1,0,0:0:0:0:
329,192,9700,1,0,0:0:0:0:
36,192,9700,128,0,10100:0:0:0:0:
475,192,9900,1,0,0:0:0:0:
329,192,10100,1,0,0:0:0:0:
475,192,10300,1,0,0:0:0:0:
182,192,10300,1,0,0:0:0:0:
109,192,10400,1,0,0:0:0:0:
329,192,10500,1,0,0:0:0:0:
36,192,10500,128,0,10900:0:0:0:0:
475,192,10700,1,0,0:0:0:0:
329,192,10900,1,0,0:0:0:0:
475,192,11100,1,0,0:0:0:0:
329,192,11100,1,0,0:0:0:0:
402,192,11200,1,0,0:0:0:0:
182,192,11300,1,0,0:0:0:0:
475,192,11300,128,0,11700:0:0:0:0:
36,192,11500,1,0,0:0:0:0:
182,192,11700,1,0,0:0:0:0:
36,192,11900,1,0,0:0:0:0:
329,192,11900,1,0,0:0:0:0:
402,192,12000,1,0,0:0:0:0:
182,192,12100,1,0,0:0:0:0:
475,192,12100,128,0,12500:0:0:0:0:
36,192,12300,1,0,0:0:0:0:
182,192,12500,1,0,0:0:0:0:
36,192,12700,1,0,0:0:0:0:
182,192,12700,1,0,0:0:0:0:
109,192,12800,1,0,0:0:0:0:
329,192,12900,1,0,0:0:0:0:
36,192,12900,128,0,13300:0:0:0:0:
182,192,13100,1,0,0:0:0:0:
329,192,13300,1,0,0:0:0:0:
182,192,13500,1,0,0:0:0:0:
329,192,13500,1,0,0:0:0:0:
402,192,13600,1,0,0:0:0:0:
329,192,13700,1,0,0:0:0:0:
475,192,13700,128,0,14100:0:0:0:0:
182,192,13900,1,0,0:0:0:0:
329,192,14100,1,0,0:0:0:0:
182,192,14300,1,0,0:0:0:0:
402,192,14300,1,0,0:0:0:0:
329,192,14400,1,0,0:0:0:0:
36,192,14500,1,0,0:0:0:0:
256,192,14500,128,0,14900:0:0:0:0:
475,192,14700,1,0,0:0:0:0:
36,192,14900,1,0,0:0:0:0:
475,192,15100,1,0,0:0:0:0:
109,192,15100,1,0,0:0:0:0:
182,192,15200,1,0,0:0:0:0:
36,192,15300,1,0,0:0:0:0:
256,192,15300,128,0,15700:0:0:0:0:
475,192,15500,1,0,0:0:0:0:
36,192,15700,1,0,0:0:0:0:
475,192,15900,1,0,0:0:0:0:
402,192,15900,1,0,0:0:0:0:
329,192,16000,1,0,0:0:0:0:
182,192,16100,1,0,0:0:0:0:
36,192,16100,128,0,16500:0:0:0:0:
402,192,16100,1,0,0:0:0:0:
329,192,16300,1,0,0:0:0:0:
402,192,16300,128,0,16900:0:0:0:0:
182,192,16500,1,0,0:0:0:0:
329,192,16700,1,0,0:0:0:0:
36,192,16700,1,0,0:0:0:0:
109,192,16800,1,0,0:0:0:0:
182,192,16900,1,0,0:0:0:0:
475,192,16900,128,0,17300:0:0:0:0:
329,192,17100,1,0,0:0:0:0:
36,192,17100,1,0,0:0:0:0:
109,192,17200,1,0,0:0:0:0:
182,192,17300,1,0,0:0:0:0:
256,192,17300,1,0,0:0:0:0:
329,192,17500,1,0,0:0:0:0:
475,192,17500,1,0,0:0:0:0:
109,192,17500,1,0,0:0:0:0:
402,192,17600,1,0,0:0:0:0:
182,192,17600,1,0,0:0:0:0:
256,192,17700,128,0,18100:0:0:0:0:
36,192,17700,1,0,0:0:0:0:
475,192,17700,1,0,0:0:0:0:
475,192,17900,1,0,0:0:0:0:
402,192,18000,1,0,0:0:0:0:
36,192,18100,1,0,0:0:0:0:
329,192,18100,1,0,0:0:0:0:
402,192,18200,1,0,0:0:0:0:
475,192,18300,1,0,0:0:0:0:
109,192,18300,1,0,0:0:0:0:
182,192,18400,1,0,0:0:0:0:
36,192,18500,1,0,0:0:0:0:
256,192,18500,128,0,18900:0:0:0:0:
402,192,18500,128,0,18900:0:0:0:0:
475,192,18700,1,0,0:0:0:0:
36,192,18900,1,0,0:0:0:0:
182,192,18900,1,0,0:0:0:0:
109,192,19000,1,0,0:0:0:0:
475,192,19100,1,0,0:0:0:0:
182,192,19100,1,0,0:0:0:0:
329,192,19100,1,0,0:0:0:0:
402,192,19200,1,0,0:0:0:0:
182,192,19300,1,0,0:0:0:0:
475,192,19300,128,0,19700:0:0:0:0:
36,192,19500,1,0,0:0:0:0:
182,192,19700,1,0,0:0:0:0:
36,192,19900,1,0,0:0:0:0:
329,192,19900,1,0,0:0:0:0:
402,192,20000,1,0,0:0:0:0:
182,192,20100,1,0,0:0:0:0:
475,192,20100,128,0,20500:0:0:0:0:
36,192,20300,1,0,0:0:0:0:
182,192,20500,1,0,0:0:0:0:
36,192,20700,1,0,0:0:0:0:
182,192,20700,1,0,0:0:0:0:
109,192,20800,1,0,0:0:0:0:
36,192,20900,128,0,21300:0:0:0:0:
329,192,20900,1,0,0:0:0:0:
475,192,21100,1,0,0:0:0:0:
329,192,21300,1,0,0:0:0:0:
475,192,21500,1,0,0:0:0:0:
182,192,21500,1,0,0:0:0:0:
109,192,21600,1,0,0:0:0:0:
329,192,21700,1,0,0:0:0:0:
36,192,21700,128,0,22100:0:0:0:0:
475,192,21900,1,0,0:0:0:0:
329,192,22100,1,0,0:0:0:0:
475,192,22300,1,0,0:0:0:0:
329,192,22300,1,0,0:0:0:0:
402,192,22400,1,0,0:0:0:0:
475,192,22500,128,0,22900:0:0:0:0:
182,192,22500,1,0,0:0:0:0:
36,192,22700,1,0,0:0:0:0:
182,192,22900,1,0,0:0:0:0:
329,192,23100,1,0,0:0:0:0:
36,192,23100,1,0,0:0:0:0:
402,192,23200,1,0,0:0:0:0:
475,192,23300,128,0,23700:0:0:0:0:
182,192,23300,1,0,0:0:0:0:
36,192,23500,1,0,0:0:0:0:
402,192,23700,1,0,0:0:0:0:
109,192,23700,1,0,0:0:0:0:
329,192,23800,1,0,0:0:0:0:
182,192,23800,1,0,0:0:0:0:
256,192,23900,1,0,0:0:0:0:
36,192,23900,1,0,0:0:0:0:
475,192,23900,1,0,0:0:0:0:
329,192,24000,1,0,0:0:0:0:
182,192,24000,1,0,0:0:0:0:
402,192,24100,1,0,0:0:0:0:
109,192,24100,1,0,0:0:0:0:
475,192,24100,128,0,24500:0:0:0:0:
182,192,24400,1,0,0:0:0:0:
329,192,24400,1,0,0:0:0:0:
256,192,24500,1,0,0:0:0:0:
36,192,24500,1,0,0:0:0:0:
475,192,24700,1,0,0:0:0:0:
329,192,24700,1,0,0:0:0:0:
256,192,24800,1,0,0:0:0:0:
36,192,24900,1,0,0:0:0:0:
182,192,24900,128,0,25300:0:0:0:0:
475,192,25100,1,0,0:0:0:0:
36,192,25300,1,0,0:0:0:0:
475,192,25500,1,0,0:0:0:0:
182,192,25500,1,0,0:0:0:0:
256,192,25600,1,0,0:0:0:0:
329,192,25700,128,0,26100:0:0:0:0:
36,192,25700,1,0,0:0:0:0:
182,192,25900,1,0,0:0:0:0:
475,192,26100,1,0,0:0:0:0:
329,192,26300,1,0,0:0:0:0:
36,192,26300,1,0,0:0:0:0:
109,192,26400,1,0,0:0:0:0:
182,192,26500,128,0,26900:0:0:0:0:
256,192,26500,1,0,0:0:0:0:
402,192,26700,1,0,0:0:0:0:
109,192,26900,1,0,0:0:0:0:
256,192,27100,1,0,0:0:0:0:
329,192,27100,1,0,0:0:0:0:
402,192,27200,1,0,0:0:0:0:
475,192,27300,128,0,27700:0:0:0:0:
182,192,27300,1,0,0:0:0:0:
36,192,27500,1,0,0:0:0:0:
256,192,27700,1,0,0:0:0:0:
402,192,27900,1,0,0:0:0:0:
182,192,27900,1,0,0:0:0:0:
109,192,28000,1,0,0:0:0:0:
36,192,28100,128,0,28500:0:0:0:0:
256,192,28100,1,0,0:0:0:0:
329,192,28300,1,0,0:0:0:0:
475,192,28500,1,0,0:0:0:0:
109,192,28700,1,0,0:0:0:0:
402,192,28700,1,0,0:0:0:0:
329,192,28800,1,0,0:0:0:0:
256,192,28900,128,0,29300:0:0:0:0:
36,192,28900,1,0,0:0:0:0:
475,192,29100,1,0,0:0:0:0:
109,192,29300,1,0,0:0:0:0:
182,192,29500,1,0,0:0:0:0:
256,192,29500,1,0,0:0:0:0:
329,192,29500,1,0,0:0:0:0:
109,192,29600,1,0,0:0:0:0:
402,192,29600,1,0,0:0:0:0:
36,192,29700,128,0,30100:0:0:0:0:
475,192,29700,1,0,0:0:0:0:
329,192,29700,1,0,0:0:0:0:
402,192,29900,1,0,0:0:0:0:
109,192,29900,1,0,0:0:0:0:
475,192,30100,128,0,30300:0:0:0:0:
182,192,30100,1,0,0:0:0:0:
402,192,30300,128,0,30500:0:0:0:0:
36,192,30300,1,0,0:0:0:0:
329,192,30300,1,0,0:0:0:0:
109,192,30400,1,0,0:0:0:0:
329,192,30500,1,0,0:0:0:0:
182,192,30500,1,0,0:0:0:0:
256,192,30500,1,0,0:0:0:0:
475,192,30900,1,0,0:0:0:0:
329,192,30900,1,0,0:0:0:0:
256,192,30900,1,0,0:0:0:0:
36,192,31300,1,0,0:0:0:0:
109,192,31300,1,0,0:0:0:0:
256,192,31300,1,0,0:0:0:0:
402,192,31300,1,0,0:0:0:0:
109,192,31700,1,0,0:0:0:0:
329,192,31700,1,0,0:0:0:0:
36,192,31700,1,0,0:0:0:0:
475,192,31700,1,0,0:0:0:0:
256,192,31700,1,0,0:0:0:0:
475,192,32100,128,0,33700:0:0:0:0:
36,192,32100,1,0,0:0:0:0:
182,192,32300,1,0,0:0:0:0:
402,192,32500,1,0,0:0:0:0:
256,192,32700,1,0,0:0:0:0:
109,192,32900,1,0,0:0:0:0:
329,192,33100,1,0,0:0:0:0:
36,192,33300,1,0,0:0:0:0:
256,192,33500,1,0,0:0:0:0:
182,192,33700,128,0,35300:0:0:0:0:
402,192,33700,1,0,0:0:0:0:
109,192,33900,1,0,0:0:0:0:
475,192,34100,1,0,0:0:0:0:
329,192,34300,1,0,0:0:0:0:
36,192,34500,1,0,0:0:0:0:
256,192,34700,1,0,0:0:0:0:
402,192,34900,1,0,0:0:0:0:
329,192,35100,1,0,0:0:0:0:
402,192,35300,128,0,36100:0:0:0:0:
36,192,35300,1,0,0:0:0:0:
256,192,35500,1,0,0:0:0:0:
475,192,35700,1,0,0:0:0:0:
182,192,35900,1,0,0:0:0:0:
329,192,36100,128,0,36900:0:0:0:0:
109,192,36100,1,0,0:0:0:0:
256,192,36300,1,0,0:0:0:0:
402,192,36500,1,0,0:0:0:0:
182,192,36700,1,0,0:0:0:0:
36,192,36900,128,0,38500:0:0:0:0:
109,192,36900,128,0,38500:0:0:0:0:
475,192,36900,1,0,0:0:0:0:
256,192,37100,1,0,0:0:0:0:
402,192,37300,1,0,0:0:0:0:
182,192,37500,1,0,0:0:0:0:
329,192,37700,1,0,0:0:0:0:
475,192,37900,1,0,0:0:0:0:
256,192,38100,1,0,0:0:0:0:
182,192,38300,1,0,0:0:0:0:
402,192,38500,128,0,40700:0:0:0:0:
475,192,38500,128,0,39300:0:0:0:0:
256,192,38500,1,0,0:0:0:0:
182,192,38700,1,0,0:0:0:0:
109,192,38800,1,0,0:0:0:0:
36,192,38900,1,0,0:0:0:0:
36,192,39100,1,0,0:0:0:0:
109,192,39200,1,0,0:0:0:0:
329,192,39300,128,0,40700:0:0:0:0:
182,192,39300,1,0,0:0:0:0:
182,192,39500,1,0,0:0:0:0:
109,192,39600,1,0,0:0:0:0:
36,192,39700,1,0,0:0:0:0:
36,192,39900,1,0,0:0:0:0:
109,192,40000,1,0,0:0:0:0:
182,192,40100,1,0,0:0:0:0:
109,192,40300,1,0,0:0:0:0:
182,192,40400,1,0,0:0:0:0:
256,192,40500,1,0,0:0:0:0:
182,192,40700,1,0,0:0:0:0:
36,192,40700,1,0,0:0:0:0:
256,192,40700,1,0,0:0:0:0:
329,192,40800,1,0,0:0:0:0:
36,192,40900,128,0,41700:0:0:0:0:
182,192,40900,128,0,41700:0:0:0:0:
402,192,40900,1,0,0:0:0:0:
475,192,41100,1,0,0:0:0:0:
402,192,41200,1,0,0:0:0:0:
329,192,41300,1,0,0:0:0:0:
402,192,41500,1,0,0:0:0:0:
256,192,41600,1,0,0:0:0:0:
475,192,41700,128,0,42300:0:0:0:0:
329,192,41700,128,0,42300:0:0:0:0:
109,192,41700,1,0,0:0:0:0:
36,192,41900,1,0,0:0:0:0:
109,192,42000,1,0,0:0:0:0:
182,192,42100,1,0,0:0:0:0:
256,192,42300,1,0,0:0:0:0:
109,192,42300,1,0,0:0:0:0:
402,192,42300,1,0,0:0:0:0:
109,192,42400,1,0,0:0:0:0:
256,192,42400,1,0,0:0:0:0:
329,192,42400,1,0,0:0:0:0:
182,192,42500,128,0,43100:0:0:0:0:
36,192,42500,128,0,43300:0:0:0:0:
256,192,42500,1,0,0:0:0:0:
329,192,42700,1,0,0:0:0:0:
402,192,42800,1,0,0:0:0:0:
475,192,42900,1,0,0:0:0:0:
402,192,43100,1,0,0:0:0:0:
256,192,43100,1,0,0:0:0:0:
402,192,43200,1,0,0:0:0:0:
182,192,43200,1,0,0:0:0:0:
256,192,43300,1,0,0:0:0:0:
109,192,43300,1,0,0:0:0:0:
36,192,43700,1,0,0:0:0:0:
109,192,43800,1,0,0:0:0:0:
182,192,43900,1,0,0:0:0:0:
256,192,44000,1,0,0:0:0:0:
475,192,44100,1,0,0:0:0:0:
402,192,44200,1,0,0:0:0:0:
329,192,44300,1,0,0:0:0:0:
256,192,44400,1,0,0:0:0:0:
36,192,44500,1,0,0:0:0:0:
475,192,44500,1,0,0:0:0:0:
109,192,44600,1,0,0:0:0:0:
402,192,44600,1,0,0:0:0:0:
182,192,44700,1,0,0:0:0:0:
329,192,44700,1,0,0:0:0:0:
256,192,44900,128,0,45000:0:0:0:0:
36,192,44900,1,0,0:0:0:0:
329,192,44900,1,0,0:0:0:0:
182,192,45100,1,0,0:0:0:0:
475,192,45100,1,0,0:0:0:0:
402,192,45200,1,0,0:0:0:0:
475,192,45300,1,0,0:0:0:0:
329,192,45300,1,0,0:0:0:0:
329,192,45500,1,0,0:0:0:0:
36,192,45500,1,0,0:0:0:0:
109,192,45600,1,0,0:0:0:0:
256,192,45700,1,0,0:0:0:0:
182,192,45700,1,0,0:0:0:0:
36,192,45900,1,0,0:0:0:0:
329,192,45900,1,0,0:0:0:0:
256,192,46000,1,0,0:0:0:0:
402,192,46100,1,0,0:0:0:0:
182,192,46100,1,0,0:0:0:0:
109,192,46300,1,0,0:0:0:0:
329,192,46300,1,0,0:0:0:0:
402,192,46400,1,0,0:0:0:0:
475,192,46500,1,0,0:0:0:0:
36,192,46500,1,0,0:0:0:0:
182,192,46500,1,0,0:0:0:0:
109,192,46600,1,0,0:0:0:0:
329,192,46700,1,0,0:0:0:0:
36,192,46700,1,0,0:0:0:0:
256,192,46900,1,0,0:0:0:0:
329,192,46900,1,0,0:0:0:0:
475,192,47000,1,0,0:0:0:0:
109,192,47100,1,0,0:0:0:0:
256,192,47100,1,0,0:0:0:0:
402,192,47300,1,0,0:0:0:0:
182,192,47300,1,0,0:0:0:0:
36,192,47400,1,0,0:0:0:0:
329,192,47500,1,0,0:0:0:0:
109,192,47500,1,0,0:0:0:0:
182,192,47700,1,0,0:0:0:0:
402,192,47700,1,0,0:0:0:0:
329,192,47800,1,0,0:0:0:0:
475,192,47900,1,0,0:0:0:0:
256,192,47900,1,0,0:0:0:0:
36,192,48100,1,0,0:0:0:0:
109,192,48200,1,0,0:0:0:0:
475,192,48300,1,0,0:0:0:0:
256,192,48300,1,0,0:0:0:0:
475,192,48400,1,0,0:0:0:0:
475,192,48500,1,0,0:0:0:0:
402,192,48600,1,0,0:0:0:0:
109,192,48700,1,0,0:0:0:0:
329,192,48700,1,0,0:0:0:0:
109,192,48800,1,0,0:0:0:0:
109,192,48900,1,0,0:0:0:0:
475,192,48900,1,0,0:0:0:0:
402,192,49000,1,0,0:0:0:0:
475,192,49100,1,0,0:0:0:0:
256,192,49100,1,0,0:0:0:0:
256,192,49200,1,0,0:0:0:0:
256,192,49300,1,0,0:0:0:0:
36,192,49300,1,0,0:0:0:0:
182,192,49400,1,0,0:0:0:0:
109,192,49500,1,0,0:0:0:0:
402,192,49500,1,0,0:0:0:0:
402,192,49600,1,0,0:0:0:0:
182,192,49700,1,0,0:0:0:0:
256,192,49800,1,0,0:0:0:0:
329,192,49900,1,0,0:0:0:0:
402,192,50000,1,0,0:0:0:0:
475,192,50100,1,0,0:0:0:0:
402,192,50200,1,0,0:0:0:0:
329,192,50300,1,0,0:0:0:0:
256,192,50400,1,0,0:0:0:0:
402,192,50500,1,0,0:0:0:0:
475,192,50600,1,0,0:0:0:0:
402,192,50700,1,0,0:0:0:0:
329,192,50800,1,0,0:0:0:0:
256,192,50900,1,0,0:0:0:0:
182,192,51000,1,0,0:0:0:0:
109,192,51100,1,0,0:0:0:0:
36,192,51200,1,0,0:0:0:0:
475,192,51300,128,0,51700:0:0:0:0:
329,192,51300,1,0,0:0:0:0:
182,192,51300,1,0,0:0:0:0:
109,192,51500,1,0,0:0:0:0:
402,192,51500,1,0,0:0:0:0:
256,192,51600,1,0,0:0:0:0:
182,192,51700,1,0,0:0:0:0:
402,192,51700,1,0,0:0:0:0:
109,192,51900,1,0,0:0:0:0:
402,192,51900,1,0,0:0:0:0:
256,192,51900,1,0,0:0:0:0:
182,192,52000,1,0,0:0:0:0:
475,192,52000,1,0,0:0:0:0:
36,192,52100,128,0,52500:0:0:0:0:
329,192,52100,1,0,0:0:0:0:
402,192,52100,1,0,0:0:0:0:
256,192,52300,1,0,0:0:0:0:
109,192,52300,1,0,0:0:0:0:
329,192,52400,1,0,0:0:0:0:
182,192,52500,1,0,0:0:0:0:
256,192,52500,1,0,0:0:0:0:
475,192,52700,1,0,0:0:0:0:
182,192,52700,1,0,0:0:0:0:
402,192,52700,1,0,0:0:0:0:
329,192,52800,1,0,0:0:0:0:
109,192,52800,1,0,0:0:0:0:
402,192,52900,128,0,53300:0:0:0:0:
36,192,52900,1,0,0:0:0:0:
256,192,52900,1,0,0:0:0:0:
182,192,53100,1,0,0:0:0:0:
475,192,53100,1,0,0:0:0:0:
256,192,53200,1,0,0:0:0:0:
329,192,53300,1,0,0:0:0:0:
109,192,53300,1,0,0:0:0:0:
475,192,53500,1,0,0:0:0:0:
182,192,53500,1,0,0:0:0:0:
256,192,53500,1,0,0:0:0:0:
402,192,53600,1,0,0:0:0:0:
36,192,53600,1,0,0:0:0:0:
109,192,53700,128,0,54100:0:0:0:0:
329,192,53700,1,0,0:0:0:0:
182,192,53700,1,0,0:0:0:0:
36,192,53900,1,0,0:0:0:0:
402,192,53900,1,0,0:0:0:0:
475,192,54000,1,0,0:0:0:0:
256,192,54100,1,0,0:0:0:0:
329,192,54100,1,0,0:0:0:0:
475,192,54300,1,0,0:0:0:0:
109,192,54300,1,0,0:0:0:0:
402,192,54400,1,0,0:0:0:0:
182,192,54400,1,0,0:0:0:0:
329,192,54500,1,0,0:0:0:0:
256,192,54500,128,0,54900:0:0:0:0:
475,192,54700,1,0,0:0:0:0:
109,192,54700,1,0,0:0:0:0:
475,192,54900,1,0,0:0:0:0:
329,192,54900,1,0,0:0:0:0:
182,192,55100,1,0,0:0:0:0:
475,192,55100,1,0,0:0:0:0:
256,192,55100,1,0,0:0:0:0:
109,192,55200,1,0,0:0:0:0:
36,192,55300,128,0,55700:0:0:0:0:
182,192,55300,1,0,0:0:0:0:
402,192,55300,1,0,0:0:0:0:
182,192,55500,1,0,0:0:0:0:
475,192,55500,1,0,0:0:0:0:
182,192,55700,1,0,0:0:0:0:
329,192,55700,1,0,0:0:0:0:
182,192,55900,1,0,0:0:0:0:
256,192,55900,1,0,0:0:0:0:
475,192,55900,1,0,0:0:0:0:
329,192,56000,1,0,0:0:0:0:
402,192,56100,128,0,56500:0:0:0:0:
109,192,56100,1,0,0:0:0:0:
329,192,56300,1,0,0:0:0:0:
182,192,56300,1,0,0:0:0:0:
329,192,56500,1,0,0:0:0:0:
36,192,56500,1,0,0:0:0:0:
329,192,56700,1,0,0:0:0:0:
109,192,56700,1,0,0:0:0:0:
475,192,56700,1,0,0:0:0:0:
182,192,56800,1,0,0:0:0:0:
36,192,56900,1,0,0:0:0:0:
402,192,56900,1,0,0:0:0:0:
256,192,56900,128,0,57100:0:0:0:0:
109,192,57100,1,0,0:0:0:0:
329,192,57100,1,0,0:0:0:0:
256,192,57200,128,0,57400:0:0:0:0:
475,192,57300,1,0,0:0:0:0:
182,192,57300,1,0,0:0:0:0:
402,192,57500,1,0,0:0:0:0:
36,192,57500,1,0,0:0:0:0:
329,192,57500,1,0,0:0:0:0:
256,192,57500,128,0,57700:0:0:0:0:
109,192,57600,1,0,0:0:0:0:
182,192,57700,128,0,58100:0:0:0:0:
402,192,57700,1,0,0:0:0:0:
329,192,57900,1,0,0:0:0:0:
475,192,57900,1,0,0:0:0:0:
402,192,58000,1,0,0:0:0:0:
109,192,58100,1,0,0:0:0:0:
256,192,58100,1,0,0:0:0:0:
36,192,58300,1,0,0:0:0:0:
475,192,58300,1,0,0:0:0:0:
182,192,58300,1,0,0:0:0:0:
402,192,58400,1,0,0:0:0:0:
109,192,58400,1,0,0:0:0:0:
329,192,58500,128,0,58900:0:0:0:0:
256,192,58500,1,0,0:0:0:0:
182,192,58500,1,0,0:0:0:0:
475,192,58700,1,0,0:0:0:0:
109,192,58700,1,0,0:0:0:0:
182,192,58800,1,0,0:0:0:0:
402,192,58900,1,0,0:0:0:0:
256,192,58900,1,0,0:0:0:0:
402,192,59100,1,0,0:0:0:0:
256,192,59100,1,0,0:0:0:0:
109,192,59100,1,0,0:0:0:0:
475,192,59200,1,0,0:0:0:0:
182,192,59200,1,0,0:0:0:0:
109,192,59300,128,0,59700:0:0:0:0:
36,192,59300,1,0,0:0:0:0:
329,192,59300,1,0,0:0:0:0:
256,192,59500,1,0,0:0:0:0:
475,192,59500,1,0,0:0:0:0:
329,192,59600,1,0,0:0:0:0:
402,192,59700,1,0,0:0:0:0:
182,192,59700,1,0,0:0:0:0:
36,192,59900,1,0,0:0:0:0:
182,192,59900,1,0,0:0:0:0:
329,192,59900,1,0,0:0:0:0:
256,192,60000,1,0,0:0:0:0:
475,192,60000,1,0,0:0:0:0:
402,192,60100,128,0,60500:0:0:0:0:
109,192,60100,1,0,0:0:0:0:
182,192,60100,1,0,0:0:0:0:
475,192,60300,1,0,0:0:0:0:
329,192,60300,1,0,0:0:0:0:
36,192,60400,1,0,0:0:0:0:
182,192,60500,1,0,0:0:0:0:
109,192,60500,1,0,0:0:0:0:
256,192,60700,1,0,0:0:0:0:
109,192,60700,1,0,0:0:0:0:
475,192,60700,1,0,0:0:0:0:
182,192,60800,1,0,0:0:0:0:
402,192,60800,1,0,0:0:0:0:
36,192,60900,128,0,61300:0:0:0:0:
109,192,60900,1,0,0:0:0:0:
329,192,60900,128,0,61200:0:0:0:0:
182,192,61000,1,0,0:0:0:0:
256,192,61100,1,0,0:0:0:0:
402,192,61200,128,0,61500:0:0:0:0:
182,192,61300,1,0,0:0:0:0:
475,192,61500,128,0,61700:0:0:0:0:
256,192,61500,1,0,0:0:0:0:
182,192,61600,1,0,0:0:0:0:
109,192,61700,128,0,62000:0:0:0:0:
329,192,61700,128,0,62100:0:0:0:0:
256,192,61700,1,0,0:0:0:0:
36,192,61700,1,0,0:0:0:0:
402,192,61900,1,0,0:0:0:0:
182,192,62000,128,0,62300:0:0:0:0:
36,192,62000,1,0,0:0:0:0:
475,192,62000,1,0,0:0:0:0:
256,192,62100,1,0,0:0:0:0:
36,192,62300,128,0,62500:0:0:0:0:
329,192,62300,1,0,0:0:0:0:
109,192,62400,1,0,0:0:0:0:
182,192,62500,128,0,62900:0:0:0:0:
402,192,62500,128,0,62800:0:0:0:0:
329,192,62500,1,0,0:0:0:0:
256,192,62500,1,0,0:0:0:0:
36,192,62700,1,0,0:0:0:0:
475,192,62800,128,0,63100:0:0:0:0:
256,192,62800,1,0,0:0:0:0:
36,192,62900,1,0,0:0:0:0:
329,192,62900,1,0,0:0:0:0:
329,192,63100,128,0,63300:0:0:0:0:
182,192,63100,1,0,0:0:0:0:
256,192,63200,1,0,0:0:0:0:
109,192,63200,1,0,0:0:0:0:
36,192,63300,1,0,0:0:0:0:
475,192,63300,128,0,63500:0:0:0:0:
329,192,63500,1,0,0:0:0:0:
182,192,63500,1,0,0:0:0:0:
36,192,63600,1,0,0:0:0:0:
402,192,63600,1,0,0:0:0:0:
475,192,63600,128,0,63800:0:0:0:0:
109,192,63700,1,0,0:0:0:0:
329,192,63700,1,0,0:0:0:0:
182,192,63900,1,0,0:0:0:0:
256,192,63900,1,0,0:0:0:0:
475,192,63900,128,0,64100:0:0:0:0:
109,192,64000,1,0,0:0:0:0:
402,192,64000,1,0,0:0:0:0:
36,192,64100,128,0,64500:0:0:0:0:
329,192,64100,1,0,0:0:0:0:
182,192,64100,1,0,0:0:0:0:
182,192,64300,1,0,0:0:0:0:
475,192,64300,1,0,0:0:0:0:
329,192,64400,1,0,0:0:0:0:
256,192,64500,1,0,0:0:0:0:
402,192,64700,1,0,0:0:0:0:
109,192,64700,1,0,0:0:0:0:
329,192,64800,1,0,0:0:0:0:
36,192,64800,1,0,0:0:0:0:
256,192,64900,128,0,65300:0:0:0:0:
182,192,64900,1,0,0:0:0:0:
402,192,65100,1,0,0:0:0:0:
109,192,65100,1,0,0:0:0:0:
475,192,65200,1,0,0:0:0:0:
329,192,65300,1,0,0:0:0:0:
36,192,65500,1,0,0:0:0:0:
402,192,65500,1,0,0:0:0:0:
109,192,65600,1,0,0:0:0:0:
329,192,65600,1,0,0:0:0:0:
475,192,65700,128,0,66100:0:0:0:0:
182,192,65700,1,0,0:0:0:0:
256,192,65900,1,0,0:0:0:0:
182,192,66000,1,0,0:0:0:0:
109,192,66100,1,0,0:0:0:0:
402,192,66300,1,0,0:0:0:0:
36,192,66300,1,0,0:0:0:0:
329,192,66400,1,0,0:0:0:0:
109,192,66400,1,0,0:0:0:0:
256,192,66500,128,0,66700:0:0:0:0:
182,192,66500,1,0,0:0:0:0:
109,192,66700,1,0,0:0:0:0:
256,192,66800,128,0,67000:0:0:0:0:
36,192,66800,1,0,0:0:0:0:
182,192,66900,1,0,0:0:0:0:
256,192,67100,128,0,67300:0:0:0:0:
475,192,67100,1,0,0:0:0:0:
402,192,67200,1,0,0:0:0:0:
36,192,67300,1,0,0:0:0:0:
329,192,67300,1,0,0:0:0:0:
109,192,67400,1,0,0:0:0:0:
182,192,67500,1,0,0:0:0:0:
256,192,67600,1,0,0:0:0:0:
475,192,67700,1,0,0:0:0:0:
402,192,67800,1,0,0:0:0:0:
329,192,67900,1,0,0:0:0:0:
256,192,68000,1,0,0:0:0:0:
36,192,68100,1,0,0:0:0:0:
475,192,68100,1,0,0:0:0:0:
109,192,68200,1,0,0:0:0:0:
402,192,68200,1,0,0:0:0:0:
182,192,68300,1,0,0:0:0:0:
329,192,68300,1,0,0:0:0:0:
256,192,68400,1,0,0:0:0:0:
329,192,68500,1,0,0:0:0:0:
182,192,68500,1,0,0:0:0:0:
402,192,68600,1,0,0:0:0:0:
109,192,68600,1,0,0:0:0:0:
36,192,68700,1,0,0:0:0:0:
475,192,68700,1,0,0:0:0:0:
329,192,68800,1,0,0:0:0:0:
182,192,68800,1,0,0:0:0:0:
256,192,68900,128,0,69000:0:0:0:0:
36,192,69300,1,0,0:0:0:0:
109,192,69400,1,0,0:0:0:0:
182,192,69500,1,0,0:0:0:0:
256,192,69600,1,0,0:0:0:0:
475,192,69700,1,0,0:0:0:0:
402,192,69800,1,0,0:0:0:0:
329,192,69900,1,0,0:0:0:0:
256,192,70000,1,0,0:0:0:0:
36,192,70100,1,0,0:0:0:0:
109,192,70150,1,0,0:0:0:0:
182,192,70200,1,0,0:0:0:0:
256,192,70250,1,0,0:0:0:0:
329,192,70300,1,0,0:0:0:0:
402,192,70350,1,0,0:0:0:0:
475,192,70400,1,0,0:0:0:0:
182,192,70500,128,0,72100:0:0:0:0:
36,192,70500,1,0,0:0:0:0:
109,192,70600,1,0,0:0:0:0:
256,192,70700,1,0,0:0:0:0:
329,192,70800,1,0,0:0:0:0:
475,192,70900,1,0,0:0:0:0:
402,192,71000,1,0,0:0:0:0:
329,192,71100,1,0,0:0:0:0:
256,192,71200,1,0,0:0:0:0:
36,192,71300,1,0,0:0:0:0:
109,192,71400,1,0,0:0:0:0:
256,192,71500,1,0,0:0:0:0:
329,192,71600,1,0,0:0:0:0:
475,192,71700,1,0,0:0:0:0:
402,192,71800,1,0,0:0:0:0:
329,192,71900,1,0,0:0:0:0:
256,192,72000,1,0,0:0:0:0:
329,192,72100,128,0,73700:0:0:0:0:
36,192,72100,1,0,0:0:0:0:
109,192,72200,1,0,0:0:0:0:
182,192,72300,1,0,0:0:0:0:
256,192,72400,1,0,0:0:0:0:
475,192,72500,1,0,0:0:0:0:
402,192,72600,1,0,0:0:0:0:
256,192,72700,1,0,0:0:0:0:
182,192,72800,1,0,0:0:0:0:
36,192,72900,1,0,0:0:0:0:
109,192,73000,1,0,0:0:0:0:
182,192,73100,1,0,0:0:0:0:
256,192,73200,1,0,0:0:0:0:
475,192,73300,1,0,0:0:0:0:
402,192,73400,1,0,0:0:0:0:
256,192,73500,1,0,0:0:0:0:
182,192,73600,1,0,0:0:0:0:
109,192,73700,128,0,74500:0:0:0:0:
36,192,73700,1,0,0:0:0:0:
182,192,73800,1,0,0:0:0:0:
256,192,73900,1,0,0:0:0:0:
329,192,74000,1,0,0:0:0:0:
475,192,74100,1,0,0:0:0:0:
402,192,74200,1,0,0:0:0:0:
329,192,74300,1,0,0:0:0:0:
256,192,74400,1,0,0:0:0:0:
402,192,74500,128,0,75300:0:0:0:0:
36,192,74500,1,0,0:0:0:0:
109,192,74600,1,0,0:0:0:0:
182,192,74700,1,0,0:0:0:0:
256,192,74800,1,0,0:0:0:0:
475,192,74900,1,0,0:0:0:0:
329,192,75000,1,0,0:0:0:0:
256,192,75100,1,0,0:0:0:0:
182,192,75200,1,0,0:0:0:0:
256,192,75300,128,0,76900:0:0:0:0:
36,192,75300,1,0,0:0:0:0:
109,192,75400,1,0,0:0:0:0:
182,192,75500,1,0,0:0:0:0:
329,192,75600,1,0,0:0:0:0:
475,192,75700,1,0,0:0:0:0:
402,192,75800,1,0,0:0:0:0:
329,192,75900,1,0,0:0:0:0:
182,192,76000,1,0,0:0:0:0:
36,192,76100,1,0,0:0:0:0:
109,192,76200,1,0,0:0:0:0:
182,192,76300,1,0,0:0:0:0:
329,192,76400,1,0,0:0:0:0:
475,192,76500,1,0,0:0:0:0:
402,192,76600,1,0,0:0:0:0:
329,192,76700,1,0,0:0:0:0:
182,192,76800,1,0,0:0:0:0:
475,192,76900,128,0,77300:0:0:0:0:
329,192,76900,128,0,77300:0:0:0:0:
109,192,76900,128,0,77300:0:0:0:0:
402,192,76900,1,0,0:0:0:0:
256,192,77300,1,0,0:0:0:0:
182,192,77500,128,0,77900:0:0:0:0:
329,192,77500,128,0,77900:0:0:0:0:
402,192,77500,128,0,77900:0:0:0:0:
36,192,77500,1,0,0:0:0:0:
475,192,77900,1,0,0:0:0:0:
36,192,78100,128,0,78500:0:0:0:0:
109,192,78100,128,0,78500:0:0:0:0:
329,192,78100,128,0,78500:0:0:0:0:
402,192,78100,1,0,0:0:0:0:
256,192,78500,1,0,0:0:0:0:
256,192,78700,128,0,79100:0:0:0:0:
402,192,78700,128,0,79100:0:0:0:0:
109,192,78700,128,0,79100:0:0:0:0:
329,192,78700,1,0,0:0:0:0:
36,192,79100,1,0,0:0:0:0:
182,192,79300,128,0,79500:0:0:0:0:
329,192,79300,128,0,79500:0:0:0:0:
36,192,79300,1,0,0:0:0:0:
475,192,79300,1,0,0:0:0:0:
402,192,79500,1,0,0:0:0:0:
109,192,79500,1,0,0:0:0:0:
402,192,79700,128,0,79900:0:0:0:0:
109,192,79700,128,0,79900:0:0:0:0:
182,192,79700,1,0,0:0:0:0:
329,192,79700,1,0,0:0:0:0:
256,192,79900,1,0,0:0:0:0:
475,192,80100,128,0,81300:0:0:0:0:
36,192,80100,128,0,81300:0:0:0:0:
329,192,80100,1,0,0:0:0:0:
329,192,80500,1,0,0:0:0:0:
182,192,80500,1,0,0:0:0:0:
182,192,80900,1,0,0:0:0:0:
182,192,81300,1,0,0:0:0:0:
329,192,81300,1,0,0:0:0:0:
109,192,81300,128,0,82500:0:0:0:0:
402,192,81700,128,0,82500:0:0:0:0:
475,192,81700,1,0,0:0:0:0:
475,192,82100,1,0,0:0:0:0:
36,192,82100,1,0,0:0:0:0:
329,192,82500,128,0,83900:0:0:0:0:
36,192,82500,1,0,0:0:0:0:
256,192,82900,128,0,83900:0:0:0:0:
475,192,82900,1,0,0:0:0:0:
36,192,82900,1,0,0:0:0:0:
36,192,83300,128,0,83900:0:0:0:0:
402,192,83300,1,0,0:0:0:0:
402,192,83700,1,0,0:0:0:0:
475,192,83700,1,0,0:0:0:0:
109,192,83900,1,0,0:0:0:0:
182,192,84000,1,0,0:0:0:0:
256,192,84100,128,0,84700:0:0:0:0:
36,192,84100,1,0,0:0:0:0:
36,192,84500,1,0,0:0:0:0:
109,192,84500,1,0,0:0:0:0:
329,192,84700,1,0,0:0:0:0:
402,192,84800,1,0,0:0:0:0:
475,192,84900,128,0,85500:0:0:0:0:
182,192,84900,1,0,0:0:0:0:
182,192,85300,1,0,0:0:0:0:
329,192,85300,1,0,0:0:0:0:
402,192,85500,1,0,0:0:0:0:
329,192,85600,1,0,0:0:0:0:
256,192,85700,128,0,86500:0:0:0:0:
36,192,85700,1,0,0:0:0:0:
109,192,85800,1,0,0:0:0:0:
182,192,85900,1,0,0:0:0:0:
329,192,86000,1,0,0:0:0:0:
475,192,86100,1,0,0:0:0:0:
402,192,86200,1,0,0:0:0:0:
329,192,86300,1,0,0:0:0:0:
182,192,86400,1,0,0:0:0:0:
36,192,86500,1,0,0:0:0:0:
475,192,86500,1,0,0:0:0:0:
182,192,86600,1,0,0:0:0:0:
36,192,86700,1,0,0:0:0:0:
402,192,86700,1,0,0:0:0:0:
182,192,86800,1,0,0:0:0:0:
329,192,86800,1,0,0:0:0:0:
475,192,86900,1,0,0:0:0:0:
256,192,86900,1,0,0:0:0:0:
329,192,87000,1,0,0:0:0:0:
475,192,87100,1,0,0:0:0:0:
109,192,87100,1,0,0:0:0:0:
329,192,87200,1,0,0:0:0:0:
182,192,87200,1,0,0:0:0:0:
36,192,87300,1,0,0:0:0:0:
256,192,87300,1,0,0:0:0:0:
182,192,87400,1,0,0:0:0:0:
36,192,87500,1,0,0:0:0:0:
402,192,87500,1,0,0:0:0:0:
182,192,87600,1,0,0:0:0:0:
329,192,87600,1,0,0:0:0:0:
475,192,87700,1,0,0:0:0:0:
256,192,87700,1,0,0:0:0:0:
329,192,87800,1,0,0:0:0:0:
475,192,87900,1,0,0:0:0:0:
109,192,87900,1,0,0:0:0:0:
329,192,88000,1,0,0:0:0:0:
182,192,88000,1,0,0:0:0:0:
256,192,88100,1,0,0:0:0:0:
109,192,88100,1,0,0:0:0:0:
182,192,88200,1,0,0:0:0:0:
109,192,88300,1,0,0:0:0:0:
402,192,88300,1,0,0:0:0:0:
182,192,88400,1,0,0:0:0:0:
329,192,88400,1,0,0:0:0:0:
402,192,88500,1,0,0:0:0:0:
256,192,88500,1,0,0:0:0:0:
329,192,88600,1,0,0:0:0:0:
402,192,88700,1,0,0:0:0:0:
109,192,88700,1,0,0:0:0:0:
329,192,88800,1,0,0:0:0:0:
182,192,88800,1,0,0:0:0:0:
109,192,88900,1,0,0:0:0:0:
256,192,88900,1,0,0:0:0:0:
182,192,89000,1,0,0:0:0:0:
109,192,89100,1,0,0:0:0:0:
402,192,89100,1,0,0:0:0:0:
182,192,89200,1,0,0:0:0:0:
329,192,89200,1,0,0:0:0:0:
402,192,89300,1,0,0:0:0:0:
256,192,89300,1,0,0:0:0:0:
329,192,89400,1,0,0:0:0:0:
402,192,89500,1,0,0:0:0:0:
36,192,89500,1,0,0:0:0:0:
329,192,89600,1,0,0:0:0:0:
109,192,89600,1,0,0:0:0:0:
36,192,89700,1,0,0:0:0:0:
182,192,89700,1,0,0:0:0:0:
109,192,89800,1,0,0:0:0:0:
36,192,89900,1,0,0:0:0:0:
475,192,89900,1,0,0:0:0:0:
109,192,90000,1,0,0:0:0:0:
402,192,90000,1,0,0:0:0:0:
475,192,90100,1,0,0:0:0:0:
329,192,90100,1,0,0:0:0:0:
402,192,90200,1,0,0:0:0:0:
475,192,90300,1,0,0:0:0:0:
36,192,90300,1,0,0:0:0:0:
402,192,90400,1,0,0:0:0:0:
109,192,90400,1,0,0:0:0:0:
36,192,90500,1,0,0:0:0:0:
182,192,90500,1,0,0:0:0:0:
109,192,90600,1,0,0:0:0:0:
36,192,90700,1,0,0:0:0:0:
475,192,90700,1,0,0:0:0:0:
109,192,90800,1,0,0:0:0:0:
402,192,90800,1,0,0:0:0:0:
475,192,90900,1,0,0:0:0:0:
329,192,90900,1,0,0:0:0:0:
402,192,91000,1,0,0:0:0:0:
475,192,91100,1,0,0:0:0:0:
109,192,91100,1,0,0:0:0:0:
402,192,91200,1,0,0:0:0:0:
182,192,91200,1,0,0:0:0:0:
36,192,91300,1,0,0:0:0:0:
256,192,91300,1,0,0:0:0:0:
182,192,91400,1,0,0:0:0:0:
36,192,91500,1,0,0:0:0:0:
402,192,91500,1,0,0:0:0:0:
182,192,91600,1,0,0:0:0:0:
329,192,91600,1,0,0:0:0:0:
475,192,91700,1,0,0:0:0:0:
256,192,91700,1,0,0:0:0:0:
329,192,91800,1,0,0:0:0:0:
475,192,91900,1,0,0:0:0:0:
329,192,92000,1,0,0:0:0:0:
402,192,92300,1,0,0:0:0:0:
475,192,92400,1,0,0:0:0:0:
329,192,92500,1,0,0:0:0:0:
256,192,92600,1,0,0:0:0:0:
182,192,92700,1,0,0:0:0:0:
109,192,92800,1,0,0:0:0:0:
36,192,92900,1,0,0:0:0:0:
402,192,92900,1,0,0:0:0:0:
109,192,93000,1,0,0:0:0:0:
182,192,93100,1,0,0:0:0:0:
475,192,93100,1,0,0:0:0:0:
256,192,93200,1,0,0:0:0:0:
402,192,93200,1,0,0:0:0:0:
475,192,93300,1,0,0:0:0:0:
329,192,93300,1,0,0:0:0:0:
402,192,93400,1,0,0:0:0:0:
329,192,93500,1,0,0:0:0:0:
36,192,93500,1,0,0:0:0:0:
256,192,93600,1,0,0:0:0:0:
109,192,93600,1,0,0:0:0:0:
36,192,93700,1,0,0:0:0:0:
182,192,93700,1,0,0:0:0:0:
109,192,93800,1,0,0:0:0:0:
182,192,93900,1,0,0:0:0:0:
475,192,93900,1,0,0:0:0:0:
256,192,94000,1,0,0:0:0:0:
402,192,94000,1,0,0:0:0:0:
475,192,94100,1,0,0:0:0:0:
329,192,94100,1,0,0:0:0:0:
402,192,94200,1,0,0:0:0:0:
329,192,94300,1,0,0:0:0:0:
109,192,94300,1,0,0:0:0:0:
256,192,94400,1,0,0:0:0:0:
182,192,94400,1,0,0:0:0:0:
109,192,94500,1,0,0:0:0:0:
329,192,94500,1,0,0:0:0:0:
182,192,94600,1,0,0:0:0:0:
256,192,94700,1,0,0:0:0:0:
475,192,94700,1,0,0:0:0:0:
329,192,94800,1,0,0:0:0:0:
36,192,94800,1,0,0:0:0:0:
402,192,94900,1,0,0:0:0:0:
475,192,94900,1,0,0:0:0:0:
329,192,95000,1,0,0:0:0:0:
256,192,95100,1,0,0:0:0:0:
36,192,95100,1,0,0:0:0:0:
182,192,95200,1,0,0:0:0:0:
475,192,95200,1,0,0:0:0:0:
109,192,95300,1,0,0:0:0:0:
36,192,95300,1,0,0:0:0:0:
182,192,95400,1,0,0:0:0:0:
256,192,95500,1,0,0:0:0:0:
475,192,95500,1,0,0:0:0:0:
329,192,95600,1,0,0:0:0:0:
36,192,95600,1,0,0:0:0:0:
402,192,95700,1,0,0:0:0:0:
475,192,95700,1,0,0:0:0:0:
329,192,95800,1,0,0:0:0:0:
256,192,95900,1,0,0:0:0:0:
36,192,95900,1,0,0:0:0:0:
182,192,96000,1,0,0:0:0:0:
475,192,96000,1,0,0:0:0:0:
36,192,96100,1,0,0:0:0:0:
329,192,96100,1,0,0:0:0:0:
256,192,96200,1,0,0:0:0:0:
182,192,96300,1,0,0:0:0:0:
475,192,96300,1,0,0:0:0:0:
109,192,96400,1,0,0:0:0:0:
402,192,96400,1,0,0:0:0:0:
182,192,96500,1,0,0:0:0:0:
475,192,96500,1,0,0:0:0:0:
256,192,96600,1,0,0:0:0:0:
329,192,96700,1,0,0:0:0:0:
36,192,96700,1,0,0:0:0:0:
402,192,96800,1,0,0:0:0:0:
109,192,96800,1,0,0:0:0:0:
329,192,96900,1,0,0:0:0:0:
36,192,96900,1,0,0:0:0:0:
256,192,97000,1,0,0:0:0:0:
182,192,97100,1,0,0:0:0:0:
475,192,97100,1,0,0:0:0:0:
109,192,97200,1,0,0:0:0:0:
402,192,97200,1,0,0:0:0:0:
182,192,97300,1,0,0:0:0:0:
475,192,97300,1,0,0:0:0:0:
256,192,97400,1,0,0:0:0:0:
329,192,97500,1,0,0:0:0:0:
36,192,97500,1,0,0:0:0:0:
402,192,97600,1,0,0:0:0:0:
109,192,97600,1,0,0:0:0:0:
256,192,97700,1,0,0:0:0:0:
36,192,97700,1,0,0:0:0:0:
182,192,97800,1,0,0:0:0:0:
109,192,97900,1,0,0:0:0:0:
475,192,97900,1,0,0:0:0:0:
36,192,98000,1,0,0:0:0:0:
329,192,98000,1,0,0:0:0:0:
256,192,98100,1,0,0:0:0:0:
475,192,98100,1,0,0:0:0:0:
329,192,98200,1,0,0:0:0:0:
402,192,98300,1,0,0:0:0:0:
36,192,98300,1,0,0:0:0:0:
475,192,98400,1,0,0:0:0:0:
182,192,98400,1,0,0:0:0:0:
36,192,98500,1,0,0:0:0:0:
109,192,98700,1,0,0:0:0:0:
182,192,98800,1,0,0:0:0:0:
256,192,98900,1,0,0:0:0:0:
329,192,99000,1,0,0:0:0:0:
402,192,99100,1,0,0:0:0:0:
475,192,99200,1,0,0:0:0:0:
256,192,99300,1,0,0:0:0:0:
329,192,99400,1,0,0:0:0:0:
402,192,99500,1,0,0:0:0:0:
475,192,99600,1,0,0:0:0:0:
402,192,99700,1,0,0:0:0:0:
329,192,99800,1,0,0:0:0:0:
256,192,99900,1,0,0:0:0:0:
329,192,100000,1,0,0:0:0:0:
182,192,100000,1,0,0:0:0:0:
402,192,100050,1,0,0:0:0:0:
475,192,100100,128,0,100900:0:0:0:0:
109,192,100100,1,0,0:0:0:0:
182,192,100200,1,0,0:0:0:0:
256,192,100300,1,0,0:0:0:0:
329,192,100400,1,0,0:0:0:0:
402,192,100500,1,0,0:0:0:0:
329,192,100600,1,0,0:0:0:0:
256,192,100700,1,0,0:0:0:0:
182,192,100800,1,0,0:0:0:0:
329,192,100900,128,0,101700:0:0:0:0:
36,192,100900,1,0,0:0:0:0:
109,192,101000,1,0,0:0:0:0:
182,192,101100,1,0,0:0:0:0:
256,192,101200,1,0,0:0:0:0:
475,192,101300,1,0,0:0:0:0:
402,192,101400,1,0,0:0:0:0:
256,192,101500,1,0,0:0:0:0:
182,192,101600,1,0,0:0:0:0:
256,192,101700,128,0,102100:0:0:0:0:
36,192,101700,1,0,0:0:0:0:
109,192,101800,1,0,0:0:0:0:
182,192,101900,1,0,0:0:0:0:
329,192,102000,1,0,0:0:0:0:
475,192,102100,1,0,0:0:0:0:
402,192,102200,1,0,0:0:0:0:
36,192,102300,1,0,0:0:0:0:
329,192,102300,1,0,0:0:0:0:
109,192,102400,1,0,0:0:0:0:
256,192,102400,1,0,0:0:0:0:
182,192,102500,128,0,103700:0:0:0:0:
36,192,102500,1,0,0:0:0:0:
109,192,102600,1,0,0:0:0:0:
256,192,102700,1,0,0:0:0:0:
329,192,102800,1,0,0:0:0:0:
475,192,102900,1,0,0:0:0:0:
402,192,103000,1,0,0:0:0:0:
329,192,103100,1,0,0:0:0:0:
256,192,103200,1,0,0:0:0:0:
36,192,103300,1,0,0:0:0:0:
109,192,103400,1,0,0:0:0:0:
256,192,103500,1,0,0:0:0:0:
329,192,103600,1,0,0:0:0:0:
475,192,103700,1,0,0:0:0:0:
402,192,103800,1,0,0:0:0:0:
475,192,103900,128,0,104300:0:0:0:0:
329,192,103900,1,0,0:0:0:0:
256,192,104000,1,0,0:0:0:0:
36,192,104100,1,0,0:0:0:0:
109,192,104200,1,0,0:0:0:0:
402,192,104300,128,0,104500:0:0:0:0:
182,192,104300,1,0,0:0:0:0:
256,192,104400,1,0,0:0:0:0:
329,192,104500,128,0,104700:0:0:0:0:
475,192,104500,1,0,0:0:0:0:
256,192,104600,1,0,0:0:0:0:
475,192,104700,128,0,105100:0:0:0:0:
182,192,104700,1,0,0:0:0:0:
109,192,104800,1,0,0:0:0:0:
402,192,105100,1,0,0:0:0:0:
329,192,105200,1,0,0:0:0:0:
256,192,105300,1,0,0:0:0:0:
182,192,105400,1,0,0:0:0:0:
109,192,105500,1,0,0:0:0:0:
36,192,105600,1,0,0:0:0:0:
475,192,105700,1,0,0:0:0:0:
329,192,105700,1,0,0:0:0:0:
36,192,105900,1,0,0:0:0:0:
256,192,105900,1,0,0:0:0:0:
109,192,106000,1,0,0:0:0:0:
256,192,106100,1,0,0:0:0:0:
402,192,106300,1,0,0:0:0:0:
256,192,106300,1,0,0:0:0:0:
329,192,106400,1,0,0:0:0:0:
182,192,106400,1,0,0:0:0:0:
402,192,106450,1,0,0:0:0:0:
475,192,106500,128,0,107300:0:0:0:0:
109,192,106500,1,0,0:0:0:0:
36,192,106700,1,0,0:0:0:0:
109,192,106700,1,0,0:0:0:0:
182,192,106800,1,0,0:0:0:0:
329,192,106900,1,0,0:0:0:0:
402,192,107100,1,0,0:0:0:0:
256,192,107100,1,0,0:0:0:0:
182,192,107200,1,0,0:0:0:0:
329,192,107300,128,0,108100:0:0:0:0:
36,192,107300,1,0,0:0:0:0:
109,192,107500,1,0,0:0:0:0:
182,192,107500,1,0,0:0:0:0:
402,192,107600,1,0,0:0:0:0:
475,192,107700,1,0,0:0:0:0:
475,192,107900,1,0,0:0:0:0:
402,192,107900,1,0,0:0:0:0:
256,192,108000,1,0,0:0:0:0:
182,192,108100,128,0,108700:0:0:0:0:
36,192,108100,1,0,0:0:0:0:
109,192,108300,1,0,0:0:0:0:
256,192,108300,1,0,0:0:0:0:
402,192,108400,1,0,0:0:0:0:
475,192,108500,1,0,0:0:0:0:
36,192,108700,1,0,0:0:0:0:
475,192,108700,1,0,0:0:0:0:
329,192,108700,1,0,0:0:0:0:
109,192,108800,1,0,0:0:0:0:
402,192,108800,1,0,0:0:0:0:
256,192,108900,128,0,109300:0:0:0:0:
182,192,108900,1,0,0:0:0:0:
36,192,109100,1,0,0:0:0:0:
182,192,109100,1,0,0:0:0:0:
329,192,109200,1,0,0:0:0:0:
182,192,109300,1,0,0:0:0:0:
475,192,109300,1,0,0:0:0:0:
182,192,109500,128,0,110100:0:0:0:0:
402,192,109500,1,0,0:0:0:0:
329,192,109500,1,0,0:0:0:0:
475,192,109600,1,0,0:0:0:0:
256,192,109700,1,0,0:0:0:0:
109,192,109900,1,0,0:0:0:0:
402,192,109900,1,0,0:0:0:0:
36,192,110000,1,0,0:0:0:0:
329,192,110100,1,0,0:0:0:0:
475,192,110100,1,0,0:0:0:0:
402,192,110200,1,0,0:0:0:0:
475,192,110300,128,0,110700:0:0:0:0:
36,192,110500,128,0,112100:0:0:0:0:
329,192,110700,1,0,0:0:0:0:
402,192,110800,1,0,0:0:0:0:
475,192,110900,1,0,0:0:0:0:
402,192,111000,1,0,0:0:0:0:
329,192,111100,1,0,0:0:0:0:
256,192,111200,1,0,0:0:0:0:
402,192,111300,1,0,0:0:0:0:
329,192,111400,1,0,0:0:0:0:
256,192,111500,1,0,0:0:0:0:
182,192,111600,1,0,0:0:0:0:
329,192,111700,1,0,0:0:0:0:
256,192,111800,1,0,0:0:0:0:
182,192,111900,1,0,0:0:0:0:
109,192,112000,1,0,0:0:0:0:
256,192,112100,128,0,112200:0:0:0:0:
475,192,112100,128,0,112500:0:0:0:0:
109,192,112300,1,0,0:0:0:0:
182,192,112400,1,0,0:0:0:0:
256,192,112500,1,0,0:0:0:0:
36,192,112700,1,0,0:0:0:0:
402,192,112700,1,0,0:0:0:0:
109,192,112800,1,0,0:0:0:0:
329,192,112800,1,0,0:0:0:0:
182,192,112900,128,0,113300:0:0:0:0:
256,192,112900,1,0,0:0:0:0:
329,192,113100,1,0,0:0:0:0:
402,192,113200,1,0,0:0:0:0:
475,192,113300,1,0,0:0:0:0:
475,192,113500,1,0,0:0:0:0:
256,192,113500,128,0,114100:0:0:0:0:
36,192,113500,1,0,0:0:0:0:
402,192,113600,1,0,0:0:0:0:
109,192,113600,1,0,0:0:0:0:
329,192,113700,128,0,114100:0:0:0:0:
182,192,113700,1,0,0:0:0:0:
182,192,113900,1,0,0:0:0:0:
109,192,114000,1,0,0:0:0:0:
475,192,114100,128,0,114500:0:0:0:0:
36,192,114100,1,0,0:0:0:0:
36,192,114300,1,0,0:0:0:0:
256,192,114300,1,0,0:0:0:0:
109,192,114400,1,0,0:0:0:0:
329,192,114400,1,0,0:0:0:0:
402,192,114500,128,0,114900:0:0:0:0:
182,192,114500,128,0,114900:0:0:0:0:
256,192,114500,1,0,0:0:0:0:
36,192,114700,1,0,0:0:0:0:
109,192,114800,1,0,0:0:0:0:
329,192,114900,128,0,115300:0:0:0:0:
256,192,114900,1,0,0:0:0:0:
475,192,115100,1,0,0:0:0:0:
182,192,115100,1,0,0:0:0:0:
402,192,115200,1,0,0:0:0:0:
109,192,115200,1,0,0:0:0:0:
256,192,115300,128,0,115900:0:0:0:0:
475,192,115300,128,0,115700:0:0:0:0:
36,192,115300,1,0,0:0:0:0:
109,192,115500,1,0,0:0:0:0:
182,192,115600,1,0,0:0:0:0:
402,192,115700,1,0,0:0:0:0:
329,192,115900,1,0,0:0:0:0:
36,192,115900,1,0,0:0:0:0:
402,192,115900,1,0,0:0:0:0:
256,192,116000,1,0,0:0:0:0:
109,192,116000,1,0,0:0:0:0:
475,192,116000,1,0,0:0:0:0:
182,192,116100,128,0,118500:0:0:0:0:
36,192,116100,128,0,116500:0:0:0:0:
402,192,116100,1,0,0:0:0:0:
402,192,116300,1,0,0:0:0:0:
329,192,116400,1,0,0:0:0:0:
256,192,116500,1,0,0:0:0:0:
475,192,116700,1,0,0:0:0:0:
36,192,116700,1,0,0:0:0:0:
402,192,116800,1,0,0:0:0:0:
109,192,116800,1,0,0:0:0:0:
329,192,116900,128,0,117300:0:0:0:0:
256,192,116900,1,0,0:0:0:0:
475,192,117100,1,0,0:0:0:0:
402,192,117200,1,0,0:0:0:0:
475,192,117300,1,0,0:0:0:0:
36,192,117500,1,0,0:0:0:0:
329,192,117500,1,0,0:0:0:0:
109,192,117600,1,0,0:0:0:0:
402,192,117600,1,0,0:0:0:0:
256,192,117700,128,0,117900:0:0:0:0:
475,192,117700,1,0,0:0:0:0:
475,192,117900,1,0,0:0:0:0:
256,192,118000,128,0,118200:0:0:0:0:
402,192,118000,1,0,0:0:0:0:
329,192,118100,1,0,0:0:0:0:
256,192,118300,128,0,118500:0:0:0:0:
329,192,118300,1,0,0:0:0:0:
402,192,118400,1,0,0:0:0:0:
36,192,118500,128,0,118900:0:0:0:0:
329,192,118500,128,0,118900:0:0:0:0:
475,192,118500,1,0,0:0:0:0:
256,192,118700,1,0,0:0:0:0:
182,192,118800,1,0,0:0:0:0:
256,192,118900,128,0,119300:0:0:0:0:
109,192,118900,1,0,0:0:0:0:
475,192,119100,1,0,0:0:0:0:
36,192,119100,1,0,0:0:0:0:
402,192,119200,1,0,0:0:0:0:
182,192,119200,1,0,0:0:0:0:
109,192,119300,128,0,119700:0:0:0:0:
329,192,119300,128,0,119700:0:0:0:0:
36,192,119300,1,0,0:0:0:0:
182,192,119500,1,0,0:0:0:0:
256,192,119600,1,0,0:0:0:0:
475,192,119700,128,0,120100:0:0:0:0:
402,192,119700,1,0,0:0:0:0:
36,192,119900,1,0,0:0:0:0:
329,192,119900,1,0,0:0:0:0:
182,192,120000,1,0,0:0:0:0:
402,192,120000,1,0,0:0:0:0:
329,192,120100,128,0,120500:0:0:0:0:
256,192,120100,128,0,120500:0:0:0:0:
36,192,120100,1,0,0:0:0:0:
36,192,120300,1,0,0:0:0:0:
109,192,120400,1,0,0:0:0:0:
182,192,120500,128,0,120900:0:0:0:0:
475,192,120500,1,0,0:0:0:0:
475,192,120700,1,0,0:0:0:0:
329,192,120700,1,0,0:0:0:0:
402,192,120800,1,0,0:0:0:0:
256,192,120800,1,0,0:0:0:0:
36,192,120900,128,0,121300:0:0:0:0:
475,192,120900,128,0,121300:0:0:0:0:
109,192,120900,1,0,0:0:0:0:
329,192,121100,1,0,0:0:0:0:
402,192,121200,1,0,0:0:0:0:
256,192,121300,128,0,121700:0:0:0:0:
329,192,121300,1,0,0:0:0:0:
36,192,121500,1,0,0:0:0:0:
402,192,121500,1,0,0:0:0:0:
109,192,121600,1,0,0:0:0:0:
329,192,121600,1,0,0:0:0:0:
475,192,121700,128,0,122100:0:0:0:0:
36,192,121700,128,0,122100:0:0:0:0:
402,192,121700,1,0,0:0:0:0:
256,192,121900,1,0,0:0:0:0:
402,192,122000,1,0,0:0:0:0:
182,192,122100,128,0,124900:0:0:0:0:
329,192,122100,1,0,0:0:0:0:
329,192,122300,128,0,124900:0:0:0:0:
475,192,122300,1,0,0:0:0:0:
109,192,122300,1,0,0:0:0:0:
402,192,122400,1,0,0:0:0:0:
36,192,122400,1,0,0:0:0:0:
475,192,122500,128,0,122900:0:0:0:0:
256,192,122500,1,0,0:0:0:0:
109,192,122700,1,0,0:0:0:0:
256,192,122800,1,0,0:0:0:0:
402,192,122900,1,0,0:0:0:0:
36,192,123100,1,0,0:0:0:0:
475,192,123100,1,0,0:0:0:0:
109,192,123200,1,0,0:0:0:0:
402,192,123200,1,0,0:0:0:0:
36,192,123300,128,0,123700:0:0:0:0:
256,192,123300,1,0,0:0:0:0:
402,192,123500,1,0,0:0:0:0:
475,192,123600,1,0,0:0:0:0:
256,192,123700,1,0,0:0:0:0:
36,192,123900,1,0,0:0:0:0:
475,192,123900,1,0,0:0:0:0:
109,192,124000,1,0,0:0:0:0:
402,192,124000,1,0,0:0:0:0:
256,192,124100,128,0,124300:0:0:0:0:
256,192,124400,128,0,124600:0:0:0:0:
256,192,124700,128,0,124900:0:0:0:0:
475,192,124900,128,0,125300:0:0:0:0:
109,192,125100,1,0,0:0:0:0:
182,192,125200,1,0,0:0:0:0:
256,192,125300,1,0,0:0:0:0:
182,192,125500,1,0,0:0:0:0:
402,192,125500,1,0,0:0:0:0:
109,192,125600,1,0,0:0:0:0:
329,192,125600,1,0,0:0:0:0:
36,192,125700,128,0,126100:0:0:0:0:
256,192,125700,1,0,0:0:0:0:
109,192,125900,1,0,0:0:0:0:
329,192,125900,1,0,0:0:0:0:
182,192,126000,1,0,0:0:0:0:
402,192,126000,1,0,0:0:0:0:
256,192,126100,1,0,0:0:0:0:
475,192,126100,1,0,0:0:0:0:
329,192,126300,1,0,0:0:0:0:
182,192,126300,1,0,0:0:0:0:
256,192,126300,128,0,126900:0:0:0:0:
402,192,126400,1,0,0:0:0:0:
109,192,126400,1,0,0:0:0:0:
475,192,126500,128,0,126900:0:0:0:0:
36,192,126500,1,0,0:0:0:0:
36,192,126700,1,0,0:0:0:0:
109,192,126800,1,0,0:0:0:0:
402,192,126900,128,0,127300:0:0:0:0:
182,192,126900,1,0,0:0:0:0:
36,192,127100,1,0,0:0:0:0:
475,192,127100,1,0,0:0:0:0:
109,192,127200,1,0,0:0:0:0:
329,192,127200,1,0,0:0:0:0:
256,192,127300,128,0,127700:0:0:0:0:
182,192,127300,128,0,127700:0:0:0:0:
475,192,127300,1,0,0:0:0:0:
475,192,127500,1,0,0:0:0:0:
402,192,127600,1,0,0:0:0:0:
109,192,127700,128,0,128100:0:0:0:0:
329,192,127700,1,0,0:0:0:0:
182,192,127900,1,0,0:0:0:0:
329,192,127900,1,0,0:0:0:0:
36,192,128000,1,0,0:0:0:0:
402,192,128000,1,0,0:0:0:0:
256,192,128100,128,0,128700:0:0:0:0:
182,192,128100,1,0,0:0:0:0:
475,192,128100,128,0,128500:0:0:0:0:
329,192,128300,1,0,0:0:0:0:
182,192,128400,1,0,0:0:0:0:
109,192,128500,1,0,0:0:0:0:
182,192,128700,1,0,0:0:0:0:
329,192,128700,1,0,0:0:0:0:
109,192,128800,1,0,0:0:0:0:
402,192,128800,1,0,0:0:0:0:
36,192,128900,128,0,131300:0:0:0:0:
475,192,128900,128,0,129300:0:0:0:0:
256,192,129100,1,0,0:0:0:0:
182,192,129200,1,0,0:0:0:0:
109,192,129300,1,0,0:0:0:0:
256,192,129500,1,0,0:0:0:0:
182,192,129500,1,0,0:0:0:0:
329,192,129600,1,0,0:0:0:0:
109,192,129600,1,0,0:0:0:0:
402,192,129700,1,0,0:0:0:0:
182,192,129700,128,0,130100:0:0:0:0:
475,192,129900,1,0,0:0:0:0:
402,192,130000,1,0,0:0:0:0:
329,192,130100,1,0,0:0:0:0:
109,192,130300,1,0,0:0:0:0:
475,192,130300,1,0,0:0:0:0:
182,192,130400,1,0,0:0:0:0:
402,192,130400,1,0,0:0:0:0:
256,192,130500,1,0,0:0:0:0:
329,192,130500,128,0,130700:0:0:0:0:
182,192,130700,1,0,0:0:0:0:
475,192,130800,1,0,0:0:0:0:
329,192,130800,128,0,131000:0:0:0:0:
109,192,130900,1,0,0:0:0:0:
329,192,131100,128,0,131300:0:0:0:0:
182,192,131100,1,0,0:0:0:0:
402,192,131200,1,0,0:0:0:0:
256,192,131300,128,0,131700:0:0:0:0:
475,192,131300,1,0,0:0:0:0:
109,192,131300,128,0,131700:0:0:0:0:
36,192,131500,1,0,0:0:0:0:
182,192,131600,1,0,0:0:0:0:
402,192,131700,128,0,132100:0:0:0:0:
329,192,131700,1,0,0:0:0:0:
36,192,131900,1,0,0:0:0:0:
475,192,131900,1,0,0:0:0:0:
109,192,132000,1,0,0:0:0:0:
329,192,132000,1,0,0:0:0:0:
182,192,132100,128,0,132500:0:0:0:0:
256,192,132100,128,0,132500:0:0:0:0:
475,192,132100,1,0,0:0:0:0:
36,192,132300,1,0,0:0:0:0:
329,192,132400,1,0,0:0:0:0:
475,192,132500,128,0,132900:0:0:0:0:
402,192,132500,1,0,0:0:0:0:
109,192,132700,1,0,0:0:0:0:
329,192,132700,1,0,0:0:0:0:
182,192,132800,1,0,0:0:0:0:
402,192,132800,1,0,0:0:0:0:
256,192,132900,128,0,133300:0:0:0:0:
36,192,132900,128,0,133300:0:0:0:0:
329,192,132900,1,0,0:0:0:0:
475,192,133100,1,0,0:0:0:0:
402,192,133200,1,0,0:0:0:0:
109,192,133300,128,0,133700:0:0:0:0:
329,192,133300,1,0,0:0:0:0:
329,192,133500,1,0,0:0:0:0:
182,192,133500,1,0,0:0:0:0:
402,192,133600,1,0,0:0:0:0:
256,192,133600,1,0,0:0:0:0:
36,192,133700,128,0,134100:0:0:0:0:
475,192,133700,128,0,133900:0:0:0:0:
329,192,133700,1,0,0:0:0:0:
256,192,133900,1,0,0:0:0:0:
475,192,134000,128,0,134200:0:0:0:0:
182,192,134000,1,0,0:0:0:0:
329,192,134100,128,0,134500:0:0:0:0:
109,192,134100,1,0,0:0:0:0:
475,192,134300,128,0,134500:0:0:0:0:
36,192,134300,1,0,0:0:0:0:
109,192,134400,1,0,0:0:0:0:
256,192,134500,128,0,134900:0:0:0:0:
402,192,134500,128,0,134900:0:0:0:0:
182,192,134500,1,0,0:0:0:0:
475,192,134700,1,0,0:0:0:0:
36,192,134800,1,0,0:0:0:0:
329,192,134900,1,0,0:0:0:0:
182,192,134900,1,0,0:0:0:0:
256,192,135100,128,0,136100:0:0:0:0:
36,192,135100,1,0,0:0:0:0:
475,192,135100,1,0,0:0:0:0:
109,192,135200,1,0,0:0:0:0:
402,192,135200,1,0,0:0:0:0:
182,192,135300,128,0,135700:0:0:0:0:
329,192,135300,1,0,0:0:0:0:
329,192,135500,1,0,0:0:0:0:
402,192,135600,1,0,0:0:0:0:
475,192,135700,1,0,0:0:0:0:
36,192,135900,1,0,0:0:0:0:
475,192,135900,1,0,0:0:0:0:
109,192,136000,1,0,0:0:0:0:
402,192,136000,1,0,0:0:0:0:
182,192,136100,1,0,0:0:0:0:
329,192,136100,1,0,0:0:0:0:
329,192,136500,1,0,0:0:0:0:
475,192,136500,1,0,0:0:0:0:
402,192,136700,1,0,0:0:0:0:
329,192,136800,1,0,0:0:0:0:
475,192,136900,1,0,0:0:0:0:
402,192,136900,1,0,0:0:0:0:
36,192,136900,1,0,0:0:0:0:
109,192,137000,1,0,0:0:0:0:
182,192,137100,1,0,0:0:0:0:
256,192,137200,1,0,0:0:0:0:
402,192,137300,1,0,0:0:0:0:
329,192,137300,1,0,0:0:0:0:
36,192,137300,1,0,0:0:0:0:
109,192,137350,1,0,0:0:0:0:
182,192,137400,1,0,0:0:0:0:
256,192,137450,1,0,0:0:0:0:
329,192,137500,1,0,0:0:0:0:
402,192,137550,1,0,0:0:0:0:
475,192,137600,1,0,0:0:0:0:
182,192,137700,1,0,0:0:0:0:
36,192,137700,1,0,0:0:0:0:
256,192,137800,1,0,0:0:0:0:
329,192,137900,1,0,0:0:0:0:
182,192,137900,1,0,0:0:0:0:
402,192,138000,1,0,0:0:0:0:
475,192,138100,1,0,0:0:0:0:
36,192,138100,1,0,0:0:0:0:
402,192,138200,1,0,0:0:0:0:
329,192,138300,1,0,0:0:0:0:
182,192,138300,1,0,0:0:0:0:
256,192,138400,1,0,0:0:0:0:
329,192,138500,1,0,0:0:0:0:
475,192,138500,1,0,0:0:0:0:
256,192,138600,1,0,0:0:0:0:
182,192,138700,1,0,0:0:0:0:
329,192,138700,1,0,0:0:0:0:
109,192,138800,1,0,0:0:0:0:
36,192,138900,1,0,0:0:0:0:
475,192,138900,1,0,0:0:0:0:
109,192,139000,1,0,0:0:0:0:
182,192,139100,1,0,0:0:0:0:
329,192,139100,1,0,0:0:0:0:
256,192,139200,1,0,0:0:0:0:
182,192,139300,1,0,0:0:0:0:
36,192,139300,1,0,0:0:0:0:
256,192,139400,1,0,0:0:0:0:
329,192,139500,1,0,0:0:0:0:
182,192,139500,1,0,0:0:0:0:
402,192,139600,1,0,0:0:0:0:
475,192,139700,1,0,0:0:0:0:
36,192,139700,1,0,0:0:0:0:
402,192,139800,1,0,0:0:0:0:
329,192,139900,1,0,0:0:0:0:
182,192,139900,1,0,0:0:0:0:
256,192,140000,1,0,0:0:0:0:
329,192,140100,1,0,0:0:0:0:
475,192,140100,1,0,0:0:0:0:
256,192,140200,1,0,0:0:0:0:
182,192,140300,1,0,0:0:0:0:
329,192,140300,1,0,0:0:0:0:
109,192,140400,1,0,0:0:0:0:
36,192,140500,1,0,0:0:0:0:
475,192,140500,1,0,0:0:0:0:
109,192,140600,1,0,0:0:0:0:
182,192,140700,1,0,0:0:0:0:
329,192,140700,1,0,0:0:0:0:
256,192,140800,1,0,0:0:0:0:
182,192,140900,1,0,0:0:0:0:
36,192,140900,1,0,0:0:0:0:
256,192,141000,1,0,0:0:0:0:
329,192,141100,1,0,0:0:0:0:
182,192,141100,1,0,0:0:0:0:
402,192,141200,1,0,0:0:0:0:
475,192,141300,1,0,0:0:0:0:
36,192,141300,1,0,0:0:0:0:
402,192,141400,1,0,0:0:0:0:
329,192,141500,1,0,0:0:0:0:
182,192,141500,1,0,0:0:0:0:
256,192,141600,1,0,0:0:0:0:
329,192,141700,1,0,0:0:0:0:
475,192,141700,1,0,0:0:0:0:
256,192,141800,1,0,0:0:0:0:
182,192,141900,1,0,0:0:0:0:
329,192,141900,1,0,0:0:0:0:
109,192,142000,1,0,0:0:0:0:
36,192,142100,1,0,0:0:0:0:
475,192,142100,1,0,0:0:0:0:
109,192,142200,1,0,0:0:0:0:
182,192,142300,1,0,0:0:0:0:
329,192,142300,1,0,0:0:0:0:
256,192,142400,1,0,0:0:0:0:
182,192,142500,1,0,0:0:0:0:
36,192,142500,1,0,0:0:0:0:
256,192,142600,1,0,0:0:0:0:
329,192,142700,1,0,0:0:0:0:
182,192,142700,1,0,0:0:0:0:
402,192,142800,1,0,0:0:0:0:
475,192,142900,1,0,0:0:0:0:
36,192,142900,1,0,0:0:0:0:
402,192,143000,1,0,0:0:0:0:
329,192,143100,1,0,0:0:0:0:
182,192,143100,1,0,0:0:0:0:
256,192,143200,1,0,0:0:0:0:
329,192,143300,1,0,0:0:0:0:
475,192,143300,1,0,0:0:0:0:
256,192,143400,1,0,0:0:0:0:
182,192,143500,1,0,0:0:0:0:
329,192,143500,1,0,0:0:0:0:
109,192,143600,1,0,0:0:0:0:
36,192,143700,1,0,0:0:0:0:
475,192,143700,1,0,0:0:0:0:
109,192,143800,1,0,0:0:0:0:
182,192,143900,1,0,0:0:0:0:
329,192,143900,1,0,0:0:0:0:
256,192,144000,1,0,0:0:0:0:
475,192,144100,128,0,144500:0:0:0:0:
329,192,144100,128,0,144500:0:0:0:0:
36,192,144100,128,0,144500:0:0:0:0:
109,192,144100,1,0,0:0:0:0:
256,192,144500,1,0,0:0:0:0:
109,192,144700,128,0,145100:0:0:0:0:
182,192,144700,128,0,145100:0:0:0:0:
402,192,144700,128,0,145100:0:0:0:0:
475,192,144700,1,0,0:0:0:0:
36,192,145100,1,0,0:0:0:0:
256,192,145300,128,0,145700:0:0:0:0:
475,192,145300,128,0,145700:0:0:0:0:
109,192,145300,128,0,145700:0:0:0:0:
182,192,145300,1,0,0:0:0:0:
402,192,145700,1,0,0:0:0:0:
329,192,145900,128,0,146300:0:0:0:0:
182,192,145900,128,0,146300:0:0:0:0:
256,192,145900,128,0,146300:0:0:0:0:
475,192,145900,1,0,0:0:0:0:
36,192,146300,1,0,0:0:0:0:
36,192,146500,128,0,147300:0:0:0:0:
475,192,146500,128,0,147300:0:0:0:0:
182,192,146500,1,0,0:0:0:0:
329,192,146500,1,0,0:0:0:0:
256,192,146700,1,0,0:0:0:0:
109,192,146900,128,0,147300:0:0:0:0:
402,192,146900,128,0,147300:0:0:0:0:
329,192,146900,1,0,0:0:0:0:
182,192,146900,1,0,0:0:0:0:
256,192,147100,1,0,0:0:0:0:
329,192,147300,128,0,148900:0:0:0:0:
182,192,147300,1,0,0:0:0:0:
475,192,147700,128,0,148900:0:0:0:0:
182,192,147700,1,0,0:0:0:0:
36,192,147700,1,0,0:0:0:0:
256,192,148100,128,0,148900:0:0:0:0:
182,192,148100,1,0,0:0:0:0:
402,192,148500,128,0,148900:0:0:0:0:
182,192,148500,1,0,0:0:0:0:
36,192,148500,1,0,0:0:0:0:
109,192,148900,128,0,150500:0:0:0:0:
182,192,148900,1,0,0:0:0:0:
182,192,149300,128,0,150500:0:0:0:0:
329,192,149300,1,0,0:0:0:0:
475,192,149300,1,0,0:0:0:0:
36,192,149700,128,0,150500:0:0:0:0:
329,192,149700,1,0,0:0:0:0:
256,192,150100,128,0,150500:0:0:0:0:
329,192,150100,1,0,0:0:0:0:
475,192,150100,1,0,0:0:0:0:
329,192,150500,1,0,0:0:0:0:
475,192,150500,128,0,151900:0:0:0:0:
36,192,150900,1,0,0:0:0:0:
329,192,150900,1,0,0:0:0:0:
182,192,151100,1,0,0:0:0:0:
256,192,151200,1,0,0:0:0:0:
329,192,151300,128,0,151900:0:0:0:0:
36,192,151300,1,0,0:0:0:0:
182,192,151700,1,0,0:0:0:0:
36,192,151700,1,0,0:0:0:0:
402,192,151900,1,0,0:0:0:0:
256,192,152000,1,0,0:0:0:0:
182,192,152100,128,0,153700:0:0:0:0:
475,192,152100,1,0,0:0:0:0:
36,192,152500,128,0,153700:0:0:0:0:
329,192,152500,1,0,0:0:0:0:
475,192,152500,1,0,0:0:0:0:
329,192,152700,1,0,0:0:0:0:
256,192,152800,1,0,0:0:0:0:
109,192,152900,128,0,153700:0:0:0:0:
475,192,152900,1,0,0:0:0:0:
402,192,153000,1,0,0:0:0:0:
329,192,153100,1,0,0:0:0:0:
256,192,153200,1,0,0:0:0:0:
475,192,153300,1,0,0:0:0:0:
402,192,153400,1,0,0:0:0:0:
329,192,153500,1,0,0:0:0:0:
256,192,153600,1,0,0:0:0:0:
402,192,153700,128,0,154300:0:0:0:0:
475,192,153700,1,0,0:0:0:0:
182,192,153900,128,0,154300:0:0:0:0:
36,192,153900,1,0,0:0:0:0:
256,192,154100,128,0,154300:0:0:0:0:
109,192,154100,1,0,0:0:0:0:
475,192,154300,128,0,155100:0:0:0:0:
329,192,154300,1,0,0:0:0:0:
109,192,154500,1,0,0:0:0:0:
36,192,154700,128,0,155100:0:0:0:0:
256,192,154700,1,0,0:0:0:0:
329,192,154900,128,0,155100:0:0:0:0:
182,192,154900,1,0,0:0:0:0:
402,192,155100,128,0,155900:0:0:0:0:
109,192,155100,1,0,0:0:0:0:
182,192,155300,1,0,0:0:0:0:
256,192,155500,128,0,155900:0:0:0:0:
475,192,155500,1,0,0:0:0:0:
109,192,155700,128,0,155900:0:0:0:0:
182,192,155700,1,0,0:0:0:0:
36,192,155900,128,0,156700:0:0:0:0:
329,192,155900,1,0,0:0:0:0:
182,192,156100,1,0,0:0:0:0:
475,192,156300,128,0,156700:0:0:0:0:
402,192,156300,1,0,0:0:0:0:
182,192,156500,128,0,156700:0:0:0:0:
329,192,156500,1,0,0:0:0:0:
256,192,156700,128,0,157700:0:0:0:0:
109,192,156700,1,0,0:0:0:0:
402,192,156900,1,0,0:0:0:0:
329,192,157100,128,0,157700:0:0:0:0:
36,192,157100,1,0,0:0:0:0:
182,192,157300,128,0,157700:0:0:0:0:
109,192,157300,1,0,0:0:0:0:
475,192,157500,1,0,0:0:0:0:
36,192,157700,128,0,158300:0:0:0:0:
109,192,157900,128,0,158300:0:0:0:0:
402,192,157900,1,0,0:0:0:0:
182,192,158100,128,0,158300:0:0:0:0:
256,192,158100,1,0,0:0:0:0:
475,192,158300,128,0,159500:0:0:0:0:
329,192,158300,1,0,0:0:0:0:
402,192,158700,128,0,159500:0:0:0:0:
182,192,158700,1,0,0:0:0:0:
329,192,158900,128,0,159500:0:0:0:0:
36,192,158900,1,0,0:0:0:0:
109,192,159100,1,0,0:0:0:0:
256,192,159500,1,0,0:0:0:0:
329,192,159600,1,0,0:0:0:0:
256,192,159700,1,0,0:0:0:0:
182,192,159800,1,0,0:0:0:0:
109,192,159900,1,0,0:0:0:0:
475,192,159900,128,0,160700:0:0:0:0:
36,192,160000,1,0,0:0:0:0:
329,192,160100,128,0,160700:0:0:0:0:
182,192,160100,1,0,0:0:0:0:
36,192,160300,128,0,160700:0:0:0:0:
402,192,160300,1,0,0:0:0:0:
182,192,160500,128,0,160700:0:0:0:0:
109,192,160500,1,0,0:0:0:0:
256,192,160700,128,0,161500:0:0:0:0:
402,192,160700,1,0,0:0:0:0:
36,192,160900,1,0,0:0:0:0:
182,192,161100,128,0,161500:0:0:0:0:
329,192,161100,1,0,0:0:0:0:
402,192,161300,128,0,161500:0:0:0:0:
109,192,161300,1,0,0:0:0:0:
329,192,161500,128,0,162300:0:0:0:0:
475,192,161500,1,0,0:0:0:0:
182,192,161700,1,0,0:0:0:0:
36,192,161900,128,0,162300:0:0:0:0:
402,192,161900,1,0,0:0:0:0:
475,192,162100,128,0,162300:0:0:0:0:
109,192,162100,1,0,0:0:0:0:
182,192,162300,128,0,163100:0:0:0:0:
256,192,162300,1,0,0:0:0:0:
36,192,162500,1,0,0:0:0:0:
402,192,162700,128,0,163100:0:0:0:0:
329,192,162700,1,0,0:0:0:0:
256,192,162900,128,0,163100:0:0:0:0:
109,192,162900,1,0,0:0:0:0:
36,192,163100,128,0,164100:0:0:0:0:
475,192,163100,1,0,0:0:0:0:
329,192,163300,1,0,0:0:0:0:
475,192,163500,128,0,164100:0:0:0:0:
109,192,163500,1,0,0:0:0:0:
182,192,163700,128,0,164100:0:0:0:0:
256,192,163700,1,0,0:0:0:0:
402,192,163900,1,0,0:0:0:0:
256,192,164100,128,0,164700:0:0:0:0:
329,192,164300,128,0,164700:0:0:0:0:
475,192,164300,1,0,0:0:0:0:
402,192,164500,128,0,164700:0:0:0:0:
36,192,164500,1,0,0:0:0:0:
475,192,164700,128,0,165900:0:0:0:0:
182,192,164700,1,0,0:0:0:0:
109,192,165100,128,0,165900:0:0:0:0:
329,192,165100,1,0,0:0:0:0:
256,192,165300,128,0,165900:0:0:0:0:
36,192,165300,1,0,0:0:0:0:
182,192,165500,1,0,0:0:0:0:
36,192,165900,1,0,0:0:0:0:
109,192,166000,1,0,0:0:0:0:
182,192,166100,1,0,0:0:0:0:
256,192,166200,1,0,0:0:0:0:
329,192,166300,1,0,0:0:0:0:
402,192,166400,1,0,0:0:0:0:
36,192,166500,1,0,0:0:0:0:
475,192,166500,1,0,0:0:0:0:
109,192,166700,1,0,0:0:0:0:
329,192,166700,1,0,0:0:0:0:
182,192,166800,1,0,0:0:0:0:
36,192,166900,1,0,0:0:0:0:
402,192,166900,1,0,0:0:0:0:
329,192,167100,1,0,0:0:0:0:
109,192,167100,1,0,0:0:0:0:
402,192,167200,1,0,0:0:0:0:
182,192,167200,1,0,0:0:0:0:
475,192,167300,128,0,168100:0:0:0:0:
256,192,167300,1,0,0:0:0:0:
36,192,167300,1,0,0:0:0:0:
329,192,167500,1,0,0:0:0:0:
109,192,167500,1,0,0:0:0:0:
256,192,167600,1,0,0:0:0:0:
182,192,167700,1,0,0:0:0:0:
402,192,167700,1,0,0:0:0:0:
36,192,167900,1,0,0:0:0:0:
329,192,167900,1,0,0:0:0:0:
109,192,168000,1,0,0:0:0:0:
402,192,168100,128,0,168900:0:0:0:0:
182,192,168100,1,0,0:0:0:0:
256,192,168100,1,0,0:0:0:0:
256,192,168300,1,0,0:0:0:0:
329,192,168300,1,0,0:0:0:0:
475,192,168400,1,0,0:0:0:0:
109,192,168500,1,0,0:0:0:0:
36,192,168500,1,0,0:0:0:0:
475,192,168700,1,0,0:0:0:0:
182,192,168700,1,0,0:0:0:0:
256,192,168800,1,0,0:0:0:0:
329,192,168900,128,0,169500:0:0:0:0:
475,192,168900,1,0,0:0:0:0:
109,192,168900,1,0,0:0:0:0:
402,192,169100,1,0,0:0:0:0:
109,192,169100,1,0,0:0:0:0:
475,192,169200,1,0,0:0:0:0:
182,192,169300,1,0,0:0:0:0:
36,192,169300,1,0,0:0:0:0:
256,192,169500,1,0,0:0:0:0:
475,192,169500,1,0,0:0:0:0:
182,192,169600,1,0,0:0:0:0:
402,192,169600,1,0,0:0:0:0:
109,192,169700,128,0,170900:0:0:0:0:
329,192,169700,1,0,0:0:0:0:
36,192,169700,1,0,0:0:0:0:
256,192,169900,1,0,0:0:0:0:
475,192,169900,1,0,0:0:0:0:
329,192,170000,1,0,0:0:0:0:
402,192,170100,1,0,0:0:0:0:
182,192,170100,1,0,0:0:0:0:
475,192,170300,1,0,0:0:0:0:
36,192,170300,1,0,0:0:0:0:
402,192,170400,1,0,0:0:0:0:
329,192,170500,1,0,0:0:0:0:
182,192,170500,1,0,0:0:0:0:
256,192,170700,1,0,0:0:0:0:
402,192,170700,1,0,0:0:0:0:
182,192,170800,1,0,0:0:0:0:
36,192,170900,1,0,0:0:0:0:
329,192,170900,1,0,0:0:0:0:
36,192,171100,128,0,171500:0:0:0:0:
182,192,171100,1,0,0:0:0:0:
475,192,171100,1,0,0:0:0:0:
256,192,171200,1,0,0:0:0:0:
329,192,171300,1,0,0:0:0:0:
182,192,171300,1,0,0:0:0:0:
109,192,171500,1,0,0:0:0:0:
475,192,171500,1,0,0:0:0:0:
256,192,171500,1,0,0:0:0:0:
402,192,171600,1,0,0:0:0:0:
182,192,171700,1,0,0:0:0:0:
329,192,171700,1,0,0:0:0:0:
475,192,171700,1,0,0:0:0:0:
36,192,171900,128,0,172300:0:0:0:0:
256,192,171900,1,0,0:0:0:0:
109,192,171900,1,0,0:0:0:0:
329,192,172000,1,0,0:0:0:0:
402,192,172100,1,0,0:0:0:0:
182,192,172100,1,0,0:0:0:0:
475,192,172300,1,0,0:0:0:0:
402,192,172400,1,0,0:0:0:0:
329,192,172500,1,0,0:0:0:0:
256,192,172600,1,0,0:0:0:0:
182,192,172700,1,0,0:0:0:0:
109,192,172800,1,0,0:0:0:0:
36,192,172900,1,0,0:0:0:0:
402,192,172900,1,0,0:0:0:0:
329,192,173100,1,0,0:0:0:0:
182,192,173100,1,0,0:0:0:0:
402,192,173200,1,0,0:0:0:0:
475,192,173300,1,0,0:0:0:0:
109,192,173300,1,0,0:0:0:0:
256,192,173500,1,0,0:0:0:0:
36,192,173500,1,0,0:0:0:0:
329,192,173500,1,0,0:0:0:0:
182,192,173600,1,0,0:0:0:0:
402,192,173600,1,0,0:0:0:0:
109,192,173700,1,0,0:0:0:0:
475,192,173700,128,0,174500:0:0:0:0:
36,192,173900,1,0,0:0:0:0:
256,192,173900,1,0,0:0:0:0:
109,192,174000,1,0,0:0:0:0:
182,192,174100,1,0,0:0:0:0:
402,192,174100,1,0,0:0:0:0:
109,192,174300,1,0,0:0:0:0:
329,192,174300,1,0,0:0:0:0:
182,192,174400,1,0,0:0:0:0:
329,192,174500,128,0,175300:0:0:0:0:
256,192,174500,1,0,0:0:0:0:
36,192,174500,1,0,0:0:0:0:
475,192,174700,1,0,0:0:0:0:
109,192,174700,1,0,0:0:0:0:
402,192,174800,1,0,0:0:0:0:
256,192,174900,1,0,0:0:0:0:
182,192,174900,1,0,0:0:0:0:
402,192,175100,1,0,0:0:0:0:
109,192,175100,1,0,0:0:0:0:
36,192,175200,1,0,0:0:0:0:
182,192,175300,128,0,175900:0:0:0:0:
256,192,175300,1,0,0:0:0:0:
475,192,175300,1,0,0:0:0:0:
329,192,175500,1,0,0:0:0:0:
36,192,175500,1,0,0:0:0:0:
402,192,175600,1,0,0:0:0:0:
475,192,175700,1,0,0:0:0:0:
256,192,175700,1,0,0:0:0:0:
36,192,175900,1,0,0:0:0:0:
402,192,175900,1,0,0:0:0:0:
109,192,176000,1,0,0:0:0:0:
329,192,176000,1,0,0:0:0:0:
182,192,176100,128,0,176500:0:0:0:0:
256,192,176100,1,0,0:0:0:0:
475,192,176100,1,0,0:0:0:0:
109,192,176300,1,0,0:0:0:0:
402,192,176300,1,0,0:0:0:0:
329,192,176400,1,0,0:0:0:0:
36,192,176500,1,0,0:0:0:0:
475,192,176500,1,0,0:0:0:0:
256,192,176500,1,0,0:0:0:0:
36,192,176700,128,0,177100:0:0:0:0:
402,192,176700,1,0,0:0:0:0:
109,192,176700,1,0,0:0:0:0:
329,192,176800,1,0,0:0:0:0:
256,192,176900,1,0,0:0:0:0:
475,192,176900,1,0,0:0:0:0:
182,192,177100,1,0,0:0:0:0:
402,192,177100,1,0,0:0:0:0:
329,192,177200,1,0,0:0:0:0:
109,192,177300,1,0,0:0:0:0:
475,192,177300,1,0,0:0:0:0:
256,192,177300,1,0,0:0:0:0:
182,192,177500,128,0,177900:0:0:0:0:
256,192,177500,128,0,179300:0:0:0:0:
402,192,177500,1,0,0:0:0:0:
36,192,177500,1,0,0:0:0:0:
402,192,177900,1,0,0:0:0:0:
475,192,178000,1,0,0:0:0:0:
109,192,178100,1,0,0:0:0:0:
36,192,178200,1,0,0:0:0:0:
329,192,178300,1,0,0:0:0:0:
402,192,178400,1,0,0:0:0:0:
182,192,178500,1,0,0:0:0:0:
109,192,178600,1,0,0:0:0:0:
475,192,178700,1,0,0:0:0:0:
402,192,178800,1,0,0:0:0:0:
36,192,178900,1,0,0:0:0:0:
109,192,179000,1,0,0:0:0:0:
329,192,179100,1,0,0:0:0:0:
182,192,179100,1,0,0:0:0:0:
402,192,179200,1,0,0:0:0:0:
109,192,179200,1,0,0:0:0:0:
475,192,179300,1,0,0:0:0:0:
36,192,179300,1,0,0:0:0:0:
182,192,179300,1,0,0:0:0:0:
329,192,179300,1,0,0:0:0:0:
256,192,179400,1,0,0:0:0:0:
36,192,179500,1,0,0:0:0:0:
329,192,179500,1,0,0:0:0:0:
402,192,179600,1,0,0:0:0:0:
182,192,179700,1,0,0:0:0:0:
475,192,179700,1,0,0:0:0:0:
402,192,179800,1,0,0:0:0:0:
109,192,179900,1,0,0:0:0:0:
329,192,179900,1,0,0:0:0:0:
256,192,180000,1,0,0:0:0:0:
182,192,180100,1,0,0:0:0:0:
402,192,180100,1,0,0:0:0:0:
256,192,180200,1,0,0:0:0:0:
329,192,180300,1,0,0:0:0:0:
36,192,180300,1,0,0:0:0:0:
402,192,180400,1,0,0:0:0:0:
475,192,180500,1,0,0:0:0:0:
182,192,180500,1,0,0:0:0:0:
402,192,180600,1,0,0:0:0:0:
109,192,180700,1,0,0:0:0:0:
329,192,180700,1,0,0:0:0:0:
256,192,180800,1,0,0:0:0:0:
36,192,180900,1,0,0:0:0:0:
475,192,180900,1,0,0:0:0:0:
109,192,181000,1,0,0:0:0:0:
182,192,181100,1,0,0:0:0:0:
402,192,181100,1,0,0:0:0:0:
256,192,181200,1,0,0:0:0:0:
329,192,181300,1,0,0:0:0:0:
36,192,181300,1,0,0:0:0:0:
256,192,181400,1,0,0:0:0:0:
182,192,181500,1,0,0:0:0:0:
475,192,181500,1,0,0:0:0:0:
109,192,181600,1,0,0:0:0:0:
36,192,181700,1,0,0:0:0:0:
329,192,181700,1,0,0:0:0:0:
109,192,181800,1,0,0:0:0:0:
182,192,181900,1,0,0:0:0:0:
402,192,181900,1,0,0:0:0:0:
256,192,182000,1,0,0:0:0:0:
329,192,182100,1,0,0:0:0:0:
109,192,182100,1,0,0:0:0:0:
256,192,182200,1,0,0:0:0:0:
182,192,182300,1,0,0:0:0:0:
475,192,182300,1,0,0:0:0:0:
109,192,182400,1,0,0:0:0:0:
475,192,182500,1,0,0:0:0:0:
36,192,182500,1,0,0:0:0:0:
402,192,182600,1,0,0:0:0:0:
329,192,182700,1,0,0:0:0:0:
109,192,182700,1,0,0:0:0:0:
256,192,182800,1,0,0:0:0:0:
182,192,182900,1,0,0:0:0:0:
475,192,182900,1,0,0:0:0:0:
256,192,183000,1,0,0:0:0:0:
329,192,183100,1,0,0:0:0:0:
36,192,183100,1,0,0:0:0:0:
402,192,183200,1,0,0:0:0:0:
475,192,183300,1,0,0:0:0:0:
182,192,183300,1,0,0:0:0:0:
402,192,183400,1,0,0:0:0:0:
329,192,183500,1,0,0:0:0:0:
109,192,183500,1,0,0:0:0:0:
256,192,183600,1,0,0:0:0:0:
182,192,183700,1,0,0:0:0:0:
402,192,183700,1,0,0:0:0:0:
256,192,183800,1,0,0:0:0:0:
329,192,183900,1,0,0:0:0:0:
36,192,183900,1,0,0:0:0:0:
182,192,183900,128,0,185500:0:0:0:0:
402,192,184000,1,0,0:0:0:0:
475,192,184000,128,0,185500:0:0:0:0:
36,192,184100,128,0,185500:0:0:0:0:
329,192,184300,128,0,185500:0:0:0:0:
109,192,184500,128,0,185500:0:0:0:0:
402,192,184700,128,0,185500:0:0:0:0:
256,192,185500,1,0,0:0:0:0:
329,192,185600,1,0,0:0:0:0:
36,192,185700,1,0,0:0:0:0:
402,192,185700,1,0,0:0:0:0:
109,192,185800,1,0,0:0:0:0:
182,192,185900,1,0,0:0:0:0:
256,192,186000,1,0,0:0:0:0:
475,192,186100,1,0,0:0:0:0:
402,192,186200,1,0,0:0:0:0:
329,192,186300,1,0,0:0:0:0:
256,192,186400,1,0,0:0:0:0:
36,192,186500,1,0,0:0:0:0:
109,192,186600,1,0,0:0:0:0:
182,192,186700,1,0,0:0:0:0:
256,192,186800,1,0,0:0:0:0:
475,192,186900,1,0,0:0:0:0:
402,192,187000,1,0,0:0:0:0:
329,192,187100,1,0,0:0:0:0:
256,192,187200,1,0,0:0:0:0:
109,192,187300,1,0,0:0:0:0:
182,192,187400,1,0,0:0:0:0:
256,192,187500,1,0,0:0:0:0:
329,192,187600,1,0,0:0:0:0:
402,192,187700,1,0,0:0:0:0:
329,192,187800,1,0,0:0:0:0:
256,192,187900,1,0,0:0:0:0:
182,192,188000,1,0,0:0:0:0:
109,192,188100,1,0,0:0:0:0:
182,192,188200,1,0,0:0:0:0:
256,192,188300,1,0,0:0:0:0:
329,192,188400,1,0,0:0:0:0:
402,192,188500,1,0,0:0:0:0:
329,192,188600,1,0,0:0:0:0:
256,192,188700,1,0,0:0:0:0:
182,192,188800,1,0,0:0:0:0:
36,192,188900,1,0,0:0:0:0:
109,192,189000,1,0,0:0:0:0:
182,192,189100,1,0,0:0:0:0:
256,192,189200,1,0,0:0:0:0:
475,192,189300,1,0,0:0:0:0:
402,192,189400,1,0,0:0:0:0:
329,192,189500,1,0,0:0:0:0:
256,192,189600,1,0,0:0:0:0:
36,192,189700,1,0,0:0:0:0:
109,192,189800,1,0,0:0:0:0:
182,192,189900,1,0,0:0:0:0:
256,192,190000,1,0,0:0:0:0:
475,192,190100,1,0,0:0:0:0:
402,192,190200,1,0,0:0:0:0:
329,192,190300,1,0,0:0:0:0:
256,192,190400,1,0,0:0:0:0:
182,192,190500,1,0,0:0:0:0:
256,192,190600,1,0,0:0:0:0:
329,192,190700,1,0,0:0:0:0:
402,192,190800,1,0,0:0:0:0:
329,192,190900,1,0,0:0:0:0:
256,192,191000,1,0,0:0:0:0:
182,192,191100,1,0,0:0:0:0:
109,192,191200,1,0,0:0:0:0:
182,192,191300,1,0,0:0:0:0:
256,192,191400,1,0,0:0:0:0:
329,192,191500,1,0,0:0:0:0:
402,192,191600,1,0,0:0:0:0:
329,192,191700,1,0,0:0:0:0:
256,192,191800,1,0,0:0:0:0:
182,192,191900,1,0,0:0:0:0:
109,192,192000,1,0,0:0:0:0:
36,192,192100,1,0,0:0:0:0:
109,192,192200,1,0,0:0:0:0:
182,192,192300,1,0,0:0:0:0:
256,192,192400,1,0,0:0:0:0:
475,192,192500,1,0,0:0:0:0:
402,192,192600,1,0,0:0:0:0:
329,192,192700,1,0,0:0:0:0:
36,192,192700,1,0,0:0:0:0:
256,192,192800,1,0,0:0:0:0:
109,192,192800,1,0,0:0:0:0:
182,192,192900,128,0,194100:0:0:0:0:
329,192,193100,128,0,194100:0:0:0:0:
475,192,193300,128,0,194100:0:0:0:0:
402,192,193500,128,0,194100:0:0:0:0:
256,192,193900,1,0,0:0:0:0:
256,192,194100,1,0,0:0:0:0:
36,192,194100,128,0,194700:0:0:0:0:
256,192,194300,1,0,0:0:0:0:
182,192,194300,128,0,194700:0:0:0:0:
256,192,194400,1,0,0:0:0:0:
329,192,194700,128,0,195500:0:0:0:0:
402,192,194800,128,0,195500:0:0:0:0:
256,192,194900,1,0,0:0:0:0:
475,192,194900,128,0,195500:0:0:0:0:
182,192,195100,128,0,195500:0:0:0:0:
256,192,195300,1,0,0:0:0:0:
256,192,195500,128,0,195700:0:0:0:0:
36,192,195700,128,0,196300:0:0:0:0:
256,192,195900,1,0,0:0:0:0:
109,192,195900,128,0,196300:0:0:0:0:
256,192,196000,1,0,0:0:0:0:
182,192,196300,128,0,197100:0:0:0:0:
256,192,196500,1,0,0:0:0:0:
329,192,196500,128,0,197100:0:0:0:0:
256,192,196700,128,0,196900:0:0:0:0:
402,192,196700,128,0,197100:0:0:0:0:
256,192,197100,1,0,0:0:0:0:
475,192,197100,1,0,0:0:0:0:
256,192,197200,1,0,0:0:0:0:
402,192,197200,1,0,0:0:0:0:
329,192,197300,1,0,0:0:0:0:
36,192,197500,1,0,0:0:0:0:
109,192,197600,1,0,0:0:0:0:
256,192,197700,128,0,197900:0:0:0:0:
182,192,197700,1,0,0:0:0:0:
475,192,198000,1,0,0:0:0:0:
402,192,198100,1,0,0:0:0:0:
256,192,198100,128,0,198300:0:0:0:0:
329,192,198200,1,0,0:0:0:0:
402,192,198300,1,0,0:0:0:0:
475,192,198400,1,0,0:0:0:0:
256,192,198500,128,0,198700:0:0:0:0:
109,192,198500,128,0,198900:0:0:0:0:
402,192,198500,128,0,198900:0:0:0:0:
36,192,198900,1,0,0:0:0:0:
475,192,198900,1,0,0:0:0:0:
182,192,199000,1,0,0:0:0:0:
329,192,199000,1,0,0:0:0:0:
36,192,199100,1,0,0:0:0:0:
475,192,199100,1,0,0:0:0:0:
182,192,199200,1,0,0:0:0:0:
329,192,199200,1,0,0:0:0:0:
36,192,199300,1,0,0:0:0:0:
475,192,199300,1,0,0:0:0:0:
182,192,199400,1,0,0:0:0:0:
329,192,199400,1,0,0:0:0:0:
36,192,199500,1,0,0:0:0:0:
475,192,199500,1,0,0:0:0:0:
256,192,199700,1,0,0:0:0:0:
402,192,199700,128,0,200300:0:0:0:0:
256,192,199833,1,0,0:0:0:0:
109,192,199900,128,0,200300:0:0:0:0:
256,192,199966,1,0,0:0:0:0:
256,192,200100,1,0,0:0:0:0:
329,192,200300,128,0,201100:0:0:0:0:
402,192,200500,128,0,201100:0:0:0:0:
256,192,200700,1,0,0:0:0:0:
475,192,200700,128,0,201100:0:0:0:0:
36,192,201100,128,0,201500:0:0:0:0:
256,192,201200,1,0,0:0:0:0:
256,192,201300,128,0,201500:0:0:0:0:
475,192,201300,128,0,201500:0:0:0:0:
329,192,201500,1,0,0:0:0:0:
182,192,201500,1,0,0:0:0:0:
402,192,201600,1,0,0:0:0:0:
109,192,201600,1,0,0:0:0:0:
256,192,201700,1,0,0:0:0:0:
475,192,201700,1,0,0:0:0:0:
36,192,201700,1,0,0:0:0:0:
256,192,201800,1,0,0:0:0:0:
329,192,201800,1,0,0:0:0:0:
182,192,201800,1,0,0:0:0:0:
475,192,201900,1,0,0:0:0:0:
36,192,201900,1,0,0:0:0:0:
402,192,202000,1,0,0:0:0:0:
109,192,202000,1,0,0:0:0:0:
256,192,202100,1,0,0:0:0:0:
329,192,202100,1,0,0:0:0:0:
182,192,202100,1,0,0:0:0:0:
402,192,202200,1,0,0:0:0:0:
109,192,202200,1,0,0:0:0:0:
256,192,202300,1,0,0:0:0:0:
475,192,202300,1,0,0:0:0:0:
36,192,202300,1,0,0:0:0:0:
256,192,202500,128,0,202700:0:0:0:0:
402,192,202500,1,0,0:0:0:0:
109,192,202500,1,0,0:0:0:0:
329,192,202700,1,0,0:0:0:0:
182,192,202700,1,0,0:0:0:0:
475,192,202800,1,0,0:0:0:0:
36,192,202800,1,0,0:0:0:0:
256,192,202900,1,0,0:0:0:0:
402,192,202900,1,0,0:0:0:0:
109,192,202900,1,0,0:0:0:0:
256,192,203000,1,0,0:0:0:0:
329,192,203000,1,0,0:0:0:0:
182,192,203000,1,0,0:0:0:0:
402,192,203100,1,0,0:0:0:0:
109,192,203100,1,0,0:0:0:0:
475,192,203200,1,0,0:0:0:0:
36,192,203200,1,0,0:0:0:0:
402,192,203300,1,0,0:0:0:0:
109,192,203300,1,0,0:0:0:0:
256,192,203500,128,0,203700:0:0:0:0:
329,192,203500,1,0,0:0:0:0:
182,192,203500,1,0,0:0:0:0:
475,192,203600,1,0,0:0:0:0:
36,192,203600,1,0,0:0:0:0:
402,192,203700,1,0,0:0:0:0:
256,192,203800,1,0,0:0:0:0:
475,192,203800,1,0,0:0:0:0:
256,192,203900,128,0,204100:0:0:0:0:
109,192,203900,1,0,0:0:0:0:
36,192,204000,1,0,0:0:0:0:
329,192,204100,1,0,0:0:0:0:
402,192,204200,1,0,0:0:0:0:
182,192,204300,1,0,0:0:0:0:
256,192,204400,128,0,204600:0:0:0:0:
109,192,204400,1,0,0:0:0:0:
475,192,204500,1,0,0:0:0:0:
36,192,204500,1,0,0:0:0:0:
402,192,204600,1,0,0:0:0:0:
109,192,204600,1,0,0:0:0:0:
329,192,204700,1,0,0:0:0:0:
182,192,204700,1,0,0:0:0:0:
256,192,204800,1,0,0:0:0:0:
36,192,204900,128,0,206500:0:0:0:0:
475,192,204900,128,0,206500:0:0:0:0:
329,192,206500,128,0,207900:0:0:0:0:
182,192,206500,128,0,207300:0:0:0:0:
109,192,207300,128,0,208100:0:0:0:0:
402,192,207900,1,0,0:0:0:0:
329,192,208000,1,0,0:0:0:0:
256,192,208100,128,0,209700:0:0:0:0:
36,192,208100,128,0,208900:0:0:0:0:
402,192,208900,128,0,209700:0:0:0:0:
182,192,209500,1,0,0:0:0:0:
109,192,209600,1,0,0:0:0:0:
36,192,209700,128,0,210500:0:0:0:0:
329,192,209700,128,0,210500:0:0:0:0:
109,192,211300,128,0,211700:0:0:0:0:
329,192,211300,128,0,211700:0:0:0:0:
402,192,211300,128,0,211700:0:0:0:0:
182,192,211300,1,0,0:0:0:0:
475,192,211700,1,0,0:0:0:0:
256,192,211900,1,0,0:0:0:0:
36,192,211900,128,0,212300:0:0:0:0:
182,192,211900,128,0,212300:0:0:0:0:
329,192,211900,128,0,212300:0:0:0:0:
109,192,212300,1,0,0:0:0:0:
256,192,212500,128,0,212900:0:0:0:0:
475,192,212500,128,0,212900:0:0:0:0:
36,192,212500,128,0,212900:0:0:0:0:
402,192,212500,1,0,0:0:0:0:
182,192,212900,1,0,0:0:0:0:
329,192,213100,128,0,213500:0:0:0:0:
182,192,213100,128,0,213500:0:0:0:0:
109,192,213100,128,0,213500:0:0:0:0:
475,192,213100,1,0,0:0:0:0:
256,192,213500,1,0,0:0:0:0:
36,192,213700,128,0,214500:0:0:0:0:
475,192,213700,128,0,214500:0:0:0:0:
256,192,213700,1,0,0:0:0:0:
402,192,213900,1,0,0:0:0:0:
109,192,213900,1,0,0:0:0:0:
182,192,214100,128,0,214500:0:0:0:0:
329,192,214100,128,0,214500:0:0:0:0:
256,192,214100,1,0,0:0:0:0:
402,192,214300,1,0,0:0:0:0:
109,192,214300,1,0,0:0:0:0:
256,192,214500,128,0,216100:0:0:0:0:
329,192,214900,128,0,216100:0:0:0:0:
402,192,215300,128,0,216100:0:0:0:0:
475,192,215700,128,0,216100:0:0:0:0:
36,192,216100,128,0,217700:0:0:0:0:
109,192,216500,128,0,217700:0:0:0:0:
182,192,216900,128,0,217700:0:0:0:0:
256,192,217300,128,0,217700:0:0:0:0:
475,192,217700,128,0,220900:0:0:0:0:
109,192,218300,1,0,0:0:0:0:
256,192,218400,1,0,0:0:0:0:
402,192,218500,128,0,220900:0:0:0:0:
109,192,219100,1,0,0:0:0:0:
182,192,219200,1,0,0:0:0:0:
36,192,219300,128,0,220900:0:0:0:0:
329,192,219300,128,0,220900:0:0:0:0:
256,192,219900,1,0,0:0:0:0:
182,192,220000,1,0,0:0:0:0:
109,192,220100,128,0,220900:0:0:0:0:
256,192,220900,128,0,224100:0:0:0:0:
329,192,221500,1,0,0:0:0:0:
402,192,221600,1,0,0:0:0:0:
475,192,221700,128,0,224100:0:0:0:0:
182,192,222300,1,0,0:0:0:0:
109,192,222400,1,0,0:0:0:0:
36,192,222500,128,0,224100:0:0:0:0:
402,192,222500,128,0,222900:0:0:0:0:
329,192,222900,128,0,223300:0:0:0:0:
182,192,223300,128,0,223700:0:0:0:0:
109,192,223700,128,0,224100:0:0:0:0:
36,192,224500,1,0,0:0:0:0:
109,192,224600,1,0,0:0:0:0:
182,192,224700,1,0,0:0:0:0:
256,192,224800,1,0,0:0:0:0:
475,192,224900,1,0,0:0:0:0:
402,192,225000,1,0,0:0:0:0:
329,192,225100,1,0,0:0:0:0:
256,192,225200,1,0,0:0:0:0:
475,192,225300,1,0,0:0:0:0:
182,192,225300,1,0,0:0:0:0:
36,192,225300,1,0,0:0:0:0:
329,192,225400,1,0,0:0:0:0:
475,192,225500,1,0,0:0:0:0:
36,192,225500,1,0,0:0:0:0:
329,192,225600,1,0,0:0:0:0:
182,192,225600,1,0,0:0:0:0:
402,192,225700,1,0,0:0:0:0:
109,192,225700,1,0,0:0:0:0:
256,192,225800,1,0,0:0:0:0:
402,192,225900,1,0,0:0:0:0:
36,192,225900,1,0,0:0:0:0:
256,192,226000,1,0,0:0:0:0:
109,192,226000,1,0,0:0:0:0:
475,192,226100,1,0,0:0:0:0:
182,192,226100,1,0,0:0:0:0:
329,192,226200,1,0,0:0:0:0:
475,192,226300,1,0,0:0:0:0:
109,192,226300,1,0,0:0:0:0:
329,192,226400,1,0,0:0:0:0:
36,192,226400,1,0,0:0:0:0:
402,192,226500,1,0,0:0:0:0:
182,192,226500,1,0,0:0:0:0:
256,192,226600,1,0,0:0:0:0:
402,192,226700,1,0,0:0:0:0:
36,192,226700,1,0,0:0:0:0:
256,192,226800,1,0,0:0:0:0:
182,192,226800,1,0,0:0:0:0:
36,192,226900,1,0,0:0:0:0:
475,192,226900,1,0,0:0:0:0:
182,192,227000,1,0,0:0:0:0:
36,192,227100,1,0,0:0:0:0:
329,192,227100,1,0,0:0:0:0:
182,192,227200,1,0,0:0:0:0:
475,192,227200,1,0,0:0:0:0:
109,192,227300,1,0,0:0:0:0:
402,192,227300,1,0,0:0:0:0:
256,192,227400,1,0,0:0:0:0:
109,192,227500,1,0,0:0:0:0:
475,192,227500,1,0,0:0:0:0:
256,192,227600,1,0,0:0:0:0:
402,192,227600,1,0,0:0:0:0:
36,192,227700,1,0,0:0:0:0:
329,192,227700,1,0,0:0:0:0:
182,192,227800,1,0,0:0:0:0:
36,192,227900,1,0,0:0:0:0:
402,192,227900,1,0,0:0:0:0:
182,192,228000,1,0,0:0:0:0:
329,192,228000,1,0,0:0:0:0:
109,192,228100,1,0,0:0:0:0:
475,192,228100,1,0,0:0:0:0:
256,192,228200,1,0,0:0:0:0:
109,192,228300,1,0,0:0:0:0:
475,192,228300,1,0,0:0:0:0:
256,192,228400,1,0,0:0:0:0:
329,192,228400,1,0,0:0:0:0:
475,192,228500,1,0,0:0:0:0:
36,192,228500,1,0,0:0:0:0:
402,192,228600,1,0,0:0:0:0:
329,192,228700,1,0,0:0:0:0:
182,192,228700,1,0,0:0:0:0:
256,192,228800,1,0,0:0:0:0:
109,192,228800,1,0,0:0:0:0:
475,192,228900,1,0,0:0:0:0:
36,192,228900,1,0,0:0:0:0:
402,192,229000,1,0,0:0:0:0:
329,192,229100,1,0,0:0:0:0:
109,192,229100,1,0,0:0:0:0:
256,192,229200,1,0,0:0:0:0:
182,192,229200,1,0,0:0:0:0:
475,192,229300,1,0,0:0:0:0:
36,192,229300,1,0,0:0:0:0:
402,192,229400,1,0,0:0:0:0:
329,192,229500,1,0,0:0:0:0:
109,192,229500,1,0,0:0:0:0:
256,192,229600,1,0,0:0:0:0:
36,192,229600,1,0,0:0:0:0:
475,192,229700,1,0,0:0:0:0:
182,192,229700,1,0,0:0:0:0:
402,192,229800,1,0,0:0:0:0:
329,192,229900,1,0,0:0:0:0:
36,192,229900,1,0,0:0:0:0:
256,192,230000,1,0,0:0:0:0:
182,192,230000,1,0,0:0:0:0:
36,192,230100,1,0,0:0:0:0:
475,192,230100,1,0,0:0:0:0:
109,192,230200,1,0,0:0:0:0:
182,192,230300,1,0,0:0:0:0:
329,192,230300,1,0,0:0:0:0:
256,192,230400,1,0,0:0:0:0:
402,192,230400,1,0,0:0:0:0:
36,192,230500,1,0,0:0:0:0:
475,192,230500,1,0,0:0:0:0:
109,192,230600,1,0,0:0:0:0:
182,192,230700,1,0,0:0:0:0:
402,192,230700,1,0,0:0:0:0:
256,192,230800,1,0,0:0:0:0:
329,192,230800,1,0,0:0:0:0:
36,192,230900,1,0,0:0:0:0:
475,192,230900,1,0,0:0:0:0:
109,192,231000,1,0,0:0:0:0:
182,192,231100,1,0,0:0:0:0:
402,192,231100,1,0,0:0:0:0:
256,192,231200,1,0,0:0:0:0:
475,192,231200,1,0,0:0:0:0:
402,192,231300,1,0,0:0:0:0:
329,192,231400,1,0,0:0:0:0:
256,192,231500,1,0,0:0:0:0:
182,192,231600,1,0,0:0:0:0:
36,192,231700,1,0,0:0:0:0:
475,192,231700,1,0,0:0:0:0:
109,192,231800,1,0,0:0:0:0:
182,192,231900,1,0,0:0:0:0:
402,192,231900,1,0,0:0:0:0:
256,192,232000,1,0,0:0:0:0:
36,192,232000,1,0,0:0:0:0:
475,192,232100,1,0,0:0:0:0:
109,192,232100,1,0,0:0:0:0:
402,192,232200,1,0,0:0:0:0:
329,192,232300,1,0,0:0:0:0:
182,192,232300,1,0,0:0:0:0:
256,192,232400,1,0,0:0:0:0:
475,192,232400,1,0,0:0:0:0:
36,192,232500,1,0,0:0:0:0:
329,192,232500,1,0,0:0:0:0:
109,192,232600,1,0,0:0:0:0:
182,192,232700,1,0,0:0:0:0:
475,192,232700,1,0,0:0:0:0:
256,192,232800,1,0,0:0:0:0:
36,192,232800,1,0,0:0:0:0:
475,192,232900,1,0,0:0:0:0:
182,192,232900,1,0,0:0:0:0:
402,192,233000,1,0,0:0:0:0:
329,192,233100,1,0,0:0:0:0:
109,192,233100,1,0,0:0:0:0:
256,192,233200,1,0,0:0:0:0:
475,192,233200,1,0,0:0:0:0:
36,192,233300,1,0,0:0:0:0:
402,192,233300,1,0,0:0:0:0:
182,192,233400,1,0,0:0:0:0:
109,192,233500,1,0,0:0:0:0:
329,192,233500,1,0,0:0:0:0:
256,192,233600,1,0,0:0:0:0:
36,192,233600,1,0,0:0:0:0:
475,192,233700,1,0,0:0:0:0:
182,192,233700,1,0,0:0:0:0:
329,192,233800,1,0,0:0:0:0:
402,192,233900,1,0,0:0:0:0:
109,192,233900,1,0,0:0:0:0:
256,192,234000,1,0,0:0:0:0:
475,192,234000,1,0,0:0:0:0:
36,192,234100,1,0,0:0:0:0:
329,192,234100,1,0,0:0:0:0:
182,192,234200,1,0,0:0:0:0:
109,192,234300,1,0,0:0:0:0:
475,192,234300,1,0,0:0:0:0:
256,192,234400,1,0,0:0:0:0:
36,192,234400,1,0,0:0:0:0:
475,192,234500,1,0,0:0:0:0:
109,192,234500,1,0,0:0:0:0:
329,192,234600,1,0,0:0:0:0:
402,192,234700,1,0,0:0:0:0:
182,192,234700,1,0,0:0:0:0:
256,192,234800,1,0,0:0:0:0:
475,192,234800,1,0,0:0:0:0:
36,192,234900,1,0,0:0:0:0:
402,192,234900,1,0,0:0:0:0:
109,192,235000,1,0,0:0:0:0:
182,192,235100,1,0,0:0:0:0:
329,192,235100,1,0,0:0:0:0:
256,192,235200,1,0,0:0:0:0:
109,192,235200,1,0,0:0:0:0:
475,192,235300,1,0,0:0:0:0:
36,192,235300,1,0,0:0:0:0:
402,192,235400,1,0,0:0:0:0:
329,192,235500,1,0,0:0:0:0:
182,192,235500,1,0,0:0:0:0:
256,192,235600,1,0,0:0:0:0:
402,192,235600,1,0,0:0:0:0:
36,192,235700,1,0,0:0:0:0:
475,192,235700,1,0,0:0:0:0:
109,192,235800,1,0,0:0:0:0:
182,192,235900,1,0,0:0:0:0:
402,192,235900,1,0,0:0:0:0:
256,192,236000,1,0,0:0:0:0:
36,192,236000,1,0,0:0:0:0:
475,192,236100,1,0,0:0:0:0:
109,192,236100,1,0,0:0:0:0:
402,192,236200,1,0,0:0:0:0:
329,192,236300,1,0,0:0:0:0:
182,192,236300,1,0,0:0:0:0:
256,192,236400,1,0,0:0:0:0:
475,192,236400,1,0,0:0:0:0:
36,192,236500,1,0,0:0:0:0:
402,192,236500,1,0,0:0:0:0:
182,192,236600,1,0,0:0:0:0:
109,192,236700,1,0,0:0:0:0:
475,192,236700,1,0,0:0:0:0:
256,192,236800,1,0,0:0:0:0:
402,192,236800,1,0,0:0:0:0:
475,192,236900,1,0,0:0:0:0:
182,192,236900,1,0,0:0:0:0:
329,192,237000,1,0,0:0:0:0:
402,192,237100,1,0,0:0:0:0:
36,192,237100,1,0,0:0:0:0:
256,192,237200,1,0,0:0:0:0:
109,192,237200,1,0,0:0:0:0:
36,192,237300,1,0,0:0:0:0:
329,192,237300,1,0,0:0:0:0:
182,192,237400,1,0,0:0:0:0:
36,192,237500,1,0,0:0:0:0:
329,192,237500,1,0,0:0:0:0:
109,192,237600,1,0,0:0:0:0:
475,192,237600,1,0,0:0:0:0:
182,192,237700,1,0,0:0:0:0:
256,192,237800,1,0,0:0:0:0:
329,192,237900,1,0,0:0:0:0:
402,192,238000,1,0,0:0:0:0:
475,192,238100,1,0,0:0:0:0:
36,192,238100,1,0,0:0:0:0:
329,192,238200,1,0,0:0:0:0:
475,192,238300,1,0,0:0:0:0:
182,192,238300,1,0,0:0:0:0:
329,192,238400,1,0,0:0:0:0:
36,192,238400,1,0,0:0:0:0:
402,192,238500,1,0,0:0:0:0:
109,192,238500,1,0,0:0:0:0:
256,192,238600,1,0,0:0:0:0:
402,192,238700,1,0,0:0:0:0:
36,192,238700,1,0,0:0:0:0:
256,192,238800,1,0,0:0:0:0:
182,192,238800,1,0,0:0:0:0:
475,192,238900,1,0,0:0:0:0:
109,192,238900,1,0,0:0:0:0:
329,192,239000,1,0,0:0:0:0:
475,192,239100,1,0,0:0:0:0:
36,192,239100,1,0,0:0:0:0:
329,192,239200,1,0,0:0:0:0:
109,192,239200,1,0,0:0:0:0:
402,192,239300,1,0,0:0:0:0:
182,192,239300,1,0,0:0:0:0:
256,192,239400,1,0,0:0:0:0:
402,192,239500,1,0,0:0:0:0:
182,192,239500,1,0,0:0:0:0:
256,192,239600,1,0,0:0:0:0:
109,192,239600,1,0,0:0:0:0:
36,192,239700,1,0,0:0:0:0:
475,192,239700,1,0,0:0:0:0:
182,192,239800,1,0,0:0:0:0:
36,192,239900,1,0,0:0:0:0:
329,192,239900,1,0,0:0:0:0:
182,192,240000,1,0,0:0:0:0:
475,192,240000,1,0,0:0:0:0:
109,192,240100,1,0,0:0:0:0:
402,192,240100,1,0,0:0:0:0:
256,192,240200,1,0,0:0:0:0:
109,192,240300,1,0,0:0:0:0:
475,192,240300,1,0,0:0:0:0:
256,192,240400,1,0,0:0:0:0:
329,192,240400,1,0,0:0:0:0:
36,192,240500,1,0,0:0:0:0:
402,192,240500,1,0,0:0:0:0:
182,192,240600,1,0,0:0:0:0:
36,192,240700,1,0,0:0:0:0:
475,192,240700,1,0,0:0:0:0:
182,192,240800,1,0,0:0:0:0:
402,192,240800,1,0,0:0:0:0:
109,192,240900,1,0,0:0:0:0:
329,192,240900,1,0,0:0:0:0:
256,192,241000,1,0,0:0:0:0:
109,192,241100,1,0,0:0:0:0:
329,192,241100,1,0,0:0:0:0:
256,192,241200,1,0,0:0:0:0:
402,192,241200,1,0,0:0:0:0:
475,192,241300,1,0,0:0:0:0:
36,192,241300,1,0,0:0:0:0:
329,192,241400,1,0,0:0:0:0:
475,192,241500,1,0,0:0:0:0:
182,192,241500,1,0,0:0:0:0:
329,192,241600,1,0,0:0:0:0:
36,192,241600,1,0,0:0:0:0:
402,192,241700,1,0,0:0:0:0:
109,192,241700,1,0,0:0:0:0:
256,192,241800,1,0,0:0:0:0:
402,192,241900,1,0,0:0:0:0:
36,192,241900,1,0,0:0:0:0:
256,192,242000,1,0,0:0:0:0:
109,192,242000,1,0,0:0:0:0:
475,192,242100,1,0,0:0:0:0:
182,192,242100,1,0,0:0:0:0:
329,192,242200,1,0,0:0:0:0:
475,192,242300,1,0,0:0:0:0:
36,192,242300,1,0,0:0:0:0:
329,192,242400,1,0,0:0:0:0:
182,192,242400,1,0,0:0:0:0:
402,192,242500,1,0,0:0:0:0:
109,192,242500,1,0,0:0:0:0:
256,192,242600,1,0,0:0:0:0:
402,192,242700,1,0,0:0:0:0:
36,192,242700,1,0,0:0:0:0:
256,192,242800,1,0,0:0:0:0:
109,192,242800,1,0,0:0:0:0:
36,192,242900,1,0,0:0:0:0:
475,192,242900,1,0,0:0:0:0:
182,192,243000,1,0,0:0:0:0:
36,192,243100,1,0,0:0:0:0:
329,192,243100,1,0,0:0:0:0:
182,192,243200,1,0,0:0:0:0:
475,192,243200,1,0,0:0:0:0:
109,192,243300,1,0,0:0:0:0:
402,192,243300,1,0,0:0:0:0:
256,192,243400,1,0,0:0:0:0:
109,192,243500,1,0,0:0:0:0:
475,192,243500,1,0,0:0:0:0:
256,192,243600,1,0,0:0:0:0:
402,192,243600,1,0,0:0:0:0:
36,192,243700,1,0,0:0:0:0:
329,192,243700,1,0,0:0:0:0:
182,192,243800,1,0,0:0:0:0:
475,192,243900,1,0,0:0:0:0:
36,192,243900,1,0,0:0:0:0:
402,192,244000,1,0,0:0:0:0:
182,192,244000,1,0,0:0:0:0:
329,192,244100,1,0,0:0:0:0:
256,192,244200,1,0,0:0:0:0:
182,192,244300,1,0,0:0:0:0:
109,192,244400,1,0,0:0:0:0:
36,192,244500,1,0,0:0:0:0:
402,192,244500,1,0,0:0:0:0:
109,192,244600,1,0,0:0:0:0:
182,192,244700,1,0,0:0:0:0:
475,192,244700,1,0,0:0:0:0:
256,192,244800,1,0,0:0:0:0:
329,192,244800,1,0,0:0:0:0:
475,192,244900,1,0,0:0:0:0:
109,192,244900,1,0,0:0:0:0:
402,192,245000,1,0,0:0:0:0:
329,192,245100,1,0,0:0:0:0:
36,192,245100,1,0,0:0:0:0:
256,192,245200,1,0,0:0:0:0:
182,192,245200,1,0,0:0:0:0:
36,192,245300,1,0,0:0:0:0:
329,192,245300,1,0,0:0:0:0:
109,192,245400,1,0,0:0:0:0:
182,192,245500,1,0,0:0:0:0:
475,192,245500,1,0,0:0:0:0:
256,192,245600,1,0,0:0:0:0:
329,192,245600,1,0,0:0:0:0:
475,192,245700,1,0,0:0:0:0:
182,192,245700,1,0,0:0:0:0:
402,192,245800,1,0,0:0:0:0:
329,192,245900,1,0,0:0:0:0:
36,192,245900,1,0,0:0:0:0:
256,192,246000,1,0,0:0:0:0:
182,192,246000,1,0,0:0:0:0:
36,192,246100,1,0,0:0:0:0:
402,192,246100,1,0,0:0:0:0:
182,192,246200,1,0,0:0:0:0:
109,192,246300,1,0,0:0:0:0:
475,192,246300,1,0,0:0:0:0:
256,192,246400,1,0,0:0:0:0:
329,192,246400,1,0,0:0:0:0:
475,192,246500,1,0,0:0:0:0:
182,192,246500,1,0,0:0:0:0:
329,192,246600,1,0,0:0:0:0:
402,192,246700,1,0,0:0:0:0:
36,192,246700,1,0,0:0:0:0:
256,192,246800,1,0,0:0:0:0:
109,192,246800,1,0,0:0:0:0:
36,192,246900,1,0,0:0:0:0:
329,192,246900,1,0,0:0:0:0:
182,192,247000,1,0,0:0:0:0:
109,192,247100,1,0,0:0:0:0:
475,192,247100,1,0,0:0:0:0:
256,192,247200,1,0,0:0:0:0:
402,192,247200,1,0,0:0:0:0:
475,192,247300,1,0,0:0:0:0:
182,192,247300,1,0,0:0:0:0:
329,192,247400,1,0,0:0:0:0:
402,192,247500,1,0,0:0:0:0:
36,192,247500,1,0,0:0:0:0:
256,192,247600,1,0,0:0:0:0:
182,192,247600,1,0,0:0:0:0:
36,192,247700,1,0,0:0:0:0:
475,192,247700,1,0,0:0:0:0:
109,192,247800,1,0,0:0:0:0:
182,192,247900,1,0,0:0:0:0:
402,192,247900,1,0,0:0:0:0:
256,192,248000,1,0,0:0:0:0:
329,192,248000,1,0,0:0:0:0:
475,192,248100,1,0,0:0:0:0:
36,192,248100,1,0,0:0:0:0:
402,192,248200,1,0,0:0:0:0:
329,192,248300,1,0,0:0:0:0:
109,192,248300,1,0,0:0:0:0:
256,192,248400,1,0,0:0:0:0:
182,192,248400,1,0,0:0:0:0:
36,192,248500,1,0,0:0:0:0:
402,192,248500,1,0,0:0:0:0:
109,192,248600,1,0,0:0:0:0:
182,192,248700,1,0,0:0:0:0:
475,192,248700,1,0,0:0:0:0:
256,192,248800,1,0,0:0:0:0:
329,192,248800,1,0,0:0:0:0:
475,192,248900,1,0,0:0:0:0:
109,192,248900,1,0,0:0:0:0:
402,192,249000,1,0,0:0:0:0:
329,192,249100,1,0,0:0:0:0:
36,192,249100,1,0,0:0:0:0:
256,192,249200,1,0,0:0:0:0:
182,192,249200,1,0,0:0:0:0:
36,192,249300,1,0,0:0:0:0:
402,192,249300,1,0,0:0:0:0:
182,192,249400,1,0,0:0:0:0:
475,192,249500,128,0,250900:0:0:0:0:
109,192,249500,1,0,0:0:0:0:
256,192,249600,1,0,0:0:0:0:
402,192,249700,1,0,0:0:0:0:
256,192,249800,1,0,0:0:0:0:
329,192,249900,1,0,0:0:0:0:
182,192,250000,1,0,0:0:0:0:
36,192,250300,1,0,0:0:0:0:
109,192,250400,1,0,0:0:0:0:
182,192,250500,1,0,0:0:0:0:
256,192,250600,1,0,0:0:0:0:
329,192,250700,1,0,0:0:0:0:
402,192,250800,1,0,0:0:0:0:
36,192,250900,128,0,251900:0:0:0:0:
329,192,251100,128,0,251900:0:0:0:0:
475,192,251300,128,0,251900:0:0:0:0:
182,192,251500,128,0,251900:0:0:0:0:
109,192,251900,128,0,254100:0:0:0:0:
402,192,252100,128,0,254100:0:0:0:0:
256,192,252300,128,0,254100:0:0:0:0:
182,192,252700,128,0,253100:0:0:0:0:
329,192,252900,128,0,253100:0:0:0:0:
475,192,253100,128,0,253500:0:0:0:0:
36,192,253300,128,0,253500:0:0:0:0:
329,192,253500,128,0,254100:0:0:0:0:
182,192,253700,128,0,254100:0:0:0:0:
475,192,253900,128,0,254100:0:0:0:0:
36,192,254100,128,0,255100:0:0:0:0:
329,192,254300,128,0,255100:0:0:0:0:
109,192,254500,128,0,255100:0:0:0:0:
475,192,254700,128,0,255100:0:0:0:0:
402,192,255100,128,0,255900:0:0:0:0:
182,192,255300,128,0,255900:0:0:0:0:
256,192,255500,128,0,255900:0:0:0:0:
109,192,255900,128,0,256700:0:0:0:0:
475,192,256100,128,0,256700:0:0:0:0:
329,192,256300,128,0,256700:0:0:0:0:
402,192,256700,1,0,0:0:0:0:
329,192,256800,1,0,0:0:0:0:
256,192,256900,1,0,0:0:0:0:
182,192,257000,1,0,0:0:0:0:
109,192,257100,1,0,0:0:0:0:
36,192,257200,1,0,0:0:0:0:
256,192,257300,1,0,0:0:0:0:
256,192,257700,1,0,0:0:0:0:
329,192,257900,1,0,0:0:0:0:
329,192,258300,1,0,0:0:0:0:
329,192,258500,1,0,0:0:0:0:
402,192,258700,1,0,0:0:0:0:
402,192,259100,1,0,0:0:0:0:
402,192,259300,1,0,0:0:0:0:
402,192,259500,1,0,0:0:0:0:
182,192,259500,1,0,0:0:0:0:
329,192,259700,1,0,0:0:0:0:
36,192,259900,1,0,0:0:0:0:
256,192,259900,1,0,0:0:0:0:
182,192,260100,1,0,0:0:0:0:
109,192,260300,1,0,0:0:0:0:
36,192,260500,1,0,0:0:0:0:
475,192,260500,1,0,0:0:0:0:
256,192,260700,1,0,0:0:0:0:
36,192,260900,1,0,0:0:0:0:
329,192,260900,1,0,0:0:0:0:
109,192,261100,1,0,0:0:0:0:
475,192,261100,1,0,0:0:0:0:
109,192,261500,1,0,0:0:0:0:
402,192,261500,1,0,0:0:0:0:
182,192,261900,128,0,263700:0:0:0:0:
329,192,261900,1,0,0:0:0:0:
256,192,262100,128,0,263700:0:0:0:0:
475,192,262900,1,0,0:0:0:0:
402,192,263000,1,0,0:0:0:0:
36,192,263100,1,0,0:0:0:0:
109,192,263200,1,0,0:0:0:0:
402,192,263300,1,0,0:0:0:0:
329,192,263400,1,0,0:0:0:0:
36,192,263500,1,0,0:0:0:0:
109,192,263600,1,0,0:0:0:0:
402,192,263700,1,0,0:0:0:0:
109,192,263800,1,0,0:0:0:0:
182,192,263900,1,0,0:0:0:0:
475,192,263900,1,0,0:0:0:0:
329,192,264000,1,0,0:0:0:0:
36,192,264000,1,0,0:0:0:0:
402,192,264100,1,0,0:0:0:0:
109,192,264100,1,0,0:0:0:0:
256,192,264300,128,0,265100:0:0:0:0:
182,192,264300,1,0,0:0:0:0:
329,192,264400,1,0,0:0:0:0:
36,192,264500,1,0,0:0:0:0:
475,192,264700,1,0,0:0:0:0:
109,192,264700,1,0,0:0:0:0:
402,192,264800,1,0,0:0:0:0:
36,192,264900,1,0,0:0:0:0:
329,192,264900,1,0,0:0:0:0:
402,192,265100,128,0,265900:0:0:0:0:
182,192,265100,1,0,0:0:0:0:
36,192,265200,1,0,0:0:0:0:
256,192,265300,1,0,0:0:0:0:
182,192,265500,1,0,0:0:0:0:
329,192,265500,1,0,0:0:0:0:
36,192,265600,1,0,0:0:0:0:
475,192,265700,1,0,0:0:0:0:
109,192,265700,1,0,0:0:0:0:
256,192,265900,1,0,0:0:0:0:
109,192,265900,128,0,266700:0:0:0:0:
329,192,266000,1,0,0:0:0:0:
475,192,266100,1,0,0:0:0:0:
36,192,266300,1,0,0:0:0:0:
329,192,266300,1,0,0:0:0:0:
256,192,266400,1,0,0:0:0:0:
475,192,266500,1,0,0:0:0:0:
182,192,266500,1,0,0:0:0:0:
329,192,266700,128,0,269700:0:0:0:0:
402,192,266700,1,0,0:0:0:0:
182,192,266800,1,0,0:0:0:0:
36,192,266900,1,0,0:0:0:0:
256,192,267100,1,0,0:0:0:0:
109,192,267100,1,0,0:0:0:0:
402,192,267200,1,0,0:0:0:0:
256,192,267300,128,0,269700:0:0:0:0:
475,192,267300,1,0,0:0:0:0:
182,192,267500,1,0,0:0:0:0:
109,192,267600,1,0,0:0:0:0:
36,192,267700,1,0,0:0:0:0:
475,192,267900,1,0,0:0:0:0:
109,192,268000,1,0,0:0:0:0:
402,192,268100,1,0,0:0:0:0:
36,192,268300,1,0,0:0:0:0:
402,192,268400,1,0,0:0:0:0:
182,192,268500,1,0,0:0:0:0:
475,192,268700,1,0,0:0:0:0:
36,192,268800,1,0,0:0:0:0:
109,192,268900,1,0,0:0:0:0:
36,192,269100,1,0,0:0:0:0:
475,192,269200,1,0,0:0:0:0:
182,192,269300,1,0,0:0:0:0:
109,192,269500,1,0,0:0:0:0:
402,192,269600,1,0,0:0:0:0:
475,192,269700,1,0,0:0:0:0:
182,192,269900,1,0,0:0:0:0:
36,192,270000,1,0,0:0:0:0:
475,192,270100,1,0,0:0:0:0:
109,192,270100,1,0,0:0:0:0:
256,192,270200,1,0,0:0:0:0:
329,192,270300,1,0,0:0:0:0:
182,192,270300,1,0,0:0:0:0:
402,192,270400,1,0,0:0:0:0:
36,192,270400,1,0,0:0:0:0:
256,192,270500,1,0,0:0:0:0:
475,192,270700,128,0,271500:0:0:0:0:
329,192,270700,1,0,0:0:0:0:
109,192,270800,1,0,0:0:0:0:
256,192,270900,1,0,0:0:0:0:
402,192,271100,1,0,0:0:0:0:
36,192,271100,1,0,0:0:0:0:
256,192,271200,1,0,0:0:0:0:
329,192,271300,1,0,0:0:0:0:
182,192,271300,1,0,0:0:0:0:
256,192,271500,128,0,272300:0:0:0:0:
109,192,271500,1,0,0:0:0:0:
402,192,271600,1,0,0:0:0:0:
329,192,271700,1,0,0:0:0:0:
36,192,271900,1,0,0:0:0:0:
402,192,271900,1,0,0:0:0:0:
475,192,272000,1,0,0:0:0:0:
182,192,272100,1,0,0:0:0:0:
109,192,272100,1,0,0:0:0:0:
329,192,272300,128,0,273100:0:0:0:0:
36,192,272300,1,0,0:0:0:0:
475,192,272400,1,0,0:0:0:0:
182,192,272500,1,0,0:0:0:0:
256,192,272700,1,0,0:0:0:0:
109,192,272700,1,0,0:0:0:0:
36,192,272800,1,0,0:0:0:0:
475,192,272900,1,0,0:0:0:0:
182,192,272900,1,0,0:0:0:0:
182,192,273100,128,0,273900:0:0:0:0:
256,192,273100,1,0,0:0:0:0:
402,192,273200,1,0,0:0:0:0:
109,192,273300,1,0,0:0:0:0:
36,192,273500,1,0,0:0:0:0:
329,192,273500,1,0,0:0:0:0:
475,192,273600,1,0,0:0:0:0:
36,192,273700,1,0,0:0:0:0:
402,192,273700,1,0,0:0:0:0:
256,192,273900,1,0,0:0:0:0:
109,192,273900,1,0,0:0:0:0:
402,192,274000,1,0,0:0:0:0:
36,192,274000,1,0,0:0:0:0:
329,192,274100,1,0,0:0:0:0:
182,192,274100,1,0,0:0:0:0:
475,192,274200,1,0,0:0:0:0:
256,192,274300,1,0,0:0:0:0:
402,192,274300,1,0,0:0:0:0:
109,192,274400,1,0,0:0:0:0:
475,192,274400,1,0,0:0:0:0:
182,192,274500,1,0,0:0:0:0:
329,192,274500,1,0,0:0:0:0:
36,192,274600,1,0,0:0:0:0:
329,192,274700,128,0,275100:0:0:0:0:
182,192,274700,128,0,275100:0:0:0:0:
475,192,275100,128,0,276500:0:0:0:0:
36,192,275100,128,0,276500:0:0:0:0:
256,192,275100,1,0,0:0:0:0:
256,192,275300,128,0,276500:0:0:0:0:
402,192,276500,128,0,277500:0:0:0:0:
182,192,276500,1,0,0:0:0:0:
256,192,276700,128,0,277500:0:0:0:0:
36,192,276700,1,0,0:0:0:0:
182,192,276800,1,0,0:0:0:0:
329,192,276900,128,0,277500:0:0:0:0:
36,192,276900,1,0,0:0:0:0:
475,192,277100,128,0,277500:0:0:0:0:
36,192,277100,1,0,0:0:0:0:
182,192,277200,1,0,0:0:0:0:
109,192,277300,1,0,0:0:0:0:
182,192,277500,128,0,278300:0:0:0:0:
109,192,277500,1,0,0:0:0:0:
36,192,277700,128,0,278300:0:0:0:0:
475,192,277900,128,0,278300:0:0:0:0:
256,192,278100,1,0,0:0:0:0:
329,192,278300,128,0,279500:0:0:0:0:
402,192,278300,1,0,0:0:0:0:
109,192,278400,1,0,0:0:0:0:
475,192,278500,128,0,279500:0:0:0:0:
402,192,278500,1,0,0:0:0:0:
182,192,278700,128,0,279500:0:0:0:0:
36,192,278700,1,0,0:0:0:0:
256,192,278800,1,0,0:0:0:0:
36,192,278900,1,0,0:0:0:0:
109,192,279100,128,0,279500:0:0:0:0:
36,192,279100,1,0,0:0:0:0:
402,192,279300,128,0,279500:0:0:0:0:
256,192,279500,128,0,282900:0:0:0:0:
36,192,279700,1,0,0:0:0:0:
475,192,279900,1,0,0:0:0:0:
329,192,279900,1,0,0:0:0:0:
402,192,280000,1,0,0:0:0:0:
475,192,280100,128,0,282900:0:0:0:0:
109,192,280100,1,0,0:0:0:0:
182,192,280300,1,0,0:0:0:0:
36,192,280400,1,0,0:0:0:0:
109,192,280500,1,0,0:0:0:0:
109,192,280700,1,0,0:0:0:0:
402,192,281100,128,0,281900:0:0:0:0:
36,192,281100,1,0,0:0:0:0:
182,192,281200,1,0,0:0:0:0:
109,192,281300,1,0,0:0:0:0:
109,192,281500,1,0,0:0:0:0:
109,192,281700,1,0,0:0:0:0:
182,192,281800,1,0,0:0:0:0:
329,192,281900,128,0,282500:0:0:0:0:
36,192,281900,1,0,0:0:0:0:
109,192,282000,1,0,0:0:0:0:
36,192,282100,1,0,0:0:0:0:
36,192,282300,1,0,0:0:0:0:
182,192,282500,128,0,282900:0:0:0:0:
36,192,282500,1,0,0:0:0:0:
402,192,282600,1,0,0:0:0:0:
109,192,282700,1,0,0:0:0:0:
329,192,282800,1,0,0:0:0:0:
109,192,282900,128,0,283100:0:0:0:0:
402,192,282900,128,0,283100:0:0:0:0:
36,192,283100,128,0,283300:0:0:0:0:
329,192,283100,128,0,283300:0:0:0:0:
109,192,283300,128,0,283500:0:0:0:0:
402,192,283300,128,0,283500:0:0:0:0:
182,192,283500,128,0,283900:0:0:0:0:
475,192,283500,128,0,283900:0:0:0:0:
402,192,283900,128,0,284100:0:0:0:0:
109,192,283900,128,0,284100:0:0:0:0:
329,192,284100,128,0,284300:0:0:0:0:
36,192,284100,128,0,284300:0:0:0:0:
402,192,284300,128,0,284700:0:0:0:0:
109,192,284300,128,0,284700:0:0:0:0:
329,192,284700,128,0,284900:0:0:0:0:
36,192,284700,128,0,284900:0:0:0:0:
475,192,284900,128,0,285100:0:0:0:0:
182,192,284900,128,0,285100:0:0:0:0:
402,192,285100,128,0,285500:0:0:0:0:
109,192,285100,128,0,285300:0:0:0:0:
182,192,285300,128,0,285500:0:0:0:0:
329,192,285500,128,0,285700:0:0:0:0:
36,192,285500,128,0,285700:0:0:0:0:
475,192,285700,128,0,285900:0:0:0:0:
109,192,285700,128,0,285900:0:0:0:0:
402,192,285900,128,0,290900:0:0:0:0:
36,192,285900,128,0,286100:0:0:0:0:
109,192,286100,128,0,286500:0:0:0:0:
329,192,286300,1,0,0:0:0:0:
36,192,286500,128,0,286700:0:0:0:0:
329,192,286500,128,0,290900:0:0:0:0:
182,192,286700,128,0,287100:0:0:0:0:
109,192,287300,128,0,290900:0:0:0:0:
475,192,287500,128,0,290900:0:0:0:0:
182,192,287500,128,0,290900:0:0:0:0:
36,192,287500,128,0,290900:0:0:0:0:
256,192,290900,128,0,292500:0:0:0:0:
182,192,291300,128,0,292500:0:0:0:0:
402,192,291700,128,0,292500:0:0:0:0:
109,192,292100,128,0,292500:0:0:0:0:
36,192,292500,128,0,297900:0:0:0:0:
182,192,292900,128,0,297900:0:0:0:0:
329,192,293300,128,0,297900:0:0:0:0:
475,192,293700,128,0,297900:0:0:0:0:
256,192,294100,128,0,297900:0:0:0:0:
