osu file format v14

[General]
AudioFilename: bAd Companyz.mp3
AudioLeadIn: 3000
PreviewTime: 83174
Countdown: 0
SampleSet: Soft
StackLeniency: 0.7
Mode: 0
LetterboxInBreaks: 0
EpilepsyWarning: 1
WidescreenStoryboard: 0

[Editor]
Bookmarks: 210
DistanceSpacing: 1
BeatDivisor: 4
GridSize: 4
TimelineZoom: 1

[Metadata]
Title:bAd Companyz
TitleUnicode:bAd Companyz
Artist:sasakure.UK
ArtistUnicode:sasakure.UK
Creator:Faust
Version:bAd
Source:
Tags:MetroJackz spboxer3 Sp3 Jazz Instrumental
BeatmapID:214441
BeatmapSetID:39908

[Difficulty]
HPDrainRate:6.5
CircleSize:3.8
OverallDifficulty:7.2
ApproachRate:9
SliderMultiplier:1.7
SliderTickRate:1

[Events]
//Background and Video events
0,0,"BCBG.jpg",0,0
Video,-1290,"badcompanyz.avi"
//Break Periods
2,121118,131260
2,235517,245482
//Storyboard Layer 0 (Background)
//Storyboard Layer 1 (Fail)
//Storyboard Layer 2 (Pass)
//Storyboard Layer 3 (Foreground)
//Storyboard Sound Samples

[TimingPoints]
215,352.941176470588,4,2,1,70,1,0
43273,352.941176470588,4,2,1,70,1,0
74684,235.294117647059,3,2,1,70,1,0
78801,-133.333333333333,3,2,1,70,0,0
79213,-100,3,2,1,70,0,0
80331,352.941176470588,4,2,1,70,1,0
120566,352.941176470588,4,2,1,70,1,0
140771,-90.9090909090909,4,2,1,70,0,0
141301,-83.3333333333333,4,2,1,70,0,0
141830,-76.9230769230769,4,2,1,70,0,0
142271,-100,4,2,1,70,0,0
149860,235.294117647059,3,2,1,70,1,0
155507,352.941176470588,4,2,1,70,1,0
167330,-181.818181818181,4,2,1,70,0,0
168036,-100,4,2,1,70,0,0
184448,235.294117647059,3,2,1,70,1,0
192918,352.941176470588,4,2,1,70,1,0
195918,327.868852459016,4,2,1,70,1,0
196573,431.654676258993,4,2,1,70,1,0
197004,300,4,2,1,70,1,0
197454,285.714285714286,4,2,1,70,1,0
198311,428.571428571429,4,2,1,70,1,0
206025,526.315789473684,4,2,1,70,1,0
208656,674.157303370787,4,2,1,70,1,0
209330,333.333333333333,4,2,1,70,1,0
209663,315.789473684211,4,2,1,70,1,0
209978,272.727272727273,4,2,1,70,1,0
210796,340.909090909091,4,2,1,70,1,0
210966,352.941176470588,4,2,1,70,1,0
212377,352.941176470588,4,2,1,70,1,0
217450,-153.846153846153,4,2,1,70,0,0
217935,-100,4,2,1,70,0,0
231347,-90.9090909090909,4,2,1,70,0,0
232053,-83.3333333333333,4,2,1,70,0,0
233465,-76.9230769230769,4,2,1,70,0,0
234877,-76.9230769230769,4,2,1,80,0,0
245906,-133.333333333333,4,2,1,80,0,0
246876,-100,4,2,1,80,0,0
254729,265.486725663717,4,2,1,70,1,0
255127,-90.9090909090909,4,2,1,70,0,0
255658,-83.3333333333333,4,2,1,70,0,0
256189,-76.9230769230769,4,2,1,70,0,0
257251,-83.3333333333333,4,2,1,70,0,0
257782,-90.9090909090909,4,2,1,70,0,0
258313,-100,4,2,1,70,0,0
263224,352.941176470588,4,2,1,70,1,0
263929,491.803278688525,4,2,1,60,1,0
264605,495.867768595041,4,2,1,70,1,0
265720,-100,4,2,1,60,0,0
266092,526.315789473684,4,2,1,70,1,0
266223,-100,4,2,1,75,0,0
266486,-100,4,2,1,80,0,0
266881,727.272727272727,4,2,1,85,1,0
267608,465.116279069767,4,2,1,90,1,0
269003,521.739130434783,4,2,1,90,1,0
269524,550.45871559633,4,2,1,90,1,0
270074,869.565217391304,4,2,1,95,1,0
270943,600,3,2,1,100,1,0
271393,337.078651685393,3,2,1,50,1,0

[Colours]
Combo1 : 152,69,54
Combo2 : 177,243,80
Combo3 : 236,115,142
Combo4 : 233,197,141

[HitObjects]
104,80,215,5,4,0:0:0:0:
172,136,391,1,0,0:0:0:0:
256,152,567,1,0,0:0:0:0:
416,120,920,1,0,0:0:0:0:
480,232,1185,1,0,0:0:0:0:
384,316,1450,2,0,B|344:336|292:340,1,85
216,336,1803,5,0,0:0:0:0:
140,296,1979,1,0,0:0:0:0:
116,272,2067,1,0,0:0:0:0:
104,240,2156,1,0,0:0:0:0:
104,208,2244,1,0,0:0:0:0:
116,176,2332,1,0,0:0:0:0:
140,152,2420,1,0,0:0:0:0:
172,144,2509,1,0,0:0:0:0:
204,148,2597,1,0,0:0:0:0:
236,164,2685,1,0,0:0:0:0:
316,192,2862,1,0,0:0:0:0:
316,192,2950,1,0,0:0:0:0:
316,192,3038,6,0,B|324:240|312:276,1,85
216,336,3391,1,0,0:0:0:0:
352,344,3567,1,0,0:0:0:0:
352,344,3656,1,0,0:0:0:0:
352,344,3744,2,0,B|417:341|477:316,1,127.5
477,316,4097,1,0,0:0:0:0:
440,184,4273,2,0,B|352:176|280:120,1,170
200,104,4803,1,0,0:0:0:0:
200,104,4979,1,0,0:0:0:0:
200,104,5332,2,0,B|200:152|232:192,1,85
248,208,5597,1,0,0:0:0:0:
272,224,5685,1,0,0:0:0:0:
304,232,5773,1,0,0:0:0:0:
336,232,5862,5,0,0:0:0:0:
400,288,6038,1,0,0:0:0:0:
344,352,6214,2,0,B|272:312|176:328,1,170
56,304,6832,1,0,0:0:0:0:
56,304,6920,1,0,0:0:0:0:
72,224,7097,1,0,0:0:0:0:
72,224,7273,2,0,B|112:224|176:208,1,85
232,176,7626,5,0,0:0:0:0:
248,136,7714,1,0,0:0:0:0:
276,104,7803,1,0,0:0:0:0:
316,88,7891,1,0,0:0:0:0:
360,84,7979,1,0,0:0:0:0:
400,96,8067,1,0,0:0:0:0:
428,128,8156,1,0,0:0:0:0:
436,168,8244,1,0,0:0:0:0:
424,208,8332,1,0,0:0:0:0:
392,236,8420,1,0,0:0:0:0:
352,248,8509,1,0,0:0:0:0:
308,252,8597,1,0,0:0:0:0:
264,248,8685,5,0,0:0:0:0:
196,356,8950,1,0,0:0:0:0:
196,356,9214,5,0,0:0:0:0:
72,328,9479,1,0,0:0:0:0:
72,328,9744,5,0,0:0:0:0:
32,208,10009,1,0,0:0:0:0:
32,208,10273,5,0,0:0:0:0:
92,96,10538,1,0,0:0:0:0:
172,68,10714,1,0,0:0:0:0:
172,68,10803,1,0,0:0:0:0:
216,140,10979,1,0,0:0:0:0:
296,168,11156,1,0,0:0:0:0:
380,160,11332,5,0,0:0:0:0:
380,160,11420,1,0,0:0:0:0:
380,160,11509,2,0,B|452:160|472:68|396:40,1,170,4|0,0:0|0:0,0:0:0:0:
320,36,12038,1,0,0:0:0:0:
320,36,12126,1,0,0:0:0:0:
320,36,12214,2,0,B|300:108|244:144,1,127.5
250,139,12567,1,0,0:0:0:0:
164,136,12744,2,0,B|116:100|44:104|8:160,1,170
12,244,13273,5,0,0:0:0:0:
28,284,13362,1,0,0:0:0:0:
56,316,13450,1,0,0:0:0:0:
96,332,13538,1,0,0:0:0:0:
136,340,13626,1,0,0:0:0:0:
180,336,13714,1,0,0:0:0:0:
220,320,13803,1,0,0:0:0:0:
248,288,13891,1,0,0:0:0:0:
284,264,13979,1,0,0:0:0:0:
324,256,14067,1,0,0:0:0:0:
368,260,14156,1,0,0:0:0:0:
408,276,14244,1,0,0:0:0:0:
440,304,14332,5,0,0:0:0:0:
372,356,14509,1,0,0:0:0:0:
292,332,14685,2,0,B|292:240|224:172,1,170
100,192,15303,1,0,0:0:0:0:
100,192,15567,2,0,B|176:232|284:212,1,170
348,192,16097,1,0,0:0:0:0:
380,272,16273,2,0,B|320:332|216:336,1,170
226,335,16803,1,0,0:0:0:0:
148,304,16979,5,0,0:0:0:0:
148,304,17067,1,0,0:0:0:0:
148,304,17156,1,0,0:0:0:0:
104,232,17332,1,0,0:0:0:0:
180,192,17509,2,0,B|256:224|352:208,1,170
436,316,18126,2,0,B|416:256|428:188,1,127.5
440,104,18567,1,0,0:0:0:0:
356,124,18744,1,0,0:0:0:0:
272,132,18920,5,0,0:0:0:0:
232,120,19009,1,0,0:0:0:0:
192,116,19097,1,0,0:0:0:0:
152,120,19185,1,0,0:0:0:0:
112,136,19273,1,0,0:0:0:0:
80,168,19362,1,0,0:0:0:0:
68,208,19450,1,0,0:0:0:0:
72,252,19538,1,0,0:0:0:0:
92,288,19626,1,0,0:0:0:0:
128,312,19714,1,0,0:0:0:0:
168,324,19803,1,0,0:0:0:0:
212,324,19891,1,0,0:0:0:0:
252,316,19979,6,0,B|380:292,1,127.5
416,168,20509,2,0,B|288:192,1,127.5
180,256,21038,2,0,B|56:224,1,127.5
76,104,21567,2,0,B|160:128,1,85
157,127,21920,2,0,B|188:156,2,42.5
156,128,22273,1,0,0:0:0:0:
159,129,22450,1,0,0:0:0:0:
244,112,22626,5,0,0:0:0:0:
244,112,22714,1,0,0:0:0:0:
244,112,22803,2,0,B|320:72|416:96,1,170,4|0,0:0|0:0,0:0:0:0:
476,228,23332,2,0,B|404:276|312:264,1,170,4|0,0:0|0:0,0:0:0:0:
244,112,23862,2,0,B|168:72|72:96,1,170,4|0,0:0|0:0,0:0:0:0:
36,228,24391,2,0,B|108:276|200:264,1,170,4|0,0:0|0:0,0:0:0:0:
284,252,24920,6,0,B|308:300,1,42.5
388,308,25185,1,0,0:0:0:0:
392,304,25362,1,0,0:0:0:0:
396,300,25538,1,0,0:0:0:0:
400,296,25626,6,0,B|448:256|464:180,2,127.5
320,328,26332,2,0,B|192:340,1,127.5
156,344,26685,1,0,0:0:0:0:
36,248,26862,2,0,B|208:228,1,170
288,216,27391,2,0,B|312:264,1,42.5
388,280,27656,1,0,0:0:0:0:
320,328,27920,6,0,B|192:340,1,127.5
88,264,28450,2,0,B|48:228|64:164|128:156,1,127.5
144,148,28803,1,0,0:0:0:0:
212,212,28979,2,0,B|280:260|376:252,1,170
432,176,29509,1,0,0:0:0:0:
452,92,29685,1,0,0:0:0:0:
452,92,29773,1,0,0:0:0:0:
452,92,29862,1,0,0:0:0:0:
376,56,30038,6,0,B|276:60,1,85
120,72,30391,1,0,0:0:0:0:
120,72,30479,1,0,0:0:0:0:
120,72,30567,2,0,B|80:124|104:196,1,127.5
220,204,31097,2,0,B|392:224,1,170
472,192,31626,5,0,0:0:0:0:
412,132,31803,1,0,0:0:0:0:
412,132,31891,1,0,0:0:0:0:
412,132,31979,1,0,0:0:0:0:
388,224,32156,2,0,B|360:316,1,85
292,244,32509,1,0,0:0:0:0:
292,244,32597,1,0,0:0:0:0:
292,244,32685,2,0,B|248:368,1,127.5
249,364,33038,1,0,0:0:0:0:
164,352,33214,1,0,0:0:0:0:
84,316,33391,1,0,0:0:0:0:
36,248,33567,2,0,B|104:200|200:196,1,170
195,196,34097,5,0,0:0:0:0:
256,256,34273,1,0,0:0:0:0:
256,256,34362,1,0,0:0:0:0:
256,256,34450,1,0,0:0:0:0:
336,288,34626,1,0,0:0:0:0:
336,288,34714,1,0,0:0:0:0:
336,288,34803,2,0,B|392:312|468:308,2,127.5
256,256,35509,2,0,B|212:268|168:272,1,85
172,271,35773,1,0,0:0:0:0:
172,271,35862,5,0,0:0:0:0:
40,236,36038,1,0,0:0:0:0:
40,236,36126,1,0,0:0:0:0:
40,236,36214,1,0,0:0:0:0:
144,132,36391,1,0,0:0:0:0:
144,132,36479,1,0,0:0:0:0:
144,132,36567,1,0,0:0:0:0:
40,236,36744,1,0,0:0:0:0:
40,236,36832,1,0,0:0:0:0:
40,236,36920,6,0,B|92:208|180:200,1,127.5
162,201,37273,2,0,B|176:312,2,85
304,352,37803,2,0,B|292:264,2,85
304,352,38332,2,0,B|368:372|432:352,1,127.5
448,256,38685,2,0,B|404:204|332:192,1,127.5
216,232,39038,2,0,B|156:264|88:256,2,127.5
216,232,39744,1,0,0:0:0:0:
300,144,39920,5,0,0:0:0:0:
300,144,40009,1,0,0:0:0:0:
300,144,40097,2,0,B|256:104|172:88,1,127.5
148,84,40450,1,0,0:0:0:0:
36,228,40626,2,0,B|80:188|164:172,1,127.5
188,168,40979,1,0,0:0:0:0:
176,256,41156,2,0,B|244:244|300:276,2,127.5
176,256,41862,1,0,0:0:0:0:
150,174,42038,1,0,0:0:0:0:
150,174,42126,2,0,B|208:156|280:176,1,127.5
384,244,42567,5,0,0:0:0:0:
344,320,42744,1,0,0:0:0:0:
316,340,42832,1,0,0:0:0:0:
284,352,42920,1,0,0:0:0:0:
252,356,43009,1,0,0:0:0:0:
220,352,43097,1,0,0:0:0:0:
188,340,43185,1,0,0:0:0:0:
160,320,43273,6,0,B|124:276|128:220|148:200|148:200|160:212|192:200,1,170
283,163,43802,2,0,B|331:132|388:132|401:138|401:138|396:159|412:185,1,170
420,276,44331,2,0,B|388:308|344:320,1,85
204,244,44684,2,0,B|160:260|112:256,1,85
84,252,44949,5,0,0:0:0:0:
48,240,45037,1,0,0:0:0:0:
20,216,45125,1,0,0:0:0:0:
8,180,45214,1,0,0:0:0:0:
12,140,45302,1,0,0:0:0:0:
32,108,45390,1,0,0:0:0:0:
64,88,45478,1,0,0:0:0:0:
100,80,45567,1,0,0:0:0:0:
136,84,45655,1,0,0:0:0:0:
172,100,45743,1,0,0:0:0:0:
200,128,45831,1,0,0:0:0:0:
232,148,45920,1,0,0:0:0:0:
268,156,46008,1,0,0:0:0:0:
308,152,46096,6,0,B|404:140|448:64,1,170
296,40,46625,2,0,B|364:92|376:188,1,170
396,296,47155,1,0,0:0:0:0:
296,344,47331,1,0,0:0:0:0:
296,344,47420,1,0,0:0:0:0:
296,344,47508,2,0,B|292:304|264:264,1,85
156,228,47861,1,0,0:0:0:0:
156,228,48037,2,0,B|216:200|200:116|104:112,1,170
36,128,48567,5,0,0:0:0:0:
120,112,48743,1,0,0:0:0:0:
120,112,48831,1,0,0:0:0:0:
120,112,48920,2,0,B|192:92|256:96,1,127.5
292,156,49273,2,0,B|332:168|380:168,1,85
472,232,49625,2,0,B|432:256|392:264,1,85
364,344,49978,1,0,0:0:0:0:
364,344,50155,1,0,0:0:0:0:
364,344,50331,6,0,B|308:372|236:364,1,127.5
368,236,50861,1,0,0:0:0:0:
368,236,51037,2,0,B|292:264|192:260,1,170
116,252,51567,1,0,0:0:0:0:
116,252,51655,1,0,0:0:0:0:
116,252,51743,6,0,B|136:316|200:360,1,127.5
212,228,52272,2,0,B|248:284|322:308,1,127.5
476,148,52802,2,0,B|413:168|376:224,1,127.5
355,100,53331,2,0,B|300:137|280:201,1,127.5
184,256,53772,1,0,0:0:0:0:
184,256,53861,1,0,0:0:0:0:
136,156,54037,1,0,0:0:0:0:
280,200,54214,2,0,B|456:248,2,170,0|4|0,0:0|0:0|0:0,0:0:0:0:
256,284,55096,5,0,0:0:0:0:
256,284,55184,1,0,0:0:0:0:
256,284,55272,2,0,B|128:312,2,127.5
340,260,55978,2,0,B|348:220|332:176,1,85
164,228,56331,2,0,B|148:184|160:136,1,85
172,108,56596,5,0,0:0:0:0:
196,80,56684,1,0,0:0:0:0:
228,60,56772,1,0,0:0:0:0:
264,52,56861,1,0,0:0:0:0:
304,52,56949,1,0,0:0:0:0:
340,64,57037,1,0,0:0:0:0:
368,88,57125,1,0,0:0:0:0:
388,120,57214,1,0,0:0:0:0:
400,156,57302,1,0,0:0:0:0:
396,196,57390,6,0,B|384:292,1,85
292,352,57743,2,0,B|256:228,1,127.5
256,229,58096,2,0,B|216:360,2,127.5
284,156,58802,2,0,B|244:128|200:116,1,85
208,118,59067,1,0,0:0:0:0:
208,118,59155,1,0,0:0:0:0:
36,128,59331,2,0,B|0:212|44:296,1,170
148,352,59861,2,0,B|280:336,1,127.5
308,332,60214,1,0,0:0:0:0:
340,228,60390,5,0,0:0:0:0:
340,228,60478,1,0,0:0:0:0:
340,228,60567,2,0,B|213:241,1,127.5
276,336,60920,2,0,B|408:320,1,127.5
340,228,61449,2,0,B|392:220|408:164|372:120,2,127.5
256,252,62155,1,0,0:0:0:0:
256,252,62243,1,0,0:0:0:0:
256,252,62331,2,0,B|164:272,1,85
36,192,62684,2,0,B|120:172,1,85
200,192,63037,6,0,B|240:168|236:108|196:88,1,127.5
156,76,63390,1,0,0:0:0:0:
36,192,63567,2,0,B|-4:216|0:276|40:296,1,127.5
76,312,63920,1,0,0:0:0:0:
256,348,64096,2,0,B|296:324|292:264|252:244,1,127.5
216,228,64449,1,0,0:0:0:0:
36,192,64625,2,0,B|80:200|128:192,1,85
120,193,64934,1,0,0:0:0:0:
120,193,65022,1,0,0:0:0:0:
120,193,65155,6,0,B|256:152,1,127.5,4|0,0:0|0:0,0:0:0:0:
416,268,65684,2,0,B|280:226,1,127.5
120,193,66214,2,0,B|256:152,1,127.5
416,116,66743,2,0,B|380:84|344:72,1,85
312,60,67008,1,0,0:0:0:0:
280,52,67096,1,0,0:0:0:0:
248,48,67184,1,0,0:0:0:0:
216,48,67272,1,4,0:0:0:0:
296,336,67625,1,4,0:0:0:0:
296,336,67978,6,0,B|200:352,1,85,0|0,0:0|0:0,0:0:0:0:
128,344,68331,1,0,0:0:0:0:
92,332,68420,1,0,0:0:0:0:
64,304,68508,1,0,0:0:0:0:
48,268,68596,1,0,0:0:0:0:
52,228,68684,1,0,0:0:0:0:
76,196,68772,1,0,0:0:0:0:
112,180,68861,1,0,0:0:0:0:
152,180,68949,1,0,0:0:0:0:
188,192,69037,6,0,B|256:240,1,85,4|0,0:0|0:0,0:0:0:0:
336,268,69390,1,0,0:0:0:0:
372,276,69478,1,0,0:0:0:0:
412,276,69567,1,0,0:0:0:0:
448,264,69655,1,0,0:0:0:0:
476,236,69743,1,0,0:0:0:0:
488,200,69831,1,0,0:0:0:0:
480,164,69920,1,0,0:0:0:0:
456,136,70008,1,0,0:0:0:0:
420,120,70096,6,0,B|384:112|336:124|336:124|304:96|256:84,1,170
108,88,70625,1,0,0:0:0:0:
72,156,70802,1,0,0:0:0:0:
72,156,70890,1,0,0:0:0:0:
72,156,70978,2,0,B|56:204|56:248,1,85
116,336,71331,1,0,0:0:0:0:
116,336,71420,1,0,0:0:0:0:
116,336,71508,2,0,B|156:360|212:364,1,85
292,352,71861,1,0,0:0:0:0:
348,268,72037,2,0,B|392:272,2,42.5
140,232,72390,1,0,0:0:0:0:
140,232,72567,2,0,B|92:224|64:188,1,85,0|4,0:0|0:0,0:0:0:0:
40,164,72920,5,0,0:0:0:0:
21,130,73008,1,0,0:0:0:0:
19,94,73096,1,0,0:0:0:0:
33,59,73184,1,0,0:0:0:0:
62,33,73272,1,0,0:0:0:0:
100,20,73361,1,0,0:0:0:0:
140,24,73449,1,0,0:0:0:0:
172,44,73537,1,0,0:0:0:0:
196,76,73625,2,0,B|214:118|250:146,1,85,4|0,0:0|0:0,0:0:0:0:
248,144,73978,5,0,0:0:0:0:
280,164,74067,1,0,0:0:0:0:
316,176,74155,1,0,0:0:0:0:
356,176,74243,1,0,0:0:0:0:
392,164,74331,1,0,0:0:0:0:
420,136,74420,1,0,0:0:0:0:
432,100,74508,1,0,0:0:0:0:
428,60,74596,1,0,0:0:0:0:
400,24,74684,5,4,0:0:0:0:
184,76,74919,1,0,0:0:0:0:
184,76,75154,1,0,0:0:0:0:
36,240,75389,1,0,0:0:0:0:
36,240,75625,1,0,0:0:0:0:
220,360,75860,1,0,0:0:0:0:
220,360,76095,1,4,0:0:0:0:
396,228,76331,1,0,0:0:0:0:
292,92,76566,1,0,0:0:0:0:
136,156,76801,1,0,0:0:0:0:
164,324,77036,1,0,0:0:0:0:
332,356,77272,1,0,0:0:0:0:
404,204,77507,6,0,B|236:228,1,170,4|4,0:0|0:0,0:0:0:0:
36,156,77978,1,4,0:0:0:0:
36,156,78213,2,0,B|204:131,1,170,4|4,0:0|0:0,0:0:0:0:
404,204,78684,1,4,0:0:0:0:
404,204,78919,2,0,B|468:192,2,63.749998100102,0|4|0,0:0|0:0|0:0,0:0:0:0:
404,204,79272,2,0,B|364:288|284:320|176:284,1,255,4|0,0:0|0:0,0:0:0:0:
188,287,79684,1,0,0:0:0:0:
48,228,79919,1,0,0:0:0:0:
36,116,80095,1,0,0:0:0:0:
120,36,80272,5,0,0:0:0:0:
124,48,80331,1,4,0:0:0:0:
132,60,80419,2,0,B|180:108|260:120,1,127.5
336,124,80860,1,0,0:0:0:0:
336,124,80948,1,0,0:0:0:0:
336,124,81036,2,0,B|384:116|432:128,1,85
476,228,81389,2,0,B|436:236|396:264,1,85
316,316,81742,2,0,B|312:341|284:366|284:366|246:381|215:370,1,127.5
176,356,82095,1,0,0:0:0:0:
92,316,82272,1,0,0:0:0:0:
56,228,82448,2,0,B|68:188|108:164|108:164|160:152|208:176,1,170
256,264,82978,1,0,0:0:0:0:
256,264,83066,1,0,0:0:0:0:
256,264,83154,6,0,B|300:304|380:308,1,127.5
412,308,83507,1,0,0:0:0:0:
392,156,83683,1,0,0:0:0:0:
392,156,83860,2,0,B|356:107|290:78,1,127.5
256,68,84213,1,0,0:0:0:0:
152,52,84389,1,0,0:0:0:0:
152,52,84566,2,0,B|136:96|148:136,1,85
220,156,84831,2,0,B|264:212|256:288,1,127.5
196,348,85272,1,0,0:0:0:0:
196,348,85360,1,0,0:0:0:0:
196,348,85448,2,0,B|136:348|88:316|56:256,1,170,4|0,0:0|0:0,0:0:0:0:
59,261,85889,5,0,0:0:0:0:
59,261,85978,2,0,B|108:192,1,85
216,232,86331,2,0,B|256:316,1,85
344,328,86683,2,0,B|404:360|480:348,2,127.5
344,328,87301,1,0,0:0:0:0:
344,328,87389,2,0,B|368:240,1,85
296,152,87742,2,0,B|216:192,1,85
156,256,88095,2,0,B|100:292|28:296,1,127.5
36,295,88448,1,0,0:0:0:0:
36,295,88625,6,0,B|24:348,2,42.5
36,192,88978,1,0,0:0:0:0:
36,192,89154,2,0,B|88:164|160:160,1,127.5
204,156,89507,1,0,0:0:0:0:
224,208,89639,1,0,0:0:0:0:
248,260,89728,1,0,0:0:0:0:
272,312,89860,2,0,B|328:336|400:324,1,127.5
436,316,90213,1,0,0:0:0:0:
460,228,90389,2,0,B|508:232,2,42.5
360,112,90742,2,0,B|316:132,2,42.5
200,60,91095,2,0,B|160:32,2,42.5
200,60,91448,1,0,0:0:0:0:
256,124,91625,6,0,B|284:208|256:296,1,170,4|0,0:0|0:0,0:0:0:0:
72,352,92331,2,0,B|27:275|36:183,1,170
68,108,92860,1,0,0:0:0:0:
140,156,93036,1,0,0:0:0:0:
224,172,93213,1,0,0:0:0:0:
308,160,93389,2,0,B|336:192|352:240,1,85
220,352,93742,2,0,B|184:324|164:288,1,85
164,288,94007,1,0,0:0:0:0:
164,288,94095,1,0,0:0:0:0:
224,224,94272,1,0,0:0:0:0:
300,192,94448,6,0,B|352:208|444:192,1,127.5
464,184,94801,1,0,0:0:0:0:
300,192,94978,1,0,0:0:0:0:
300,192,95154,2,0,B|248:176|156:192,1,127.5
136,200,95507,1,0,0:0:0:0:
72,268,95683,1,0,0:0:0:0:
16,192,95860,1,0,0:0:0:0:
16,100,96036,5,0,0:0:0:0:
16,100,96125,1,0,0:0:0:0:
16,100,96213,2,0,B|52:76|104:68,1,85
176,116,96566,2,0,B|220:128|264:124,1,85
292,212,96919,2,0,B|248:220|212:240,1,85
212,239,97183,1,0,0:0:0:0:
212,239,97272,1,0,0:0:0:0:
72,228,97536,5,0,0:0:0:0:
72,228,97625,1,0,0:0:0:0:
136,352,97801,2,0,B|204:380|304:360,1,170
344,276,98330,2,0,B|364:240|364:192,1,85
220,36,98683,2,0,B|208:80|180:112,1,85
40,156,99036,2,0,B|44:112|76:72,1,85
71,78,99301,1,0,0:0:0:0:
71,78,99389,1,0,0:0:0:0:
160,112,99566,5,0,0:0:0:0:
160,112,99654,1,0,0:0:0:0:
160,112,99742,2,0,B|204:128|248:128,1,85
280,128,100007,1,0,0:0:0:0:
316,120,100095,2,0,B|384:116|416:200|352:248,1,170
360,240,100536,2,0,B|312:276|236:276,2,127.5
164,272,101330,5,0,0:0:0:0:
164,272,101507,2,0,B|152:184,1,85
92,260,101860,2,0,B|80:176,1,85
208,36,102213,2,0,B|220:120,1,85
280,47,102566,2,0,B|291:131,1,85
291,131,102830,1,0,0:0:0:0:
291,131,102919,1,0,0:0:0:0:
304,224,103095,6,0,B|452:192,2,127.5
256,352,103801,2,0,B|300:332,2,42.5
256,352,104154,2,0,B|180:384|88:372,1,170
89,372,104683,1,0,0:0:0:0:
20,244,104860,1,0,0:0:0:0:
20,244,104948,1,0,0:0:0:0:
76,128,105213,5,0,0:0:0:0:
152,228,105389,2,0,B|192:212|244:208,1,85
344,304,105742,1,0,0:0:0:0:
464,240,106007,1,0,0:0:0:0:
464,240,106095,1,0,0:0:0:0:
428,104,106272,2,0,B|360:56|260:56,1,170
267,56,106801,1,0,0:0:0:0:
267,56,106978,1,0,0:0:0:0:
267,56,107154,1,0,0:0:0:0:
256,148,107330,6,0,B|248:244,1,85
168,280,107683,1,0,0:0:0:0:
168,280,107772,1,0,0:0:0:0:
168,280,107860,2,0,B|132:308|76:296|56:248,1,127.5
40,212,108213,1,0,0:0:0:0:
56,120,108389,2,0,B|124:88|232:92,2,170
16,144,109183,1,0,0:0:0:0:
192,352,109448,2,0,B|328:340,1,127.5
220,240,109978,2,0,B|88:228,1,127.5
56,224,110330,1,0,0:0:0:0:
0,144,110507,1,0,0:0:0:0:
80,80,110683,2,0,B|132:72,1,42.5
212,92,110948,2,0,B|260:88,1,42.5
348,80,111213,5,0,0:0:0:0:
348,80,111389,2,0,B|420:124|440:232,1,170,4|0,0:0|0:0,0:0:0:0:
344,240,111919,1,0,0:0:0:0:
344,240,112007,1,0,0:0:0:0:
344,240,112095,2,0,B|284:220|212:236,1,127.5
218,234,112448,2,0,B|204:328,1,85
48,312,112801,2,0,B|36:216,1,85
144,296,113154,2,0,B|96:204,1,85
216,236,113507,2,0,B|152:172,1,85
292,72,113860,2,0,B|316:156,1,85
396,72,114213,2,0,B|380:168,1,85
492,120,114566,2,0,B|444:188,1,85
380,276,114919,5,0,0:0:0:0:
380,276,115095,2,0,B|404:320,2,42.5
296,232,115448,2,0,B|308:188,2,42.5
296,232,115801,2,0,B|160:252,1,127.5
36,352,116330,2,0,B|168:332,1,127.5
300,304,116860,6,0,B|348:300|384:264,1,85
376,270,117125,1,0,0:0:0:0:
312,28,117389,2,0,B|292:164,1,127.5
293,154,117742,1,0,0:0:0:0:
220,356,117919,2,0,B|200:220,1,127.5
312,28,118448,2,0,B|292:164,1,127.5
293,154,118801,1,0,0:0:0:0:
228,224,118978,1,0,0:0:0:0:
228,224,119154,2,0,B|204:260|164:276,1,85
68,312,119507,1,0,0:0:0:0:
40,224,119683,1,0,0:0:0:0:
80,140,119860,5,0,0:0:0:0:
168,112,120036,1,0,0:0:0:0:
204,104,120125,1,0,0:0:0:0:
244,104,120213,1,0,0:0:0:0:
280,112,120301,1,0,0:0:0:0:
316,128,120389,1,0,0:0:0:0:
344,152,120478,1,0,0:0:0:0:
368,184,120566,1,4,0:0:0:0:
380,220,120654,1,0,0:0:0:0:
256,292,120918,1,0,0:0:0:0:
40,92,131860,5,4,0:0:0:0:
40,92,132036,2,0,B|64:176,1,85
140,116,132389,1,0,0:0:0:0:
140,116,132477,1,0,0:0:0:0:
140,116,132566,2,0,B|164:200,1,85
192,288,132918,1,0,0:0:0:0:
192,288,133095,2,0,B|256:264|364:272,1,170
400,276,133536,1,0,0:0:0:0:
436,284,133624,1,0,0:0:0:0:
432,180,133801,1,0,0:0:0:0:
432,180,133889,1,0,0:0:0:0:
328,88,134154,6,0,B|276:120|204:124,1,127.5
124,228,134595,1,0,0:0:0:0:
124,228,134683,2,0,B|168:244|208:248,2,85
32,204,135213,2,0,B|16:112|84:36,1,170
168,60,135742,2,0,B|208:72|256:64,1,85
292,56,136007,1,0,0:0:0:0:
328,44,136095,1,0,0:0:0:0:
388,156,136271,6,0,B|436:152,2,42.5
176,232,136624,2,0,B|128:228,2,42.5
256,280,136977,1,0,0:0:0:0:
256,280,137066,2,0,B|312:296|388:296,1,127.5
476,256,137507,1,0,0:0:0:0:
508,160,137683,1,0,0:0:0:0:
508,160,137771,1,0,0:0:0:0:
404,156,137948,2,0,B|320:172,1,85
320,172,138213,6,0,B|272:188|256:232|280:280,1,127.5,4|0,0:0|0:0,0:0:0:0:
300,304,138566,1,0,0:0:0:0:
40,344,138742,2,0,B|88:328|104:284|80:236,1,127.5
56,212,139095,1,0,0:0:0:0:
220,156,139271,2,0,B|172:140|156:96|180:48,1,127.5
200,24,139624,1,0,0:0:0:0:
360,56,139801,2,0,B|400:76|424:120,1,85,0|4,0:0|0:0,0:0:0:0:
432,152,140066,1,0,0:0:0:0:
432,192,140154,1,0,0:0:0:0:
420,228,140242,1,0,0:0:0:0:
396,260,140330,6,0,B|272:228,1,127.5,4|0,0:0|0:0,0:0:0:0:
380,328,140860,2,0,B|224:320,1,140.249995820224
36,228,141389,2,0,B|204:204,1,153.000003647804,4|0,0:0|0:0,0:0:0:0:
36,156,141918,2,0,B|204:96,1,165.749997036159
224,88,142271,1,0,0:0:0:0:
224,88,142360,1,0,0:0:0:0:
224,88,142448,1,4,0:0:0:0:
292,156,142624,1,0,0:0:0:0:
376,192,142801,1,4,0:0:0:0:
376,192,143154,5,0,0:0:0:0:
292,328,143330,1,4,0:0:0:0:
292,328,143507,1,0,0:0:0:0:
260,303,143595,1,0,0:0:0:0:
222,293,143683,1,0,0:0:0:0:
185,289,143771,1,0,0:0:0:0:
146,299,143860,1,0,0:0:0:0:
113,320,143948,1,0,0:0:0:0:
88,347,144036,1,0,0:0:0:0:
80,208,144213,5,4,0:0:0:0:
220,192,144389,1,0,0:0:0:0:
220,192,144566,1,0,0:0:0:0:
252,216,144654,1,0,0:0:0:0:
288,228,144742,1,0,0:0:0:0:
328,228,144830,1,0,0:0:0:0:
364,216,144918,1,0,0:0:0:0:
396,192,145007,1,0,0:0:0:0:
416,160,145095,1,0,0:0:0:0:
424,124,145183,1,0,0:0:0:0:
420,84,145271,6,0,B|376:44|292:36,1,127.5,4|0,0:0|0:0,0:0:0:0:
264,32,145624,1,0,0:0:0:0:
204,104,145801,1,0,0:0:0:0:
204,104,145889,1,0,0:0:0:0:
204,104,145977,2,0,B|168:136|128:152,1,85
36,280,146330,2,0,B|40:324|80:364,1,85
196,328,146683,2,0,B|212:288|204:244,1,85
204,244,147036,1,0,0:0:0:0:
280,192,147213,1,0,0:0:0:0:
204,244,147389,1,0,0:0:0:0:
280,192,147565,1,0,0:0:0:0:
280,192,147742,5,4,0:0:0:0:
476,228,147918,1,4,0:0:0:0:
476,228,148095,5,0,0:0:0:0:
460,264,148183,1,0,0:0:0:0:
428,288,148271,1,0,0:0:0:0:
392,300,148360,1,0,0:0:0:0:
356,304,148448,1,0,0:0:0:0:
316,300,148536,1,0,0:0:0:0:
280,284,148624,1,0,0:0:0:0:
128,288,148801,5,4,0:0:0:0:
216,152,148977,1,0,0:0:0:0:
216,152,149154,5,0,0:0:0:0:
180,140,149242,1,0,0:0:0:0:
152,112,149330,1,0,0:0:0:0:
144,76,149418,1,0,0:0:0:0:
152,40,149507,1,0,0:0:0:0:
180,12,149595,1,0,0:0:0:0:
216,0,149683,1,0,0:0:0:0:
256,0,149771,1,0,0:0:0:0:
292,12,149860,1,4,0:0:0:0:
376,136,150095,5,0,0:0:0:0:
176,228,150330,1,0,0:0:0:0:
396,228,150565,1,0,0:0:0:0:
176,228,150801,1,0,0:0:0:0:
376,320,151036,1,0,0:0:0:0:
156,352,151271,5,4,0:0:0:0:
376,320,151507,1,0,0:0:0:0:
176,228,151742,1,0,0:0:0:0:
376,320,151977,1,0,0:0:0:0:
176,228,152212,1,0,0:0:0:0:
376,320,152448,1,0,0:0:0:0:
176,228,152683,6,4,B|132:152|176:64,1,170
412,76,153154,1,4,0:0:0:0:
412,76,153389,2,4,B|456:152|412:240,1,170
176,228,153860,1,4,0:0:0:0:
176,228,154095,2,0,B|88:220,2,85,0|4|0,0:0|0:0|0:0,0:0:0:0:
176,228,154448,2,0,B|272:312|420:276,1,255,4|0,0:0|0:0,0:0:0:0:
415,276,154918,1,0,0:0:0:0:
448,152,155095,1,0,0:0:0:0:
352,72,155271,1,0,0:0:0:0:
248,128,155448,6,0,B|212:76,1,42.5
224,92,155595,2,0,B|176:96|136:120,2,85
384,132,156212,2,0,B|424:188|408:264,1,127.5
400,292,156565,1,0,0:0:0:0:
324,348,156742,1,0,0:0:0:0:
232,352,156918,2,0,B|160:352|112:304,1,127.5
88,280,157271,1,0,0:0:0:0:
84,176,157448,1,0,0:0:0:0:
172,128,157624,2,0,B|252:100|348:152,1,170
292,232,158154,1,0,0:0:0:0:
292,232,158242,1,0,0:0:0:0:
292,232,158330,6,0,B|278:271|299:316|354:322,1,127.5
480,192,158859,1,0,0:0:0:0:
480,192,159036,2,0,B|493:152|472:107|417:101,1,127.5
292,232,159565,1,0,0:0:0:0:
292,232,159654,1,0,0:0:0:0:
292,232,159742,2,0,B|278:271|299:316|354:322,2,127.5
332,148,160448,1,0,0:0:0:0:
332,148,160536,1,0,0:0:0:0:
332,148,160624,2,0,B|256:172|160:164,1,170
124,156,161065,1,0,0:0:0:0:
88,144,161154,6,0,B|64:188|64:232,1,85
196,352,161507,2,0,B|216:316|220:272,1,85
216,176,161859,2,0,B|272:212|352:208,2,127.5
216,176,162477,1,0,0:0:0:0:
216,176,162565,1,0,0:0:0:0:
168,96,162742,1,0,0:0:0:0:
124,176,162918,1,0,0:0:0:0:
216,176,163095,1,0,0:0:0:0:
308,156,163271,2,0,B|368:132|444:152,1,127.5
468,160,163624,1,0,0:0:0:0:
476,280,163801,5,0,0:0:0:0:
464,316,163889,1,0,0:0:0:0:
440,348,163977,2,0,B|360:372|260:340,1,170
224,284,164507,1,0,0:0:0:0:
160,328,164683,2,0,B|120:344,1,42.5
36,228,164948,2,0,B|64:192,1,42.5
120,120,165212,2,0,B|176:104|256:104,1,127.5
292,156,165565,2,0,B|344:192|412:188,1,127.5
452,184,165918,5,0,0:0:0:0:
488,168,166007,1,0,0:0:0:0:
508,136,166095,1,0,0:0:0:0:
512,96,166183,1,0,0:0:0:0:
500,60,166271,1,0,0:0:0:0:
472,32,166359,1,0,0:0:0:0:
436,20,166448,1,0,0:0:0:0:
396,20,166536,1,0,0:0:0:0:
360,32,166624,1,0,0:0:0:0:
332,60,166712,1,0,0:0:0:0:
316,96,166801,5,4,0:0:0:0:
292,228,167154,1,0,0:0:0:0:
292,228,167507,2,0,B|288:280|260:324,1,93.4999972134829
152,348,168212,1,4,0:0:0:0:
152,348,168433,1,0,0:0:0:0:
44,304,168698,1,0,0:0:0:0:
44,304,168918,1,0,0:0:0:0:
52,228,169271,1,0,0:0:0:0:
36,152,169624,6,0,B|104:160|180:132,1,127.5,4|0,0:0|0:0,0:0:0:0:
200,124,169977,1,0,0:0:0:0:
292,156,170154,1,0,0:0:0:0:
292,156,170330,2,0,B|229:183|177:245,1,127.5
168,264,170683,1,0,0:0:0:0:
220,340,170859,1,0,0:0:0:0:
220,340,171036,2,0,B|288:332|364:360,2,127.5
132,308,171742,1,0,0:0:0:0:
108,216,171918,1,0,0:0:0:0:
156,136,172095,1,0,0:0:0:0:
248,116,172271,5,0,0:0:0:0:
248,116,172359,1,0,0:0:0:0:
248,116,172448,2,0,B|304:100|380:104,1,127.5
412,108,172801,1,0,0:0:0:0:
448,224,172977,2,0,B|400:292|296:304,1,170
268,304,173418,1,0,0:0:0:0:
232,300,173507,1,0,0:0:0:0:
204,200,173683,5,0,0:0:0:0:
132,276,173859,2,0,B|87:258|61:220,1,85
44,192,174124,1,0,0:0:0:0:
32,156,174212,1,0,0:0:0:0:
152,108,174389,1,0,0:0:0:0:
152,108,174477,1,0,0:0:0:0:
152,108,174565,2,0,B|212:144|232:220,1,127.5
236,244,174918,1,0,0:0:0:0:
292,320,175095,5,0,0:0:0:0:
328,336,175183,1,0,0:0:0:0:
364,344,175271,2,0,B|408:352|448:344,1,85
476,192,175624,2,0,B|440:164|400:156,1,85
308,136,175977,1,0,0:0:0:0:
308,136,176065,1,0,0:0:0:0:
232,192,176242,1,0,0:0:0:0:
232,192,176330,2,0,B|184:216|164:252,1,85
76,232,176683,5,0,0:0:0:0:
76,232,176859,2,0,B|76:164|32:104,1,127.5
156,36,177389,2,0,B|200:80|280:88,1,127.5
304,92,177742,1,0,0:0:0:0:
336,92,177830,1,0,0:0:0:0:
368,84,177918,1,0,0:0:0:0:
456,36,178095,5,0,0:0:0:0:
416,192,178271,1,0,0:0:0:0:
416,192,178448,5,0,0:0:0:0:
404,220,178536,1,0,0:0:0:0:
392,248,178624,1,0,0:0:0:0:
380,276,178712,1,0,0:0:0:0:
368,304,178801,1,0,0:0:0:0:
356,332,178889,1,0,0:0:0:0:
344,360,178977,1,0,0:0:0:0:
168,316,179154,5,0,0:0:0:0:
44,236,179330,1,0,0:0:0:0:
44,236,179507,5,0,0:0:0:0:
36,196,179595,1,0,0:0:0:0:
44,156,179683,1,0,0:0:0:0:
76,128,179771,1,0,0:0:0:0:
120,124,179859,1,0,0:0:0:0:
164,132,179948,1,0,0:0:0:0:
204,112,180036,1,0,0:0:0:0:
224,72,180124,1,0,0:0:0:0:
216,32,180212,5,0,0:0:0:0:
292,156,180389,1,0,0:0:0:0:
292,156,180565,5,0,0:0:0:0:
260,176,180654,1,0,0:0:0:0:
236,208,180742,1,0,0:0:0:0:
224,244,180830,1,0,0:0:0:0:
228,280,180918,1,0,0:0:0:0:
244,312,181006,1,0,0:0:0:0:
276,336,181095,1,0,0:0:0:0:
312,344,181183,1,0,0:0:0:0:
348,336,181271,5,0,0:0:0:0:
472,232,181448,1,0,0:0:0:0:
472,232,181624,5,0,0:0:0:0:
436,216,181712,1,0,0:0:0:0:
396,212,181801,1,0,0:0:0:0:
360,224,181889,1,0,0:0:0:0:
332,248,181977,1,0,0:0:0:0:
296,260,182065,1,0,0:0:0:0:
256,260,182154,1,0,0:0:0:0:
224,244,182242,1,0,0:0:0:0:
200,216,182330,5,0,0:0:0:0:
112,72,182506,1,0,0:0:0:0:
112,72,182683,5,0,0:0:0:0:
148,88,182771,1,0,0:0:0:0:
188,88,182859,1,0,0:0:0:0:
224,72,182948,1,0,0:0:0:0:
252,44,183036,1,0,0:0:0:0:
288,28,183124,1,0,0:0:0:0:
328,24,183212,1,0,0:0:0:0:
364,36,183301,1,0,0:0:0:0:
392,64,183389,5,0,0:0:0:0:
472,152,183565,1,0,0:0:0:0:
444,180,183654,1,0,0:0:0:0:
408,196,183742,1,0,0:0:0:0:
372,200,183830,1,0,0:0:0:0:
336,196,183918,2,0,B|292:192,7,28.3333333333333
256,248,184448,5,4,0:0:0:0:
164,348,184683,1,0,0:0:0:0:
36,308,184918,1,0,0:0:0:0:
0,192,185153,1,0,0:0:0:0:
36,60,185389,1,0,0:0:0:0:
36,60,185624,1,0,0:0:0:0:
168,36,185859,5,4,0:0:0:0:
300,72,186095,1,0,0:0:0:0:
360,192,186330,1,0,0:0:0:0:
320,320,186565,1,0,0:0:0:0:
188,352,186800,1,0,0:0:0:0:
188,352,187036,1,0,0:0:0:0:
104,244,187271,6,0,B|44:208|52:124|124:100,1,170,4|0,0:0|0:0,0:0:0:0:
408,140,187742,1,0,0:0:0:0:
408,140,187977,2,0,B|468:176|460:260|388:284,1,170
104,228,188448,1,0,0:0:0:0:
104,228,188683,2,0,B|44:192|52:108|124:84,1,170,4|0,0:0|0:0,0:0:0:0:
408,156,189153,1,0,0:0:0:0:
408,156,189271,1,0,0:0:0:0:
408,156,189389,2,0,B|468:192|460:276|388:300,1,170
364,308,189742,1,0,0:0:0:0:
324,316,189859,1,0,0:0:0:0:
280,320,189977,1,0,0:0:0:0:
256,192,190095,12,4,191506,0:0:0:0:
100,112,191859,5,4,0:0:0:0:
144,196,192212,1,0,0:0:0:0:
148,200,192330,1,0,0:0:0:0:
152,204,192448,1,0,0:0:0:0:
156,208,192565,1,0,0:0:0:0:
160,212,192683,1,0,0:0:0:0:
164,216,192800,1,0,0:0:0:0:
168,220,192918,1,4,0:0:0:0:
256,192,195741,5,0,0:0:0:0:
256,192,195918,1,0,0:0:0:0:
256,192,196245,1,0,0:0:0:0:
328,236,196573,1,0,0:0:0:0:
420,248,197004,1,0,0:0:0:0:
420,248,197454,1,0,0:0:0:0:
328,236,197739,1,0,0:0:0:0:
240,248,198025,1,0,0:0:0:0:
164,276,198311,1,0,0:0:0:0:
164,276,198739,1,0,0:0:0:0:
164,276,199168,5,0,0:0:0:0:
108,296,199462,1,0,0:0:0:0:
52,308,199730,1,0,0:0:0:0:
36,192,200025,1,0,0:0:0:0:
112,168,200319,1,0,0:0:0:0:
192,156,200587,1,0,0:0:0:0:
276,212,200882,1,0,0:0:0:0:
376,228,201177,1,0,0:0:0:0:
472,192,201444,1,0,0:0:0:0:
472,192,201739,1,0,0:0:0:0:
472,192,202168,5,0,0:0:0:0:
444,156,202302,1,0,0:0:0:0:
408,132,202462,1,0,0:0:0:0:
368,112,202596,1,0,0:0:0:0:
344,152,202730,1,0,0:0:0:0:
304,228,203025,2,0,B|292:248,1,21.25
184,268,203453,5,0,0:0:0:0:
96,240,203748,1,0,0:0:0:0:
32,176,204016,1,0,0:0:0:0:
32,176,204311,1,0,0:0:0:0:
84,104,204605,1,0,0:0:0:0:
168,136,204873,1,0,0:0:0:0:
256,108,205168,1,0,0:0:0:0:
448,36,205811,6,0,B|484:32,4,21.25
364,76,206288,1,0,0:0:0:0:
40,104,206551,1,0,0:0:0:0:
120,152,206814,1,0,0:0:0:0:
436,232,207077,1,0,0:0:0:0:
352,272,207340,1,0,0:0:0:0:
48,288,207603,1,0,0:0:0:0:
128,336,207867,1,0,0:0:0:0:
128,336,208130,5,0,0:0:0:0:
228,328,208393,1,0,0:0:0:0:
228,328,208656,1,0,0:0:0:0:
360,272,208993,1,0,0:0:0:0:
364,112,209330,5,0,0:0:0:0:
284,84,209496,1,0,0:0:0:0:
200,112,209663,1,0,0:0:0:0:
172,192,209820,1,0,0:0:0:0:
224,280,209978,2,0,B|296:292,8,63.75
376,136,210966,5,0,0:0:0:0:
356,140,211054,1,0,0:0:0:0:
336,144,211142,1,0,0:0:0:0:
316,148,211230,1,0,0:0:0:0:
296,152,211318,1,0,0:0:0:0:
276,156,211407,1,0,0:0:0:0:
256,160,211495,1,0,0:0:0:0:
236,164,211583,1,0,0:0:0:0:
216,168,211671,2,0,B|160:180,1,42.5
36,192,211936,5,0,0:0:0:0:
56,256,212113,1,0,0:0:0:0:
80,320,212289,1,0,0:0:0:0:
80,320,212377,2,0,B|136:356|208:352,1,127.5,4|0,0:0|0:0,0:0:0:0:
240,348,212729,1,0,0:0:0:0:
292,260,212906,1,0,0:0:0:0:
292,260,212994,1,0,0:0:0:0:
292,260,213082,2,0,B|256:180|152:160,1,170
292,80,213612,1,0,0:0:0:0:
292,80,213788,2,0,B|336:124|408:124,1,127.5
444,124,214141,1,0,0:0:0:0:
436,228,214318,1,0,0:0:0:0:
380,312,214494,2,0,B|316:256|228:240,1,170
124,248,215024,5,0,0:0:0:0:
124,248,215200,2,0,B|68:232|64:168|112:136,1,127.5
132,120,215553,1,0,0:0:0:0:
292,92,215729,1,0,0:0:0:0:
292,92,215906,2,0,B|348:108|352:172|304:204,1,127.5
288,224,216259,1,0,0:0:0:0:
124,248,216435,1,0,0:0:0:0:
124,248,216612,2,0,B|68:232|64:168|112:136,2,127.5
224,264,217318,1,0,0:0:0:0:
224,264,217406,1,0,0:0:0:0:
224,264,217494,6,0,B|280:276|340:272,1,110.499998024106,4|0,0:0|0:0,0:0:0:0:
472,152,218024,6,0,B|436:100|360:80,1,127.5
324,72,218377,1,0,0:0:0:0:
220,156,218553,1,0,0:0:0:0:
124,192,218729,2,0,B|88:224|76:264,1,85
68,296,218994,1,0,0:0:0:0:
64,328,219082,1,0,0:0:0:0:
156,372,219259,1,0,0:0:0:0:
220,296,219435,2,0,B|272:268|360:272,1,127.5
384,276,219788,1,0,0:0:0:0:
436,192,219965,1,0,0:0:0:0:
344,272,220141,2,0,B|292:244|204:248,1,127.5
180,248,220494,1,0,0:0:0:0:
36,156,220671,5,0,0:0:0:0:
36,156,220759,1,0,0:0:0:0:
36,156,220847,2,0,B|80:120|156:112,1,127.5
192,112,221200,1,0,0:0:0:0:
256,192,221377,1,0,0:0:0:0:
352,228,221553,1,0,0:0:0:0:
352,228,221663,1,0,0:0:0:0:
352,228,221818,2,0,P|368:288|352:352,1,127.5
200,352,222259,6,0,B|156:364|112:356,1,85
80,352,222524,1,0,0:0:0:0:
48,344,222612,1,0,0:0:0:0:
116,204,222788,2,0,L|68:220,2,42.5
156,200,223053,1,0,0:0:0:0:
192,208,223141,1,0,0:0:0:0:
228,224,223229,1,0,0:0:0:0:
268,232,223318,1,0,0:0:0:0:
308,228,223406,1,0,0:0:0:0:
344,212,223494,1,0,0:0:0:0:
372,184,223582,1,0,0:0:0:0:
388,148,223671,5,4,0:0:0:0:
124,108,224024,1,4,0:0:0:0:
388,148,224377,1,4,0:0:0:0:
112,192,224729,1,4,0:0:0:0:
400,252,225082,1,4,0:0:0:0:
108,288,225435,1,4,0:0:0:0:
400,360,225788,1,4,0:0:0:0:
108,288,226141,1,4,0:0:0:0:
108,288,226318,6,0,B|56:296,2,42.5,0|0|4,0:0|0:0|0:0,0:0:0:0:
292,228,226671,2,0,B|344:232,2,42.5,0|0|4,0:0|0:0|0:0,0:0:0:0:
64,128,227024,5,0,0:0:0:0:
64,128,227200,2,0,B|76:84|124:60|172:84,1,127.5,4|0,0:0|0:0,0:0:0:0:
165,81,227553,1,0,0:0:0:0:
372,328,227729,1,0,0:0:0:0:
372,328,227906,2,0,B|360:372|312:396|264:372,1,127.5,4|0,0:0|0:0,0:0:0:0:
270,374,228259,1,0,0:0:0:0:
64,128,228435,1,0,0:0:0:0:
64,128,228524,1,0,0:0:0:0:
64,128,228612,2,0,B|64:180|88:216,1,85,4|0,0:0|0:0,0:0:0:0:
196,328,228965,1,0,0:0:0:0:
372,328,229141,5,0,0:0:0:0:
372,328,229229,1,0,0:0:0:0:
372,328,229318,2,0,B|408:304|436:264,1,85,4|0,0:0|0:0,0:0:0:0:
476,156,229671,1,4,0:0:0:0:
328,200,229847,1,0,0:0:0:0:
220,88,230024,2,4,B|160:64|96:88|80:160,1,170
292,296,230553,1,0,0:0:0:0:
292,296,230729,2,4,B|352:320|416:296|432:224,1,170
344,152,231259,5,0,0:0:0:0:
344,152,231435,2,4,B|256:184|160:152,1,186.999994426966
156,264,231965,1,0,0:0:0:0:
108,352,232141,6,4,B|44:268|96:152,1,204.000004863739
256,192,232671,1,0,0:0:0:0:
404,32,232847,2,4,B|468:116|416:232,1,204.000004863739
256,192,233377,1,0,0:0:0:0:
84,148,233553,6,4,B|-8:240|80:380,1,220.999996048212
428,236,234259,2,4,B|520:144|432:4,1,220.999996048212
344,72,234788,1,0,0:0:0:0:
344,72,234877,1,0,0:0:0:0:
344,72,234965,2,0,B|264:144|120:120,1,220.999996048212,4|0,0:0|0:0,0:0:0:0:
256,96,246082,5,0,0:0:0:0:
256,96,246171,1,0,0:0:0:0:
256,96,246259,2,4,B|252:116|252:116|260:116|260:116|252:120|252:120|260:120|260:120|256:120|256:120|256:204,1,127.499996200204,4|0,0:0|0:0,0:0:0:0:
256,276,246788,5,0,0:0:0:0:
256,276,246965,2,0,B|296:312|352:324|416:304,1,170
444,204,247494,1,0,0:0:0:0:
416,104,247671,2,0,B|332:80|248:108,1,170
220,259,248200,1,0,0:0:0:0:
220,259,248376,2,0,B|152:304|48:296,1,170
24,192,248906,1,0,0:0:0:0:
60,92,249082,6,0,B|104:56|184:56,1,127.5
179,56,249435,2,0,B|192:156,1,85
204,240,249788,2,0,B|248:276|328:276,1,127.5
324,276,250141,2,0,B|336:176,1,85
352,92,250494,2,0,P|300:112|224:104,1,127.5
172,68,250847,1,0,0:0:0:0:
116,156,251024,2,0,P|44:200|32:284,1,170
30,279,251553,1,0,0:0:0:0:
124,340,251729,5,0,0:0:0:0:
124,340,251818,1,0,0:0:0:0:
124,340,251906,2,0,B|156:344|184:328|184:328|224:332,1,85
300,352,252259,1,0,0:0:0:0:
396,332,252435,2,0,B|452:308|480:244|416:184,1,170
300,208,252965,2,0,B|256:220|216:220,1,85
96,232,253318,2,0,P|48:168|88:92,2,170
196,260,254200,1,0,0:0:0:0:
296,280,254376,1,0,0:0:0:0:
384,228,254553,1,0,0:0:0:0:
384,228,254641,1,0,0:0:0:0:
384,228,254729,6,0,B|352:104,1,127.5,4|0,0:0|0:0,0:0:0:0:
256,36,255259,2,0,B|304:216,1,186.999994426966,4|0,0:0|0:0,0:0:0:0:
256,348,255790,2,0,B|200:148,1,204.000004863739,4|0,0:0|0:0,0:0:0:0:
72,36,256321,2,0,B|132:248,1,220.999996048212,4|0,0:0|0:0,0:0:0:0:
136,260,256653,1,0,0:0:0:0:
140,272,256720,1,0,0:0:0:0:
144,284,256786,1,0,0:0:0:0:
148,296,256852,6,0,B|360:356,1,220.999996048212,4|0,0:0|0:0,0:0:0:0:
512,280,257383,2,0,B|312:224,1,204.000004863739,4|0,0:0|0:0,0:0:0:0:
136,80,257914,2,0,B|316:128,1,186.999994426966,4|0,0:0|0:0,0:0:0:0:
456,84,258445,2,0,B|292:36,1,170,4|0,0:0|0:0,0:0:0:0:
280,32,258777,1,0,0:0:0:0:
268,28,258844,1,0,0:0:0:0:
256,24,258910,1,0,0:0:0:0:
244,20,258976,6,0,B|180:24|140:80|184:156,1,170,4|0,0:0|0:0,0:0:0:0:
384,132,259507,2,0,B|448:136|488:192|444:268,1,170,4|0,0:0|0:0,0:0:0:0:
256,276,260038,2,0,B|252:340|196:380|120:336,1,170,4|0,0:0|0:0,0:0:0:0:
36,156,260569,2,0,B|40:92|96:52|172:96,1,170,4|0,0:0|0:0,0:0:0:0:
176,100,260901,1,0,0:0:0:0:
196,108,260967,1,0,0:0:0:0:
216,112,261034,1,0,0:0:0:0:
236,116,261100,6,0,B|276:108,2,42.5,4|0|0,0:0|0:0|0:0,0:0:0:0:
132,192,261366,1,0,0:0:0:0:
132,192,261631,6,0,B|72:176,2,42.5,4|0|0,0:0|0:0|0:0,0:0:0:0:
292,228,261897,1,0,0:0:0:0:
292,228,262162,6,0,B|344:216,2,42.5,4|0|0,0:0|0:0|0:0,0:0:0:0:
176,284,262428,1,0,0:0:0:0:
212,300,262494,1,0,0:0:0:0:
240,324,262560,1,0,0:0:0:0:
264,352,262627,1,0,0:0:0:0:
296,332,262693,1,4,0:0:0:0:
332,320,262759,1,0,0:0:0:0:
372,316,262826,1,0,0:0:0:0:
400,188,262959,5,0,0:0:0:0:
380,148,263025,1,0,0:0:0:0:
344,128,263091,1,0,0:0:0:0:
300,120,263158,1,0,0:0:0:0:
256,132,263224,1,4,0:0:0:0:
136,156,263400,1,0,0:0:0:0:
136,156,263488,1,0,0:0:0:0:
136,156,263576,1,0,0:0:0:0:
380,288,263929,5,4,0:0:0:0:
308,308,264174,1,0,0:0:0:0:
232,308,264420,1,0,0:0:0:0:
160,284,264605,1,0,0:0:0:0:
108,228,264852,1,0,0:0:0:0:
88,156,265100,1,0,0:0:0:0:
100,80,265348,1,0,0:0:0:0:
152,24,265596,1,0,0:0:0:0:
239,69,265844,1,4,0:0:0:0:
340,118,266092,1,4,0:0:0:0:
331,236,266355,1,4,0:0:0:0:
214,260,266618,1,4,0:0:0:0:
156,157,266881,1,4,0:0:0:0:
144,232,267608,5,4,0:0:0:0:
384,152,268073,1,4,0:0:0:0:
220,332,268538,1,4,0:0:0:0:
292,84,269003,1,4,0:0:0:0:
296,320,269524,1,4,0:0:0:0:
220,192,270074,1,4,0:0:0:0:
340,260,270943,1,4,0:0:0:0:
256,192,271393,12,4,275437,0:0:0:0:
