osu file format v12

[General]
AudioFilename: 8th.mp3
AudioLeadIn: 1004
PreviewTime: 56297
Countdown: 0
SampleSet: Normal
StackLeniency: 0.7
Mode: 0
LetterboxInBreaks: 1
WidescreenStoryboard: 1

[Editor]
DistanceSpacing: 0.6
BeatDivisor: 8
GridSize: 4

[Metadata]
Title:SeventH HeaveN
TitleUnicode:SeventH HeaveN
Artist:sasakure.UK
ArtistUnicode:sasakure.UK
Creator:Meramipop
Version:8th Heaven
Source:7th Dragon 2020
Tags:hatsune miku SeventH-HeaveN Fix Some The Fantastic Reality of Aesop vocaloid vocaloid2 セブンスドラゴン
BeatmapID:351727
BeatmapSetID:140933

[Difficulty]
HPDrainRate:6
CircleSize:5
OverallDifficulty:8
ApproachRate:9
SliderMultiplier:0.400000005960464
SliderTickRate:1

[Events]
//Background and Video events
0,0,"bg.jpg",0,0
//Break Periods
//Storyboard Layer 0 (Background)
//Storyboard Layer 1 (Fail)
//Storyboard Layer 2 (Pass)
//Storyboard Layer 3 (Foreground)
//Storyboard Sound Samples
//Background Colour Transformations
3,100,163,162,255

[TimingPoints]
6316,333.333333333333,4,1,1,25,1,0
6482,-200,4,2,1,15,0,0

[Colours]
Combo1 : 164,255,235
Combo2 : 140,255,140
Combo3 : 164,205,255

[HitObjects]
256,192,6982,2,0,L|276:192,1,20.0000002980232
256,192,7649,12,0,7149,0:0:0:0:
256,192,7690,12,0,7190,0:0:0:0:
256,192,7732,12,0,7232,0:0:0:0:
256,192,7773,12,0,7273,0:0:0:0:
256,192,7815,12,0,7315,0:0:0:0:
256,192,7856,12,0,7356,0:0:0:0:
256,192,7898,12,0,7398,0:0:0:0:
256,192,7939,12,0,7439,0:0:0:0:
256,192,7982,12,0,7482,0:0:0:0:
256,192,8023,12,0,7523,0:0:0:0:
256,192,8065,12,0,7565,0:0:0:0:
256,192,8106,12,0,7606,0:0:0:0:
256,192,8149,12,0,7649,0:0:0:0:
256,192,8190,12,0,7690,0:0:0:0:
256,192,8232,12,0,7732,0:0:0:0:
256,192,8273,12,0,7773,0:0:0:0:
256,192,8315,12,0,7815,0:0:0:0:
256,192,8356,12,0,7856,0:0:0:0:
256,192,8398,12,0,7898,0:0:0:0:
256,192,8439,12,0,7939,0:0:0:0:
256,192,8481,12,0,7981,0:0:0:0:
256,192,8522,12,0,8022,0:0:0:0:
256,192,8564,12,0,8064,0:0:0:0:
256,192,8605,12,0,8105,0:0:0:0:
256,192,8648,12,0,8148,0:0:0:0:
256,192,8689,12,0,8189,0:0:0:0:
256,192,8731,12,0,8231,0:0:0:0:
256,192,8772,12,0,8272,0:0:0:0:
256,192,8815,12,0,8315,0:0:0:0:
256,192,8856,12,0,8356,0:0:0:0:
256,192,8898,12,0,8398,0:0:0:0:
256,192,8939,12,0,8439,0:0:0:0:
256,192,8982,12,0,8482,0:0:0:0:
256,192,9023,12,0,8523,0:0:0:0:
256,192,9065,12,0,8565,0:0:0:0:
256,192,9106,12,0,8606,0:0:0:0:
256,192,9148,12,0,8648,0:0:0:0:
256,192,9189,12,0,8689,0:0:0:0:
256,192,9231,12,0,8731,0:0:0:0:
256,192,9272,12,0,8772,0:0:0:0:
256,192,9315,12,0,8815,0:0:0:0:
256,192,9356,12,0,8856,0:0:0:0:
256,192,9398,12,0,8898,0:0:0:0:
256,192,9439,12,0,8939,0:0:0:0:
256,192,9482,12,0,8982,0:0:0:0:
256,192,9523,12,0,9023,0:0:0:0:
256,192,9565,12,0,9065,0:0:0:0:
256,192,9606,12,0,9106,0:0:0:0:
256,192,9648,12,0,9148,0:0:0:0:
256,192,9689,12,0,9189,0:0:0:0:
256,192,9731,12,0,9231,0:0:0:0:
256,192,9772,12,0,9272,0:0:0:0:
256,192,9814,12,0,9314,0:0:0:0:
256,192,9855,12,0,9355,0:0:0:0:
256,192,9897,12,0,9397,0:0:0:0:
256,192,9938,12,0,9438,0:0:0:0:
256,192,9981,12,0,9481,0:0:0:0:
256,192,10022,12,0,9522,0:0:0:0:
256,192,10064,12,0,9564,0:0:0:0:
256,192,10105,12,0,9605,0:0:0:0:
256,192,10148,12,0,9648,0:0:0:0:
256,192,10189,12,0,9689,0:0:0:0:
256,192,10231,12,0,9731,0:0:0:0:
256,192,10272,12,0,9772,0:0:0:0:
256,192,10315,12,0,9815,0:0:0:0:
256,192,10356,12,0,9856,0:0:0:0:
256,192,10398,12,0,9898,0:0:0:0:
256,192,10439,12,0,9939,0:0:0:0:
256,192,10481,12,0,9981,0:0:0:0:
256,192,10522,12,0,10022,0:0:0:0:
256,192,10564,12,0,10064,0:0:0:0:
256,192,10605,12,0,10105,0:0:0:0:
256,192,10648,12,0,10148,0:0:0:0:
256,192,10689,12,0,10189,0:0:0:0:
256,192,10731,12,0,10231,0:0:0:0:
256,192,10772,12,0,10272,0:0:0:0:
256,192,10815,12,0,10315,0:0:0:0:
256,192,10856,12,0,10356,0:0:0:0:
256,192,10898,12,0,10398,0:0:0:0:
256,192,10939,12,0,10439,0:0:0:0:
256,192,10981,12,0,10481,0:0:0:0:
256,192,11022,12,0,10522,0:0:0:0:
256,192,11064,12,0,10564,0:0:0:0:
256,192,11105,12,0,10605,0:0:0:0:
256,192,11147,12,0,10647,0:0:0:0:
256,192,11188,12,0,10688,0:0:0:0:
256,192,11230,12,0,10730,0:0:0:0:
256,192,11271,12,0,10771,0:0:0:0:
256,192,11314,12,0,10814,0:0:0:0:
256,192,11355,12,0,10855,0:0:0:0:
256,192,11397,12,0,10897,0:0:0:0:
256,192,11438,12,0,10938,0:0:0:0:
256,192,11481,12,0,10981,0:0:0:0:
256,192,11522,12,0,11022,0:0:0:0:
256,192,11564,12,0,11064,0:0:0:0:
256,192,11605,12,0,11105,0:0:0:0:
256,192,11649,12,0,11149,0:0:0:0:
256,192,11690,12,0,11190,0:0:0:0:
256,192,11732,12,0,11232,0:0:0:0:
256,192,11773,12,0,11273,0:0:0:0:
256,192,11815,12,0,11315,0:0:0:0:
256,192,11856,12,0,11356,0:0:0:0:
256,192,11898,12,0,11398,0:0:0:0:
256,192,11939,12,0,11439,0:0:0:0:
256,192,11982,12,0,11482,0:0:0:0:
256,192,12023,12,0,11523,0:0:0:0:
256,192,12065,12,0,11565,0:0:0:0:
256,192,12106,12,0,11606,0:0:0:0:
256,192,12149,12,0,11649,0:0:0:0:
256,192,12190,12,0,11690,0:0:0:0:
256,192,12232,12,0,11732,0:0:0:0:
256,192,12273,12,0,11773,0:0:0:0:
256,192,12315,12,0,11815,0:0:0:0:
256,192,12356,12,0,11856,0:0:0:0:
256,192,12398,12,0,11898,0:0:0:0:
256,192,12439,12,0,11939,0:0:0:0:
256,192,12481,12,0,11981,0:0:0:0:
256,192,12522,12,0,12022,0:0:0:0:
256,192,12564,12,0,12064,0:0:0:0:
256,192,12605,12,0,12105,0:0:0:0:
256,192,12648,12,0,12148,0:0:0:0:
256,192,12689,12,0,12189,0:0:0:0:
256,192,12731,12,0,12231,0:0:0:0:
256,192,12772,12,0,12272,0:0:0:0:
256,192,12815,12,0,12315,0:0:0:0:
256,192,12856,12,0,12356,0:0:0:0:
256,192,12898,12,0,12398,0:0:0:0:
256,192,12939,12,0,12439,0:0:0:0:
256,192,12982,12,0,12482,0:0:0:0:
256,192,13023,12,0,12523,0:0:0:0:
256,192,13065,12,0,12565,0:0:0:0:
256,192,13106,12,0,12606,0:0:0:0:
256,192,13148,12,0,12648,0:0:0:0:
256,192,13189,12,0,12689,0:0:0:0:
256,192,13231,12,0,12731,0:0:0:0:
256,192,13272,12,0,12772,0:0:0:0:
256,192,13315,12,0,12815,0:0:0:0:
256,192,13356,12,0,12856,0:0:0:0:
256,192,13398,12,0,12898,0:0:0:0:
256,192,13439,12,0,12939,0:0:0:0:
256,192,13482,12,0,12982,0:0:0:0:
256,192,13523,12,0,13023,0:0:0:0:
256,192,13565,12,0,13065,0:0:0:0:
256,192,13606,12,0,13106,0:0:0:0:
256,192,13648,12,0,13148,0:0:0:0:
256,192,13689,12,0,13189,0:0:0:0:
256,192,13731,12,0,13231,0:0:0:0:
256,192,13772,12,0,13272,0:0:0:0:
256,192,13814,12,0,13314,0:0:0:0:
256,192,13855,12,0,13355,0:0:0:0:
256,192,13897,12,0,13397,0:0:0:0:
256,192,13938,12,0,13438,0:0:0:0:
256,192,13981,12,0,13481,0:0:0:0:
256,192,14022,12,0,13522,0:0:0:0:
256,192,14064,12,0,13564,0:0:0:0:
256,192,14105,12,0,13605,0:0:0:0:
256,192,14148,12,0,13648,0:0:0:0:
256,192,14189,12,0,13689,0:0:0:0:
256,192,14231,12,0,13731,0:0:0:0:
256,192,14272,12,0,13772,0:0:0:0:
256,192,14315,12,0,13815,0:0:0:0:
256,192,14356,12,0,13856,0:0:0:0:
256,192,14398,12,0,13898,0:0:0:0:
256,192,14439,12,0,13939,0:0:0:0:
256,192,14481,12,0,13981,0:0:0:0:
256,192,14522,12,0,14022,0:0:0:0:
256,192,14564,12,0,14064,0:0:0:0:
256,192,14605,12,0,14105,0:0:0:0:
256,192,14648,12,0,14148,0:0:0:0:
256,192,14689,12,0,14189,0:0:0:0:
256,192,14731,12,0,14231,0:0:0:0:
256,192,14772,12,0,14272,0:0:0:0:
256,192,14815,12,0,14315,0:0:0:0:
256,192,14856,12,0,14356,0:0:0:0:
256,192,14898,12,0,14398,0:0:0:0:
256,192,14939,12,0,14439,0:0:0:0:
256,192,14981,12,0,14481,0:0:0:0:
256,192,15022,12,0,14522,0:0:0:0:
256,192,15064,12,0,14564,0:0:0:0:
256,192,15105,12,0,14605,0:0:0:0:
256,192,15147,12,0,14647,0:0:0:0:
256,192,15188,12,0,14688,0:0:0:0:
256,192,15230,12,0,14730,0:0:0:0:
256,192,15271,12,0,14771,0:0:0:0:
256,192,15314,12,0,14814,0:0:0:0:
256,192,15355,12,0,14855,0:0:0:0:
256,192,15397,12,0,14897,0:0:0:0:
256,192,15438,12,0,14938,0:0:0:0:
256,192,15481,12,0,14981,0:0:0:0:
256,192,15522,12,0,15022,0:0:0:0:
256,192,15564,12,0,15064,0:0:0:0:
256,192,15605,12,0,15105,0:0:0:0:
256,192,15649,12,0,15149,0:0:0:0:
256,192,15690,12,0,15190,0:0:0:0:
256,192,15732,12,0,15232,0:0:0:0:
256,192,15773,12,0,15273,0:0:0:0:
256,192,15815,12,0,15315,0:0:0:0:
256,192,15856,12,0,15356,0:0:0:0:
256,192,15898,12,0,15398,0:0:0:0:
256,192,15939,12,0,15439,0:0:0:0:
256,192,15982,12,0,15482,0:0:0:0:
256,192,16023,12,0,15523,0:0:0:0:
256,192,16065,12,0,15565,0:0:0:0:
256,192,16106,12,0,15606,0:0:0:0:
256,192,16149,12,0,15649,0:0:0:0:
256,192,16190,12,0,15690,0:0:0:0:
256,192,16232,12,0,15732,0:0:0:0:
256,192,16273,12,0,15773,0:0:0:0:
256,192,16315,12,0,15815,0:0:0:0:
256,192,16356,12,0,15856,0:0:0:0:
256,192,16398,12,0,15898,0:0:0:0:
256,192,16439,12,0,15939,0:0:0:0:
256,192,16481,12,0,15981,0:0:0:0:
256,192,16522,12,0,16022,0:0:0:0:
256,192,16564,12,0,16064,0:0:0:0:
256,192,16605,12,0,16105,0:0:0:0:
256,192,16648,12,0,16148,0:0:0:0:
256,192,16689,12,0,16189,0:0:0:0:
256,192,16731,12,0,16231,0:0:0:0:
256,192,16772,12,0,16272,0:0:0:0:
256,192,16815,12,0,16315,0:0:0:0:
256,192,16856,12,0,16356,0:0:0:0:
256,192,16898,12,0,16398,0:0:0:0:
256,192,16939,12,0,16439,0:0:0:0:
256,192,16982,12,0,16482,0:0:0:0:
256,192,17023,12,0,16523,0:0:0:0:
256,192,17065,12,0,16565,0:0:0:0:
256,192,17106,12,0,16606,0:0:0:0:
256,192,17148,12,0,16648,0:0:0:0:
256,192,17189,12,0,16689,0:0:0:0:
256,192,17231,12,0,16731,0:0:0:0:
256,192,17272,12,0,16772,0:0:0:0:
256,192,17315,12,0,16815,0:0:0:0:
256,192,17356,12,0,16856,0:0:0:0:
256,192,17398,12,0,16898,0:0:0:0:
256,192,17439,12,0,16939,0:0:0:0:
256,192,17482,12,0,16982,0:0:0:0:
256,192,17523,12,0,17023,0:0:0:0:
256,192,17565,12,0,17065,0:0:0:0:
256,192,17606,12,0,17106,0:0:0:0:
256,192,17648,12,0,17148,0:0:0:0:
256,192,17689,12,0,17189,0:0:0:0:
256,192,17731,12,0,17231,0:0:0:0:
256,192,17772,12,0,17272,0:0:0:0:
256,192,17814,12,0,17314,0:0:0:0:
256,192,17855,12,0,17355,0:0:0:0:
256,192,17897,12,0,17397,0:0:0:0:
256,192,17938,12,0,17438,0:0:0:0:
256,192,17981,12,0,17481,0:0:0:0:
256,192,18022,12,0,17522,0:0:0:0:
256,192,18064,12,0,17564,0:0:0:0:
256,192,18105,12,0,17605,0:0:0:0:
256,192,18148,12,0,17648,0:0:0:0:
256,192,18189,12,0,17689,0:0:0:0:
256,192,18231,12,0,17731,0:0:0:0:
256,192,18272,12,0,17772,0:0:0:0:
256,192,18315,12,0,17815,0:0:0:0:
256,192,18356,12,0,17856,0:0:0:0:
256,192,18398,12,0,17898,0:0:0:0:
256,192,18439,12,0,17939,0:0:0:0:
256,192,18481,12,0,17981,0:0:0:0:
256,192,18522,12,0,18022,0:0:0:0:
256,192,18564,12,0,18064,0:0:0:0:
256,192,18605,12,0,18105,0:0:0:0:
256,192,18648,12,0,18148,0:0:0:0:
256,192,18689,12,0,18189,0:0:0:0:
256,192,18731,12,0,18231,0:0:0:0:
256,192,18772,12,0,18272,0:0:0:0:
256,192,18815,12,0,18315,0:0:0:0:
256,192,18856,12,0,18356,0:0:0:0:
256,192,18898,12,0,18398,0:0:0:0:
256,192,18939,12,0,18439,0:0:0:0:
256,192,18981,12,0,18481,0:0:0:0:
256,192,19022,12,0,18522,0:0:0:0:
256,192,19064,12,0,18564,0:0:0:0:
256,192,19105,12,0,18605,0:0:0:0:
256,192,19147,12,0,18647,0:0:0:0:
256,192,19188,12,0,18688,0:0:0:0:
256,192,19230,12,0,18730,0:0:0:0:
256,192,19271,12,0,18771,0:0:0:0:
256,192,19314,12,0,18814,0:0:0:0:
256,192,19355,12,0,18855,0:0:0:0:
256,192,19397,12,0,18897,0:0:0:0:
256,192,19438,12,0,18938,0:0:0:0:
256,192,19481,12,0,18981,0:0:0:0:
256,192,19522,12,0,19022,0:0:0:0:
256,192,19564,12,0,19064,0:0:0:0:
256,192,19605,12,0,19105,0:0:0:0:
256,192,19649,12,0,19149,0:0:0:0:
256,192,19690,12,0,19190,0:0:0:0:
256,192,19732,12,0,19232,0:0:0:0:
256,192,19773,12,0,19273,0:0:0:0:
256,192,19815,12,0,19315,0:0:0:0:
256,192,19856,12,0,19356,0:0:0:0:
256,192,19898,12,0,19398,0:0:0:0:
256,192,19939,12,0,19439,0:0:0:0:
256,192,19982,12,0,19482,0:0:0:0:
256,192,20023,12,0,19523,0:0:0:0:
256,192,20065,12,0,19565,0:0:0:0:
256,192,20106,12,0,19606,0:0:0:0:
256,192,20149,12,0,19649,0:0:0:0:
256,192,20190,12,0,19690,0:0:0:0:
256,192,20232,12,0,19732,0:0:0:0:
256,192,20273,12,0,19773,0:0:0:0:
256,192,20315,12,0,19815,0:0:0:0:
256,192,20356,12,0,19856,0:0:0:0:
256,192,20398,12,0,19898,0:0:0:0:
256,192,20439,12,0,19939,0:0:0:0:
256,192,20481,12,0,19981,0:0:0:0:
256,192,20522,12,0,20022,0:0:0:0:
256,192,20564,12,0,20064,0:0:0:0:
256,192,20605,12,0,20105,0:0:0:0:
256,192,20648,12,0,20148,0:0:0:0:
256,192,20689,12,0,20189,0:0:0:0:
256,192,20731,12,0,20231,0:0:0:0:
256,192,20772,12,0,20272,0:0:0:0:
256,192,20815,12,0,20315,0:0:0:0:
256,192,20856,12,0,20356,0:0:0:0:
256,192,20898,12,0,20398,0:0:0:0:
256,192,20939,12,0,20439,0:0:0:0:
256,192,20982,12,0,20482,0:0:0:0:
256,192,21023,12,0,20523,0:0:0:0:
256,192,21065,12,0,20565,0:0:0:0:
256,192,21106,12,0,20606,0:0:0:0:
256,192,21148,12,0,20648,0:0:0:0:
256,192,21189,12,0,20689,0:0:0:0:
256,192,21231,12,0,20731,0:0:0:0:
256,192,21272,12,0,20772,0:0:0:0:
256,192,21315,12,0,20815,0:0:0:0:
256,192,21356,12,0,20856,0:0:0:0:
256,192,21398,12,0,20898,0:0:0:0:
256,192,21439,12,0,20939,0:0:0:0:
256,192,21482,12,0,20982,0:0:0:0:
256,192,21523,12,0,21023,0:0:0:0:
256,192,21565,12,0,21065,0:0:0:0:
256,192,21606,12,0,21106,0:0:0:0:
256,192,21648,12,0,21148,0:0:0:0:
256,192,21689,12,0,21189,0:0:0:0:
256,192,21731,12,0,21231,0:0:0:0:
256,192,21772,12,0,21272,0:0:0:0:
256,192,21814,12,0,21314,0:0:0:0:
256,192,21855,12,0,21355,0:0:0:0:
256,192,21897,12,0,21397,0:0:0:0:
256,192,21938,12,0,21438,0:0:0:0:
256,192,21981,12,0,21481,0:0:0:0:
256,192,22022,12,0,21522,0:0:0:0:
256,192,22064,12,0,21564,0:0:0:0:
256,192,22105,12,0,21605,0:0:0:0:
256,192,22148,12,0,21648,0:0:0:0:
256,192,22189,12,0,21689,0:0:0:0:
256,192,22231,12,0,21731,0:0:0:0:
256,192,22272,12,0,21772,0:0:0:0:
256,192,22315,12,0,21815,0:0:0:0:
256,192,22356,12,0,21856,0:0:0:0:
256,192,22398,12,0,21898,0:0:0:0:
256,192,22439,12,0,21939,0:0:0:0:
256,192,22481,12,0,21981,0:0:0:0:
256,192,22522,12,0,22022,0:0:0:0:
256,192,22564,12,0,22064,0:0:0:0:
256,192,22605,12,0,22105,0:0:0:0:
256,192,22648,12,0,22148,0:0:0:0:
256,192,22689,12,0,22189,0:0:0:0:
256,192,22731,12,0,22231,0:0:0:0:
256,192,22772,12,0,22272,0:0:0:0:
256,192,22815,12,0,22315,0:0:0:0:
256,192,22856,12,0,22356,0:0:0:0:
256,192,22898,12,0,22398,0:0:0:0:
256,192,22939,12,0,22439,0:0:0:0:
256,192,22981,12,0,22481,0:0:0:0:
256,192,23022,12,0,22522,0:0:0:0:
256,192,23064,12,0,22564,0:0:0:0:
256,192,23105,12,0,22605,0:0:0:0:
256,192,23147,12,0,22647,0:0:0:0:
256,192,23188,12,0,22688,0:0:0:0:
256,192,23230,12,0,22730,0:0:0:0:
256,192,23271,12,0,22771,0:0:0:0:
256,192,23314,12,0,22814,0:0:0:0:
256,192,23355,12,0,22855,0:0:0:0:
256,192,23397,12,0,22897,0:0:0:0:
256,192,23438,12,0,22938,0:0:0:0:
256,192,23481,12,0,22981,0:0:0:0:
256,192,23522,12,0,23022,0:0:0:0:
256,192,23564,12,0,23064,0:0:0:0:
256,192,23605,12,0,23105,0:0:0:0:
256,192,23649,12,0,23149,0:0:0:0:
256,192,23690,12,0,23190,0:0:0:0:
256,192,23732,12,0,23232,0:0:0:0:
256,192,23773,12,0,23273,0:0:0:0:
256,192,23815,12,0,23315,0:0:0:0:
256,192,23856,12,0,23356,0:0:0:0:
256,192,23898,12,0,23398,0:0:0:0:
256,192,23939,12,0,23439,0:0:0:0:
256,192,23982,12,0,23482,0:0:0:0:
256,192,24023,12,0,23523,0:0:0:0:
256,192,24065,12,0,23565,0:0:0:0:
256,192,24106,12,0,23606,0:0:0:0:
256,192,24149,12,0,23649,0:0:0:0:
256,192,24190,12,0,23690,0:0:0:0:
256,192,24232,12,0,23732,0:0:0:0:
256,192,24273,12,0,23773,0:0:0:0:
256,192,24315,12,0,23815,0:0:0:0:
256,192,24356,12,0,23856,0:0:0:0:
256,192,24398,12,0,23898,0:0:0:0:
256,192,24439,12,0,23939,0:0:0:0:
256,192,24481,12,0,23981,0:0:0:0:
256,192,24522,12,0,24022,0:0:0:0:
256,192,24564,12,0,24064,0:0:0:0:
256,192,24605,12,0,24105,0:0:0:0:
256,192,24648,12,0,24148,0:0:0:0:
256,192,24689,12,0,24189,0:0:0:0:
256,192,24731,12,0,24231,0:0:0:0:
256,192,24772,12,0,24272,0:0:0:0:
256,192,24815,12,0,24315,0:0:0:0:
256,192,24856,12,0,24356,0:0:0:0:
256,192,24898,12,0,24398,0:0:0:0:
256,192,24939,12,0,24439,0:0:0:0:
256,192,24982,12,0,24482,0:0:0:0:
256,192,25023,12,0,24523,0:0:0:0:
256,192,25065,12,0,24565,0:0:0:0:
256,192,25106,12,0,24606,0:0:0:0:
256,192,25148,12,0,24648,0:0:0:0:
256,192,25189,12,0,24689,0:0:0:0:
256,192,25231,12,0,24731,0:0:0:0:
256,192,25272,12,0,24772,0:0:0:0:
256,192,25315,12,0,24815,0:0:0:0:
256,192,25356,12,0,24856,0:0:0:0:
256,192,25398,12,0,24898,0:0:0:0:
256,192,25439,12,0,24939,0:0:0:0:
256,192,25482,12,0,24982,0:0:0:0:
256,192,25523,12,0,25023,0:0:0:0:
256,192,25565,12,0,25065,0:0:0:0:
256,192,25606,12,0,25106,0:0:0:0:
256,192,25648,12,0,25148,0:0:0:0:
256,192,25689,12,0,25189,0:0:0:0:
256,192,25731,12,0,25231,0:0:0:0:
256,192,25772,12,0,25272,0:0:0:0:
256,192,25814,12,0,25314,0:0:0:0:
256,192,25855,12,0,25355,0:0:0:0:
256,192,25897,12,0,25397,0:0:0:0:
256,192,25938,12,0,25438,0:0:0:0:
256,192,25981,12,0,25481,0:0:0:0:
256,192,26022,12,0,25522,0:0:0:0:
256,192,26064,12,0,25564,0:0:0:0:
256,192,26105,12,0,25605,0:0:0:0:
256,192,26148,12,0,25648,0:0:0:0:
256,192,26189,12,0,25689,0:0:0:0:
256,192,26231,12,0,25731,0:0:0:0:
256,192,26272,12,0,25772,0:0:0:0:
256,192,26315,12,0,25815,0:0:0:0:
256,192,26356,12,0,25856,0:0:0:0:
256,192,26398,12,0,25898,0:0:0:0:
256,192,26439,12,0,25939,0:0:0:0:
256,192,26481,12,0,25981,0:0:0:0:
256,192,26522,12,0,26022,0:0:0:0:
256,192,26564,12,0,26064,0:0:0:0:
256,192,26605,12,0,26105,0:0:0:0:
256,192,26648,12,0,26148,0:0:0:0:
256,192,26689,12,0,26189,0:0:0:0:
256,192,26731,12,0,26231,0:0:0:0:
256,192,26772,12,0,26272,0:0:0:0:
256,192,26815,12,0,26315,0:0:0:0:
256,192,26856,12,0,26356,0:0:0:0:
256,192,26898,12,0,26398,0:0:0:0:
256,192,26939,12,0,26439,0:0:0:0:
256,192,26981,12,0,26481,0:0:0:0:
256,192,27022,12,0,26522,0:0:0:0:
256,192,27064,12,0,26564,0:0:0:0:
256,192,27105,12,0,26605,0:0:0:0:
256,192,27147,12,0,26647,0:0:0:0:
256,192,27188,12,0,26688,0:0:0:0:
256,192,27230,12,0,26730,0:0:0:0:
256,192,27271,12,0,26771,0:0:0:0:
256,192,27314,12,0,26814,0:0:0:0:
256,192,27355,12,0,26855,0:0:0:0:
256,192,27397,12,0,26897,0:0:0:0:
256,192,27438,12,0,26938,0:0:0:0:
256,192,27481,12,0,26981,0:0:0:0:
256,192,27522,12,0,27022,0:0:0:0:
256,192,27564,12,0,27064,0:0:0:0:
256,192,27605,12,0,27105,0:0:0:0:
256,192,27649,12,0,27149,0:0:0:0:
256,192,27690,12,0,27190,0:0:0:0:
256,192,27732,12,0,27232,0:0:0:0:
256,192,27773,12,0,27273,0:0:0:0:
256,192,27815,12,0,27315,0:0:0:0:
256,192,27856,12,0,27356,0:0:0:0:
256,192,27898,12,0,27398,0:0:0:0:
256,192,27939,12,0,27439,0:0:0:0:
256,192,27982,12,0,27482,0:0:0:0:
256,192,28023,12,0,27523,0:0:0:0:
256,192,28065,12,0,27565,0:0:0:0:
256,192,28106,12,0,27606,0:0:0:0:
256,192,28149,12,0,27649,0:0:0:0:
256,192,28190,12,0,27690,0:0:0:0:
256,192,28232,12,0,27732,0:0:0:0:
256,192,28273,12,0,27773,0:0:0:0:
256,192,28315,12,0,27815,0:0:0:0:
256,192,28356,12,0,27856,0:0:0:0:
256,192,28398,12,0,27898,0:0:0:0:
256,192,28439,12,0,27939,0:0:0:0:
256,192,28481,12,0,27981,0:0:0:0:
256,192,28522,12,0,28022,0:0:0:0:
256,192,28564,12,0,28064,0:0:0:0:
256,192,28605,12,0,28105,0:0:0:0:
256,192,28648,12,0,28148,0:0:0:0:
256,192,28689,12,0,28189,0:0:0:0:
256,192,28731,12,0,28231,0:0:0:0:
256,192,28772,12,0,28272,0:0:0:0:
256,192,28815,12,0,28315,0:0:0:0:
256,192,28856,12,0,28356,0:0:0:0:
256,192,28898,12,0,28398,0:0:0:0:
256,192,28939,12,0,28439,0:0:0:0:
256,192,28982,12,0,28482,0:0:0:0:
256,192,29023,12,0,28523,0:0:0:0:
256,192,29065,12,0,28565,0:0:0:0:
256,192,29106,12,0,28606,0:0:0:0:
256,192,29148,12,0,28648,0:0:0:0:
256,192,29189,12,0,28689,0:0:0:0:
256,192,29231,12,0,28731,0:0:0:0:
256,192,29272,12,0,28772,0:0:0:0:
256,192,29315,12,0,28815,0:0:0:0:
256,192,29356,12,0,28856,0:0:0:0:
256,192,29398,12,0,28898,0:0:0:0:
256,192,29439,12,0,28939,0:0:0:0:
256,192,29482,12,0,28982,0:0:0:0:
256,192,29523,12,0,29023,0:0:0:0:
256,192,29565,12,0,29065,0:0:0:0:
256,192,29606,12,0,29106,0:0:0:0:
256,192,29648,12,0,29148,0:0:0:0:
256,192,29689,12,0,29189,0:0:0:0:
256,192,29731,12,0,29231,0:0:0:0:
256,192,29772,12,0,29272,0:0:0:0:
256,192,29814,12,0,29314,0:0:0:0:
256,192,29855,12,0,29355,0:0:0:0:
256,192,29897,12,0,29397,0:0:0:0:
256,192,29938,12,0,29438,0:0:0:0:
256,192,29981,12,0,29481,0:0:0:0:
256,192,30022,12,0,29522,0:0:0:0:
256,192,30064,12,0,29564,0:0:0:0:
256,192,30105,12,0,29605,0:0:0:0:
256,192,30148,12,0,29648,0:0:0:0:
256,192,30189,12,0,29689,0:0:0:0:
256,192,30231,12,0,29731,0:0:0:0:
256,192,30272,12,0,29772,0:0:0:0:
256,192,30315,12,0,29815,0:0:0:0:
256,192,30356,12,0,29856,0:0:0:0:
256,192,30398,12,0,29898,0:0:0:0:
256,192,30439,12,0,29939,0:0:0:0:
256,192,30481,12,0,29981,0:0:0:0:
256,192,30522,12,0,30022,0:0:0:0:
256,192,30564,12,0,30064,0:0:0:0:
256,192,30605,12,0,30105,0:0:0:0:
256,192,30648,12,0,30148,0:0:0:0:
256,192,30689,12,0,30189,0:0:0:0:
256,192,30731,12,0,30231,0:0:0:0:
256,192,30772,12,0,30272,0:0:0:0:
256,192,30815,12,0,30315,0:0:0:0:
256,192,30856,12,0,30356,0:0:0:0:
256,192,30898,12,0,30398,0:0:0:0:
256,192,30939,12,0,30439,0:0:0:0:
256,192,30981,12,0,30481,0:0:0:0:
256,192,31022,12,0,30522,0:0:0:0:
256,192,31064,12,0,30564,0:0:0:0:
256,192,31105,12,0,30605,0:0:0:0:
256,192,31147,12,0,30647,0:0:0:0:
256,192,31188,12,0,30688,0:0:0:0:
256,192,31230,12,0,30730,0:0:0:0:
256,192,31271,12,0,30771,0:0:0:0:
256,192,31314,12,0,30814,0:0:0:0:
256,192,31355,12,0,30855,0:0:0:0:
256,192,31397,12,0,30897,0:0:0:0:
256,192,31438,12,0,30938,0:0:0:0:
256,192,31481,12,0,30981,0:0:0:0:
256,192,31522,12,0,31022,0:0:0:0:
256,192,31564,12,0,31064,0:0:0:0:
256,192,31605,12,0,31105,0:0:0:0:
256,192,31649,12,0,31149,0:0:0:0:
256,192,31690,12,0,31190,0:0:0:0:
256,192,31732,12,0,31232,0:0:0:0:
256,192,31773,12,0,31273,0:0:0:0:
256,192,31815,12,0,31315,0:0:0:0:
256,192,31856,12,0,31356,0:0:0:0:
256,192,31898,12,0,31398,0:0:0:0:
256,192,31939,12,0,31439,0:0:0:0:
256,192,31982,12,0,31482,0:0:0:0:
256,192,32023,12,0,31523,0:0:0:0:
256,192,32065,12,0,31565,0:0:0:0:
256,192,32106,12,0,31606,0:0:0:0:
256,192,32149,12,0,31649,0:0:0:0:
256,192,32190,12,0,31690,0:0:0:0:
256,192,32232,12,0,31732,0:0:0:0:
256,192,32273,12,0,31773,0:0:0:0:
256,192,32315,12,0,31815,0:0:0:0:
256,192,32356,12,0,31856,0:0:0:0:
256,192,32398,12,0,31898,0:0:0:0:
256,192,32439,12,0,31939,0:0:0:0:
256,192,32481,12,0,31981,0:0:0:0:
256,192,32522,12,0,32022,0:0:0:0:
256,192,32564,12,0,32064,0:0:0:0:
256,192,32605,12,0,32105,0:0:0:0:
256,192,32648,12,0,32148,0:0:0:0:
256,192,32689,12,0,32189,0:0:0:0:
256,192,32731,12,0,32231,0:0:0:0:
256,192,32772,12,0,32272,0:0:0:0:
256,192,32815,12,0,32315,0:0:0:0:
256,192,32856,12,0,32356,0:0:0:0:
256,192,32898,12,0,32398,0:0:0:0:
256,192,32939,12,0,32439,0:0:0:0:
256,192,32982,12,0,32482,0:0:0:0:
256,192,33023,12,0,32523,0:0:0:0:
256,192,33065,12,0,32565,0:0:0:0:
256,192,33106,12,0,32606,0:0:0:0:
256,192,33148,12,0,32648,0:0:0:0:
256,192,33189,12,0,32689,0:0:0:0:
256,192,33231,12,0,32731,0:0:0:0:
256,192,33272,12,0,32772,0:0:0:0:
256,192,33315,12,0,32815,0:0:0:0:
256,192,33356,12,0,32856,0:0:0:0:
256,192,33398,12,0,32898,0:0:0:0:
256,192,33439,12,0,32939,0:0:0:0:
256,192,33482,12,0,32982,0:0:0:0:
256,192,33523,12,0,33023,0:0:0:0:
256,192,33565,12,0,33065,0:0:0:0:
256,192,33606,12,0,33106,0:0:0:0:
256,192,33648,12,0,33148,0:0:0:0:
256,192,33689,12,0,33189,0:0:0:0:
256,192,33731,12,0,33231,0:0:0:0:
256,192,33772,12,0,33272,0:0:0:0:
256,192,33814,12,0,33314,0:0:0:0:
256,192,33855,12,0,33355,0:0:0:0:
256,192,33897,12,0,33397,0:0:0:0:
256,192,33938,12,0,33438,0:0:0:0:
256,192,33981,12,0,33481,0:0:0:0:
256,192,34022,12,0,33522,0:0:0:0:
256,192,34064,12,0,33564,0:0:0:0:
256,192,34105,12,0,33605,0:0:0:0:
256,192,34148,12,0,33648,0:0:0:0:
256,192,34189,12,0,33689,0:0:0:0:
256,192,34231,12,0,33731,0:0:0:0:
256,192,34272,12,0,33772,0:0:0:0:
256,192,34315,12,0,33815,0:0:0:0:
256,192,34356,12,0,33856,0:0:0:0:
256,192,34398,12,0,33898,0:0:0:0:
256,192,34439,12,0,33939,0:0:0:0:
256,192,34481,12,0,33981,0:0:0:0:
256,192,34522,12,0,34022,0:0:0:0:
256,192,34564,12,0,34064,0:0:0:0:
256,192,34605,12,0,34105,0:0:0:0:
256,192,34648,12,0,34148,0:0:0:0:
256,192,34689,12,0,34189,0:0:0:0:
256,192,34731,12,0,34231,0:0:0:0:
256,192,34772,12,0,34272,0:0:0:0:
256,192,34815,12,0,34315,0:0:0:0:
256,192,34856,12,0,34356,0:0:0:0:
256,192,34898,12,0,34398,0:0:0:0:
256,192,34939,12,0,34439,0:0:0:0:
256,192,34981,12,0,34481,0:0:0:0:
256,192,35022,12,0,34522,0:0:0:0:
256,192,35064,12,0,34564,0:0:0:0:
256,192,35105,12,0,34605,0:0:0:0:
256,192,35147,12,0,34647,0:0:0:0:
256,192,35188,12,0,34688,0:0:0:0:
256,192,35230,12,0,34730,0:0:0:0:
256,192,35271,12,0,34771,0:0:0:0:
256,192,35314,12,0,34814,0:0:0:0:
256,192,35355,12,0,34855,0:0:0:0:
256,192,35397,12,0,34897,0:0:0:0:
256,192,35438,12,0,34938,0:0:0:0:
256,192,35481,12,0,34981,0:0:0:0:
256,192,35522,12,0,35022,0:0:0:0:
256,192,35564,12,0,35064,0:0:0:0:
256,192,35605,12,0,35105,0:0:0:0:
256,192,35649,12,0,35149,0:0:0:0:
256,192,35690,12,0,35190,0:0:0:0:
256,192,35732,12,0,35232,0:0:0:0:
256,192,35773,12,0,35273,0:0:0:0:
256,192,35815,12,0,35315,0:0:0:0:
256,192,35856,12,0,35356,0:0:0:0:
256,192,35898,12,0,35398,0:0:0:0:
256,192,35939,12,0,35439,0:0:0:0:
256,192,35982,12,0,35482,0:0:0:0:
256,192,36023,12,0,35523,0:0:0:0:
256,192,36065,12,0,35565,0:0:0:0:
256,192,36106,12,0,35606,0:0:0:0:
256,192,36149,12,0,35649,0:0:0:0:
256,192,36190,12,0,35690,0:0:0:0:
256,192,36232,12,0,35732,0:0:0:0:
256,192,36273,12,0,35773,0:0:0:0:
256,192,36315,12,0,35815,0:0:0:0:
256,192,36356,12,0,35856,0:0:0:0:
256,192,36398,12,0,35898,0:0:0:0:
256,192,36439,12,0,35939,0:0:0:0:
256,192,36481,12,0,35981,0:0:0:0:
256,192,36522,12,0,36022,0:0:0:0:
256,192,36564,12,0,36064,0:0:0:0:
256,192,36605,12,0,36105,0:0:0:0:
256,192,36648,12,0,36148,0:0:0:0:
256,192,36689,12,0,36189,0:0:0:0:
256,192,36731,12,0,36231,0:0:0:0:
256,192,36772,12,0,36272,0:0:0:0:
256,192,36815,12,0,36315,0:0:0:0:
256,192,36856,12,0,36356,0:0:0:0:
256,192,36898,12,0,36398,0:0:0:0:
256,192,36939,12,0,36439,0:0:0:0:
256,192,36982,12,0,36482,0:0:0:0:
256,192,37023,12,0,36523,0:0:0:0:
256,192,37065,12,0,36565,0:0:0:0:
256,192,37106,12,0,36606,0:0:0:0:
256,192,37148,12,0,36648,0:0:0:0:
256,192,37189,12,0,36689,0:0:0:0:
256,192,37231,12,0,36731,0:0:0:0:
256,192,37272,12,0,36772,0:0:0:0:
256,192,37315,12,0,36815,0:0:0:0:
256,192,37356,12,0,36856,0:0:0:0:
256,192,37398,12,0,36898,0:0:0:0:
256,192,37439,12,0,36939,0:0:0:0:
256,192,37482,12,0,36982,0:0:0:0:
256,192,37523,12,0,37023,0:0:0:0:
256,192,37565,12,0,37065,0:0:0:0:
256,192,37606,12,0,37106,0:0:0:0:
256,192,37648,12,0,37148,0:0:0:0:
256,192,37689,12,0,37189,0:0:0:0:
256,192,37731,12,0,37231,0:0:0:0:
256,192,37772,12,0,37272,0:0:0:0:
256,192,37814,12,0,37314,0:0:0:0:
256,192,37855,12,0,37355,0:0:0:0:
256,192,37897,12,0,37397,0:0:0:0:
256,192,37938,12,0,37438,0:0:0:0:
256,192,37981,12,0,37481,0:0:0:0:
256,192,38022,12,0,37522,0:0:0:0:
256,192,38064,12,0,37564,0:0:0:0:
256,192,38105,12,0,37605,0:0:0:0:
256,192,38148,12,0,37648,0:0:0:0:
256,192,38189,12,0,37689,0:0:0:0:
256,192,38231,12,0,37731,0:0:0:0:
256,192,38272,12,0,37772,0:0:0:0:
256,192,38315,12,0,37815,0:0:0:0:
256,192,38356,12,0,37856,0:0:0:0:
256,192,38398,12,0,37898,0:0:0:0:
256,192,38439,12,0,37939,0:0:0:0:
256,192,38481,12,0,37981,0:0:0:0:
256,192,38522,12,0,38022,0:0:0:0:
256,192,38564,12,0,38064,0:0:0:0:
256,192,38605,12,0,38105,0:0:0:0:
256,192,38648,12,0,38148,0:0:0:0:
256,192,38689,12,0,38189,0:0:0:0:
256,192,38731,12,0,38231,0:0:0:0:
256,192,38772,12,0,38272,0:0:0:0:
256,192,38815,12,0,38315,0:0:0:0:
256,192,38856,12,0,38356,0:0:0:0:
256,192,38898,12,0,38398,0:0:0:0:
256,192,38939,12,0,38439,0:0:0:0:
256,192,38981,12,0,38481,0:0:0:0:
256,192,39022,12,0,38522,0:0:0:0:
256,192,39064,12,0,38564,0:0:0:0:
256,192,39105,12,0,38605,0:0:0:0:
256,192,39147,12,0,38647,0:0:0:0:
256,192,39188,12,0,38688,0:0:0:0:
256,192,39230,12,0,38730,0:0:0:0:
256,192,39271,12,0,38771,0:0:0:0:
256,192,39314,12,0,38814,0:0:0:0:
256,192,39355,12,0,38855,0:0:0:0:
256,192,39397,12,0,38897,0:0:0:0:
256,192,39438,12,0,38938,0:0:0:0:
256,192,39481,12,0,38981,0:0:0:0:
256,192,39522,12,0,39022,0:0:0:0:
256,192,39564,12,0,39064,0:0:0:0:
256,192,39605,12,0,39105,0:0:0:0:
256,192,39649,12,0,39149,0:0:0:0:
256,192,39690,12,0,39190,0:0:0:0:
256,192,39732,12,0,39232,0:0:0:0:
256,192,39773,12,0,39273,0:0:0:0:
256,192,39815,12,0,39315,0:0:0:0:
256,192,39856,12,0,39356,0:0:0:0:
256,192,39898,12,0,39398,0:0:0:0:
256,192,39939,12,0,39439,0:0:0:0:
256,192,39982,12,0,39482,0:0:0:0:
256,192,40023,12,0,39523,0:0:0:0:
256,192,40065,12,0,39565,0:0:0:0:
256,192,40106,12,0,39606,0:0:0:0:
256,192,40149,12,0,39649,0:0:0:0:
256,192,40190,12,0,39690,0:0:0:0:
256,192,40232,12,0,39732,0:0:0:0:
256,192,40273,12,0,39773,0:0:0:0:
256,192,40315,12,0,39815,0:0:0:0:
256,192,40356,12,0,39856,0:0:0:0:
256,192,40398,12,0,39898,0:0:0:0:
256,192,40439,12,0,39939,0:0:0:0:
256,192,40481,12,0,39981,0:0:0:0:
256,192,40522,12,0,40022,0:0:0:0:
256,192,40564,12,0,40064,0:0:0:0:
256,192,40605,12,0,40105,0:0:0:0:
256,192,40648,12,0,40148,0:0:0:0:
256,192,40689,12,0,40189,0:0:0:0:
256,192,40731,12,0,40231,0:0:0:0:
256,192,40772,12,0,40272,0:0:0:0:
256,192,40815,12,0,40315,0:0:0:0:
256,192,40856,12,0,40356,0:0:0:0:
256,192,40898,12,0,40398,0:0:0:0:
256,192,40939,12,0,40439,0:0:0:0:
256,192,40982,12,0,40482,0:0:0:0:
256,192,41023,12,0,40523,0:0:0:0:
256,192,41065,12,0,40565,0:0:0:0:
256,192,41106,12,0,40606,0:0:0:0:
256,192,41148,12,0,40648,0:0:0:0:
256,192,41189,12,0,40689,0:0:0:0:
256,192,41231,12,0,40731,0:0:0:0:
256,192,41272,12,0,40772,0:0:0:0:
256,192,41315,12,0,40815,0:0:0:0:
256,192,41356,12,0,40856,0:0:0:0:
256,192,41398,12,0,40898,0:0:0:0:
256,192,41439,12,0,40939,0:0:0:0:
256,192,41482,12,0,40982,0:0:0:0:
256,192,41523,12,0,41023,0:0:0:0:
256,192,41565,12,0,41065,0:0:0:0:
256,192,41606,12,0,41106,0:0:0:0:
256,192,41648,12,0,41148,0:0:0:0:
256,192,41689,12,0,41189,0:0:0:0:
256,192,41731,12,0,41231,0:0:0:0:
256,192,41772,12,0,41272,0:0:0:0:
256,192,41814,12,0,41314,0:0:0:0:
256,192,41855,12,0,41355,0:0:0:0:
256,192,41897,12,0,41397,0:0:0:0:
256,192,41938,12,0,41438,0:0:0:0:
256,192,41981,12,0,41481,0:0:0:0:
256,192,42022,12,0,41522,0:0:0:0:
256,192,42064,12,0,41564,0:0:0:0:
256,192,42105,12,0,41605,0:0:0:0:
256,192,42148,12,0,41648,0:0:0:0:
256,192,42189,12,0,41689,0:0:0:0:
256,192,42231,12,0,41731,0:0:0:0:
256,192,42272,12,0,41772,0:0:0:0:
256,192,42315,12,0,41815,0:0:0:0:
256,192,42356,12,0,41856,0:0:0:0:
256,192,42398,12,0,41898,0:0:0:0:
256,192,42439,12,0,41939,0:0:0:0:
256,192,42481,12,0,41981,0:0:0:0:
256,192,42522,12,0,42022,0:0:0:0:
256,192,42564,12,0,42064,0:0:0:0:
256,192,42605,12,0,42105,0:0:0:0:
256,192,42648,12,0,42148,0:0:0:0:
256,192,42689,12,0,42189,0:0:0:0:
256,192,42731,12,0,42231,0:0:0:0:
256,192,42772,12,0,42272,0:0:0:0:
256,192,42815,12,0,42315,0:0:0:0:
256,192,42856,12,0,42356,0:0:0:0:
256,192,42898,12,0,42398,0:0:0:0:
256,192,42939,12,0,42439,0:0:0:0:
256,192,42981,12,0,42481,0:0:0:0:
256,192,43022,12,0,42522,0:0:0:0:
256,192,43064,12,0,42564,0:0:0:0:
256,192,43105,12,0,42605,0:0:0:0:
256,192,43147,12,0,42647,0:0:0:0:
256,192,43188,12,0,42688,0:0:0:0:
256,192,43230,12,0,42730,0:0:0:0:
256,192,43271,12,0,42771,0:0:0:0:
256,192,43314,12,0,42814,0:0:0:0:
256,192,43355,12,0,42855,0:0:0:0:
256,192,43397,12,0,42897,0:0:0:0:
256,192,43438,12,0,42938,0:0:0:0:
256,192,43481,12,0,42981,0:0:0:0:
256,192,43522,12,0,43022,0:0:0:0:
256,192,43564,12,0,43064,0:0:0:0:
256,192,43605,12,0,43105,0:0:0:0:
256,192,43649,12,0,43149,0:0:0:0:
256,192,43690,12,0,43190,0:0:0:0:
256,192,43732,12,0,43232,0:0:0:0:
256,192,43773,12,0,43273,0:0:0:0:
256,192,43815,12,0,43315,0:0:0:0:
256,192,43856,12,0,43356,0:0:0:0:
256,192,43898,12,0,43398,0:0:0:0:
256,192,43939,12,0,43439,0:0:0:0:
256,192,43982,12,0,43482,0:0:0:0:
256,192,44023,12,0,43523,0:0:0:0:
256,192,44065,12,0,43565,0:0:0:0:
256,192,44106,12,0,43606,0:0:0:0:
256,192,44149,12,0,43649,0:0:0:0:
256,192,44190,12,0,43690,0:0:0:0:
256,192,44232,12,0,43732,0:0:0:0:
256,192,44273,12,0,43773,0:0:0:0:
256,192,44315,12,0,43815,0:0:0:0:
256,192,44356,12,0,43856,0:0:0:0:
256,192,44398,12,0,43898,0:0:0:0:
256,192,44439,12,0,43939,0:0:0:0:
256,192,44481,12,0,43981,0:0:0:0:
256,192,44522,12,0,44022,0:0:0:0:
256,192,44564,12,0,44064,0:0:0:0:
256,192,44605,12,0,44105,0:0:0:0:
256,192,44648,12,0,44148,0:0:0:0:
256,192,44689,12,0,44189,0:0:0:0:
256,192,44731,12,0,44231,0:0:0:0:
256,192,44772,12,0,44272,0:0:0:0:
256,192,44815,12,0,44315,0:0:0:0:
256,192,44856,12,0,44356,0:0:0:0:
256,192,44898,12,0,44398,0:0:0:0:
256,192,44939,12,0,44439,0:0:0:0:
256,192,44982,12,0,44482,0:0:0:0:
256,192,45023,12,0,44523,0:0:0:0:
256,192,45065,12,0,44565,0:0:0:0:
256,192,45106,12,0,44606,0:0:0:0:
256,192,45148,12,0,44648,0:0:0:0:
256,192,45189,12,0,44689,0:0:0:0:
256,192,45231,12,0,44731,0:0:0:0:
256,192,45272,12,0,44772,0:0:0:0:
256,192,45315,12,0,44815,0:0:0:0:
256,192,45356,12,0,44856,0:0:0:0:
256,192,45398,12,0,44898,0:0:0:0:
256,192,45439,12,0,44939,0:0:0:0:
256,192,45482,12,0,44982,0:0:0:0:
256,192,45523,12,0,45023,0:0:0:0:
256,192,45565,12,0,45065,0:0:0:0:
256,192,45606,12,0,45106,0:0:0:0:
256,192,45648,12,0,45148,0:0:0:0:
256,192,45689,12,0,45189,0:0:0:0:
256,192,45731,12,0,45231,0:0:0:0:
256,192,45772,12,0,45272,0:0:0:0:
256,192,45814,12,0,45314,0:0:0:0:
256,192,45855,12,0,45355,0:0:0:0:
256,192,45897,12,0,45397,0:0:0:0:
256,192,45938,12,0,45438,0:0:0:0:
256,192,45981,12,0,45481,0:0:0:0:
256,192,46022,12,0,45522,0:0:0:0:
256,192,46064,12,0,45564,0:0:0:0:
256,192,46105,12,0,45605,0:0:0:0:
256,192,46148,12,0,45648,0:0:0:0:
256,192,46189,12,0,45689,0:0:0:0:
256,192,46231,12,0,45731,0:0:0:0:
256,192,46272,12,0,45772,0:0:0:0:
256,192,46315,12,0,45815,0:0:0:0:
256,192,46356,12,0,45856,0:0:0:0:
256,192,46398,12,0,45898,0:0:0:0:
256,192,46439,12,0,45939,0:0:0:0:
256,192,46481,12,0,45981,0:0:0:0:
256,192,46522,12,0,46022,0:0:0:0:
256,192,46564,12,0,46064,0:0:0:0:
256,192,46605,12,0,46105,0:0:0:0:
256,192,46648,12,0,46148,0:0:0:0:
256,192,46689,12,0,46189,0:0:0:0:
256,192,46731,12,0,46231,0:0:0:0:
256,192,46772,12,0,46272,0:0:0:0:
256,192,46815,12,0,46315,0:0:0:0:
256,192,46856,12,0,46356,0:0:0:0:
256,192,46898,12,0,46398,0:0:0:0:
256,192,46939,12,0,46439,0:0:0:0:
256,192,46981,12,0,46481,0:0:0:0:
256,192,47022,12,0,46522,0:0:0:0:
256,192,47064,12,0,46564,0:0:0:0:
256,192,47105,12,0,46605,0:0:0:0:
256,192,47147,12,0,46647,0:0:0:0:
256,192,47188,12,0,46688,0:0:0:0:
256,192,47230,12,0,46730,0:0:0:0:
256,192,47271,12,0,46771,0:0:0:0:
256,192,47314,12,0,46814,0:0:0:0:
256,192,47355,12,0,46855,0:0:0:0:
256,192,47397,12,0,46897,0:0:0:0:
256,192,47438,12,0,46938,0:0:0:0:
256,192,47481,12,0,46981,0:0:0:0:
256,192,47522,12,0,47022,0:0:0:0:
256,192,47564,12,0,47064,0:0:0:0:
256,192,47605,12,0,47105,0:0:0:0:
256,192,47649,12,0,47149,0:0:0:0:
256,192,47690,12,0,47190,0:0:0:0:
256,192,47732,12,0,47232,0:0:0:0:
256,192,47773,12,0,47273,0:0:0:0:
256,192,47815,12,0,47315,0:0:0:0:
256,192,47856,12,0,47356,0:0:0:0:
256,192,47898,12,0,47398,0:0:0:0:
256,192,47939,12,0,47439,0:0:0:0:
256,192,47982,12,0,47482,0:0:0:0:
256,192,48023,12,0,47523,0:0:0:0:
256,192,48065,12,0,47565,0:0:0:0:
256,192,48106,12,0,47606,0:0:0:0:
256,192,48149,12,0,47649,0:0:0:0:
256,192,48190,12,0,47690,0:0:0:0:
256,192,48232,12,0,47732,0:0:0:0:
256,192,48273,12,0,47773,0:0:0:0:
256,192,48315,12,0,47815,0:0:0:0:
256,192,48356,12,0,47856,0:0:0:0:
256,192,48398,12,0,47898,0:0:0:0:
256,192,48439,12,0,47939,0:0:0:0:
256,192,48481,12,0,47981,0:0:0:0:
256,192,48522,12,0,48022,0:0:0:0:
256,192,48564,12,0,48064,0:0:0:0:
256,192,48605,12,0,48105,0:0:0:0:
256,192,48648,12,0,48148,0:0:0:0:
256,192,48689,12,0,48189,0:0:0:0:
256,192,48731,12,0,48231,0:0:0:0:
256,192,48772,12,0,48272,0:0:0:0:
256,192,48815,12,0,48315,0:0:0:0:
256,192,48856,12,0,48356,0:0:0:0:
256,192,48898,12,0,48398,0:0:0:0:
256,192,48939,12,0,48439,0:0:0:0:
256,192,48982,12,0,48482,0:0:0:0:
256,192,49023,12,0,48523,0:0:0:0:
256,192,49065,12,0,48565,0:0:0:0:
256,192,49106,12,0,48606,0:0:0:0:
256,192,49148,12,0,48648,0:0:0:0:
256,192,49189,12,0,48689,0:0:0:0:
256,192,49231,12,0,48731,0:0:0:0:
256,192,49272,12,0,48772,0:0:0:0:
256,192,49315,12,0,48815,0:0:0:0:
256,192,49356,12,0,48856,0:0:0:0:
256,192,49398,12,0,48898,0:0:0:0:
256,192,49439,12,0,48939,0:0:0:0:
256,192,49482,12,0,48982,0:0:0:0:
256,192,49523,12,0,49023,0:0:0:0:
256,192,49565,12,0,49065,0:0:0:0:
256,192,49606,12,0,49106,0:0:0:0:
256,192,49648,12,0,49148,0:0:0:0:
256,192,49689,12,0,49189,0:0:0:0:
256,192,49731,12,0,49231,0:0:0:0:
256,192,49772,12,0,49272,0:0:0:0:
256,192,49814,12,0,49314,0:0:0:0:
256,192,49855,12,0,49355,0:0:0:0:
256,192,49897,12,0,49397,0:0:0:0:
256,192,49938,12,0,49438,0:0:0:0:
256,192,49981,12,0,49481,0:0:0:0:
256,192,50022,12,0,49522,0:0:0:0:
256,192,50064,12,0,49564,0:0:0:0:
256,192,50105,12,0,49605,0:0:0:0:
256,192,50148,12,0,49648,0:0:0:0:
256,192,50189,12,0,49689,0:0:0:0:
256,192,50231,12,0,49731,0:0:0:0:
256,192,50272,12,0,49772,0:0:0:0:
256,192,50315,12,0,49815,0:0:0:0:
256,192,50356,12,0,49856,0:0:0:0:
256,192,50398,12,0,49898,0:0:0:0:
256,192,50439,12,0,49939,0:0:0:0:
256,192,50481,12,0,49981,0:0:0:0:
256,192,50522,12,0,50022,0:0:0:0:
256,192,50564,12,0,50064,0:0:0:0:
256,192,50605,12,0,50105,0:0:0:0:
256,192,50648,12,0,50148,0:0:0:0:
256,192,50689,12,0,50189,0:0:0:0:
256,192,50731,12,0,50231,0:0:0:0:
256,192,50772,12,0,50272,0:0:0:0:
256,192,50815,12,0,50315,0:0:0:0:
256,192,50856,12,0,50356,0:0:0:0:
256,192,50898,12,0,50398,0:0:0:0:
256,192,50939,12,0,50439,0:0:0:0:
256,192,50981,12,0,50481,0:0:0:0:
256,192,51022,12,0,50522,0:0:0:0:
256,192,51064,12,0,50564,0:0:0:0:
256,192,51105,12,0,50605,0:0:0:0:
256,192,51147,12,0,50647,0:0:0:0:
256,192,51188,12,0,50688,0:0:0:0:
256,192,51230,12,0,50730,0:0:0:0:
256,192,51271,12,0,50771,0:0:0:0:
256,192,51314,12,0,50814,0:0:0:0:
256,192,51355,12,0,50855,0:0:0:0:
256,192,51397,12,0,50897,0:0:0:0:
256,192,51438,12,0,50938,0:0:0:0:
256,192,51481,12,0,50981,0:0:0:0:
256,192,51522,12,0,51022,0:0:0:0:
256,192,51564,12,0,51064,0:0:0:0:
256,192,51605,12,0,51105,0:0:0:0:
256,192,51649,12,0,51149,0:0:0:0:
256,192,51690,12,0,51190,0:0:0:0:
256,192,51732,12,0,51232,0:0:0:0:
256,192,51773,12,0,51273,0:0:0:0:
256,192,51815,12,0,51315,0:0:0:0:
256,192,51856,12,0,51356,0:0:0:0:
256,192,51898,12,0,51398,0:0:0:0:
256,192,51939,12,0,51439,0:0:0:0:
256,192,51982,12,0,51482,0:0:0:0:
256,192,52023,12,0,51523,0:0:0:0:
256,192,52065,12,0,51565,0:0:0:0:
256,192,52106,12,0,51606,0:0:0:0:
256,192,52149,12,0,51649,0:0:0:0:
256,192,52190,12,0,51690,0:0:0:0:
256,192,52232,12,0,51732,0:0:0:0:
256,192,52273,12,0,51773,0:0:0:0:
256,192,52315,12,0,51815,0:0:0:0:
256,192,52356,12,0,51856,0:0:0:0:
256,192,52398,12,0,51898,0:0:0:0:
256,192,52439,12,0,51939,0:0:0:0:
256,192,52481,12,0,51981,0:0:0:0:
256,192,52522,12,0,52022,0:0:0:0:
256,192,52564,12,0,52064,0:0:0:0:
256,192,52605,12,0,52105,0:0:0:0:
256,192,52648,12,0,52148,0:0:0:0:
256,192,52689,12,0,52189,0:0:0:0:
256,192,52731,12,0,52231,0:0:0:0:
256,192,52772,12,0,52272,0:0:0:0:
256,192,52815,12,0,52315,0:0:0:0:
256,192,52856,12,0,52356,0:0:0:0:
256,192,52898,12,0,52398,0:0:0:0:
256,192,52939,12,0,52439,0:0:0:0:
256,192,52982,12,0,52482,0:0:0:0:
256,192,53023,12,0,52523,0:0:0:0:
256,192,53065,12,0,52565,0:0:0:0:
256,192,53106,12,0,52606,0:0:0:0:
256,192,53148,12,0,52648,0:0:0:0:
256,192,53189,12,0,52689,0:0:0:0:
256,192,53231,12,0,52731,0:0:0:0:
256,192,53272,12,0,52772,0:0:0:0:
256,192,53315,12,0,52815,0:0:0:0:
256,192,53356,12,0,52856,0:0:0:0:
256,192,53398,12,0,52898,0:0:0:0:
256,192,53439,12,0,52939,0:0:0:0:
256,192,53482,12,0,52982,0:0:0:0:
256,192,53523,12,0,53023,0:0:0:0:
256,192,53565,12,0,53065,0:0:0:0:
256,192,53606,12,0,53106,0:0:0:0:
256,192,53648,12,0,53148,0:0:0:0:
256,192,53689,12,0,53189,0:0:0:0:
256,192,53731,12,0,53231,0:0:0:0:
256,192,53772,12,0,53272,0:0:0:0:
256,192,53814,12,0,53314,0:0:0:0:
256,192,53855,12,0,53355,0:0:0:0:
256,192,53897,12,0,53397,0:0:0:0:
256,192,53938,12,0,53438,0:0:0:0:
256,192,53981,12,0,53481,0:0:0:0:
256,192,54022,12,0,53522,0:0:0:0:
256,192,54064,12,0,53564,0:0:0:0:
256,192,54105,12,0,53605,0:0:0:0:
256,192,54148,12,0,53648,0:0:0:0:
256,192,54189,12,0,53689,0:0:0:0:
256,192,54231,12,0,53731,0:0:0:0:
256,192,54272,12,0,53772,0:0:0:0:
256,192,54315,12,0,53815,0:0:0:0:
256,192,54356,12,0,53856,0:0:0:0:
256,192,54398,12,0,53898,0:0:0:0:
256,192,54439,12,0,53939,0:0:0:0:
256,192,54481,12,0,53981,0:0:0:0:
256,192,54522,12,0,54022,0:0:0:0:
256,192,54564,12,0,54064,0:0:0:0:
256,192,54605,12,0,54105,0:0:0:0:
256,192,54648,12,0,54148,0:0:0:0:
256,192,54689,12,0,54189,0:0:0:0:
256,192,54731,12,0,54231,0:0:0:0:
256,192,54772,12,0,54272,0:0:0:0:
256,192,54815,12,0,54315,0:0:0:0:
256,192,54856,12,0,54356,0:0:0:0:
256,192,54898,12,0,54398,0:0:0:0:
256,192,54939,12,0,54439,0:0:0:0:
256,192,54981,12,0,54481,0:0:0:0:
256,192,55022,12,0,54522,0:0:0:0:
256,192,55064,12,0,54564,0:0:0:0:
256,192,55105,12,0,54605,0:0:0:0:
256,192,55147,12,0,54647,0:0:0:0:
256,192,55188,12,0,54688,0:0:0:0:
256,192,55230,12,0,54730,0:0:0:0:
256,192,55271,12,0,54771,0:0:0:0:
256,192,55314,12,0,54814,0:0:0:0:
256,192,55355,12,0,54855,0:0:0:0:
256,192,55397,12,0,54897,0:0:0:0:
256,192,55438,12,0,54938,0:0:0:0:
256,192,55481,12,0,54981,0:0:0:0:
256,192,55522,12,0,55022,0:0:0:0:
256,192,55564,12,0,55064,0:0:0:0:
256,192,55605,12,0,55105,0:0:0:0:
256,192,55649,12,0,55149,0:0:0:0:
256,192,55690,12,0,55190,0:0:0:0:
256,192,55732,12,0,55232,0:0:0:0:
256,192,55773,12,0,55273,0:0:0:0:
256,192,55815,12,0,55315,0:0:0:0:
256,192,55856,12,0,55356,0:0:0:0:
256,192,55898,12,0,55398,0:0:0:0:
256,192,55939,12,0,55439,0:0:0:0:
256,192,55982,12,0,55482,0:0:0:0:
256,192,56023,12,0,55523,0:0:0:0:
256,192,56065,12,0,55565,0:0:0:0:
256,192,56106,12,0,55606,0:0:0:0:
256,192,56149,12,0,55649,0:0:0:0:
256,192,56190,12,0,55690,0:0:0:0:
256,192,56232,12,0,55732,0:0:0:0:
256,192,56273,12,0,55773,0:0:0:0:
256,192,56315,12,0,55815,0:0:0:0:
256,192,56356,12,0,55856,0:0:0:0:
256,192,56398,12,0,55898,0:0:0:0:
256,192,56439,12,0,55939,0:0:0:0:
256,192,56481,12,0,55981,0:0:0:0:
256,192,56522,12,0,56022,0:0:0:0:
256,192,56564,12,0,56064,0:0:0:0:
256,192,56605,12,0,56105,0:0:0:0:
256,192,56648,12,0,56148,0:0:0:0:
256,192,56689,12,0,56189,0:0:0:0:
256,192,56731,12,0,56231,0:0:0:0:
256,192,56772,12,0,56272,0:0:0:0:
256,192,56815,12,0,56315,0:0:0:0:
256,192,56856,12,0,56356,0:0:0:0:
256,192,56898,12,0,56398,0:0:0:0:
256,192,56939,12,0,56439,0:0:0:0:
256,192,56982,12,0,56482,0:0:0:0:
256,192,57023,12,0,56523,0:0:0:0:
256,192,57065,12,0,56565,0:0:0:0:
256,192,57106,12,0,56606,0:0:0:0:
256,192,57148,12,0,56648,0:0:0:0:
256,192,57189,12,0,56689,0:0:0:0:
256,192,57231,12,0,56731,0:0:0:0:
256,192,57272,12,0,56772,0:0:0:0:
256,192,57315,12,0,56815,0:0:0:0:
256,192,57356,12,0,56856,0:0:0:0:
256,192,57398,12,0,56898,0:0:0:0:
256,192,57439,12,0,56939,0:0:0:0:
256,192,57482,12,0,56982,0:0:0:0:
256,192,57523,12,0,57023,0:0:0:0:
256,192,57565,12,0,57065,0:0:0:0:
256,192,57606,12,0,57106,0:0:0:0:
256,192,57648,12,0,57148,0:0:0:0:
256,192,57689,12,0,57189,0:0:0:0:
256,192,57731,12,0,57231,0:0:0:0:
256,192,57772,12,0,57272,0:0:0:0:
256,192,57814,12,0,57314,0:0:0:0:
256,192,57855,12,0,57355,0:0:0:0:
256,192,57897,12,0,57397,0:0:0:0:
256,192,57938,12,0,57438,0:0:0:0:
256,192,57981,12,0,57481,0:0:0:0:
256,192,58022,12,0,57522,0:0:0:0:
256,192,58064,12,0,57564,0:0:0:0:
256,192,58105,12,0,57605,0:0:0:0:
256,192,58148,12,0,57648,0:0:0:0:
256,192,58189,12,0,57689,0:0:0:0:
256,192,58231,12,0,57731,0:0:0:0:
256,192,58272,12,0,57772,0:0:0:0:
256,192,58315,12,0,57815,0:0:0:0:
256,192,58356,12,0,57856,0:0:0:0:
256,192,58398,12,0,57898,0:0:0:0:
256,192,58439,12,0,57939,0:0:0:0:
256,192,58481,12,0,57981,0:0:0:0:
256,192,58522,12,0,58022,0:0:0:0:
256,192,58564,12,0,58064,0:0:0:0:
256,192,58605,12,0,58105,0:0:0:0:
256,192,58648,12,0,58148,0:0:0:0:
256,192,58689,12,0,58189,0:0:0:0:
256,192,58731,12,0,58231,0:0:0:0:
256,192,58772,12,0,58272,0:0:0:0:
256,192,58815,12,0,58315,0:0:0:0:
256,192,58856,12,0,58356,0:0:0:0:
256,192,58898,12,0,58398,0:0:0:0:
256,192,58939,12,0,58439,0:0:0:0:
256,192,58981,12,0,58481,0:0:0:0:
256,192,59022,12,0,58522,0:0:0:0:
256,192,59064,12,0,58564,0:0:0:0:
256,192,59105,12,0,58605,0:0:0:0:
256,192,59147,12,0,58647,0:0:0:0:
256,192,59188,12,0,58688,0:0:0:0:
256,192,59230,12,0,58730,0:0:0:0:
256,192,59271,12,0,58771,0:0:0:0:
256,192,59314,12,0,58814,0:0:0:0:
256,192,59355,12,0,58855,0:0:0:0:
256,192,59397,12,0,58897,0:0:0:0:
256,192,59438,12,0,58938,0:0:0:0:
256,192,59481,12,0,58981,0:0:0:0:
256,192,59522,12,0,59022,0:0:0:0:
256,192,59564,12,0,59064,0:0:0:0:
256,192,59605,12,0,59105,0:0:0:0:
256,192,59649,12,0,59149,0:0:0:0:
256,192,59690,12,0,59190,0:0:0:0:
256,192,59732,12,0,59232,0:0:0:0:
256,192,59773,12,0,59273,0:0:0:0:
256,192,59815,12,0,59315,0:0:0:0:
256,192,59856,12,0,59356,0:0:0:0:
256,192,59898,12,0,59398,0:0:0:0:
256,192,59939,12,0,59439,0:0:0:0:
256,192,59982,12,0,59482,0:0:0:0:
256,192,60023,12,0,59523,0:0:0:0:
256,192,60065,12,0,59565,0:0:0:0:
256,192,60106,12,0,59606,0:0:0:0:
256,192,60149,12,0,59649,0:0:0:0:
256,192,60190,12,0,59690,0:0:0:0:
256,192,60232,12,0,59732,0:0:0:0:
256,192,60273,12,0,59773,0:0:0:0:
256,192,60315,12,0,59815,0:0:0:0:
256,192,60356,12,0,59856,0:0:0:0:
256,192,60398,12,0,59898,0:0:0:0:
256,192,60439,12,0,59939,0:0:0:0:
256,192,60481,12,0,59981,0:0:0:0:
256,192,60522,12,0,60022,0:0:0:0:
256,192,60564,12,0,60064,0:0:0:0:
256,192,60605,12,0,60105,0:0:0:0:
256,192,60648,12,0,60148,0:0:0:0:
256,192,60689,12,0,60189,0:0:0:0:
256,192,60731,12,0,60231,0:0:0:0:
256,192,60772,12,0,60272,0:0:0:0:
256,192,60815,12,0,60315,0:0:0:0:
256,192,60856,12,0,60356,0:0:0:0:
256,192,60898,12,0,60398,0:0:0:0:
256,192,60939,12,0,60439,0:0:0:0:
256,192,60982,12,0,60482,0:0:0:0:
256,192,61023,12,0,60523,0:0:0:0:
256,192,61065,12,0,60565,0:0:0:0:
256,192,61106,12,0,60606,0:0:0:0:
256,192,61148,12,0,60648,0:0:0:0:
256,192,61189,12,0,60689,0:0:0:0:
256,192,61231,12,0,60731,0:0:0:0:
256,192,61272,12,0,60772,0:0:0:0:
256,192,61315,12,0,60815,0:0:0:0:
256,192,61356,12,0,60856,0:0:0:0:
256,192,61398,12,0,60898,0:0:0:0:
256,192,61439,12,0,60939,0:0:0:0:
256,192,61482,12,0,60982,0:0:0:0:
256,192,61523,12,0,61023,0:0:0:0:
256,192,61565,12,0,61065,0:0:0:0:
256,192,61606,12,0,61106,0:0:0:0:
256,192,61648,12,0,61148,0:0:0:0:
256,192,61689,12,0,61189,0:0:0:0:
256,192,61731,12,0,61231,0:0:0:0:
256,192,61772,12,0,61272,0:0:0:0:
256,192,61814,12,0,61314,0:0:0:0:
256,192,61855,12,0,61355,0:0:0:0:
256,192,61897,12,0,61397,0:0:0:0:
256,192,61938,12,0,61438,0:0:0:0:
256,192,61981,12,0,61481,0:0:0:0:
256,192,62022,12,0,61522,0:0:0:0:
256,192,62064,12,0,61564,0:0:0:0:
256,192,62105,12,0,61605,0:0:0:0:
256,192,62148,12,0,61648,0:0:0:0:
256,192,62189,12,0,61689,0:0:0:0:
256,192,62231,12,0,61731,0:0:0:0:
256,192,62272,12,0,61772,0:0:0:0:
256,192,62315,12,0,61815,0:0:0:0:
256,192,62356,12,0,61856,0:0:0:0:
256,192,62398,12,0,61898,0:0:0:0:
256,192,62439,12,0,61939,0:0:0:0:
256,192,62481,12,0,61981,0:0:0:0:
256,192,62522,12,0,62022,0:0:0:0:
256,192,62564,12,0,62064,0:0:0:0:
256,192,62605,12,0,62105,0:0:0:0:
256,192,62648,12,0,62148,0:0:0:0:
256,192,62689,12,0,62189,0:0:0:0:
256,192,62731,12,0,62231,0:0:0:0:
256,192,62772,12,0,62272,0:0:0:0:
256,192,62815,12,0,62315,0:0:0:0:
256,192,62856,12,0,62356,0:0:0:0:
256,192,62898,12,0,62398,0:0:0:0:
256,192,62939,12,0,62439,0:0:0:0:
256,192,62981,12,0,62481,0:0:0:0:
256,192,63022,12,0,62522,0:0:0:0:
256,192,63064,12,0,62564,0:0:0:0:
256,192,63105,12,0,62605,0:0:0:0:
256,192,63147,12,0,62647,0:0:0:0:
256,192,63188,12,0,62688,0:0:0:0:
256,192,63230,12,0,62730,0:0:0:0:
256,192,63271,12,0,62771,0:0:0:0:
256,192,63314,12,0,62814,0:0:0:0:
256,192,63355,12,0,62855,0:0:0:0:
256,192,63397,12,0,62897,0:0:0:0:
256,192,63438,12,0,62938,0:0:0:0:
256,192,63481,12,0,62981,0:0:0:0:
256,192,63522,12,0,63022,0:0:0:0:
256,192,63564,12,0,63064,0:0:0:0:
256,192,63605,12,0,63105,0:0:0:0:
256,192,63649,12,0,63149,0:0:0:0:
256,192,63690,12,0,63190,0:0:0:0:
256,192,63732,12,0,63232,0:0:0:0:
256,192,63773,12,0,63273,0:0:0:0:
256,192,63815,12,0,63315,0:0:0:0:
256,192,63856,12,0,63356,0:0:0:0:
256,192,63898,12,0,63398,0:0:0:0:
256,192,63939,12,0,63439,0:0:0:0:
256,192,63982,12,0,63482,0:0:0:0:
256,192,64023,12,0,63523,0:0:0:0:
256,192,64065,12,0,63565,0:0:0:0:
256,192,64106,12,0,63606,0:0:0:0:
256,192,64149,12,0,63649,0:0:0:0:
256,192,64190,12,0,63690,0:0:0:0:
256,192,64232,12,0,63732,0:0:0:0:
256,192,64273,12,0,63773,0:0:0:0:
256,192,64315,12,0,63815,0:0:0:0:
256,192,64356,12,0,63856,0:0:0:0:
256,192,64398,12,0,63898,0:0:0:0:
256,192,64439,12,0,63939,0:0:0:0:
256,192,64481,12,0,63981,0:0:0:0:
256,192,64522,12,0,64022,0:0:0:0:
256,192,64564,12,0,64064,0:0:0:0:
256,192,64605,12,0,64105,0:0:0:0:
256,192,64648,12,0,64148,0:0:0:0:
256,192,64689,12,0,64189,0:0:0:0:
256,192,64731,12,0,64231,0:0:0:0:
256,192,64772,12,0,64272,0:0:0:0:
256,192,64815,12,0,64315,0:0:0:0:
256,192,64856,12,0,64356,0:0:0:0:
256,192,64898,12,0,64398,0:0:0:0:
256,192,64939,12,0,64439,0:0:0:0:
256,192,64982,12,0,64482,0:0:0:0:
256,192,65023,12,0,64523,0:0:0:0:
256,192,65065,12,0,64565,0:0:0:0:
256,192,65106,12,0,64606,0:0:0:0:
256,192,65148,12,0,64648,0:0:0:0:
256,192,65189,12,0,64689,0:0:0:0:
256,192,65231,12,0,64731,0:0:0:0:
256,192,65272,12,0,64772,0:0:0:0:
256,192,65315,12,0,64815,0:0:0:0:
256,192,65356,12,0,64856,0:0:0:0:
256,192,65398,12,0,64898,0:0:0:0:
256,192,65439,12,0,64939,0:0:0:0:
256,192,65482,12,0,64982,0:0:0:0:
256,192,65523,12,0,65023,0:0:0:0:
256,192,65565,12,0,65065,0:0:0:0:
256,192,65606,12,0,65106,0:0:0:0:
256,192,65648,12,0,65148,0:0:0:0:
256,192,65689,12,0,65189,0:0:0:0:
256,192,65731,12,0,65231,0:0:0:0:
256,192,65772,12,0,65272,0:0:0:0:
256,192,65814,12,0,65314,0:0:0:0:
256,192,65855,12,0,65355,0:0:0:0:
256,192,65897,12,0,65397,0:0:0:0:
256,192,65938,12,0,65438,0:0:0:0:
256,192,65981,12,0,65481,0:0:0:0:
256,192,66022,12,0,65522,0:0:0:0:
256,192,66064,12,0,65564,0:0:0:0:
256,192,66105,12,0,65605,0:0:0:0:
256,192,66148,12,0,65648,0:0:0:0:
256,192,66189,12,0,65689,0:0:0:0:
256,192,66231,12,0,65731,0:0:0:0:
256,192,66272,12,0,65772,0:0:0:0:
256,192,66315,12,0,65815,0:0:0:0:
256,192,66356,12,0,65856,0:0:0:0:
256,192,66398,12,0,65898,0:0:0:0:
256,192,66439,12,0,65939,0:0:0:0:
256,192,66481,12,0,65981,0:0:0:0:
256,192,66522,12,0,66022,0:0:0:0:
256,192,66564,12,0,66064,0:0:0:0:
256,192,66605,12,0,66105,0:0:0:0:
256,192,66648,12,0,66148,0:0:0:0:
256,192,66689,12,0,66189,0:0:0:0:
256,192,66731,12,0,66231,0:0:0:0:
256,192,66772,12,0,66272,0:0:0:0:
256,192,66815,12,0,66315,0:0:0:0:
256,192,66856,12,0,66356,0:0:0:0:
256,192,66898,12,0,66398,0:0:0:0:
256,192,66939,12,0,66439,0:0:0:0:
256,192,66981,12,0,66481,0:0:0:0:
256,192,67022,12,0,66522,0:0:0:0:
256,192,67064,12,0,66564,0:0:0:0:
256,192,67105,12,0,66605,0:0:0:0:
256,192,67147,12,0,66647,0:0:0:0:
256,192,67188,12,0,66688,0:0:0:0:
256,192,67230,12,0,66730,0:0:0:0:
256,192,67271,12,0,66771,0:0:0:0:
256,192,67314,12,0,66814,0:0:0:0:
256,192,67355,12,0,66855,0:0:0:0:
256,192,67397,12,0,66897,0:0:0:0:
256,192,67438,12,0,66938,0:0:0:0:
256,192,67481,12,0,66981,0:0:0:0:
256,192,67522,12,0,67022,0:0:0:0:
256,192,67564,12,0,67064,0:0:0:0:
256,192,67605,12,0,67105,0:0:0:0:
256,192,67649,12,0,67149,0:0:0:0:
256,192,67690,12,0,67190,0:0:0:0:
256,192,67732,12,0,67232,0:0:0:0:
256,192,67773,12,0,67273,0:0:0:0:
256,192,67815,12,0,67315,0:0:0:0:
256,192,67856,12,0,67356,0:0:0:0:
256,192,67898,12,0,67398,0:0:0:0:
256,192,67939,12,0,67439,0:0:0:0:
256,192,67982,12,0,67482,0:0:0:0:
256,192,68023,12,0,67523,0:0:0:0:
256,192,68065,12,0,67565,0:0:0:0:
256,192,68106,12,0,67606,0:0:0:0:
256,192,68149,12,0,67649,0:0:0:0:
256,192,68190,12,0,67690,0:0:0:0:
256,192,68232,12,0,67732,0:0:0:0:
256,192,68273,12,0,67773,0:0:0:0:
256,192,68315,12,0,67815,0:0:0:0:
256,192,68356,12,0,67856,0:0:0:0:
256,192,68398,12,0,67898,0:0:0:0:
256,192,68439,12,0,67939,0:0:0:0:
256,192,68481,12,0,67981,0:0:0:0:
256,192,68522,12,0,68022,0:0:0:0:
256,192,68564,12,0,68064,0:0:0:0:
256,192,68605,12,0,68105,0:0:0:0:
256,192,68648,12,0,68148,0:0:0:0:
256,192,68689,12,0,68189,0:0:0:0:
256,192,68731,12,0,68231,0:0:0:0:
256,192,68772,12,0,68272,0:0:0:0:
256,192,68815,12,0,68315,0:0:0:0:
256,192,68856,12,0,68356,0:0:0:0:
256,192,68898,12,0,68398,0:0:0:0:
256,192,68939,12,0,68439,0:0:0:0:
256,192,68982,12,0,68482,0:0:0:0:
256,192,69023,12,0,68523,0:0:0:0:
256,192,69065,12,0,68565,0:0:0:0:
256,192,69106,12,0,68606,0:0:0:0:
256,192,69148,12,0,68648,0:0:0:0:
256,192,69189,12,0,68689,0:0:0:0:
256,192,69231,12,0,68731,0:0:0:0:
256,192,69272,12,0,68772,0:0:0:0:
256,192,69315,12,0,68815,0:0:0:0:
256,192,69356,12,0,68856,0:0:0:0:
256,192,69398,12,0,68898,0:0:0:0:
256,192,69439,12,0,68939,0:0:0:0:
256,192,69482,12,0,68982,0:0:0:0:
256,192,69523,12,0,69023,0:0:0:0:
256,192,69565,12,0,69065,0:0:0:0:
256,192,69606,12,0,69106,0:0:0:0:
256,192,69648,12,0,69148,0:0:0:0:
256,192,69689,12,0,69189,0:0:0:0:
256,192,69731,12,0,69231,0:0:0:0:
256,192,69772,12,0,69272,0:0:0:0:
256,192,69814,12,0,69314,0:0:0:0:
256,192,69855,12,0,69355,0:0:0:0:
256,192,69897,12,0,69397,0:0:0:0:
256,192,69938,12,0,69438,0:0:0:0:
256,192,69981,12,0,69481,0:0:0:0:
256,192,70022,12,0,69522,0:0:0:0:
256,192,70064,12,0,69564,0:0:0:0:
256,192,70105,12,0,69605,0:0:0:0:
256,192,70148,12,0,69648,0:0:0:0:
256,192,70189,12,0,69689,0:0:0:0:
256,192,70231,12,0,69731,0:0:0:0:
256,192,70272,12,0,69772,0:0:0:0:
256,192,70315,12,0,69815,0:0:0:0:
256,192,70356,12,0,69856,0:0:0:0:
256,192,70398,12,0,69898,0:0:0:0:
256,192,70439,12,0,69939,0:0:0:0:
256,192,70481,12,0,69981,0:0:0:0:
256,192,70522,12,0,70022,0:0:0:0:
256,192,70564,12,0,70064,0:0:0:0:
256,192,70605,12,0,70105,0:0:0:0:
256,192,70648,12,0,70148,0:0:0:0:
256,192,70689,12,0,70189,0:0:0:0:
256,192,70731,12,0,70231,0:0:0:0:
256,192,70772,12,0,70272,0:0:0:0:
256,192,70815,12,0,70315,0:0:0:0:
256,192,70856,12,0,70356,0:0:0:0:
256,192,70898,12,0,70398,0:0:0:0:
256,192,70939,12,0,70439,0:0:0:0:
256,192,70981,12,0,70481,0:0:0:0:
256,192,71022,12,0,70522,0:0:0:0:
256,192,71064,12,0,70564,0:0:0:0:
256,192,71105,12,0,70605,0:0:0:0:
256,192,71147,12,0,70647,0:0:0:0:
256,192,71188,12,0,70688,0:0:0:0:
256,192,71230,12,0,70730,0:0:0:0:
256,192,71271,12,0,70771,0:0:0:0:
256,192,71314,12,0,70814,0:0:0:0:
256,192,71355,12,0,70855,0:0:0:0:
256,192,71397,12,0,70897,0:0:0:0:
256,192,71438,12,0,70938,0:0:0:0:
256,192,71481,12,0,70981,0:0:0:0:
256,192,71522,12,0,71022,0:0:0:0:
256,192,71564,12,0,71064,0:0:0:0:
256,192,71605,12,0,71105,0:0:0:0:
256,192,71649,12,0,71149,0:0:0:0:
256,192,71690,12,0,71190,0:0:0:0:
256,192,71732,12,0,71232,0:0:0:0:
256,192,71773,12,0,71273,0:0:0:0:
256,192,71815,12,0,71315,0:0:0:0:
256,192,71856,12,0,71356,0:0:0:0:
256,192,71898,12,0,71398,0:0:0:0:
256,192,71939,12,0,71439,0:0:0:0:
256,192,71982,12,0,71482,0:0:0:0:
256,192,72023,12,0,71523,0:0:0:0:
256,192,72065,12,0,71565,0:0:0:0:
256,192,72106,12,0,71606,0:0:0:0:
256,192,72149,12,0,71649,0:0:0:0:
256,192,72190,12,0,71690,0:0:0:0:
256,192,72232,12,0,71732,0:0:0:0:
256,192,72273,12,0,71773,0:0:0:0:
256,192,72315,12,0,71815,0:0:0:0:
256,192,72356,12,0,71856,0:0:0:0:
256,192,72398,12,0,71898,0:0:0:0:
256,192,72439,12,0,71939,0:0:0:0:
256,192,72481,12,0,71981,0:0:0:0:
256,192,72522,12,0,72022,0:0:0:0:
256,192,72564,12,0,72064,0:0:0:0:
256,192,72605,12,0,72105,0:0:0:0:
256,192,72648,12,0,72148,0:0:0:0:
256,192,72689,12,0,72189,0:0:0:0:
256,192,72731,12,0,72231,0:0:0:0:
256,192,72772,12,0,72272,0:0:0:0:
256,192,72815,12,0,72315,0:0:0:0:
256,192,72856,12,0,72356,0:0:0:0:
256,192,72898,12,0,72398,0:0:0:0:
256,192,72939,12,0,72439,0:0:0:0:
256,192,72982,12,0,72482,0:0:0:0:
256,192,73023,12,0,72523,0:0:0:0:
256,192,73065,12,0,72565,0:0:0:0:
256,192,73106,12,0,72606,0:0:0:0:
256,192,73148,12,0,72648,0:0:0:0:
256,192,73189,12,0,72689,0:0:0:0:
256,192,73231,12,0,72731,0:0:0:0:
256,192,73272,12,0,72772,0:0:0:0:
256,192,73315,12,0,72815,0:0:0:0:
256,192,73356,12,0,72856,0:0:0:0:
256,192,73398,12,0,72898,0:0:0:0:
256,192,73439,12,0,72939,0:0:0:0:
256,192,73482,12,0,72982,0:0:0:0:
256,192,73523,12,0,73023,0:0:0:0:
256,192,73565,12,0,73065,0:0:0:0:
256,192,73606,12,0,73106,0:0:0:0:
256,192,73648,12,0,73148,0:0:0:0:
256,192,73689,12,0,73189,0:0:0:0:
256,192,73731,12,0,73231,0:0:0:0:
256,192,73772,12,0,73272,0:0:0:0:
256,192,73814,12,0,73314,0:0:0:0:
256,192,73855,12,0,73355,0:0:0:0:
256,192,73897,12,0,73397,0:0:0:0:
256,192,73938,12,0,73438,0:0:0:0:
256,192,73981,12,0,73481,0:0:0:0:
256,192,74022,12,0,73522,0:0:0:0:
256,192,74064,12,0,73564,0:0:0:0:
256,192,74105,12,0,73605,0:0:0:0:
256,192,74148,12,0,73648,0:0:0:0:
256,192,74189,12,0,73689,0:0:0:0:
256,192,74231,12,0,73731,0:0:0:0:
256,192,74272,12,0,73772,0:0:0:0:
256,192,74315,12,0,73815,0:0:0:0:
256,192,74356,12,0,73856,0:0:0:0:
256,192,74398,12,0,73898,0:0:0:0:
256,192,74439,12,0,73939,0:0:0:0:
256,192,74481,12,0,73981,0:0:0:0:
256,192,74522,12,0,74022,0:0:0:0:
256,192,74564,12,0,74064,0:0:0:0:
256,192,74605,12,0,74105,0:0:0:0:
256,192,74648,12,0,74148,0:0:0:0:
256,192,74689,12,0,74189,0:0:0:0:
256,192,74731,12,0,74231,0:0:0:0:
256,192,74772,12,0,74272,0:0:0:0:
256,192,74815,12,0,74315,0:0:0:0:
256,192,74856,12,0,74356,0:0:0:0:
256,192,74898,12,0,74398,0:0:0:0:
256,192,74939,12,0,74439,0:0:0:0:
256,192,74981,12,0,74481,0:0:0:0:
256,192,75022,12,0,74522,0:0:0:0:
256,192,75064,12,0,74564,0:0:0:0:
256,192,75105,12,0,74605,0:0:0:0:
256,192,75147,12,0,74647,0:0:0:0:
256,192,75188,12,0,74688,0:0:0:0:
256,192,75230,12,0,74730,0:0:0:0:
256,192,75271,12,0,74771,0:0:0:0:
256,192,75314,12,0,74814,0:0:0:0:
256,192,75355,12,0,74855,0:0:0:0:
256,192,75397,12,0,74897,0:0:0:0:
256,192,75438,12,0,74938,0:0:0:0:
256,192,75481,12,0,74981,0:0:0:0:
256,192,75522,12,0,75022,0:0:0:0:
256,192,75564,12,0,75064,0:0:0:0:
256,192,75605,12,0,75105,0:0:0:0:
256,192,75649,12,0,75149,0:0:0:0:
256,192,75690,12,0,75190,0:0:0:0:
256,192,75732,12,0,75232,0:0:0:0:
256,192,75773,12,0,75273,0:0:0:0:
256,192,75815,12,0,75315,0:0:0:0:
256,192,75856,12,0,75356,0:0:0:0:
256,192,75898,12,0,75398,0:0:0:0:
256,192,75939,12,0,75439,0:0:0:0:
256,192,75982,12,0,75482,0:0:0:0:
256,192,76023,12,0,75523,0:0:0:0:
256,192,76065,12,0,75565,0:0:0:0:
256,192,76106,12,0,75606,0:0:0:0:
256,192,76149,12,0,75649,0:0:0:0:
256,192,76190,12,0,75690,0:0:0:0:
256,192,76232,12,0,75732,0:0:0:0:
256,192,76273,12,0,75773,0:0:0:0:
256,192,76315,12,0,75815,0:0:0:0:
256,192,76356,12,0,75856,0:0:0:0:
256,192,76398,12,0,75898,0:0:0:0:
256,192,76439,12,0,75939,0:0:0:0:
256,192,76481,12,0,75981,0:0:0:0:
256,192,76522,12,0,76022,0:0:0:0:
256,192,76564,12,0,76064,0:0:0:0:
256,192,76605,12,0,76105,0:0:0:0:
256,192,76648,12,0,76148,0:0:0:0:
256,192,76689,12,0,76189,0:0:0:0:
256,192,76731,12,0,76231,0:0:0:0:
256,192,76772,12,0,76272,0:0:0:0:
256,192,76815,12,0,76315,0:0:0:0:
256,192,76856,12,0,76356,0:0:0:0:
256,192,76898,12,0,76398,0:0:0:0:
256,192,76939,12,0,76439,0:0:0:0:
256,192,76982,12,0,76482,0:0:0:0:
256,192,77023,12,0,76523,0:0:0:0:
256,192,77065,12,0,76565,0:0:0:0:
256,192,77106,12,0,76606,0:0:0:0:
256,192,77148,12,0,76648,0:0:0:0:
256,192,77189,12,0,76689,0:0:0:0:
256,192,77231,12,0,76731,0:0:0:0:
256,192,77272,12,0,76772,0:0:0:0:
256,192,77315,12,0,76815,0:0:0:0:
256,192,77356,12,0,76856,0:0:0:0:
256,192,77398,12,0,76898,0:0:0:0:
256,192,77439,12,0,76939,0:0:0:0:
256,192,77482,12,0,76982,0:0:0:0:
256,192,77523,12,0,77023,0:0:0:0:
256,192,77565,12,0,77065,0:0:0:0:
256,192,77606,12,0,77106,0:0:0:0:
256,192,77648,12,0,77148,0:0:0:0:
256,192,77689,12,0,77189,0:0:0:0:
256,192,77731,12,0,77231,0:0:0:0:
256,192,77772,12,0,77272,0:0:0:0:
256,192,77814,12,0,77314,0:0:0:0:
256,192,77855,12,0,77355,0:0:0:0:
256,192,77897,12,0,77397,0:0:0:0:
256,192,77938,12,0,77438,0:0:0:0:
256,192,77981,12,0,77481,0:0:0:0:
256,192,78022,12,0,77522,0:0:0:0:
256,192,78064,12,0,77564,0:0:0:0:
256,192,78105,12,0,77605,0:0:0:0:
256,192,78148,12,0,77648,0:0:0:0:
256,192,78189,12,0,77689,0:0:0:0:
256,192,78231,12,0,77731,0:0:0:0:
256,192,78272,12,0,77772,0:0:0:0:
256,192,78315,12,0,77815,0:0:0:0:
256,192,78356,12,0,77856,0:0:0:0:
256,192,78398,12,0,77898,0:0:0:0:
256,192,78439,12,0,77939,0:0:0:0:
256,192,78481,12,0,77981,0:0:0:0:
256,192,78522,12,0,78022,0:0:0:0:
256,192,78564,12,0,78064,0:0:0:0:
256,192,78605,12,0,78105,0:0:0:0:
256,192,78648,12,0,78148,0:0:0:0:
256,192,78689,12,0,78189,0:0:0:0:
256,192,78731,12,0,78231,0:0:0:0:
256,192,78772,12,0,78272,0:0:0:0:
256,192,78815,12,0,78315,0:0:0:0:
256,192,78856,12,0,78356,0:0:0:0:
256,192,78898,12,0,78398,0:0:0:0:
256,192,78939,12,0,78439,0:0:0:0:
256,192,78981,12,0,78481,0:0:0:0:
256,192,79022,12,0,78522,0:0:0:0:
256,192,79064,12,0,78564,0:0:0:0:
256,192,79105,12,0,78605,0:0:0:0:
256,192,79147,12,0,78647,0:0:0:0:
256,192,79188,12,0,78688,0:0:0:0:
256,192,79230,12,0,78730,0:0:0:0:
256,192,79271,12,0,78771,0:0:0:0:
256,192,79314,12,0,78814,0:0:0:0:
256,192,79355,12,0,78855,0:0:0:0:
256,192,79397,12,0,78897,0:0:0:0:
256,192,79438,12,0,78938,0:0:0:0:
256,192,79481,12,0,78981,0:0:0:0:
256,192,79522,12,0,79022,0:0:0:0:
256,192,79564,12,0,79064,0:0:0:0:
256,192,79605,12,0,79105,0:0:0:0:
256,192,79649,12,0,79149,0:0:0:0:
256,192,79690,12,0,79190,0:0:0:0:
256,192,79732,12,0,79232,0:0:0:0:
256,192,79773,12,0,79273,0:0:0:0:
256,192,79815,12,0,79315,0:0:0:0:
256,192,79856,12,0,79356,0:0:0:0:
256,192,79898,12,0,79398,0:0:0:0:
256,192,79939,12,0,79439,0:0:0:0:
256,192,79982,12,0,79482,0:0:0:0:
256,192,80023,12,0,79523,0:0:0:0:
256,192,80065,12,0,79565,0:0:0:0:
256,192,80106,12,0,79606,0:0:0:0:
256,192,80149,12,0,79649,0:0:0:0:
256,192,80190,12,0,79690,0:0:0:0:
256,192,80232,12,0,79732,0:0:0:0:
256,192,80273,12,0,79773,0:0:0:0:
256,192,80315,12,0,79815,0:0:0:0:
256,192,80356,12,0,79856,0:0:0:0:
256,192,80398,12,0,79898,0:0:0:0:
256,192,80439,12,0,79939,0:0:0:0:
256,192,80481,12,0,79981,0:0:0:0:
256,192,80522,12,0,80022,0:0:0:0:
256,192,80564,12,0,80064,0:0:0:0:
256,192,80605,12,0,80105,0:0:0:0:
256,192,80648,12,0,80148,0:0:0:0:
256,192,80689,12,0,80189,0:0:0:0:
256,192,80731,12,0,80231,0:0:0:0:
256,192,80772,12,0,80272,0:0:0:0:
256,192,80815,12,0,80315,0:0:0:0:
256,192,80856,12,0,80356,0:0:0:0:
256,192,80898,12,0,80398,0:0:0:0:
256,192,80939,12,0,80439,0:0:0:0:
256,192,80982,12,0,80482,0:0:0:0:
256,192,81023,12,0,80523,0:0:0:0:
256,192,81065,12,0,80565,0:0:0:0:
256,192,81106,12,0,80606,0:0:0:0:
256,192,81148,12,0,80648,0:0:0:0:
256,192,81189,12,0,80689,0:0:0:0:
256,192,81231,12,0,80731,0:0:0:0:
256,192,81272,12,0,80772,0:0:0:0:
256,192,81315,12,0,80815,0:0:0:0:
256,192,81356,12,0,80856,0:0:0:0:
256,192,81398,12,0,80898,0:0:0:0:
256,192,81439,12,0,80939,0:0:0:0:
256,192,81482,12,0,80982,0:0:0:0:
256,192,81523,12,0,81023,0:0:0:0:
256,192,81565,12,0,81065,0:0:0:0:
256,192,81606,12,0,81106,0:0:0:0:
256,192,81648,12,0,81148,0:0:0:0:
256,192,81689,12,0,81189,0:0:0:0:
256,192,81731,12,0,81231,0:0:0:0:
256,192,81772,12,0,81272,0:0:0:0:
256,192,81814,12,0,81314,0:0:0:0:
256,192,81855,12,0,81355,0:0:0:0:
256,192,81897,12,0,81397,0:0:0:0:
256,192,81938,12,0,81438,0:0:0:0:
256,192,81981,12,0,81481,0:0:0:0:
256,192,82022,12,0,81522,0:0:0:0:
256,192,82064,12,0,81564,0:0:0:0:
256,192,82105,12,0,81605,0:0:0:0:
256,192,82148,12,0,81648,0:0:0:0:
256,192,82189,12,0,81689,0:0:0:0:
256,192,82231,12,0,81731,0:0:0:0:
256,192,82272,12,0,81772,0:0:0:0:
256,192,82315,12,0,81815,0:0:0:0:
256,192,82356,12,0,81856,0:0:0:0:
256,192,82398,12,0,81898,0:0:0:0:
256,192,82439,12,0,81939,0:0:0:0:
256,192,82481,12,0,81981,0:0:0:0:
256,192,82522,12,0,82022,0:0:0:0:
256,192,82564,12,0,82064,0:0:0:0:
256,192,82605,12,0,82105,0:0:0:0:
256,192,82648,12,0,82148,0:0:0:0:
256,192,82689,12,0,82189,0:0:0:0:
256,192,82731,12,0,82231,0:0:0:0:
256,192,82772,12,0,82272,0:0:0:0:
256,192,82815,12,0,82315,0:0:0:0:
256,192,82856,12,0,82356,0:0:0:0:
256,192,82898,12,0,82398,0:0:0:0:
256,192,82939,12,0,82439,0:0:0:0:
256,192,82981,12,0,82481,0:0:0:0:
256,192,83022,12,0,82522,0:0:0:0:
256,192,83064,12,0,82564,0:0:0:0:
256,192,83105,12,0,82605,0:0:0:0:
256,192,83147,12,0,82647,0:0:0:0:
256,192,83188,12,0,82688,0:0:0:0:
256,192,83230,12,0,82730,0:0:0:0:
256,192,83271,12,0,82771,0:0:0:0:
256,192,83314,12,0,82814,0:0:0:0:
256,192,83355,12,0,82855,0:0:0:0:
256,192,83397,12,0,82897,0:0:0:0:
256,192,83438,12,0,82938,0:0:0:0:
256,192,83481,12,0,82981,0:0:0:0:
256,192,83522,12,0,83022,0:0:0:0:
256,192,83564,12,0,83064,0:0:0:0:
256,192,83605,12,0,83105,0:0:0:0:
256,192,83649,12,0,83149,0:0:0:0:
256,192,83690,12,0,83190,0:0:0:0:
256,192,83732,12,0,83232,0:0:0:0:
256,192,83773,12,0,83273,0:0:0:0:
256,192,83815,12,0,83315,0:0:0:0:
256,192,83856,12,0,83356,0:0:0:0:
256,192,83898,12,0,83398,0:0:0:0:
256,192,83939,12,0,83439,0:0:0:0:
256,192,83982,12,0,83482,0:0:0:0:
256,192,84023,12,0,83523,0:0:0:0:
256,192,84065,12,0,83565,0:0:0:0:
256,192,84106,12,0,83606,0:0:0:0:
256,192,84149,12,0,83649,0:0:0:0:
256,192,84190,12,0,83690,0:0:0:0:
256,192,84232,12,0,83732,0:0:0:0:
256,192,84273,12,0,83773,0:0:0:0:
256,192,84315,12,0,83815,0:0:0:0:
256,192,84356,12,0,83856,0:0:0:0:
256,192,84398,12,0,83898,0:0:0:0:
256,192,84439,12,0,83939,0:0:0:0:
256,192,84481,12,0,83981,0:0:0:0:
256,192,84522,12,0,84022,0:0:0:0:
256,192,84564,12,0,84064,0:0:0:0:
256,192,84605,12,0,84105,0:0:0:0:
256,192,84648,12,0,84148,0:0:0:0:
256,192,84689,12,0,84189,0:0:0:0:
256,192,84731,12,0,84231,0:0:0:0:
256,192,84772,12,0,84272,0:0:0:0:
256,192,84815,12,0,84315,0:0:0:0:
256,192,84856,12,0,84356,0:0:0:0:
256,192,84898,12,0,84398,0:0:0:0:
256,192,84939,12,0,84439,0:0:0:0:
256,192,84982,12,0,84482,0:0:0:0:
256,192,85023,12,0,84523,0:0:0:0:
256,192,85065,12,0,84565,0:0:0:0:
256,192,85106,12,0,84606,0:0:0:0:
256,192,85148,12,0,84648,0:0:0:0:
256,192,85189,12,0,84689,0:0:0:0:
256,192,85231,12,0,84731,0:0:0:0:
256,192,85272,12,0,84772,0:0:0:0:
256,192,85315,12,0,84815,0:0:0:0:
256,192,85356,12,0,84856,0:0:0:0:
256,192,85398,12,0,84898,0:0:0:0:
256,192,85439,12,0,84939,0:0:0:0:
256,192,85482,12,0,84982,0:0:0:0:
256,192,85523,12,0,85023,0:0:0:0:
256,192,85565,12,0,85065,0:0:0:0:
256,192,85606,12,0,85106,0:0:0:0:
256,192,85648,12,0,85148,0:0:0:0:
256,192,85689,12,0,85189,0:0:0:0:
256,192,85731,12,0,85231,0:0:0:0:
256,192,85772,12,0,85272,0:0:0:0:
256,192,85814,12,0,85314,0:0:0:0:
256,192,85855,12,0,85355,0:0:0:0:
256,192,85897,12,0,85397,0:0:0:0:
256,192,85938,12,0,85438,0:0:0:0:
256,192,85981,12,0,85481,0:0:0:0:
256,192,86022,12,0,85522,0:0:0:0:
256,192,86064,12,0,85564,0:0:0:0:
256,192,86105,12,0,85605,0:0:0:0:
256,192,86148,12,0,85648,0:0:0:0:
256,192,86189,12,0,85689,0:0:0:0:
256,192,86231,12,0,85731,0:0:0:0:
256,192,86272,12,0,85772,0:0:0:0:
256,192,86315,12,0,85815,0:0:0:0:
256,192,86356,12,0,85856,0:0:0:0:
256,192,86398,12,0,85898,0:0:0:0:
256,192,86439,12,0,85939,0:0:0:0:
256,192,86481,12,0,85981,0:0:0:0:
256,192,86522,12,0,86022,0:0:0:0:
256,192,86564,12,0,86064,0:0:0:0:
256,192,86605,12,0,86105,0:0:0:0:
256,192,86648,12,0,86148,0:0:0:0:
256,192,86689,12,0,86189,0:0:0:0:
256,192,86731,12,0,86231,0:0:0:0:
256,192,86772,12,0,86272,0:0:0:0:
256,192,86815,12,0,86315,0:0:0:0:
256,192,86856,12,0,86356,0:0:0:0:
256,192,86898,12,0,86398,0:0:0:0:
256,192,86939,12,0,86439,0:0:0:0:
256,192,86981,12,0,86481,0:0:0:0:
256,192,87022,12,0,86522,0:0:0:0:
256,192,87064,12,0,86564,0:0:0:0:
256,192,87105,12,0,86605,0:0:0:0:
256,192,87147,12,0,86647,0:0:0:0:
256,192,87188,12,0,86688,0:0:0:0:
256,192,87230,12,0,86730,0:0:0:0:
256,192,87271,12,0,86771,0:0:0:0:
256,192,87314,12,0,86814,0:0:0:0:
256,192,87355,12,0,86855,0:0:0:0:
256,192,87397,12,0,86897,0:0:0:0:
256,192,87438,12,0,86938,0:0:0:0:
256,192,87481,12,0,86981,0:0:0:0:
256,192,87522,12,0,87022,0:0:0:0:
256,192,87564,12,0,87064,0:0:0:0:
256,192,87605,12,0,87105,0:0:0:0:
256,192,87649,12,0,87149,0:0:0:0:
256,192,87690,12,0,87190,0:0:0:0:
256,192,87732,12,0,87232,0:0:0:0:
256,192,87773,12,0,87273,0:0:0:0:
256,192,87815,12,0,87315,0:0:0:0:
256,192,87856,12,0,87356,0:0:0:0:
256,192,87898,12,0,87398,0:0:0:0:
256,192,87939,12,0,87439,0:0:0:0:
256,192,87982,12,0,87482,0:0:0:0:
256,192,88023,12,0,87523,0:0:0:0:
256,192,88065,12,0,87565,0:0:0:0:
256,192,88106,12,0,87606,0:0:0:0:
256,192,88149,12,0,87649,0:0:0:0:
256,192,88190,12,0,87690,0:0:0:0:
256,192,88232,12,0,87732,0:0:0:0:
256,192,88273,12,0,87773,0:0:0:0:
256,192,88315,12,0,87815,0:0:0:0:
256,192,88356,12,0,87856,0:0:0:0:
256,192,88398,12,0,87898,0:0:0:0:
256,192,88439,12,0,87939,0:0:0:0:
256,192,88481,12,0,87981,0:0:0:0:
256,192,88522,12,0,88022,0:0:0:0:
256,192,88564,12,0,88064,0:0:0:0:
256,192,88605,12,0,88105,0:0:0:0:
256,192,88648,12,0,88148,0:0:0:0:
256,192,88689,12,0,88189,0:0:0:0:
256,192,88731,12,0,88231,0:0:0:0:
256,192,88772,12,0,88272,0:0:0:0:
256,192,88815,12,0,88315,0:0:0:0:
256,192,88856,12,0,88356,0:0:0:0:
256,192,88898,12,0,88398,0:0:0:0:
256,192,88939,12,0,88439,0:0:0:0:
256,192,88982,12,0,88482,0:0:0:0:
256,192,89023,12,0,88523,0:0:0:0:
256,192,89065,12,0,88565,0:0:0:0:
256,192,89106,12,0,88606,0:0:0:0:
256,192,89148,12,0,88648,0:0:0:0:
256,192,89189,12,0,88689,0:0:0:0:
256,192,89231,12,0,88731,0:0:0:0:
256,192,89272,12,0,88772,0:0:0:0:
256,192,89315,12,0,88815,0:0:0:0:
256,192,89356,12,0,88856,0:0:0:0:
256,192,89398,12,0,88898,0:0:0:0:
256,192,89439,12,0,88939,0:0:0:0:
256,192,89482,12,0,88982,0:0:0:0:
256,192,89523,12,0,89023,0:0:0:0:
256,192,89565,12,0,89065,0:0:0:0:
256,192,89606,12,0,89106,0:0:0:0:
256,192,89648,12,0,89148,0:0:0:0:
256,192,89689,12,0,89189,0:0:0:0:
256,192,89731,12,0,89231,0:0:0:0:
256,192,89772,12,0,89272,0:0:0:0:
256,192,89814,12,0,89314,0:0:0:0:
256,192,89855,12,0,89355,0:0:0:0:
256,192,89897,12,0,89397,0:0:0:0:
256,192,89938,12,0,89438,0:0:0:0:
256,192,89981,12,0,89481,0:0:0:0:
256,192,90022,12,0,89522,0:0:0:0:
256,192,90064,12,0,89564,0:0:0:0:
256,192,90105,12,0,89605,0:0:0:0:
256,192,90148,12,0,89648,0:0:0:0:
256,192,90189,12,0,89689,0:0:0:0:
256,192,90231,12,0,89731,0:0:0:0:
256,192,90272,12,0,89772,0:0:0:0:
256,192,90315,12,0,89815,0:0:0:0:
256,192,90356,12,0,89856,0:0:0:0:
256,192,90398,12,0,89898,0:0:0:0:
256,192,90439,12,0,89939,0:0:0:0:
256,192,90481,12,0,89981,0:0:0:0:
256,192,90522,12,0,90022,0:0:0:0:
256,192,90564,12,0,90064,0:0:0:0:
256,192,90605,12,0,90105,0:0:0:0:
256,192,90648,12,0,90148,0:0:0:0:
256,192,90689,12,0,90189,0:0:0:0:
256,192,90731,12,0,90231,0:0:0:0:
256,192,90772,12,0,90272,0:0:0:0:
256,192,90815,12,0,90315,0:0:0:0:
256,192,90856,12,0,90356,0:0:0:0:
256,192,90898,12,0,90398,0:0:0:0:
256,192,90939,12,0,90439,0:0:0:0:
256,192,90981,12,0,90481,0:0:0:0:
256,192,91022,12,0,90522,0:0:0:0:
256,192,91064,12,0,90564,0:0:0:0:
256,192,91105,12,0,90605,0:0:0:0:
256,192,91147,12,0,90647,0:0:0:0:
256,192,91188,12,0,90688,0:0:0:0:
256,192,91230,12,0,90730,0:0:0:0:
256,192,91271,12,0,90771,0:0:0:0:
256,192,91314,12,0,90814,0:0:0:0:
256,192,91355,12,0,90855,0:0:0:0:
256,192,91397,12,0,90897,0:0:0:0:
256,192,91438,12,0,90938,0:0:0:0:
256,192,91481,12,0,90981,0:0:0:0:
256,192,91522,12,0,91022,0:0:0:0:
256,192,91564,12,0,91064,0:0:0:0:
256,192,91605,12,0,91105,0:0:0:0:
256,192,91649,12,0,91149,0:0:0:0:
256,192,91690,12,0,91190,0:0:0:0:
256,192,91732,12,0,91232,0:0:0:0:
256,192,91773,12,0,91273,0:0:0:0:
256,192,91815,12,0,91315,0:0:0:0:
256,192,91856,12,0,91356,0:0:0:0:
256,192,91898,12,0,91398,0:0:0:0:
256,192,91939,12,0,91439,0:0:0:0:
256,192,91982,12,0,91482,0:0:0:0:
256,192,92023,12,0,91523,0:0:0:0:
256,192,92065,12,0,91565,0:0:0:0:
256,192,92106,12,0,91606,0:0:0:0:
256,192,92149,12,0,91649,0:0:0:0:
256,192,92190,12,0,91690,0:0:0:0:
256,192,92232,12,0,91732,0:0:0:0:
256,192,92273,12,0,91773,0:0:0:0:
256,192,92315,12,0,91815,0:0:0:0:
256,192,92356,12,0,91856,0:0:0:0:
256,192,92398,12,0,91898,0:0:0:0:
256,192,92439,12,0,91939,0:0:0:0:
256,192,92481,12,0,91981,0:0:0:0:
256,192,92522,12,0,92022,0:0:0:0:
256,192,92564,12,0,92064,0:0:0:0:
256,192,92605,12,0,92105,0:0:0:0:
256,192,92648,12,0,92148,0:0:0:0:
256,192,92689,12,0,92189,0:0:0:0:
256,192,92731,12,0,92231,0:0:0:0:
256,192,92772,12,0,92272,0:0:0:0:
256,192,92815,12,0,92315,0:0:0:0:
256,192,92856,12,0,92356,0:0:0:0:
256,192,92898,12,0,92398,0:0:0:0:
256,192,92939,12,0,92439,0:0:0:0:
256,192,92982,12,0,92482,0:0:0:0:
256,192,93023,12,0,92523,0:0:0:0:
256,192,93065,12,0,92565,0:0:0:0:
256,192,93106,12,0,92606,0:0:0:0:
256,192,93148,12,0,92648,0:0:0:0:
256,192,93189,12,0,92689,0:0:0:0:
256,192,93231,12,0,92731,0:0:0:0:
256,192,93272,12,0,92772,0:0:0:0:
256,192,93315,12,0,92815,0:0:0:0:
256,192,93356,12,0,92856,0:0:0:0:
256,192,93398,12,0,92898,0:0:0:0:
256,192,93439,12,0,92939,0:0:0:0:
256,192,93482,12,0,92982,0:0:0:0:
256,192,93523,12,0,93023,0:0:0:0:
256,192,93565,12,0,93065,0:0:0:0:
256,192,93606,12,0,93106,0:0:0:0:
256,192,93648,12,0,93148,0:0:0:0:
256,192,93689,12,0,93189,0:0:0:0:
256,192,93731,12,0,93231,0:0:0:0:
256,192,93772,12,0,93272,0:0:0:0:
256,192,93814,12,0,93314,0:0:0:0:
256,192,93855,12,0,93355,0:0:0:0:
256,192,93897,12,0,93397,0:0:0:0:
256,192,93938,12,0,93438,0:0:0:0:
256,192,93981,12,0,93481,0:0:0:0:
256,192,94022,12,0,93522,0:0:0:0:
256,192,94064,12,0,93564,0:0:0:0:
256,192,94105,12,0,93605,0:0:0:0:
256,192,94148,12,0,93648,0:0:0:0:
256,192,94189,12,0,93689,0:0:0:0:
256,192,94231,12,0,93731,0:0:0:0:
256,192,94272,12,0,93772,0:0:0:0:
256,192,94315,12,0,93815,0:0:0:0:
256,192,94356,12,0,93856,0:0:0:0:
256,192,94398,12,0,93898,0:0:0:0:
256,192,94439,12,0,93939,0:0:0:0:
256,192,94481,12,0,93981,0:0:0:0:
256,192,94522,12,0,94022,0:0:0:0:
256,192,94564,12,0,94064,0:0:0:0:
256,192,94605,12,0,94105,0:0:0:0:
256,192,94648,12,0,94148,0:0:0:0:
256,192,94689,12,0,94189,0:0:0:0:
256,192,94731,12,0,94231,0:0:0:0:
256,192,94772,12,0,94272,0:0:0:0:
256,192,94815,12,0,94315,0:0:0:0:
256,192,94856,12,0,94356,0:0:0:0:
256,192,94898,12,0,94398,0:0:0:0:
256,192,94939,12,0,94439,0:0:0:0:
256,192,94981,12,0,94481,0:0:0:0:
256,192,95022,12,0,94522,0:0:0:0:
256,192,95064,12,0,94564,0:0:0:0:
256,192,95105,12,0,94605,0:0:0:0:
256,192,95147,12,0,94647,0:0:0:0:
256,192,95188,12,0,94688,0:0:0:0:
256,192,95230,12,0,94730,0:0:0:0:
256,192,95271,12,0,94771,0:0:0:0:
256,192,95314,12,0,94814,0:0:0:0:
256,192,95355,12,0,94855,0:0:0:0:
256,192,95397,12,0,94897,0:0:0:0:
256,192,95438,12,0,94938,0:0:0:0:
256,192,95481,12,0,94981,0:0:0:0:
256,192,95522,12,0,95022,0:0:0:0:
256,192,95564,12,0,95064,0:0:0:0:
256,192,95605,12,0,95105,0:0:0:0:
256,192,95649,12,0,95149,0:0:0:0:
256,192,95690,12,0,95190,0:0:0:0:
256,192,95732,12,0,95232,0:0:0:0:
256,192,95773,12,0,95273,0:0:0:0:
256,192,95815,12,0,95315,0:0:0:0:
256,192,95856,12,0,95356,0:0:0:0:
256,192,95898,12,0,95398,0:0:0:0:
256,192,95939,12,0,95439,0:0:0:0:
256,192,95982,12,0,95482,0:0:0:0:
256,192,96023,12,0,95523,0:0:0:0:
256,192,96065,12,0,95565,0:0:0:0:
256,192,96106,12,0,95606,0:0:0:0:
256,192,96149,12,0,95649,0:0:0:0:
256,192,96190,12,0,95690,0:0:0:0:
256,192,96232,12,0,95732,0:0:0:0:
256,192,96273,12,0,95773,0:0:0:0:
256,192,96315,12,0,95815,0:0:0:0:
256,192,96356,12,0,95856,0:0:0:0:
256,192,96398,12,0,95898,0:0:0:0:
256,192,96439,12,0,95939,0:0:0:0:
256,192,96481,12,0,95981,0:0:0:0:
256,192,96522,12,0,96022,0:0:0:0:
256,192,96564,12,0,96064,0:0:0:0:
256,192,96605,12,0,96105,0:0:0:0:
256,192,96648,12,0,96148,0:0:0:0:
256,192,96689,12,0,96189,0:0:0:0:
256,192,96731,12,0,96231,0:0:0:0:
256,192,96772,12,0,96272,0:0:0:0:
256,192,96815,12,0,96315,0:0:0:0:
256,192,96856,12,0,96356,0:0:0:0:
256,192,96898,12,0,96398,0:0:0:0:
256,192,96939,12,0,96439,0:0:0:0:
256,192,96982,12,0,96482,0:0:0:0:
256,192,97023,12,0,96523,0:0:0:0:
256,192,97065,12,0,96565,0:0:0:0:
256,192,97106,12,0,96606,0:0:0:0:
256,192,97148,12,0,96648,0:0:0:0:
256,192,97189,12,0,96689,0:0:0:0:
256,192,97231,12,0,96731,0:0:0:0:
256,192,97272,12,0,96772,0:0:0:0:
256,192,97315,12,0,96815,0:0:0:0:
256,192,97356,12,0,96856,0:0:0:0:
256,192,97398,12,0,96898,0:0:0:0:
256,192,97439,12,0,96939,0:0:0:0:
256,192,97482,12,0,96982,0:0:0:0:
256,192,97523,12,0,97023,0:0:0:0:
256,192,97565,12,0,97065,0:0:0:0:
256,192,97606,12,0,97106,0:0:0:0:
256,192,97648,12,0,97148,0:0:0:0:
256,192,97689,12,0,97189,0:0:0:0:
256,192,97731,12,0,97231,0:0:0:0:
256,192,97772,12,0,97272,0:0:0:0:
256,192,97814,12,0,97314,0:0:0:0:
256,192,97855,12,0,97355,0:0:0:0:
256,192,97897,12,0,97397,0:0:0:0:
256,192,97938,12,0,97438,0:0:0:0:
256,192,97981,12,0,97481,0:0:0:0:
256,192,98022,12,0,97522,0:0:0:0:
256,192,98064,12,0,97564,0:0:0:0:
256,192,98105,12,0,97605,0:0:0:0:
256,192,98148,12,0,97648,0:0:0:0:
256,192,98189,12,0,97689,0:0:0:0:
256,192,98231,12,0,97731,0:0:0:0:
256,192,98272,12,0,97772,0:0:0:0:
256,192,98315,12,0,97815,0:0:0:0:
256,192,98356,12,0,97856,0:0:0:0:
256,192,98398,12,0,97898,0:0:0:0:
256,192,98439,12,0,97939,0:0:0:0:
256,192,98481,12,0,97981,0:0:0:0:
256,192,98522,12,0,98022,0:0:0:0:
256,192,98564,12,0,98064,0:0:0:0:
256,192,98605,12,0,98105,0:0:0:0:
256,192,98648,12,0,98148,0:0:0:0:
256,192,98689,12,0,98189,0:0:0:0:
256,192,98731,12,0,98231,0:0:0:0:
256,192,98772,12,0,98272,0:0:0:0:
256,192,98815,12,0,98315,0:0:0:0:
256,192,98856,12,0,98356,0:0:0:0:
256,192,98898,12,0,98398,0:0:0:0:
256,192,98939,12,0,98439,0:0:0:0:
256,192,98981,12,0,98481,0:0:0:0:
256,192,99022,12,0,98522,0:0:0:0:
256,192,99064,12,0,98564,0:0:0:0:
256,192,99105,12,0,98605,0:0:0:0:
256,192,99147,12,0,98647,0:0:0:0:
256,192,99188,12,0,98688,0:0:0:0:
256,192,99230,12,0,98730,0:0:0:0:
256,192,99271,12,0,98771,0:0:0:0:
256,192,99314,12,0,98814,0:0:0:0:
256,192,99355,12,0,98855,0:0:0:0:
256,192,99397,12,0,98897,0:0:0:0:
256,192,99438,12,0,98938,0:0:0:0:
256,192,99481,12,0,98981,0:0:0:0:
256,192,99522,12,0,99022,0:0:0:0:
256,192,99564,12,0,99064,0:0:0:0:
256,192,99605,12,0,99105,0:0:0:0:
256,192,99649,12,0,99149,0:0:0:0:
256,192,99690,12,0,99190,0:0:0:0:
256,192,99732,12,0,99232,0:0:0:0:
256,192,99773,12,0,99273,0:0:0:0:
256,192,99815,12,0,99315,0:0:0:0:
256,192,99856,12,0,99356,0:0:0:0:
256,192,99898,12,0,99398,0:0:0:0:
256,192,99939,12,0,99439,0:0:0:0:
256,192,99982,12,0,99482,0:0:0:0:
256,192,100023,12,0,99523,0:0:0:0:
256,192,100065,12,0,99565,0:0:0:0:
256,192,100106,12,0,99606,0:0:0:0:
256,192,100149,12,0,99649,0:0:0:0:
256,192,100190,12,0,99690,0:0:0:0:
256,192,100232,12,0,99732,0:0:0:0:
256,192,100273,12,0,99773,0:0:0:0:
256,192,100315,12,0,99815,0:0:0:0:
256,192,100356,12,0,99856,0:0:0:0:
256,192,100398,12,0,99898,0:0:0:0:
256,192,100439,12,0,99939,0:0:0:0:
256,192,100481,12,0,99981,0:0:0:0:
256,192,100522,12,0,100022,0:0:0:0:
256,192,100564,12,0,100064,0:0:0:0:
256,192,100605,12,0,100105,0:0:0:0:
256,192,100648,12,0,100148,0:0:0:0:
256,192,100689,12,0,100189,0:0:0:0:
256,192,100731,12,0,100231,0:0:0:0:
256,192,100772,12,0,100272,0:0:0:0:
256,192,100815,12,0,100315,0:0:0:0:
256,192,100856,12,0,100356,0:0:0:0:
256,192,100898,12,0,100398,0:0:0:0:
256,192,100939,12,0,100439,0:0:0:0:
256,192,100982,12,0,100482,0:0:0:0:
256,192,101023,12,0,100523,0:0:0:0:
256,192,101065,12,0,100565,0:0:0:0:
256,192,101106,12,0,100606,0:0:0:0:
256,192,101148,12,0,100648,0:0:0:0:
256,192,101189,12,0,100689,0:0:0:0:
256,192,101231,12,0,100731,0:0:0:0:
256,192,101272,12,0,100772,0:0:0:0:
256,192,101315,12,0,100815,0:0:0:0:
256,192,101356,12,0,100856,0:0:0:0:
256,192,101398,12,0,100898,0:0:0:0:
256,192,101439,12,0,100939,0:0:0:0:
256,192,101482,12,0,100982,0:0:0:0:
256,192,101523,12,0,101023,0:0:0:0:
256,192,101565,12,0,101065,0:0:0:0:
256,192,101606,12,0,101106,0:0:0:0:
256,192,101648,12,0,101148,0:0:0:0:
256,192,101689,12,0,101189,0:0:0:0:
256,192,101731,12,0,101231,0:0:0:0:
256,192,101772,12,0,101272,0:0:0:0:
256,192,101814,12,0,101314,0:0:0:0:
256,192,101855,12,0,101355,0:0:0:0:
256,192,101897,12,0,101397,0:0:0:0:
256,192,101938,12,0,101438,0:0:0:0:
256,192,101981,12,0,101481,0:0:0:0:
256,192,102022,12,0,101522,0:0:0:0:
256,192,102064,12,0,101564,0:0:0:0:
256,192,102105,12,0,101605,0:0:0:0:
256,192,102148,12,0,101648,0:0:0:0:
256,192,102189,12,0,101689,0:0:0:0:
256,192,102231,12,0,101731,0:0:0:0:
256,192,102272,12,0,101772,0:0:0:0:
256,192,102315,12,0,101815,0:0:0:0:
256,192,102356,12,0,101856,0:0:0:0:
256,192,102398,12,0,101898,0:0:0:0:
256,192,102439,12,0,101939,0:0:0:0:
256,192,102481,12,0,101981,0:0:0:0:
256,192,102522,12,0,102022,0:0:0:0:
256,192,102564,12,0,102064,0:0:0:0:
256,192,102605,12,0,102105,0:0:0:0:
256,192,102648,12,0,102148,0:0:0:0:
256,192,102689,12,0,102189,0:0:0:0:
256,192,102731,12,0,102231,0:0:0:0:
256,192,102772,12,0,102272,0:0:0:0:
256,192,102815,12,0,102315,0:0:0:0:
256,192,102856,12,0,102356,0:0:0:0:
256,192,102898,12,0,102398,0:0:0:0:
256,192,102939,12,0,102439,0:0:0:0:
256,192,102981,12,0,102481,0:0:0:0:
256,192,103022,12,0,102522,0:0:0:0:
256,192,103064,12,0,102564,0:0:0:0:
256,192,103105,12,0,102605,0:0:0:0:
256,192,103147,12,0,102647,0:0:0:0:
256,192,103188,12,0,102688,0:0:0:0:
256,192,103230,12,0,102730,0:0:0:0:
256,192,103271,12,0,102771,0:0:0:0:
256,192,103314,12,0,102814,0:0:0:0:
256,192,103355,12,0,102855,0:0:0:0:
256,192,103397,12,0,102897,0:0:0:0:
256,192,103438,12,0,102938,0:0:0:0:
256,192,103481,12,0,102981,0:0:0:0:
256,192,103522,12,0,103022,0:0:0:0:
256,192,103564,12,0,103064,0:0:0:0:
256,192,103605,12,0,103105,0:0:0:0:
256,192,103649,12,0,103149,0:0:0:0:
256,192,103690,12,0,103190,0:0:0:0:
256,192,103732,12,0,103232,0:0:0:0:
256,192,103773,12,0,103273,0:0:0:0:
256,192,103815,12,0,103315,0:0:0:0:
256,192,103856,12,0,103356,0:0:0:0:
256,192,103898,12,0,103398,0:0:0:0:
256,192,103939,12,0,103439,0:0:0:0:
256,192,103982,12,0,103482,0:0:0:0:
256,192,104023,12,0,103523,0:0:0:0:
256,192,104065,12,0,103565,0:0:0:0:
256,192,104106,12,0,103606,0:0:0:0:
256,192,104149,12,0,103649,0:0:0:0:
256,192,104190,12,0,103690,0:0:0:0:
256,192,104232,12,0,103732,0:0:0:0:
256,192,104273,12,0,103773,0:0:0:0:
256,192,104315,12,0,103815,0:0:0:0:
256,192,104356,12,0,103856,0:0:0:0:
256,192,104398,12,0,103898,0:0:0:0:
256,192,104439,12,0,103939,0:0:0:0:
256,192,104481,12,0,103981,0:0:0:0:
256,192,104522,12,0,104022,0:0:0:0:
256,192,104564,12,0,104064,0:0:0:0:
256,192,104605,12,0,104105,0:0:0:0:
256,192,104648,12,0,104148,0:0:0:0:
256,192,104689,12,0,104189,0:0:0:0:
256,192,104731,12,0,104231,0:0:0:0:
256,192,104772,12,0,104272,0:0:0:0:
256,192,104815,12,0,104315,0:0:0:0:
256,192,104856,12,0,104356,0:0:0:0:
256,192,104898,12,0,104398,0:0:0:0:
256,192,104939,12,0,104439,0:0:0:0:
256,192,104982,12,0,104482,0:0:0:0:
256,192,105023,12,0,104523,0:0:0:0:
256,192,105065,12,0,104565,0:0:0:0:
256,192,105106,12,0,104606,0:0:0:0:
256,192,105148,12,0,104648,0:0:0:0:
256,192,105189,12,0,104689,0:0:0:0:
256,192,105231,12,0,104731,0:0:0:0:
256,192,105272,12,0,104772,0:0:0:0:
256,192,105315,12,0,104815,0:0:0:0:
256,192,105356,12,0,104856,0:0:0:0:
256,192,105398,12,0,104898,0:0:0:0:
256,192,105439,12,0,104939,0:0:0:0:
256,192,105482,12,0,104982,0:0:0:0:
256,192,105523,12,0,105023,0:0:0:0:
256,192,105565,12,0,105065,0:0:0:0:
256,192,105606,12,0,105106,0:0:0:0:
256,192,105648,12,0,105148,0:0:0:0:
256,192,105689,12,0,105189,0:0:0:0:
256,192,105731,12,0,105231,0:0:0:0:
256,192,105772,12,0,105272,0:0:0:0:
256,192,105814,12,0,105314,0:0:0:0:
256,192,105855,12,0,105355,0:0:0:0:
256,192,105897,12,0,105397,0:0:0:0:
256,192,105938,12,0,105438,0:0:0:0:
256,192,105981,12,0,105481,0:0:0:0:
256,192,106022,12,0,105522,0:0:0:0:
256,192,106064,12,0,105564,0:0:0:0:
256,192,106105,12,0,105605,0:0:0:0:
256,192,106148,12,0,105648,0:0:0:0:
256,192,106189,12,0,105689,0:0:0:0:
256,192,106231,12,0,105731,0:0:0:0:
256,192,106272,12,0,105772,0:0:0:0:
256,192,106315,12,0,105815,0:0:0:0:
256,192,106356,12,0,105856,0:0:0:0:
256,192,106398,12,0,105898,0:0:0:0:
256,192,106439,12,0,105939,0:0:0:0:
256,192,106481,12,0,105981,0:0:0:0:
256,192,106522,12,0,106022,0:0:0:0:
256,192,106564,12,0,106064,0:0:0:0:
256,192,106605,12,0,106105,0:0:0:0:
256,192,106648,12,0,106148,0:0:0:0:
256,192,106689,12,0,106189,0:0:0:0:
256,192,106731,12,0,106231,0:0:0:0:
256,192,106772,12,0,106272,0:0:0:0:
256,192,106815,12,0,106315,0:0:0:0:
256,192,106856,12,0,106356,0:0:0:0:
256,192,106898,12,0,106398,0:0:0:0:
256,192,106939,12,0,106439,0:0:0:0:
256,192,106981,12,0,106481,0:0:0:0:
256,192,107022,12,0,106522,0:0:0:0:
256,192,107064,12,0,106564,0:0:0:0:
256,192,107105,12,0,106605,0:0:0:0:
256,192,107147,12,0,106647,0:0:0:0:
256,192,107188,12,0,106688,0:0:0:0:
256,192,107230,12,0,106730,0:0:0:0:
256,192,107271,12,0,106771,0:0:0:0:
256,192,107314,12,0,106814,0:0:0:0:
256,192,107355,12,0,106855,0:0:0:0:
256,192,107397,12,0,106897,0:0:0:0:
256,192,107438,12,0,106938,0:0:0:0:
256,192,107481,12,0,106981,0:0:0:0:
256,192,107522,12,0,107022,0:0:0:0:
256,192,107564,12,0,107064,0:0:0:0:
256,192,107605,12,0,107105,0:0:0:0:
256,192,107649,12,0,107149,0:0:0:0:
256,192,107690,12,0,107190,0:0:0:0:
256,192,107732,12,0,107232,0:0:0:0:
256,192,107773,12,0,107273,0:0:0:0:
256,192,107815,12,0,107315,0:0:0:0:
256,192,107856,12,0,107356,0:0:0:0:
256,192,107898,12,0,107398,0:0:0:0:
256,192,107939,12,0,107439,0:0:0:0:
256,192,107982,12,0,107482,0:0:0:0:
256,192,108023,12,0,107523,0:0:0:0:
256,192,108065,12,0,107565,0:0:0:0:
256,192,108106,12,0,107606,0:0:0:0:
256,192,108149,12,0,107649,0:0:0:0:
256,192,108190,12,0,107690,0:0:0:0:
256,192,108232,12,0,107732,0:0:0:0:
256,192,108273,12,0,107773,0:0:0:0:
256,192,108315,12,0,107815,0:0:0:0:
256,192,108356,12,0,107856,0:0:0:0:
256,192,108398,12,0,107898,0:0:0:0:
256,192,108439,12,0,107939,0:0:0:0:
256,192,108481,12,0,107981,0:0:0:0:
256,192,108522,12,0,108022,0:0:0:0:
256,192,108564,12,0,108064,0:0:0:0:
256,192,108605,12,0,108105,0:0:0:0:
256,192,108648,12,0,108148,0:0:0:0:
256,192,108689,12,0,108189,0:0:0:0:
256,192,108731,12,0,108231,0:0:0:0:
256,192,108772,12,0,108272,0:0:0:0:
256,192,108815,12,0,108315,0:0:0:0:
256,192,108856,12,0,108356,0:0:0:0:
256,192,108898,12,0,108398,0:0:0:0:
256,192,108939,12,0,108439,0:0:0:0:
256,192,108982,12,0,108482,0:0:0:0:
256,192,109023,12,0,108523,0:0:0:0:
256,192,109065,12,0,108565,0:0:0:0:
256,192,109106,12,0,108606,0:0:0:0:
256,192,109148,12,0,108648,0:0:0:0:
256,192,109189,12,0,108689,0:0:0:0:
256,192,109231,12,0,108731,0:0:0:0:
256,192,109272,12,0,108772,0:0:0:0:
256,192,109315,12,0,108815,0:0:0:0:
256,192,109356,12,0,108856,0:0:0:0:
256,192,109398,12,0,108898,0:0:0:0:
256,192,109439,12,0,108939,0:0:0:0:
256,192,109482,12,0,108982,0:0:0:0:
256,192,109523,12,0,109023,0:0:0:0:
256,192,109565,12,0,109065,0:0:0:0:
256,192,109606,12,0,109106,0:0:0:0:
256,192,109648,12,0,109148,0:0:0:0:
256,192,109689,12,0,109189,0:0:0:0:
256,192,109731,12,0,109231,0:0:0:0:
256,192,109772,12,0,109272,0:0:0:0:
256,192,109814,12,0,109314,0:0:0:0:
256,192,109855,12,0,109355,0:0:0:0:
256,192,109897,12,0,109397,0:0:0:0:
256,192,109938,12,0,109438,0:0:0:0:
256,192,109981,12,0,109481,0:0:0:0:
256,192,110022,12,0,109522,0:0:0:0:
256,192,110064,12,0,109564,0:0:0:0:
256,192,110105,12,0,109605,0:0:0:0:
256,192,110148,12,0,109648,0:0:0:0:
256,192,110189,12,0,109689,0:0:0:0:
256,192,110231,12,0,109731,0:0:0:0:
256,192,110272,12,0,109772,0:0:0:0:
256,192,110315,12,0,109815,0:0:0:0:
256,192,110356,12,0,109856,0:0:0:0:
256,192,110398,12,0,109898,0:0:0:0:
256,192,110439,12,0,109939,0:0:0:0:
256,192,110481,12,0,109981,0:0:0:0:
256,192,110522,12,0,110022,0:0:0:0:
256,192,110564,12,0,110064,0:0:0:0:
256,192,110605,12,0,110105,0:0:0:0:
256,192,110648,12,0,110148,0:0:0:0:
256,192,110689,12,0,110189,0:0:0:0:
256,192,110731,12,0,110231,0:0:0:0:
256,192,110772,12,0,110272,0:0:0:0:
256,192,110815,12,0,110315,0:0:0:0:
256,192,110856,12,0,110356,0:0:0:0:
256,192,110898,12,0,110398,0:0:0:0:
256,192,110939,12,0,110439,0:0:0:0:
256,192,110981,12,0,110481,0:0:0:0:
256,192,111022,12,0,110522,0:0:0:0:
256,192,111064,12,0,110564,0:0:0:0:
256,192,111105,12,0,110605,0:0:0:0:
256,192,111147,12,0,110647,0:0:0:0:
256,192,111188,12,0,110688,0:0:0:0:
256,192,111230,12,0,110730,0:0:0:0:
256,192,111271,12,0,110771,0:0:0:0:
256,192,111314,12,0,110814,0:0:0:0:
256,192,111355,12,0,110855,0:0:0:0:
256,192,111397,12,0,110897,0:0:0:0:
256,192,111438,12,0,110938,0:0:0:0:
256,192,111481,12,0,110981,0:0:0:0:
256,192,111522,12,0,111022,0:0:0:0:
256,192,111564,12,0,111064,0:0:0:0:
256,192,111605,12,0,111105,0:0:0:0:
256,192,111649,12,0,111149,0:0:0:0:
256,192,111690,12,0,111190,0:0:0:0:
256,192,111732,12,0,111232,0:0:0:0:
256,192,111773,12,0,111273,0:0:0:0:
256,192,111815,12,0,111315,0:0:0:0:
256,192,111856,12,0,111356,0:0:0:0:
256,192,111898,12,0,111398,0:0:0:0:
256,192,111939,12,0,111439,0:0:0:0:
256,192,111982,12,0,111482,0:0:0:0:
256,192,112023,12,0,111523,0:0:0:0:
256,192,112065,12,0,111565,0:0:0:0:
256,192,112106,12,0,111606,0:0:0:0:
256,192,112149,12,0,111649,0:0:0:0:
256,192,112190,12,0,111690,0:0:0:0:
256,192,112232,12,0,111732,0:0:0:0:
256,192,112273,12,0,111773,0:0:0:0:
256,192,112315,12,0,111815,0:0:0:0:
256,192,112356,12,0,111856,0:0:0:0:
256,192,112398,12,0,111898,0:0:0:0:
256,192,112439,12,0,111939,0:0:0:0:
256,192,112481,12,0,111981,0:0:0:0:
256,192,112522,12,0,112022,0:0:0:0:
256,192,112564,12,0,112064,0:0:0:0:
256,192,112605,12,0,112105,0:0:0:0:
256,192,112648,12,0,112148,0:0:0:0:
256,192,112689,12,0,112189,0:0:0:0:
256,192,112731,12,0,112231,0:0:0:0:
256,192,112772,12,0,112272,0:0:0:0:
256,192,112815,12,0,112315,0:0:0:0:
256,192,112856,12,0,112356,0:0:0:0:
256,192,112898,12,0,112398,0:0:0:0:
256,192,112939,12,0,112439,0:0:0:0:
256,192,112982,12,0,112482,0:0:0:0:
256,192,113023,12,0,112523,0:0:0:0:
256,192,113065,12,0,112565,0:0:0:0:
256,192,113106,12,0,112606,0:0:0:0:
256,192,113148,12,0,112648,0:0:0:0:
256,192,113189,12,0,112689,0:0:0:0:
256,192,113231,12,0,112731,0:0:0:0:
256,192,113272,12,0,112772,0:0:0:0:
256,192,113315,12,0,112815,0:0:0:0:
256,192,113356,12,0,112856,0:0:0:0:
256,192,113398,12,0,112898,0:0:0:0:
256,192,113439,12,0,112939,0:0:0:0:
256,192,113482,12,0,112982,0:0:0:0:
256,192,113523,12,0,113023,0:0:0:0:
256,192,113565,12,0,113065,0:0:0:0:
256,192,113606,12,0,113106,0:0:0:0:
256,192,113648,12,0,113148,0:0:0:0:
256,192,113689,12,0,113189,0:0:0:0:
256,192,113731,12,0,113231,0:0:0:0:
256,192,113772,12,0,113272,0:0:0:0:
256,192,113814,12,0,113314,0:0:0:0:
256,192,113855,12,0,113355,0:0:0:0:
256,192,113897,12,0,113397,0:0:0:0:
256,192,113938,12,0,113438,0:0:0:0:
256,192,113981,12,0,113481,0:0:0:0:
256,192,114022,12,0,113522,0:0:0:0:
256,192,114064,12,0,113564,0:0:0:0:
256,192,114105,12,0,113605,0:0:0:0:
256,192,114148,12,0,113648,0:0:0:0:
256,192,114189,12,0,113689,0:0:0:0:
256,192,114231,12,0,113731,0:0:0:0:
256,192,114272,12,0,113772,0:0:0:0:
256,192,114315,12,0,113815,0:0:0:0:
256,192,114356,12,0,113856,0:0:0:0:
256,192,114398,12,0,113898,0:0:0:0:
256,192,114439,12,0,113939,0:0:0:0:
256,192,114481,12,0,113981,0:0:0:0:
256,192,114522,12,0,114022,0:0:0:0:
256,192,114564,12,0,114064,0:0:0:0:
256,192,114605,12,0,114105,0:0:0:0:
256,192,114648,12,0,114148,0:0:0:0:
256,192,114689,12,0,114189,0:0:0:0:
256,192,114731,12,0,114231,0:0:0:0:
256,192,114772,12,0,114272,0:0:0:0:
256,192,114815,12,0,114315,0:0:0:0:
256,192,114856,12,0,114356,0:0:0:0:
256,192,114898,12,0,114398,0:0:0:0:
256,192,114939,12,0,114439,0:0:0:0:
256,192,114981,12,0,114481,0:0:0:0:
256,192,115022,12,0,114522,0:0:0:0:
256,192,115064,12,0,114564,0:0:0:0:
256,192,115105,12,0,114605,0:0:0:0:
256,192,115147,12,0,114647,0:0:0:0:
256,192,115188,12,0,114688,0:0:0:0:
256,192,115230,12,0,114730,0:0:0:0:
256,192,115271,12,0,114771,0:0:0:0:
256,192,115314,12,0,114814,0:0:0:0:
256,192,115355,12,0,114855,0:0:0:0:
256,192,115397,12,0,114897,0:0:0:0:
256,192,115438,12,0,114938,0:0:0:0:
256,192,115481,12,0,114981,0:0:0:0:
256,192,115522,12,0,115022,0:0:0:0:
256,192,115564,12,0,115064,0:0:0:0:
256,192,115605,12,0,115105,0:0:0:0:
256,192,115649,12,0,115149,0:0:0:0:
256,192,115690,12,0,115190,0:0:0:0:
256,192,115732,12,0,115232,0:0:0:0:
256,192,115773,12,0,115273,0:0:0:0:
256,192,115815,12,0,115315,0:0:0:0:
256,192,115856,12,0,115356,0:0:0:0:
256,192,115898,12,0,115398,0:0:0:0:
256,192,115939,12,0,115439,0:0:0:0:
256,192,115982,12,0,115482,0:0:0:0:
256,192,116023,12,0,115523,0:0:0:0:
256,192,116065,12,0,115565,0:0:0:0:
256,192,116106,12,0,115606,0:0:0:0:
256,192,116149,12,0,115649,0:0:0:0:
256,192,116190,12,0,115690,0:0:0:0:
256,192,116232,12,0,115732,0:0:0:0:
256,192,116273,12,0,115773,0:0:0:0:
256,192,116315,12,0,115815,0:0:0:0:
256,192,116356,12,0,115856,0:0:0:0:
256,192,116398,12,0,115898,0:0:0:0:
256,192,116439,12,0,115939,0:0:0:0:
256,192,116481,12,0,115981,0:0:0:0:
256,192,116522,12,0,116022,0:0:0:0:
256,192,116564,12,0,116064,0:0:0:0:
256,192,116605,12,0,116105,0:0:0:0:
256,192,116648,12,0,116148,0:0:0:0:
256,192,116689,12,0,116189,0:0:0:0:
256,192,116731,12,0,116231,0:0:0:0:
256,192,116772,12,0,116272,0:0:0:0:
256,192,116815,12,0,116315,0:0:0:0:
256,192,116856,12,0,116356,0:0:0:0:
256,192,116898,12,0,116398,0:0:0:0:
256,192,116939,12,0,116439,0:0:0:0:
256,192,116982,12,0,116482,0:0:0:0:
256,192,117023,12,0,116523,0:0:0:0:
256,192,117065,12,0,116565,0:0:0:0:
256,192,117106,12,0,116606,0:0:0:0:
256,192,117148,12,0,116648,0:0:0:0:
256,192,117189,12,0,116689,0:0:0:0:
256,192,117231,12,0,116731,0:0:0:0:
256,192,117272,12,0,116772,0:0:0:0:
256,192,117315,12,0,116815,0:0:0:0:
256,192,117356,12,0,116856,0:0:0:0:
256,192,117398,12,0,116898,0:0:0:0:
256,192,117439,12,0,116939,0:0:0:0:
256,192,117482,12,0,116982,0:0:0:0:
256,192,117523,12,0,117023,0:0:0:0:
256,192,117565,12,0,117065,0:0:0:0:
256,192,117606,12,0,117106,0:0:0:0:
256,192,117648,12,0,117148,0:0:0:0:
256,192,117689,12,0,117189,0:0:0:0:
256,192,117731,12,0,117231,0:0:0:0:
256,192,117772,12,0,117272,0:0:0:0:
256,192,117814,12,0,117314,0:0:0:0:
256,192,117855,12,0,117355,0:0:0:0:
256,192,117897,12,0,117397,0:0:0:0:
256,192,117938,12,0,117438,0:0:0:0:
256,192,117981,12,0,117481,0:0:0:0:
256,192,118022,12,0,117522,0:0:0:0:
256,192,118064,12,0,117564,0:0:0:0:
256,192,118105,12,0,117605,0:0:0:0:
256,192,118148,12,0,117648,0:0:0:0:
256,192,118189,12,0,117689,0:0:0:0:
256,192,118231,12,0,117731,0:0:0:0:
256,192,118272,12,0,117772,0:0:0:0:
256,192,118315,12,0,117815,0:0:0:0:
256,192,118356,12,0,117856,0:0:0:0:
256,192,118398,12,0,117898,0:0:0:0:
256,192,118439,12,0,117939,0:0:0:0:
256,192,118481,12,0,117981,0:0:0:0:
256,192,118522,12,0,118022,0:0:0:0:
256,192,118564,12,0,118064,0:0:0:0:
256,192,118605,12,0,118105,0:0:0:0:
256,192,118648,12,0,118148,0:0:0:0:
256,192,118689,12,0,118189,0:0:0:0:
256,192,118731,12,0,118231,0:0:0:0:
256,192,118772,12,0,118272,0:0:0:0:
256,192,118815,12,0,118315,0:0:0:0:
256,192,118856,12,0,118356,0:0:0:0:
256,192,118898,12,0,118398,0:0:0:0:
256,192,118939,12,0,118439,0:0:0:0:
256,192,118981,12,0,118481,0:0:0:0:
256,192,119022,12,0,118522,0:0:0:0:
256,192,119064,12,0,118564,0:0:0:0:
256,192,119105,12,0,118605,0:0:0:0:
256,192,119147,12,0,118647,0:0:0:0:
256,192,119188,12,0,118688,0:0:0:0:
256,192,119230,12,0,118730,0:0:0:0:
256,192,119271,12,0,118771,0:0:0:0:
256,192,119314,12,0,118814,0:0:0:0:
256,192,119355,12,0,118855,0:0:0:0:
256,192,119397,12,0,118897,0:0:0:0:
256,192,119438,12,0,118938,0:0:0:0:
256,192,119481,12,0,118981,0:0:0:0:
256,192,119522,12,0,119022,0:0:0:0:
256,192,119564,12,0,119064,0:0:0:0:
256,192,119605,12,0,119105,0:0:0:0:
256,192,119649,12,0,119149,0:0:0:0:
256,192,119690,12,0,119190,0:0:0:0:
256,192,119732,12,0,119232,0:0:0:0:
256,192,119773,12,0,119273,0:0:0:0:
256,192,119815,12,0,119315,0:0:0:0:
256,192,119856,12,0,119356,0:0:0:0:
256,192,119898,12,0,119398,0:0:0:0:
256,192,119939,12,0,119439,0:0:0:0:
256,192,119982,12,0,119482,0:0:0:0:
256,192,120023,12,0,119523,0:0:0:0:
256,192,120065,12,0,119565,0:0:0:0:
256,192,120106,12,0,119606,0:0:0:0:
256,192,120149,12,0,119649,0:0:0:0:
256,192,120190,12,0,119690,0:0:0:0:
256,192,120232,12,0,119732,0:0:0:0:
256,192,120273,12,0,119773,0:0:0:0:
256,192,120315,12,0,119815,0:0:0:0:
256,192,120356,12,0,119856,0:0:0:0:
256,192,120398,12,0,119898,0:0:0:0:
256,192,120439,12,0,119939,0:0:0:0:
256,192,120481,12,0,119981,0:0:0:0:
256,192,120522,12,0,120022,0:0:0:0:
256,192,120564,12,0,120064,0:0:0:0:
256,192,120605,12,0,120105,0:0:0:0:
256,192,120648,12,0,120148,0:0:0:0:
256,192,120689,12,0,120189,0:0:0:0:
256,192,120731,12,0,120231,0:0:0:0:
256,192,120772,12,0,120272,0:0:0:0:
256,192,120815,12,0,120315,0:0:0:0:
256,192,120856,12,0,120356,0:0:0:0:
256,192,120898,12,0,120398,0:0:0:0:
256,192,120939,12,0,120439,0:0:0:0:
256,192,120982,12,0,120482,0:0:0:0:
256,192,121023,12,0,120523,0:0:0:0:
256,192,121065,12,0,120565,0:0:0:0:
256,192,121106,12,0,120606,0:0:0:0:
256,192,121148,12,0,120648,0:0:0:0:
256,192,121189,12,0,120689,0:0:0:0:
256,192,121231,12,0,120731,0:0:0:0:
256,192,121272,12,0,120772,0:0:0:0:
256,192,121315,12,0,120815,0:0:0:0:
256,192,121356,12,0,120856,0:0:0:0:
256,192,121398,12,0,120898,0:0:0:0:
256,192,121439,12,0,120939,0:0:0:0:
256,192,121482,12,0,120982,0:0:0:0:
256,192,121523,12,0,121023,0:0:0:0:
256,192,121565,12,0,121065,0:0:0:0:
256,192,121606,12,0,121106,0:0:0:0:
256,192,121648,12,0,121148,0:0:0:0:
256,192,121689,12,0,121189,0:0:0:0:
256,192,121731,12,0,121231,0:0:0:0:
256,192,121772,12,0,121272,0:0:0:0:
256,192,121814,12,0,121314,0:0:0:0:
256,192,121855,12,0,121355,0:0:0:0:
256,192,121897,12,0,121397,0:0:0:0:
256,192,121938,12,0,121438,0:0:0:0:
256,192,121981,12,0,121481,0:0:0:0:
256,192,122022,12,0,121522,0:0:0:0:
256,192,122064,12,0,121564,0:0:0:0:
256,192,122105,12,0,121605,0:0:0:0:
256,192,122148,12,0,121648,0:0:0:0:
256,192,122189,12,0,121689,0:0:0:0:
256,192,122231,12,0,121731,0:0:0:0:
256,192,122272,12,0,121772,0:0:0:0:
256,192,122315,12,0,121815,0:0:0:0:
256,192,122356,12,0,121856,0:0:0:0:
256,192,122398,12,0,121898,0:0:0:0:
256,192,122439,12,0,121939,0:0:0:0:
256,192,122481,12,0,121981,0:0:0:0:
256,192,122522,12,0,122022,0:0:0:0:
256,192,122564,12,0,122064,0:0:0:0:
256,192,122605,12,0,122105,0:0:0:0:
256,192,122648,12,0,122148,0:0:0:0:
256,192,122689,12,0,122189,0:0:0:0:
256,192,122731,12,0,122231,0:0:0:0:
256,192,122772,12,0,122272,0:0:0:0:
256,192,122815,12,0,122315,0:0:0:0:
256,192,122856,12,0,122356,0:0:0:0:
256,192,122898,12,0,122398,0:0:0:0:
256,192,122939,12,0,122439,0:0:0:0:
256,192,122981,12,0,122481,0:0:0:0:
256,192,123022,12,0,122522,0:0:0:0:
256,192,123064,12,0,122564,0:0:0:0:
256,192,123105,12,0,122605,0:0:0:0:
256,192,123147,12,0,122647,0:0:0:0:
256,192,123188,12,0,122688,0:0:0:0:
256,192,123230,12,0,122730,0:0:0:0:
256,192,123271,12,0,122771,0:0:0:0:
256,192,123314,12,0,122814,0:0:0:0:
256,192,123355,12,0,122855,0:0:0:0:
256,192,123397,12,0,122897,0:0:0:0:
256,192,123438,12,0,122938,0:0:0:0:
256,192,123481,12,0,122981,0:0:0:0:
256,192,123522,12,0,123022,0:0:0:0:
256,192,123564,12,0,123064,0:0:0:0:
256,192,123605,12,0,123105,0:0:0:0:
256,192,123649,12,0,123149,0:0:0:0:
256,192,123690,12,0,123190,0:0:0:0:
256,192,123732,12,0,123232,0:0:0:0:
256,192,123773,12,0,123273,0:0:0:0:
256,192,123815,12,0,123315,0:0:0:0:
256,192,123856,12,0,123356,0:0:0:0:
256,192,123898,12,0,123398,0:0:0:0:
256,192,123939,12,0,123439,0:0:0:0:
256,192,123982,12,0,123482,0:0:0:0:
256,192,124023,12,0,123523,0:0:0:0:
256,192,124065,12,0,123565,0:0:0:0:
256,192,124106,12,0,123606,0:0:0:0:
256,192,124149,12,0,123649,0:0:0:0:
256,192,124190,12,0,123690,0:0:0:0:
256,192,124232,12,0,123732,0:0:0:0:
256,192,124273,12,0,123773,0:0:0:0:
256,192,124315,12,0,123815,0:0:0:0:
256,192,124356,12,0,123856,0:0:0:0:
256,192,124398,12,0,123898,0:0:0:0:
256,192,124439,12,0,123939,0:0:0:0:
256,192,124481,12,0,123981,0:0:0:0:
256,192,124522,12,0,124022,0:0:0:0:
256,192,124564,12,0,124064,0:0:0:0:
256,192,124605,12,0,124105,0:0:0:0:
256,192,124648,12,0,124148,0:0:0:0:
256,192,124689,12,0,124189,0:0:0:0:
256,192,124731,12,0,124231,0:0:0:0:
256,192,124772,12,0,124272,0:0:0:0:
256,192,124815,12,0,124315,0:0:0:0:
256,192,124856,12,0,124356,0:0:0:0:
256,192,124898,12,0,124398,0:0:0:0:
256,192,124939,12,0,124439,0:0:0:0:
256,192,124982,12,0,124482,0:0:0:0:
256,192,125023,12,0,124523,0:0:0:0:
256,192,125065,12,0,124565,0:0:0:0:
256,192,125106,12,0,124606,0:0:0:0:
256,192,125148,12,0,124648,0:0:0:0:
256,192,125189,12,0,124689,0:0:0:0:
256,192,125231,12,0,124731,0:0:0:0:
256,192,125272,12,0,124772,0:0:0:0:
256,192,125315,12,0,124815,0:0:0:0:
256,192,125356,12,0,124856,0:0:0:0:
256,192,125398,12,0,124898,0:0:0:0:
256,192,125439,12,0,124939,0:0:0:0:
256,192,125482,12,0,124982,0:0:0:0:
256,192,125523,12,0,125023,0:0:0:0:
256,192,125565,12,0,125065,0:0:0:0:
256,192,125606,12,0,125106,0:0:0:0:
256,192,125648,12,0,125148,0:0:0:0:
256,192,125689,12,0,125189,0:0:0:0:
256,192,125731,12,0,125231,0:0:0:0:
256,192,125772,12,0,125272,0:0:0:0:
256,192,125814,12,0,125314,0:0:0:0:
256,192,125855,12,0,125355,0:0:0:0:
256,192,125897,12,0,125397,0:0:0:0:
256,192,125938,12,0,125438,0:0:0:0:
256,192,125981,12,0,125481,0:0:0:0:
256,192,126022,12,0,125522,0:0:0:0:
256,192,126064,12,0,125564,0:0:0:0:
256,192,126105,12,0,125605,0:0:0:0:
256,192,126148,12,0,125648,0:0:0:0:
256,192,126189,12,0,125689,0:0:0:0:
256,192,126231,12,0,125731,0:0:0:0:
256,192,126272,12,0,125772,0:0:0:0:
256,192,126315,12,0,125815,0:0:0:0:
256,192,126356,12,0,125856,0:0:0:0:
256,192,126398,12,0,125898,0:0:0:0:
256,192,126439,12,0,125939,0:0:0:0:
256,192,126481,12,0,125981,0:0:0:0:
256,192,126522,12,0,126022,0:0:0:0:
256,192,126564,12,0,126064,0:0:0:0:
256,192,126605,12,0,126105,0:0:0:0:
256,192,126648,12,0,126148,0:0:0:0:
256,192,126689,12,0,126189,0:0:0:0:
256,192,126731,12,0,126231,0:0:0:0:
256,192,126772,12,0,126272,0:0:0:0:
256,192,126815,12,0,126315,0:0:0:0:
256,192,126856,12,0,126356,0:0:0:0:
256,192,126898,12,0,126398,0:0:0:0:
256,192,126939,12,0,126439,0:0:0:0:
256,192,126981,12,0,126481,0:0:0:0:
256,192,127022,12,0,126522,0:0:0:0:
256,192,127064,12,0,126564,0:0:0:0:
256,192,127105,12,0,126605,0:0:0:0:
256,192,127147,12,0,126647,0:0:0:0:
256,192,127188,12,0,126688,0:0:0:0:
256,192,127230,12,0,126730,0:0:0:0:
256,192,127271,12,0,126771,0:0:0:0:
256,192,127314,12,0,126814,0:0:0:0:
256,192,127355,12,0,126855,0:0:0:0:
256,192,127397,12,0,126897,0:0:0:0:
256,192,127438,12,0,126938,0:0:0:0:
256,192,127481,12,0,126981,0:0:0:0:
256,192,127522,12,0,127022,0:0:0:0:
256,192,127564,12,0,127064,0:0:0:0:
256,192,127605,12,0,127105,0:0:0:0:
256,192,127649,12,0,127149,0:0:0:0:
256,192,127690,12,0,127190,0:0:0:0:
256,192,127732,12,0,127232,0:0:0:0:
256,192,127773,12,0,127273,0:0:0:0:
256,192,127815,12,0,127315,0:0:0:0:
256,192,127856,12,0,127356,0:0:0:0:
256,192,127898,12,0,127398,0:0:0:0:
256,192,127939,12,0,127439,0:0:0:0:
256,192,127982,12,0,127482,0:0:0:0:
256,192,128023,12,0,127523,0:0:0:0:
256,192,128065,12,0,127565,0:0:0:0:
256,192,128106,12,0,127606,0:0:0:0:
256,192,128149,12,0,127649,0:0:0:0:
256,192,128190,12,0,127690,0:0:0:0:
256,192,128232,12,0,127732,0:0:0:0:
256,192,128273,12,0,127773,0:0:0:0:
256,192,128315,12,0,127815,0:0:0:0:
256,192,128356,12,0,127856,0:0:0:0:
256,192,128398,12,0,127898,0:0:0:0:
256,192,128439,12,0,127939,0:0:0:0:
256,192,128481,12,0,127981,0:0:0:0:
256,192,128522,12,0,128022,0:0:0:0:
256,192,128564,12,0,128064,0:0:0:0:
256,192,128605,12,0,128105,0:0:0:0:
256,192,128648,12,0,128148,0:0:0:0:
256,192,128689,12,0,128189,0:0:0:0:
256,192,128731,12,0,128231,0:0:0:0:
256,192,128772,12,0,128272,0:0:0:0:
256,192,128815,12,0,128315,0:0:0:0:
256,192,128856,12,0,128356,0:0:0:0:
256,192,128898,12,0,128398,0:0:0:0:
256,192,128939,12,0,128439,0:0:0:0:
256,192,128982,12,0,128482,0:0:0:0:
256,192,129023,12,0,128523,0:0:0:0:
256,192,129065,12,0,128565,0:0:0:0:
256,192,129106,12,0,128606,0:0:0:0:
256,192,129148,12,0,128648,0:0:0:0:
256,192,129189,12,0,128689,0:0:0:0:
256,192,129231,12,0,128731,0:0:0:0:
256,192,129272,12,0,128772,0:0:0:0:
256,192,129315,12,0,128815,0:0:0:0:
256,192,129356,12,0,128856,0:0:0:0:
256,192,129398,12,0,128898,0:0:0:0:
256,192,129439,12,0,128939,0:0:0:0:
256,192,129482,12,0,128982,0:0:0:0:
256,192,129523,12,0,129023,0:0:0:0:
256,192,129565,12,0,129065,0:0:0:0:
256,192,129606,12,0,129106,0:0:0:0:
256,192,129648,12,0,129148,0:0:0:0:
256,192,129689,12,0,129189,0:0:0:0:
256,192,129731,12,0,129231,0:0:0:0:
256,192,129772,12,0,129272,0:0:0:0:
256,192,129814,12,0,129314,0:0:0:0:
256,192,129855,12,0,129355,0:0:0:0:
256,192,129897,12,0,129397,0:0:0:0:
256,192,129938,12,0,129438,0:0:0:0:
256,192,129981,12,0,129481,0:0:0:0:
256,192,130022,12,0,129522,0:0:0:0:
256,192,130064,12,0,129564,0:0:0:0:
256,192,130105,12,0,129605,0:0:0:0:
256,192,130148,12,0,129648,0:0:0:0:
256,192,130189,12,0,129689,0:0:0:0:
256,192,130231,12,0,129731,0:0:0:0:
256,192,130272,12,0,129772,0:0:0:0:
256,192,130315,12,0,129815,0:0:0:0:
256,192,130356,12,0,129856,0:0:0:0:
256,192,130398,12,0,129898,0:0:0:0:
256,192,130439,12,0,129939,0:0:0:0:
256,192,130481,12,0,129981,0:0:0:0:
256,192,130522,12,0,130022,0:0:0:0:
256,192,130564,12,0,130064,0:0:0:0:
256,192,130605,12,0,130105,0:0:0:0:
256,192,130648,12,0,130148,0:0:0:0:
256,192,130689,12,0,130189,0:0:0:0:
256,192,130731,12,0,130231,0:0:0:0:
256,192,130772,12,0,130272,0:0:0:0:
256,192,130815,12,0,130315,0:0:0:0:
256,192,130856,12,0,130356,0:0:0:0:
256,192,130898,12,0,130398,0:0:0:0:
256,192,130939,12,0,130439,0:0:0:0:
256,192,130981,12,0,130481,0:0:0:0:
256,192,131022,12,0,130522,0:0:0:0:
256,192,131064,12,0,130564,0:0:0:0:
256,192,131105,12,0,130605,0:0:0:0:
256,192,131147,12,0,130647,0:0:0:0:
256,192,131188,12,0,130688,0:0:0:0:
256,192,131230,12,0,130730,0:0:0:0:
256,192,131271,12,0,130771,0:0:0:0:
256,192,131314,12,0,130814,0:0:0:0:
256,192,131355,12,0,130855,0:0:0:0:
256,192,131397,12,0,130897,0:0:0:0:
256,192,131438,12,0,130938,0:0:0:0:
256,192,131481,12,0,130981,0:0:0:0:
256,192,131522,12,0,131022,0:0:0:0:
256,192,131564,12,0,131064,0:0:0:0:
256,192,131605,12,0,131105,0:0:0:0:
256,192,131649,12,0,131149,0:0:0:0:
256,192,131690,12,0,131190,0:0:0:0:
256,192,131732,12,0,131232,0:0:0:0:
256,192,131773,12,0,131273,0:0:0:0:
256,192,131815,12,0,131315,0:0:0:0:
256,192,131856,12,0,131356,0:0:0:0:
256,192,131898,12,0,131398,0:0:0:0:
256,192,131939,12,0,131439,0:0:0:0:
256,192,131982,12,0,131482,0:0:0:0:
256,192,132023,12,0,131523,0:0:0:0:
256,192,132065,12,0,131565,0:0:0:0:
256,192,132106,12,0,131606,0:0:0:0:
256,192,132149,12,0,131649,0:0:0:0:
256,192,132190,12,0,131690,0:0:0:0:
256,192,132232,12,0,131732,0:0:0:0:
256,192,132273,12,0,131773,0:0:0:0:
256,192,132315,12,0,131815,0:0:0:0:
256,192,132356,12,0,131856,0:0:0:0:
256,192,132398,12,0,131898,0:0:0:0:
256,192,132439,12,0,131939,0:0:0:0:
256,192,132481,12,0,131981,0:0:0:0:
256,192,132522,12,0,132022,0:0:0:0:
256,192,132564,12,0,132064,0:0:0:0:
256,192,132605,12,0,132105,0:0:0:0:
256,192,132648,12,0,132148,0:0:0:0:
256,192,132689,12,0,132189,0:0:0:0:
256,192,132731,12,0,132231,0:0:0:0:
256,192,132772,12,0,132272,0:0:0:0:
256,192,132815,12,0,132315,0:0:0:0:
256,192,132856,12,0,132356,0:0:0:0:
256,192,132898,12,0,132398,0:0:0:0:
256,192,132939,12,0,132439,0:0:0:0:
256,192,132982,12,0,132482,0:0:0:0:
256,192,133023,12,0,132523,0:0:0:0:
256,192,133065,12,0,132565,0:0:0:0:
256,192,133106,12,0,132606,0:0:0:0:
256,192,133148,12,0,132648,0:0:0:0:
256,192,133189,12,0,132689,0:0:0:0:
256,192,133231,12,0,132731,0:0:0:0:
256,192,133272,12,0,132772,0:0:0:0:
256,192,133315,12,0,132815,0:0:0:0:
256,192,133356,12,0,132856,0:0:0:0:
256,192,133398,12,0,132898,0:0:0:0:
256,192,133439,12,0,132939,0:0:0:0:
256,192,133482,12,0,132982,0:0:0:0:
256,192,133523,12,0,133023,0:0:0:0:
256,192,133565,12,0,133065,0:0:0:0:
256,192,133606,12,0,133106,0:0:0:0:
256,192,133648,12,0,133148,0:0:0:0:
256,192,133689,12,0,133189,0:0:0:0:
256,192,133731,12,0,133231,0:0:0:0:
256,192,133772,12,0,133272,0:0:0:0:
256,192,133814,12,0,133314,0:0:0:0:
256,192,133855,12,0,133355,0:0:0:0:
256,192,133897,12,0,133397,0:0:0:0:
256,192,133938,12,0,133438,0:0:0:0:
256,192,133981,12,0,133481,0:0:0:0:
256,192,134022,12,0,133522,0:0:0:0:
256,192,134064,12,0,133564,0:0:0:0:
256,192,134105,12,0,133605,0:0:0:0:
256,192,134148,12,0,133648,0:0:0:0:
256,192,134189,12,0,133689,0:0:0:0:
256,192,134231,12,0,133731,0:0:0:0:
256,192,134272,12,0,133772,0:0:0:0:
256,192,134315,12,0,133815,0:0:0:0:
256,192,134356,12,0,133856,0:0:0:0:
256,192,134398,12,0,133898,0:0:0:0:
256,192,134439,12,0,133939,0:0:0:0:
256,192,134481,12,0,133981,0:0:0:0:
256,192,134522,12,0,134022,0:0:0:0:
256,192,134564,12,0,134064,0:0:0:0:
256,192,134605,12,0,134105,0:0:0:0:
256,192,134648,12,0,134148,0:0:0:0:
256,192,134689,12,0,134189,0:0:0:0:
256,192,134731,12,0,134231,0:0:0:0:
256,192,134772,12,0,134272,0:0:0:0:
256,192,134815,12,0,134315,0:0:0:0:
256,192,134856,12,0,134356,0:0:0:0:
256,192,134898,12,0,134398,0:0:0:0:
256,192,134939,12,0,134439,0:0:0:0:
256,192,134981,12,0,134481,0:0:0:0:
256,192,135022,12,0,134522,0:0:0:0:
256,192,135064,12,0,134564,0:0:0:0:
256,192,135105,12,0,134605,0:0:0:0:
256,192,135147,12,0,134647,0:0:0:0:
256,192,135188,12,0,134688,0:0:0:0:
256,192,135230,12,0,134730,0:0:0:0:
256,192,135271,12,0,134771,0:0:0:0:
256,192,135314,12,0,134814,0:0:0:0:
256,192,135355,12,0,134855,0:0:0:0:
256,192,135397,12,0,134897,0:0:0:0:
256,192,135438,12,0,134938,0:0:0:0:
256,192,135481,12,0,134981,0:0:0:0:
256,192,135522,12,0,135022,0:0:0:0:
256,192,135564,12,0,135064,0:0:0:0:
256,192,135605,12,0,135105,0:0:0:0:
256,192,135649,12,0,135149,0:0:0:0:
256,192,135690,12,0,135190,0:0:0:0:
256,192,135732,12,0,135232,0:0:0:0:
256,192,135773,12,0,135273,0:0:0:0:
256,192,135815,12,0,135315,0:0:0:0:
256,192,135856,12,0,135356,0:0:0:0:
256,192,135898,12,0,135398,0:0:0:0:
256,192,135939,12,0,135439,0:0:0:0:
256,192,135982,12,0,135482,0:0:0:0:
256,192,136023,12,0,135523,0:0:0:0:
256,192,136065,12,0,135565,0:0:0:0:
256,192,136106,12,0,135606,0:0:0:0:
256,192,136149,12,0,135649,0:0:0:0:
256,192,136190,12,0,135690,0:0:0:0:
256,192,136232,12,0,135732,0:0:0:0:
256,192,136273,12,0,135773,0:0:0:0:
256,192,136315,12,0,135815,0:0:0:0:
256,192,136356,12,0,135856,0:0:0:0:
256,192,136398,12,0,135898,0:0:0:0:
256,192,136439,12,0,135939,0:0:0:0:
256,192,136481,12,0,135981,0:0:0:0:
256,192,136522,12,0,136022,0:0:0:0:
256,192,136564,12,0,136064,0:0:0:0:
256,192,136605,12,0,136105,0:0:0:0:
256,192,136648,12,0,136148,0:0:0:0:
256,192,136689,12,0,136189,0:0:0:0:
256,192,136731,12,0,136231,0:0:0:0:
256,192,136772,12,0,136272,0:0:0:0:
256,192,136815,12,0,136315,0:0:0:0:
256,192,136856,12,0,136356,0:0:0:0:
256,192,136898,12,0,136398,0:0:0:0:
256,192,136939,12,0,136439,0:0:0:0:
256,192,136982,12,0,136482,0:0:0:0:
256,192,137023,12,0,136523,0:0:0:0:
256,192,137065,12,0,136565,0:0:0:0:
256,192,137106,12,0,136606,0:0:0:0:
256,192,137148,12,0,136648,0:0:0:0:
256,192,137189,12,0,136689,0:0:0:0:
256,192,137231,12,0,136731,0:0:0:0:
256,192,137272,12,0,136772,0:0:0:0:
256,192,137315,12,0,136815,0:0:0:0:
256,192,137356,12,0,136856,0:0:0:0:
256,192,137398,12,0,136898,0:0:0:0:
256,192,137439,12,0,136939,0:0:0:0:
256,192,137482,12,0,136982,0:0:0:0:
256,192,137523,12,0,137023,0:0:0:0:
256,192,137565,12,0,137065,0:0:0:0:
256,192,137606,12,0,137106,0:0:0:0:
256,192,137648,12,0,137148,0:0:0:0:
256,192,137689,12,0,137189,0:0:0:0:
256,192,137731,12,0,137231,0:0:0:0:
256,192,137772,12,0,137272,0:0:0:0:
256,192,137814,12,0,137314,0:0:0:0:
256,192,137855,12,0,137355,0:0:0:0:
256,192,137897,12,0,137397,0:0:0:0:
256,192,137938,12,0,137438,0:0:0:0:
256,192,137981,12,0,137481,0:0:0:0:
256,192,138022,12,0,137522,0:0:0:0:
256,192,138064,12,0,137564,0:0:0:0:
256,192,138105,12,0,137605,0:0:0:0:
256,192,138148,12,0,137648,0:0:0:0:
256,192,138189,12,0,137689,0:0:0:0:
256,192,138231,12,0,137731,0:0:0:0:
256,192,138272,12,0,137772,0:0:0:0:
256,192,138315,12,0,137815,0:0:0:0:
256,192,138356,12,0,137856,0:0:0:0:
256,192,138398,12,0,137898,0:0:0:0:
256,192,138439,12,0,137939,0:0:0:0:
256,192,138481,12,0,137981,0:0:0:0:
256,192,138522,12,0,138022,0:0:0:0:
256,192,138564,12,0,138064,0:0:0:0:
256,192,138605,12,0,138105,0:0:0:0:
256,192,138648,12,0,138148,0:0:0:0:
256,192,138689,12,0,138189,0:0:0:0:
256,192,138731,12,0,138231,0:0:0:0:
256,192,138772,12,0,138272,0:0:0:0:
256,192,138815,12,0,138315,0:0:0:0:
256,192,138856,12,0,138356,0:0:0:0:
256,192,138898,12,0,138398,0:0:0:0:
256,192,138939,12,0,138439,0:0:0:0:
256,192,138981,12,0,138481,0:0:0:0:
256,192,139022,12,0,138522,0:0:0:0:
256,192,139064,12,0,138564,0:0:0:0:
256,192,139105,12,0,138605,0:0:0:0:
256,192,139147,12,0,138647,0:0:0:0:
256,192,139188,12,0,138688,0:0:0:0:
256,192,139230,12,0,138730,0:0:0:0:
256,192,139271,12,0,138771,0:0:0:0:
256,192,139314,12,0,138814,0:0:0:0:
256,192,139355,12,0,138855,0:0:0:0:
256,192,139397,12,0,138897,0:0:0:0:
256,192,139438,12,0,138938,0:0:0:0:
256,192,139481,12,0,138981,0:0:0:0:
256,192,139522,12,0,139022,0:0:0:0:
256,192,139564,12,0,139064,0:0:0:0:
256,192,139605,12,0,139105,0:0:0:0:
256,192,139649,12,0,139149,0:0:0:0:
256,192,139690,12,0,139190,0:0:0:0:
256,192,139732,12,0,139232,0:0:0:0:
256,192,139773,12,0,139273,0:0:0:0:
256,192,139815,12,0,139315,0:0:0:0:
256,192,139856,12,0,139356,0:0:0:0:
256,192,139898,12,0,139398,0:0:0:0:
256,192,139939,12,0,139439,0:0:0:0:
256,192,139982,12,0,139482,0:0:0:0:
256,192,140023,12,0,139523,0:0:0:0:
256,192,140065,12,0,139565,0:0:0:0:
256,192,140106,12,0,139606,0:0:0:0:
256,192,140149,12,0,139649,0:0:0:0:
256,192,140190,12,0,139690,0:0:0:0:
256,192,140232,12,0,139732,0:0:0:0:
256,192,140273,12,0,139773,0:0:0:0:
256,192,140315,12,0,139815,0:0:0:0:
256,192,140356,12,0,139856,0:0:0:0:
256,192,140398,12,0,139898,0:0:0:0:
256,192,140439,12,0,139939,0:0:0:0:
256,192,140481,12,0,139981,0:0:0:0:
256,192,140522,12,0,140022,0:0:0:0:
256,192,140564,12,0,140064,0:0:0:0:
256,192,140605,12,0,140105,0:0:0:0:
256,192,140648,12,0,140148,0:0:0:0:
256,192,140689,12,0,140189,0:0:0:0:
256,192,140731,12,0,140231,0:0:0:0:
256,192,140772,12,0,140272,0:0:0:0:
256,192,140815,12,0,140315,0:0:0:0:
256,192,140856,12,0,140356,0:0:0:0:
256,192,140898,12,0,140398,0:0:0:0:
256,192,140939,12,0,140439,0:0:0:0:
256,192,140982,12,0,140482,0:0:0:0:
256,192,141023,12,0,140523,0:0:0:0:
256,192,141065,12,0,140565,0:0:0:0:
256,192,141106,12,0,140606,0:0:0:0:
256,192,141148,12,0,140648,0:0:0:0:
256,192,141189,12,0,140689,0:0:0:0:
256,192,141231,12,0,140731,0:0:0:0:
256,192,141272,12,0,140772,0:0:0:0:
256,192,141315,12,0,140815,0:0:0:0:
256,192,141356,12,0,140856,0:0:0:0:
256,192,141398,12,0,140898,0:0:0:0:
256,192,141439,12,0,140939,0:0:0:0:
256,192,141482,12,0,140982,0:0:0:0:
256,192,141523,12,0,141023,0:0:0:0:
256,192,141565,12,0,141065,0:0:0:0:
256,192,141606,12,0,141106,0:0:0:0:
256,192,141648,12,0,141148,0:0:0:0:
256,192,141689,12,0,141189,0:0:0:0:
256,192,141731,12,0,141231,0:0:0:0:
256,192,141772,12,0,141272,0:0:0:0:
256,192,141814,12,0,141314,0:0:0:0:
256,192,141855,12,0,141355,0:0:0:0:
256,192,141897,12,0,141397,0:0:0:0:
256,192,141938,12,0,141438,0:0:0:0:
256,192,141981,12,0,141481,0:0:0:0:
256,192,142022,12,0,141522,0:0:0:0:
256,192,142064,12,0,141564,0:0:0:0:
256,192,142105,12,0,141605,0:0:0:0:
256,192,142148,12,0,141648,0:0:0:0:
256,192,142189,12,0,141689,0:0:0:0:
256,192,142231,12,0,141731,0:0:0:0:
256,192,142272,12,0,141772,0:0:0:0:
256,192,142315,12,0,141815,0:0:0:0:
256,192,142356,12,0,141856,0:0:0:0:
256,192,142398,12,0,141898,0:0:0:0:
256,192,142439,12,0,141939,0:0:0:0:
256,192,142481,12,0,141981,0:0:0:0:
256,192,142522,12,0,142022,0:0:0:0:
256,192,142564,12,0,142064,0:0:0:0:
256,192,142605,12,0,142105,0:0:0:0:
256,192,142648,12,0,142148,0:0:0:0:
256,192,142689,12,0,142189,0:0:0:0:
256,192,142731,12,0,142231,0:0:0:0:
256,192,142772,12,0,142272,0:0:0:0:
256,192,142815,12,0,142315,0:0:0:0:
256,192,142856,12,0,142356,0:0:0:0:
256,192,142898,12,0,142398,0:0:0:0:
256,192,142939,12,0,142439,0:0:0:0:
256,192,142981,12,0,142481,0:0:0:0:
256,192,143022,12,0,142522,0:0:0:0:
256,192,143064,12,0,142564,0:0:0:0:
256,192,143105,12,0,142605,0:0:0:0:
256,192,143147,12,0,142647,0:0:0:0:
256,192,143188,12,0,142688,0:0:0:0:
256,192,143230,12,0,142730,0:0:0:0:
256,192,143271,12,0,142771,0:0:0:0:
256,192,143314,12,0,142814,0:0:0:0:
256,192,143355,12,0,142855,0:0:0:0:
256,192,143397,12,0,142897,0:0:0:0:
256,192,143438,12,0,142938,0:0:0:0:
256,192,143481,12,0,142981,0:0:0:0:
256,192,143522,12,0,143022,0:0:0:0:
256,192,143564,12,0,143064,0:0:0:0:
256,192,143605,12,0,143105,0:0:0:0:
256,192,143649,12,0,143149,0:0:0:0:
256,192,143690,12,0,143190,0:0:0:0:
256,192,143732,12,0,143232,0:0:0:0:
256,192,143773,12,0,143273,0:0:0:0:
256,192,143815,12,0,143315,0:0:0:0:
256,192,143856,12,0,143356,0:0:0:0:
256,192,143898,12,0,143398,0:0:0:0:
256,192,143939,12,0,143439,0:0:0:0:
256,192,143982,12,0,143482,0:0:0:0:
256,192,144023,12,0,143523,0:0:0:0:
256,192,144065,12,0,143565,0:0:0:0:
256,192,144106,12,0,143606,0:0:0:0:
256,192,144149,12,0,143649,0:0:0:0:
256,192,144190,12,0,143690,0:0:0:0:
256,192,144232,12,0,143732,0:0:0:0:
256,192,144273,12,0,143773,0:0:0:0:
256,192,144315,12,0,143815,0:0:0:0:
256,192,144356,12,0,143856,0:0:0:0:
256,192,144398,12,0,143898,0:0:0:0:
256,192,144439,12,0,143939,0:0:0:0:
256,192,144481,12,0,143981,0:0:0:0:
256,192,144522,12,0,144022,0:0:0:0:
256,192,144564,12,0,144064,0:0:0:0:
256,192,144605,12,0,144105,0:0:0:0:
256,192,144648,12,0,144148,0:0:0:0:
256,192,144689,12,0,144189,0:0:0:0:
256,192,144731,12,0,144231,0:0:0:0:
256,192,144772,12,0,144272,0:0:0:0:
256,192,144815,12,0,144315,0:0:0:0:
256,192,144856,12,0,144356,0:0:0:0:
256,192,144898,12,0,144398,0:0:0:0:
256,192,144939,12,0,144439,0:0:0:0:
256,192,144982,12,0,144482,0:0:0:0:
256,192,145023,12,0,144523,0:0:0:0:
256,192,145065,12,0,144565,0:0:0:0:
256,192,145106,12,0,144606,0:0:0:0:
256,192,145148,12,0,144648,0:0:0:0:
256,192,145189,12,0,144689,0:0:0:0:
256,192,145231,12,0,144731,0:0:0:0:
256,192,145272,12,0,144772,0:0:0:0:
256,192,145315,12,0,144815,0:0:0:0:
256,192,145356,12,0,144856,0:0:0:0:
256,192,145398,12,0,144898,0:0:0:0:
256,192,145439,12,0,144939,0:0:0:0:
256,192,145482,12,0,144982,0:0:0:0:
256,192,145523,12,0,145023,0:0:0:0:
256,192,145565,12,0,145065,0:0:0:0:
256,192,145606,12,0,145106,0:0:0:0:
256,192,145648,12,0,145148,0:0:0:0:
256,192,145689,12,0,145189,0:0:0:0:
256,192,145731,12,0,145231,0:0:0:0:
256,192,145772,12,0,145272,0:0:0:0:
256,192,145814,12,0,145314,0:0:0:0:
256,192,145855,12,0,145355,0:0:0:0:
256,192,145897,12,0,145397,0:0:0:0:
256,192,145938,12,0,145438,0:0:0:0:
256,192,145981,12,0,145481,0:0:0:0:
256,192,146022,12,0,145522,0:0:0:0:
256,192,146064,12,0,145564,0:0:0:0:
256,192,146105,12,0,145605,0:0:0:0:
256,192,146148,12,0,145648,0:0:0:0:
256,192,146189,12,0,145689,0:0:0:0:
256,192,146231,12,0,145731,0:0:0:0:
256,192,146272,12,0,145772,0:0:0:0:
256,192,146315,12,0,145815,0:0:0:0:
256,192,146356,12,0,145856,0:0:0:0:
256,192,146398,12,0,145898,0:0:0:0:
256,192,146439,12,0,145939,0:0:0:0:
256,192,146481,12,0,145981,0:0:0:0:
256,192,146522,12,0,146022,0:0:0:0:
256,192,146564,12,0,146064,0:0:0:0:
256,192,146605,12,0,146105,0:0:0:0:
256,192,146648,12,0,146148,0:0:0:0:
256,192,146689,12,0,146189,0:0:0:0:
256,192,146731,12,0,146231,0:0:0:0:
256,192,146772,12,0,146272,0:0:0:0:
256,192,146815,12,0,146315,0:0:0:0:
256,192,146856,12,0,146356,0:0:0:0:
256,192,146898,12,0,146398,0:0:0:0:
256,192,146939,12,0,146439,0:0:0:0:
256,192,146981,12,0,146481,0:0:0:0:
256,192,147022,12,0,146522,0:0:0:0:
256,192,147064,12,0,146564,0:0:0:0:
256,192,147105,12,0,146605,0:0:0:0:
256,192,147147,12,0,146647,0:0:0:0:
256,192,147188,12,0,146688,0:0:0:0:
256,192,147230,12,0,146730,0:0:0:0:
256,192,147271,12,0,146771,0:0:0:0:
256,192,147314,12,0,146814,0:0:0:0:
256,192,147355,12,0,146855,0:0:0:0:
256,192,147397,12,0,146897,0:0:0:0:
256,192,147438,12,0,146938,0:0:0:0:
256,192,147481,12,0,146981,0:0:0:0:
256,192,147522,12,0,147022,0:0:0:0:
256,192,147564,12,0,147064,0:0:0:0:
256,192,147605,12,0,147105,0:0:0:0:
256,192,147649,12,0,147149,0:0:0:0:
256,192,147690,12,0,147190,0:0:0:0:
256,192,147732,12,0,147232,0:0:0:0:
256,192,147773,12,0,147273,0:0:0:0:
256,192,147815,12,0,147315,0:0:0:0:
256,192,147856,12,0,147356,0:0:0:0:
256,192,147898,12,0,147398,0:0:0:0:
256,192,147939,12,0,147439,0:0:0:0:
256,192,147982,12,0,147482,0:0:0:0:
256,192,148023,12,0,147523,0:0:0:0:
256,192,148065,12,0,147565,0:0:0:0:
256,192,148106,12,0,147606,0:0:0:0:
256,192,148149,12,0,147649,0:0:0:0:
256,192,148190,12,0,147690,0:0:0:0:
256,192,148232,12,0,147732,0:0:0:0:
256,192,148273,12,0,147773,0:0:0:0:
256,192,148315,12,0,147815,0:0:0:0:
256,192,148356,12,0,147856,0:0:0:0:
256,192,148398,12,0,147898,0:0:0:0:
256,192,148439,12,0,147939,0:0:0:0:
256,192,148481,12,0,147981,0:0:0:0:
256,192,148522,12,0,148022,0:0:0:0:
256,192,148564,12,0,148064,0:0:0:0:
256,192,148605,12,0,148105,0:0:0:0:
256,192,148648,12,0,148148,0:0:0:0:
256,192,148689,12,0,148189,0:0:0:0:
256,192,148731,12,0,148231,0:0:0:0:
256,192,148772,12,0,148272,0:0:0:0:
256,192,148815,12,0,148315,0:0:0:0:
256,192,148856,12,0,148356,0:0:0:0:
256,192,148898,12,0,148398,0:0:0:0:
256,192,148939,12,0,148439,0:0:0:0:
256,192,148982,12,0,148482,0:0:0:0:
256,192,149023,12,0,148523,0:0:0:0:
256,192,149065,12,0,148565,0:0:0:0:
256,192,149106,12,0,148606,0:0:0:0:
256,192,149148,12,0,148648,0:0:0:0:
256,192,149189,12,0,148689,0:0:0:0:
256,192,149231,12,0,148731,0:0:0:0:
256,192,149272,12,0,148772,0:0:0:0:
256,192,149315,12,0,148815,0:0:0:0:
256,192,149356,12,0,148856,0:0:0:0:
256,192,149398,12,0,148898,0:0:0:0:
256,192,149439,12,0,148939,0:0:0:0:
256,192,149482,12,0,148982,0:0:0:0:
256,192,149523,12,0,149023,0:0:0:0:
256,192,149565,12,0,149065,0:0:0:0:
256,192,149606,12,0,149106,0:0:0:0:
256,192,149648,12,0,149148,0:0:0:0:
256,192,149689,12,0,149189,0:0:0:0:
256,192,149731,12,0,149231,0:0:0:0:
256,192,149772,12,0,149272,0:0:0:0:
256,192,149814,12,0,149314,0:0:0:0:
256,192,149855,12,0,149355,0:0:0:0:
256,192,149897,12,0,149397,0:0:0:0:
256,192,149938,12,0,149438,0:0:0:0:
256,192,149981,12,0,149481,0:0:0:0:
256,192,150022,12,0,149522,0:0:0:0:
256,192,150064,12,0,149564,0:0:0:0:
256,192,150105,12,0,149605,0:0:0:0:
256,192,150148,12,0,149648,0:0:0:0:
256,192,150189,12,0,149689,0:0:0:0:
256,192,150231,12,0,149731,0:0:0:0:
256,192,150272,12,0,149772,0:0:0:0:
256,192,150315,12,0,149815,0:0:0:0:
256,192,150356,12,0,149856,0:0:0:0:
256,192,150398,12,0,149898,0:0:0:0:
256,192,150439,12,0,149939,0:0:0:0:
256,192,150481,12,0,149981,0:0:0:0:
256,192,150522,12,0,150022,0:0:0:0:
256,192,150564,12,0,150064,0:0:0:0:
256,192,150605,12,0,150105,0:0:0:0:
256,192,150648,12,0,150148,0:0:0:0:
256,192,150689,12,0,150189,0:0:0:0:
256,192,150731,12,0,150231,0:0:0:0:
256,192,150772,12,0,150272,0:0:0:0:
256,192,150815,12,0,150315,0:0:0:0:
256,192,150856,12,0,150356,0:0:0:0:
256,192,150898,12,0,150398,0:0:0:0:
256,192,150939,12,0,150439,0:0:0:0:
256,192,150981,12,0,150481,0:0:0:0:
256,192,151022,12,0,150522,0:0:0:0:
256,192,151064,12,0,150564,0:0:0:0:
256,192,151105,12,0,150605,0:0:0:0:
256,192,151147,12,0,150647,0:0:0:0:
256,192,151188,12,0,150688,0:0:0:0:
256,192,151230,12,0,150730,0:0:0:0:
256,192,151271,12,0,150771,0:0:0:0:
256,192,151314,12,0,150814,0:0:0:0:
256,192,151355,12,0,150855,0:0:0:0:
256,192,151397,12,0,150897,0:0:0:0:
256,192,151438,12,0,150938,0:0:0:0:
256,192,151481,12,0,150981,0:0:0:0:
256,192,151522,12,0,151022,0:0:0:0:
256,192,151564,12,0,151064,0:0:0:0:
256,192,151605,12,0,151105,0:0:0:0:
256,192,151649,12,0,151149,0:0:0:0:
256,192,151690,12,0,151190,0:0:0:0:
256,192,151732,12,0,151232,0:0:0:0:
256,192,151773,12,0,151273,0:0:0:0:
256,192,151815,12,0,151315,0:0:0:0:
256,192,151856,12,0,151356,0:0:0:0:
256,192,151898,12,0,151398,0:0:0:0:
256,192,151939,12,0,151439,0:0:0:0:
256,192,151982,12,0,151482,0:0:0:0:
256,192,152023,12,0,151523,0:0:0:0:
256,192,152065,12,0,151565,0:0:0:0:
256,192,152106,12,0,151606,0:0:0:0:
256,192,152149,12,0,151649,0:0:0:0:
256,192,152190,12,0,151690,0:0:0:0:
256,192,152232,12,0,151732,0:0:0:0:
256,192,152273,12,0,151773,0:0:0:0:
256,192,152315,12,0,151815,0:0:0:0:
256,192,152356,12,0,151856,0:0:0:0:
256,192,152398,12,0,151898,0:0:0:0:
256,192,152439,12,0,151939,0:0:0:0:
256,192,152481,12,0,151981,0:0:0:0:
256,192,152522,12,0,152022,0:0:0:0:
256,192,152564,12,0,152064,0:0:0:0:
256,192,152605,12,0,152105,0:0:0:0:
256,192,152648,12,0,152148,0:0:0:0:
256,192,152689,12,0,152189,0:0:0:0:
256,192,152731,12,0,152231,0:0:0:0:
256,192,152772,12,0,152272,0:0:0:0:
256,192,152815,12,0,152315,0:0:0:0:
256,192,152856,12,0,152356,0:0:0:0:
256,192,152898,12,0,152398,0:0:0:0:
256,192,152939,12,0,152439,0:0:0:0:
256,192,152982,12,0,152482,0:0:0:0:
256,192,153023,12,0,152523,0:0:0:0:
256,192,153065,12,0,152565,0:0:0:0:
256,192,153106,12,0,152606,0:0:0:0:
256,192,153148,12,0,152648,0:0:0:0:
256,192,153189,12,0,152689,0:0:0:0:
256,192,153231,12,0,152731,0:0:0:0:
256,192,153272,12,0,152772,0:0:0:0:
256,192,153315,12,0,152815,0:0:0:0:
256,192,153356,12,0,152856,0:0:0:0:
256,192,153398,12,0,152898,0:0:0:0:
256,192,153439,12,0,152939,0:0:0:0:
256,192,153482,12,0,152982,0:0:0:0:
256,192,153523,12,0,153023,0:0:0:0:
256,192,153565,12,0,153065,0:0:0:0:
256,192,153606,12,0,153106,0:0:0:0:
256,192,153648,12,0,153148,0:0:0:0:
256,192,153689,12,0,153189,0:0:0:0:
256,192,153731,12,0,153231,0:0:0:0:
256,192,153772,12,0,153272,0:0:0:0:
256,192,153814,12,0,153314,0:0:0:0:
256,192,153855,12,0,153355,0:0:0:0:
256,192,153897,12,0,153397,0:0:0:0:
256,192,153938,12,0,153438,0:0:0:0:
256,192,153981,12,0,153481,0:0:0:0:
256,192,154022,12,0,153522,0:0:0:0:
256,192,154064,12,0,153564,0:0:0:0:
256,192,154105,12,0,153605,0:0:0:0:
256,192,154148,12,0,153648,0:0:0:0:
256,192,154189,12,0,153689,0:0:0:0:
256,192,154231,12,0,153731,0:0:0:0:
256,192,154272,12,0,153772,0:0:0:0:
256,192,154315,12,0,153815,0:0:0:0:
256,192,154356,12,0,153856,0:0:0:0:
256,192,154398,12,0,153898,0:0:0:0:
256,192,154439,12,0,153939,0:0:0:0:
256,192,154481,12,0,153981,0:0:0:0:
256,192,154522,12,0,154022,0:0:0:0:
256,192,154564,12,0,154064,0:0:0:0:
256,192,154605,12,0,154105,0:0:0:0:
256,192,154648,12,0,154148,0:0:0:0:
256,192,154689,12,0,154189,0:0:0:0:
256,192,154731,12,0,154231,0:0:0:0:
256,192,154772,12,0,154272,0:0:0:0:
256,192,154815,12,0,154315,0:0:0:0:
256,192,154856,12,0,154356,0:0:0:0:
256,192,154898,12,0,154398,0:0:0:0:
256,192,154939,12,0,154439,0:0:0:0:
256,192,154981,12,0,154481,0:0:0:0:
256,192,155022,12,0,154522,0:0:0:0:
256,192,155064,12,0,154564,0:0:0:0:
256,192,155105,12,0,154605,0:0:0:0:
256,192,155147,12,0,154647,0:0:0:0:
256,192,155188,12,0,154688,0:0:0:0:
256,192,155230,12,0,154730,0:0:0:0:
256,192,155271,12,0,154771,0:0:0:0:
256,192,155314,12,0,154814,0:0:0:0:
256,192,155355,12,0,154855,0:0:0:0:
256,192,155397,12,0,154897,0:0:0:0:
256,192,155438,12,0,154938,0:0:0:0:
256,192,155481,12,0,154981,0:0:0:0:
256,192,155522,12,0,155022,0:0:0:0:
256,192,155564,12,0,155064,0:0:0:0:
256,192,155605,12,0,155105,0:0:0:0:
256,192,155649,12,0,155149,0:0:0:0:
256,192,155690,12,0,155190,0:0:0:0:
256,192,155732,12,0,155232,0:0:0:0:
256,192,155773,12,0,155273,0:0:0:0:
256,192,155815,12,0,155315,0:0:0:0:
256,192,155856,12,0,155356,0:0:0:0:
256,192,155898,12,0,155398,0:0:0:0:
256,192,155939,12,0,155439,0:0:0:0:
256,192,155982,12,0,155482,0:0:0:0:
256,192,156023,12,0,155523,0:0:0:0:
256,192,156065,12,0,155565,0:0:0:0:
256,192,156106,12,0,155606,0:0:0:0:
256,192,156149,12,0,155649,0:0:0:0:
256,192,156190,12,0,155690,0:0:0:0:
256,192,156232,12,0,155732,0:0:0:0:
256,192,156273,12,0,155773,0:0:0:0:
256,192,156315,12,0,155815,0:0:0:0:
256,192,156356,12,0,155856,0:0:0:0:
256,192,156398,12,0,155898,0:0:0:0:
256,192,156439,12,0,155939,0:0:0:0:
256,192,156481,12,0,155981,0:0:0:0:
256,192,156522,12,0,156022,0:0:0:0:
256,192,156564,12,0,156064,0:0:0:0:
256,192,156605,12,0,156105,0:0:0:0:
256,192,156648,12,0,156148,0:0:0:0:
256,192,156689,12,0,156189,0:0:0:0:
256,192,156731,12,0,156231,0:0:0:0:
256,192,156772,12,0,156272,0:0:0:0:
256,192,156815,12,0,156315,0:0:0:0:
256,192,156856,12,0,156356,0:0:0:0:
256,192,156898,12,0,156398,0:0:0:0:
256,192,156939,12,0,156439,0:0:0:0:
256,192,156982,12,0,156482,0:0:0:0:
256,192,157023,12,0,156523,0:0:0:0:
256,192,157065,12,0,156565,0:0:0:0:
256,192,157106,12,0,156606,0:0:0:0:
256,192,157148,12,0,156648,0:0:0:0:
256,192,157189,12,0,156689,0:0:0:0:
256,192,157231,12,0,156731,0:0:0:0:
256,192,157272,12,0,156772,0:0:0:0:
256,192,157315,12,0,156815,0:0:0:0:
256,192,157356,12,0,156856,0:0:0:0:
256,192,157398,12,0,156898,0:0:0:0:
256,192,157439,12,0,156939,0:0:0:0:
256,192,157482,12,0,156982,0:0:0:0:
256,192,157523,12,0,157023,0:0:0:0:
256,192,157565,12,0,157065,0:0:0:0:
256,192,157606,12,0,157106,0:0:0:0:
256,192,157648,12,0,157148,0:0:0:0:
256,192,157689,12,0,157189,0:0:0:0:
256,192,157731,12,0,157231,0:0:0:0:
256,192,157772,12,0,157272,0:0:0:0:
256,192,157814,12,0,157314,0:0:0:0:
256,192,157855,12,0,157355,0:0:0:0:
256,192,157897,12,0,157397,0:0:0:0:
256,192,157938,12,0,157438,0:0:0:0:
256,192,157981,12,0,157481,0:0:0:0:
256,192,158022,12,0,157522,0:0:0:0:
256,192,158064,12,0,157564,0:0:0:0:
256,192,158105,12,0,157605,0:0:0:0:
256,192,158148,12,0,157648,0:0:0:0:
256,192,158189,12,0,157689,0:0:0:0:
256,192,158231,12,0,157731,0:0:0:0:
256,192,158272,12,0,157772,0:0:0:0:
256,192,158315,12,0,157815,0:0:0:0:
256,192,158356,12,0,157856,0:0:0:0:
256,192,158398,12,0,157898,0:0:0:0:
256,192,158439,12,0,157939,0:0:0:0:
256,192,158481,12,0,157981,0:0:0:0:
256,192,158522,12,0,158022,0:0:0:0:
256,192,158564,12,0,158064,0:0:0:0:
256,192,158605,12,0,158105,0:0:0:0:
256,192,158648,12,0,158148,0:0:0:0:
256,192,158689,12,0,158189,0:0:0:0:
256,192,158731,12,0,158231,0:0:0:0:
256,192,158772,12,0,158272,0:0:0:0:
256,192,158815,12,0,158315,0:0:0:0:
256,192,158856,12,0,158356,0:0:0:0:
256,192,158898,12,0,158398,0:0:0:0:
256,192,158939,12,0,158439,0:0:0:0:
256,192,158981,12,0,158481,0:0:0:0:
256,192,159022,12,0,158522,0:0:0:0:
256,192,159064,12,0,158564,0:0:0:0:
256,192,159105,12,0,158605,0:0:0:0:
256,192,159147,12,0,158647,0:0:0:0:
256,192,159188,12,0,158688,0:0:0:0:
256,192,159230,12,0,158730,0:0:0:0:
256,192,159271,12,0,158771,0:0:0:0:
256,192,159314,12,0,158814,0:0:0:0:
256,192,159355,12,0,158855,0:0:0:0:
256,192,159397,12,0,158897,0:0:0:0:
256,192,159438,12,0,158938,0:0:0:0:
256,192,159481,12,0,158981,0:0:0:0:
256,192,159522,12,0,159022,0:0:0:0:
256,192,159564,12,0,159064,0:0:0:0:
256,192,159605,12,0,159105,0:0:0:0:
256,192,159649,12,0,159149,0:0:0:0:
256,192,159690,12,0,159190,0:0:0:0:
256,192,159732,12,0,159232,0:0:0:0:
256,192,159773,12,0,159273,0:0:0:0:
256,192,159815,12,0,159315,0:0:0:0:
256,192,159856,12,0,159356,0:0:0:0:
256,192,159898,12,0,159398,0:0:0:0:
256,192,159939,12,0,159439,0:0:0:0:
256,192,159982,12,0,159482,0:0:0:0:
256,192,160023,12,0,159523,0:0:0:0:
256,192,160065,12,0,159565,0:0:0:0:
256,192,160106,12,0,159606,0:0:0:0:
256,192,160149,12,0,159649,0:0:0:0:
256,192,160190,12,0,159690,0:0:0:0:
256,192,160232,12,0,159732,0:0:0:0:
256,192,160273,12,0,159773,0:0:0:0:
256,192,160315,12,0,159815,0:0:0:0:
256,192,160356,12,0,159856,0:0:0:0:
256,192,160398,12,0,159898,0:0:0:0:
256,192,160439,12,0,159939,0:0:0:0:
256,192,160481,12,0,159981,0:0:0:0:
256,192,160522,12,0,160022,0:0:0:0:
256,192,160564,12,0,160064,0:0:0:0:
256,192,160605,12,0,160105,0:0:0:0:
256,192,160648,12,0,160148,0:0:0:0:
256,192,160689,12,0,160189,0:0:0:0:
256,192,160731,12,0,160231,0:0:0:0:
256,192,160772,12,0,160272,0:0:0:0:
256,192,160815,12,0,160315,0:0:0:0:
256,192,160856,12,0,160356,0:0:0:0:
256,192,160898,12,0,160398,0:0:0:0:
256,192,160939,12,0,160439,0:0:0:0:
256,192,160982,12,0,160482,0:0:0:0:
256,192,161023,12,0,160523,0:0:0:0:
256,192,161065,12,0,160565,0:0:0:0:
256,192,161106,12,0,160606,0:0:0:0:
256,192,161148,12,0,160648,0:0:0:0:
256,192,161189,12,0,160689,0:0:0:0:
256,192,161231,12,0,160731,0:0:0:0:
256,192,161272,12,0,160772,0:0:0:0:
256,192,161315,12,0,160815,0:0:0:0:
256,192,161356,12,0,160856,0:0:0:0:
256,192,161398,12,0,160898,0:0:0:0:
256,192,161439,12,0,160939,0:0:0:0:
256,192,161482,12,0,160982,0:0:0:0:
256,192,161523,12,0,161023,0:0:0:0:
256,192,161565,12,0,161065,0:0:0:0:
256,192,161606,12,0,161106,0:0:0:0:
256,192,161648,12,0,161148,0:0:0:0:
256,192,161689,12,0,161189,0:0:0:0:
256,192,161731,12,0,161231,0:0:0:0:
256,192,161772,12,0,161272,0:0:0:0:
256,192,161814,12,0,161314,0:0:0:0:
256,192,161855,12,0,161355,0:0:0:0:
256,192,161897,12,0,161397,0:0:0:0:
256,192,161938,12,0,161438,0:0:0:0:
256,192,161981,12,0,161481,0:0:0:0:
256,192,162022,12,0,161522,0:0:0:0:
256,192,162064,12,0,161564,0:0:0:0:
256,192,162105,12,0,161605,0:0:0:0:
256,192,162148,12,0,161648,0:0:0:0:
256,192,162189,12,0,161689,0:0:0:0:
256,192,162231,12,0,161731,0:0:0:0:
256,192,162272,12,0,161772,0:0:0:0:
256,192,162315,12,0,161815,0:0:0:0:
256,192,162356,12,0,161856,0:0:0:0:
256,192,162398,12,0,161898,0:0:0:0:
256,192,162439,12,0,161939,0:0:0:0:
256,192,162481,12,0,161981,0:0:0:0:
256,192,162522,12,0,162022,0:0:0:0:
256,192,162564,12,0,162064,0:0:0:0:
256,192,162605,12,0,162105,0:0:0:0:
256,192,162648,12,0,162148,0:0:0:0:
256,192,162689,12,0,162189,0:0:0:0:
256,192,162731,12,0,162231,0:0:0:0:
256,192,162772,12,0,162272,0:0:0:0:
256,192,162815,12,0,162315,0:0:0:0:
256,192,162856,12,0,162356,0:0:0:0:
256,192,162898,12,0,162398,0:0:0:0:
256,192,162939,12,0,162439,0:0:0:0:
256,192,162981,12,0,162481,0:0:0:0:
256,192,163022,12,0,162522,0:0:0:0:
256,192,163064,12,0,162564,0:0:0:0:
256,192,163105,12,0,162605,0:0:0:0:
256,192,163147,12,0,162647,0:0:0:0:
256,192,163188,12,0,162688,0:0:0:0:
256,192,163230,12,0,162730,0:0:0:0:
256,192,163271,12,0,162771,0:0:0:0:
256,192,163314,12,0,162814,0:0:0:0:
256,192,163355,12,0,162855,0:0:0:0:
256,192,163397,12,0,162897,0:0:0:0:
256,192,163438,12,0,162938,0:0:0:0:
256,192,163481,12,0,162981,0:0:0:0:
256,192,163522,12,0,163022,0:0:0:0:
256,192,163564,12,0,163064,0:0:0:0:
256,192,163605,12,0,163105,0:0:0:0:
256,192,163649,12,0,163149,0:0:0:0:
256,192,163690,12,0,163190,0:0:0:0:
256,192,163732,12,0,163232,0:0:0:0:
256,192,163773,12,0,163273,0:0:0:0:
256,192,163815,12,0,163315,0:0:0:0:
256,192,163856,12,0,163356,0:0:0:0:
256,192,163898,12,0,163398,0:0:0:0:
256,192,163939,12,0,163439,0:0:0:0:
256,192,163982,12,0,163482,0:0:0:0:
256,192,164023,12,0,163523,0:0:0:0:
256,192,164065,12,0,163565,0:0:0:0:
256,192,164106,12,0,163606,0:0:0:0:
256,192,164149,12,0,163649,0:0:0:0:
256,192,164190,12,0,163690,0:0:0:0:
256,192,164232,12,0,163732,0:0:0:0:
256,192,164273,12,0,163773,0:0:0:0:
256,192,164315,12,0,163815,0:0:0:0:
256,192,164356,12,0,163856,0:0:0:0:
256,192,164398,12,0,163898,0:0:0:0:
256,192,164439,12,0,163939,0:0:0:0:
256,192,164481,12,0,163981,0:0:0:0:
256,192,164522,12,0,164022,0:0:0:0:
256,192,164564,12,0,164064,0:0:0:0:
256,192,164605,12,0,164105,0:0:0:0:
256,192,164648,12,0,164148,0:0:0:0:
256,192,164689,12,0,164189,0:0:0:0:
256,192,164731,12,0,164231,0:0:0:0:
256,192,164772,12,0,164272,0:0:0:0:
256,192,164815,12,0,164315,0:0:0:0:
256,192,164856,12,0,164356,0:0:0:0:
256,192,164898,12,0,164398,0:0:0:0:
256,192,164939,12,0,164439,0:0:0:0:
256,192,164982,12,0,164482,0:0:0:0:
256,192,165023,12,0,164523,0:0:0:0:
256,192,165065,12,0,164565,0:0:0:0:
256,192,165106,12,0,164606,0:0:0:0:
256,192,165148,12,0,164648,0:0:0:0:
256,192,165189,12,0,164689,0:0:0:0:
256,192,165231,12,0,164731,0:0:0:0:
256,192,165272,12,0,164772,0:0:0:0:
256,192,165315,12,0,164815,0:0:0:0:
256,192,165356,12,0,164856,0:0:0:0:
256,192,165398,12,0,164898,0:0:0:0:
256,192,165439,12,0,164939,0:0:0:0:
256,192,165482,12,0,164982,0:0:0:0:
256,192,165523,12,0,165023,0:0:0:0:
256,192,165565,12,0,165065,0:0:0:0:
256,192,165606,12,0,165106,0:0:0:0:
256,192,165648,12,0,165148,0:0:0:0:
256,192,165689,12,0,165189,0:0:0:0:
256,192,165731,12,0,165231,0:0:0:0:
256,192,165772,12,0,165272,0:0:0:0:
256,192,165814,12,0,165314,0:0:0:0:
256,192,165855,12,0,165355,0:0:0:0:
256,192,165897,12,0,165397,0:0:0:0:
256,192,165938,12,0,165438,0:0:0:0:
256,192,165981,12,0,165481,0:0:0:0:
256,192,166022,12,0,165522,0:0:0:0:
256,192,166064,12,0,165564,0:0:0:0:
256,192,166105,12,0,165605,0:0:0:0:
256,192,166148,12,0,165648,0:0:0:0:
256,192,166189,12,0,165689,0:0:0:0:
256,192,166231,12,0,165731,0:0:0:0:
256,192,166272,12,0,165772,0:0:0:0:
256,192,166315,12,0,165815,0:0:0:0:
256,192,166356,12,0,165856,0:0:0:0:
256,192,166398,12,0,165898,0:0:0:0:
256,192,166439,12,0,165939,0:0:0:0:
256,192,166481,12,0,165981,0:0:0:0:
256,192,166522,12,0,166022,0:0:0:0:
256,192,166564,12,0,166064,0:0:0:0:
256,192,166605,12,0,166105,0:0:0:0:
256,192,166648,12,0,166148,0:0:0:0:
256,192,166689,12,0,166189,0:0:0:0:
256,192,166731,12,0,166231,0:0:0:0:
256,192,166772,12,0,166272,0:0:0:0:
256,192,166815,12,0,166315,0:0:0:0:
256,192,166856,12,0,166356,0:0:0:0:
256,192,166898,12,0,166398,0:0:0:0:
256,192,166939,12,0,166439,0:0:0:0:
256,192,166981,12,0,166481,0:0:0:0:
256,192,167022,12,0,166522,0:0:0:0:
256,192,167064,12,0,166564,0:0:0:0:
256,192,167105,12,0,166605,0:0:0:0:
256,192,167147,12,0,166647,0:0:0:0:
256,192,167188,12,0,166688,0:0:0:0:
256,192,167230,12,0,166730,0:0:0:0:
256,192,167271,12,0,166771,0:0:0:0:
256,192,167314,12,0,166814,0:0:0:0:
256,192,167355,12,0,166855,0:0:0:0:
256,192,167397,12,0,166897,0:0:0:0:
256,192,167438,12,0,166938,0:0:0:0:
256,192,167481,12,0,166981,0:0:0:0:
256,192,167522,12,0,167022,0:0:0:0:
256,192,167564,12,0,167064,0:0:0:0:
256,192,167605,12,0,167105,0:0:0:0:
256,192,167649,12,0,167149,0:0:0:0:
256,192,167690,12,0,167190,0:0:0:0:
256,192,167732,12,0,167232,0:0:0:0:
256,192,167773,12,0,167273,0:0:0:0:
256,192,167815,12,0,167315,0:0:0:0:
256,192,167856,12,0,167356,0:0:0:0:
256,192,167898,12,0,167398,0:0:0:0:
256,192,167939,12,0,167439,0:0:0:0:
256,192,167982,12,0,167482,0:0:0:0:
256,192,168023,12,0,167523,0:0:0:0:
256,192,168065,12,0,167565,0:0:0:0:
256,192,168106,12,0,167606,0:0:0:0:
256,192,168149,12,0,167649,0:0:0:0:
256,192,168190,12,0,167690,0:0:0:0:
256,192,168232,12,0,167732,0:0:0:0:
256,192,168273,12,0,167773,0:0:0:0:
256,192,168315,12,0,167815,0:0:0:0:
256,192,168356,12,0,167856,0:0:0:0:
256,192,168398,12,0,167898,0:0:0:0:
256,192,168439,12,0,167939,0:0:0:0:
256,192,168481,12,0,167981,0:0:0:0:
256,192,168522,12,0,168022,0:0:0:0:
256,192,168564,12,0,168064,0:0:0:0:
256,192,168605,12,0,168105,0:0:0:0:
256,192,168648,12,0,168148,0:0:0:0:
256,192,168689,12,0,168189,0:0:0:0:
256,192,168731,12,0,168231,0:0:0:0:
256,192,168772,12,0,168272,0:0:0:0:
256,192,168815,12,0,168315,0:0:0:0:
256,192,168856,12,0,168356,0:0:0:0:
256,192,168898,12,0,168398,0:0:0:0:
256,192,168939,12,0,168439,0:0:0:0:
256,192,168982,12,0,168482,0:0:0:0:
256,192,169023,12,0,168523,0:0:0:0:
256,192,169065,12,0,168565,0:0:0:0:
256,192,169106,12,0,168606,0:0:0:0:
256,192,169148,12,0,168648,0:0:0:0:
256,192,169189,12,0,168689,0:0:0:0:
256,192,169231,12,0,168731,0:0:0:0:
256,192,169272,12,0,168772,0:0:0:0:
256,192,169315,12,0,168815,0:0:0:0:
256,192,169356,12,0,168856,0:0:0:0:
256,192,169398,12,0,168898,0:0:0:0:
256,192,169439,12,0,168939,0:0:0:0:
256,192,169482,12,0,168982,0:0:0:0:
256,192,169523,12,0,169023,0:0:0:0:
256,192,169565,12,0,169065,0:0:0:0:
256,192,169606,12,0,169106,0:0:0:0:
256,192,169648,12,0,169148,0:0:0:0:
256,192,169689,12,0,169189,0:0:0:0:
256,192,169731,12,0,169231,0:0:0:0:
256,192,169772,12,0,169272,0:0:0:0:
256,192,169814,12,0,169314,0:0:0:0:
256,192,169855,12,0,169355,0:0:0:0:
256,192,169897,12,0,169397,0:0:0:0:
256,192,169938,12,0,169438,0:0:0:0:
256,192,169981,12,0,169481,0:0:0:0:
256,192,170022,12,0,169522,0:0:0:0:
256,192,170064,12,0,169564,0:0:0:0:
256,192,170105,12,0,169605,0:0:0:0:
256,192,170148,12,0,169648,0:0:0:0:
256,192,170189,12,0,169689,0:0:0:0:
256,192,170231,12,0,169731,0:0:0:0:
256,192,170272,12,0,169772,0:0:0:0:
256,192,170315,12,0,169815,0:0:0:0:
256,192,170356,12,0,169856,0:0:0:0:
256,192,170398,12,0,169898,0:0:0:0:
256,192,170439,12,0,169939,0:0:0:0:
256,192,170481,12,0,169981,0:0:0:0:
256,192,170522,12,0,170022,0:0:0:0:
256,192,170564,12,0,170064,0:0:0:0:
256,192,170605,12,0,170105,0:0:0:0:
256,192,170648,12,0,170148,0:0:0:0:
256,192,170689,12,0,170189,0:0:0:0:
256,192,170731,12,0,170231,0:0:0:0:
256,192,170772,12,0,170272,0:0:0:0:
256,192,170815,12,0,170315,0:0:0:0:
256,192,170856,12,0,170356,0:0:0:0:
256,192,170898,12,0,170398,0:0:0:0:
256,192,170939,12,0,170439,0:0:0:0:
256,192,170981,12,0,170481,0:0:0:0:
256,192,171022,12,0,170522,0:0:0:0:
256,192,171064,12,0,170564,0:0:0:0:
256,192,171105,12,0,170605,0:0:0:0:
256,192,171147,12,0,170647,0:0:0:0:
256,192,171188,12,0,170688,0:0:0:0:
256,192,171230,12,0,170730,0:0:0:0:
256,192,171271,12,0,170771,0:0:0:0:
256,192,171314,12,0,170814,0:0:0:0:
256,192,171355,12,0,170855,0:0:0:0:
256,192,171397,12,0,170897,0:0:0:0:
256,192,171438,12,0,170938,0:0:0:0:
256,192,171481,12,0,170981,0:0:0:0:
256,192,171522,12,0,171022,0:0:0:0:
256,192,171564,12,0,171064,0:0:0:0:
256,192,171605,12,0,171105,0:0:0:0:
256,192,171649,12,0,171149,0:0:0:0:
256,192,171690,12,0,171190,0:0:0:0:
256,192,171732,12,0,171232,0:0:0:0:
256,192,171773,12,0,171273,0:0:0:0:
256,192,171815,12,0,171315,0:0:0:0:
256,192,171856,12,0,171356,0:0:0:0:
256,192,171898,12,0,171398,0:0:0:0:
256,192,171939,12,0,171439,0:0:0:0:
256,192,171982,12,0,171482,0:0:0:0:
256,192,172023,12,0,171523,0:0:0:0:
256,192,172065,12,0,171565,0:0:0:0:
256,192,172106,12,0,171606,0:0:0:0:
256,192,172149,12,0,171649,0:0:0:0:
256,192,172190,12,0,171690,0:0:0:0:
256,192,172232,12,0,171732,0:0:0:0:
256,192,172273,12,0,171773,0:0:0:0:
256,192,172315,12,0,171815,0:0:0:0:
256,192,172356,12,0,171856,0:0:0:0:
256,192,172398,12,0,171898,0:0:0:0:
256,192,172439,12,0,171939,0:0:0:0:
256,192,172481,12,0,171981,0:0:0:0:
256,192,172522,12,0,172022,0:0:0:0:
256,192,172564,12,0,172064,0:0:0:0:
256,192,172605,12,0,172105,0:0:0:0:
256,192,172648,12,0,172148,0:0:0:0:
256,192,172689,12,0,172189,0:0:0:0:
256,192,172731,12,0,172231,0:0:0:0:
256,192,172772,12,0,172272,0:0:0:0:
256,192,172815,12,0,172315,0:0:0:0:
256,192,172856,12,0,172356,0:0:0:0:
256,192,172898,12,0,172398,0:0:0:0:
256,192,172939,12,0,172439,0:0:0:0:
256,192,172982,12,0,172482,0:0:0:0:
256,192,173023,12,0,172523,0:0:0:0:
256,192,173065,12,0,172565,0:0:0:0:
256,192,173106,12,0,172606,0:0:0:0:
256,192,173148,12,0,172648,0:0:0:0:
256,192,173189,12,0,172689,0:0:0:0:
256,192,173231,12,0,172731,0:0:0:0:
256,192,173272,12,0,172772,0:0:0:0:
256,192,173315,12,0,172815,0:0:0:0:
256,192,173356,12,0,172856,0:0:0:0:
256,192,173398,12,0,172898,0:0:0:0:
256,192,173439,12,0,172939,0:0:0:0:
256,192,173482,12,0,172982,0:0:0:0:
256,192,173523,12,0,173023,0:0:0:0:
256,192,173565,12,0,173065,0:0:0:0:
256,192,173606,12,0,173106,0:0:0:0:
256,192,173648,12,0,173148,0:0:0:0:
256,192,173689,12,0,173189,0:0:0:0:
256,192,173731,12,0,173231,0:0:0:0:
256,192,173772,12,0,173272,0:0:0:0:
256,192,173814,12,0,173314,0:0:0:0:
256,192,173855,12,0,173355,0:0:0:0:
256,192,173897,12,0,173397,0:0:0:0:
256,192,173938,12,0,173438,0:0:0:0:
256,192,173981,12,0,173481,0:0:0:0:
256,192,174022,12,0,173522,0:0:0:0:
256,192,174064,12,0,173564,0:0:0:0:
256,192,174105,12,0,173605,0:0:0:0:
256,192,174148,12,0,173648,0:0:0:0:
256,192,174189,12,0,173689,0:0:0:0:
256,192,174231,12,0,173731,0:0:0:0:
256,192,174272,12,0,173772,0:0:0:0:
256,192,174315,12,0,173815,0:0:0:0:
256,192,174356,12,0,173856,0:0:0:0:
256,192,174398,12,0,173898,0:0:0:0:
256,192,174439,12,0,173939,0:0:0:0:
256,192,174481,12,0,173981,0:0:0:0:
256,192,174522,12,0,174022,0:0:0:0:
256,192,174564,12,0,174064,0:0:0:0:
256,192,174605,12,0,174105,0:0:0:0:
256,192,174648,12,0,174148,0:0:0:0:
256,192,174689,12,0,174189,0:0:0:0:
256,192,174731,12,0,174231,0:0:0:0:
256,192,174772,12,0,174272,0:0:0:0:
256,192,174815,12,0,174315,0:0:0:0:
256,192,174856,12,0,174356,0:0:0:0:
256,192,174898,12,0,174398,0:0:0:0:
256,192,174939,12,0,174439,0:0:0:0:
256,192,174981,12,0,174481,0:0:0:0:
256,192,175022,12,0,174522,0:0:0:0:
256,192,175064,12,0,174564,0:0:0:0:
256,192,175105,12,0,174605,0:0:0:0:
256,192,175147,12,0,174647,0:0:0:0:
256,192,175188,12,0,174688,0:0:0:0:
256,192,175230,12,0,174730,0:0:0:0:
256,192,175271,12,0,174771,0:0:0:0:
256,192,175314,12,0,174814,0:0:0:0:
256,192,175355,12,0,174855,0:0:0:0:
256,192,175397,12,0,174897,0:0:0:0:
256,192,175438,12,0,174938,0:0:0:0:
256,192,175481,12,0,174981,0:0:0:0:
256,192,175522,12,0,175022,0:0:0:0:
256,192,175564,12,0,175064,0:0:0:0:
256,192,175605,12,0,175105,0:0:0:0:
256,192,175649,12,0,175149,0:0:0:0:
256,192,175690,12,0,175190,0:0:0:0:
256,192,175732,12,0,175232,0:0:0:0:
256,192,175773,12,0,175273,0:0:0:0:
256,192,175815,12,0,175315,0:0:0:0:
256,192,175856,12,0,175356,0:0:0:0:
256,192,175898,12,0,175398,0:0:0:0:
256,192,175939,12,0,175439,0:0:0:0:
256,192,175982,12,0,175482,0:0:0:0:
256,192,176023,12,0,175523,0:0:0:0:
256,192,176065,12,0,175565,0:0:0:0:
256,192,176106,12,0,175606,0:0:0:0:
256,192,176149,12,0,175649,0:0:0:0:
256,192,176190,12,0,175690,0:0:0:0:
256,192,176232,12,0,175732,0:0:0:0:
256,192,176273,12,0,175773,0:0:0:0:
256,192,176315,12,0,175815,0:0:0:0:
256,192,176356,12,0,175856,0:0:0:0:
256,192,176398,12,0,175898,0:0:0:0:
256,192,176439,12,0,175939,0:0:0:0:
256,192,176481,12,0,175981,0:0:0:0:
256,192,176522,12,0,176022,0:0:0:0:
256,192,176564,12,0,176064,0:0:0:0:
256,192,176605,12,0,176105,0:0:0:0:
256,192,176648,12,0,176148,0:0:0:0:
256,192,176689,12,0,176189,0:0:0:0:
256,192,176731,12,0,176231,0:0:0:0:
256,192,176772,12,0,176272,0:0:0:0:
256,192,176815,12,0,176315,0:0:0:0:
256,192,176856,12,0,176356,0:0:0:0:
256,192,176898,12,0,176398,0:0:0:0:
256,192,176939,12,0,176439,0:0:0:0:
256,192,176982,12,0,176482,0:0:0:0:
256,192,177023,12,0,176523,0:0:0:0:
256,192,177065,12,0,176565,0:0:0:0:
256,192,177106,12,0,176606,0:0:0:0:
256,192,177148,12,0,176648,0:0:0:0:
256,192,177189,12,0,176689,0:0:0:0:
256,192,177231,12,0,176731,0:0:0:0:
256,192,177272,12,0,176772,0:0:0:0:
256,192,177315,12,0,176815,0:0:0:0:
256,192,177356,12,0,176856,0:0:0:0:
256,192,177398,12,0,176898,0:0:0:0:
256,192,177439,12,0,176939,0:0:0:0:
256,192,177482,12,0,176982,0:0:0:0:
256,192,177523,12,0,177023,0:0:0:0:
256,192,177565,12,0,177065,0:0:0:0:
256,192,177606,12,0,177106,0:0:0:0:
256,192,177648,12,0,177148,0:0:0:0:
256,192,177689,12,0,177189,0:0:0:0:
256,192,177731,12,0,177231,0:0:0:0:
256,192,177772,12,0,177272,0:0:0:0:
256,192,177814,12,0,177314,0:0:0:0:
256,192,177855,12,0,177355,0:0:0:0:
256,192,177897,12,0,177397,0:0:0:0:
256,192,177938,12,0,177438,0:0:0:0:
256,192,177981,12,0,177481,0:0:0:0:
256,192,178022,12,0,177522,0:0:0:0:
256,192,178064,12,0,177564,0:0:0:0:
256,192,178105,12,0,177605,0:0:0:0:
256,192,178148,12,0,177648,0:0:0:0:
256,192,178189,12,0,177689,0:0:0:0:
256,192,178231,12,0,177731,0:0:0:0:
256,192,178272,12,0,177772,0:0:0:0:
256,192,178315,12,0,177815,0:0:0:0:
256,192,178356,12,0,177856,0:0:0:0:
256,192,178398,12,0,177898,0:0:0:0:
256,192,178439,12,0,177939,0:0:0:0:
256,192,178481,12,0,177981,0:0:0:0:
256,192,178522,12,0,178022,0:0:0:0:
256,192,178564,12,0,178064,0:0:0:0:
256,192,178605,12,0,178105,0:0:0:0:
256,192,178648,12,0,178148,0:0:0:0:
256,192,178689,12,0,178189,0:0:0:0:
256,192,178731,12,0,178231,0:0:0:0:
256,192,178772,12,0,178272,0:0:0:0:
256,192,178815,12,0,178315,0:0:0:0:
256,192,178856,12,0,178356,0:0:0:0:
256,192,178898,12,0,178398,0:0:0:0:
256,192,178939,12,0,178439,0:0:0:0:
256,192,178981,12,0,178481,0:0:0:0:
256,192,179022,12,0,178522,0:0:0:0:
256,192,179064,12,0,178564,0:0:0:0:
256,192,179105,12,0,178605,0:0:0:0:
256,192,179147,12,0,178647,0:0:0:0:
256,192,179188,12,0,178688,0:0:0:0:
256,192,179230,12,0,178730,0:0:0:0:
256,192,179271,12,0,178771,0:0:0:0:
256,192,179314,12,0,178814,0:0:0:0:
256,192,179355,12,0,178855,0:0:0:0:
256,192,179397,12,0,178897,0:0:0:0:
256,192,179438,12,0,178938,0:0:0:0:
256,192,179481,12,0,178981,0:0:0:0:
256,192,179522,12,0,179022,0:0:0:0:
256,192,179564,12,0,179064,0:0:0:0:
256,192,179605,12,0,179105,0:0:0:0:
256,192,179649,12,0,179149,0:0:0:0:
256,192,179690,12,0,179190,0:0:0:0:
256,192,179732,12,0,179232,0:0:0:0:
256,192,179773,12,0,179273,0:0:0:0:
256,192,179815,12,0,179315,0:0:0:0:
256,192,179856,12,0,179356,0:0:0:0:
256,192,179898,12,0,179398,0:0:0:0:
256,192,179939,12,0,179439,0:0:0:0:
256,192,179982,12,0,179482,0:0:0:0:
256,192,180023,12,0,179523,0:0:0:0:
256,192,180065,12,0,179565,0:0:0:0:
256,192,180106,12,0,179606,0:0:0:0:
256,192,180149,12,0,179649,0:0:0:0:
256,192,180190,12,0,179690,0:0:0:0:
256,192,180232,12,0,179732,0:0:0:0:
256,192,180273,12,0,179773,0:0:0:0:
256,192,180315,12,0,179815,0:0:0:0:
256,192,180356,12,0,179856,0:0:0:0:
256,192,180398,12,0,179898,0:0:0:0:
256,192,180439,12,0,179939,0:0:0:0:
256,192,180481,12,0,179981,0:0:0:0:
256,192,180522,12,0,180022,0:0:0:0:
256,192,180564,12,0,180064,0:0:0:0:
256,192,180605,12,0,180105,0:0:0:0:
256,192,180648,12,0,180148,0:0:0:0:
256,192,180689,12,0,180189,0:0:0:0:
256,192,180731,12,0,180231,0:0:0:0:
256,192,180772,12,0,180272,0:0:0:0:
256,192,180815,12,0,180315,0:0:0:0:
256,192,180856,12,0,180356,0:0:0:0:
256,192,180898,12,0,180398,0:0:0:0:
256,192,180939,12,0,180439,0:0:0:0:
256,192,180982,12,0,180482,0:0:0:0:
256,192,181023,12,0,180523,0:0:0:0:
256,192,181065,12,0,180565,0:0:0:0:
256,192,181106,12,0,180606,0:0:0:0:
256,192,181148,12,0,180648,0:0:0:0:
256,192,181189,12,0,180689,0:0:0:0:
256,192,181231,12,0,180731,0:0:0:0:
256,192,181272,12,0,180772,0:0:0:0:
256,192,181315,12,0,180815,0:0:0:0:
256,192,181356,12,0,180856,0:0:0:0:
256,192,181398,12,0,180898,0:0:0:0:
256,192,181439,12,0,180939,0:0:0:0:
256,192,181482,12,0,180982,0:0:0:0:
256,192,181523,12,0,181023,0:0:0:0:
256,192,181565,12,0,181065,0:0:0:0:
256,192,181606,12,0,181106,0:0:0:0:
256,192,181648,12,0,181148,0:0:0:0:
256,192,181689,12,0,181189,0:0:0:0:
256,192,181731,12,0,181231,0:0:0:0:
256,192,181772,12,0,181272,0:0:0:0:
256,192,181814,12,0,181314,0:0:0:0:
256,192,181855,12,0,181355,0:0:0:0:
256,192,181897,12,0,181397,0:0:0:0:
256,192,181938,12,0,181438,0:0:0:0:
256,192,181981,12,0,181481,0:0:0:0:
256,192,182022,12,0,181522,0:0:0:0:
256,192,182064,12,0,181564,0:0:0:0:
256,192,182105,12,0,181605,0:0:0:0:
256,192,182148,12,0,181648,0:0:0:0:
256,192,182189,12,0,181689,0:0:0:0:
256,192,182231,12,0,181731,0:0:0:0:
256,192,182272,12,0,181772,0:0:0:0:
256,192,182315,12,0,181815,0:0:0:0:
256,192,182356,12,0,181856,0:0:0:0:
256,192,182398,12,0,181898,0:0:0:0:
256,192,182439,12,0,181939,0:0:0:0:
256,192,182481,12,0,181981,0:0:0:0:
256,192,182522,12,0,182022,0:0:0:0:
256,192,182564,12,0,182064,0:0:0:0:
256,192,182605,12,0,182105,0:0:0:0:
256,192,182648,12,0,182148,0:0:0:0:
256,192,182689,12,0,182189,0:0:0:0:
256,192,182731,12,0,182231,0:0:0:0:
256,192,182772,12,0,182272,0:0:0:0:
256,192,182815,12,0,182315,0:0:0:0:
256,192,182856,12,0,182356,0:0:0:0:
256,192,182898,12,0,182398,0:0:0:0:
256,192,182939,12,0,182439,0:0:0:0:
256,192,182981,12,0,182481,0:0:0:0:
256,192,183022,12,0,182522,0:0:0:0:
256,192,183064,12,0,182564,0:0:0:0:
256,192,183105,12,0,182605,0:0:0:0:
256,192,183147,12,0,182647,0:0:0:0:
256,192,183188,12,0,182688,0:0:0:0:
256,192,183230,12,0,182730,0:0:0:0:
256,192,183271,12,0,182771,0:0:0:0:
256,192,183314,12,0,182814,0:0:0:0:
256,192,183355,12,0,182855,0:0:0:0:
256,192,183397,12,0,182897,0:0:0:0:
256,192,183438,12,0,182938,0:0:0:0:
256,192,183481,12,0,182981,0:0:0:0:
256,192,183522,12,0,183022,0:0:0:0:
256,192,183564,12,0,183064,0:0:0:0:
256,192,183605,12,0,183105,0:0:0:0:
256,192,183649,12,0,183149,0:0:0:0:
256,192,183690,12,0,183190,0:0:0:0:
256,192,183732,12,0,183232,0:0:0:0:
256,192,183773,12,0,183273,0:0:0:0:
256,192,183815,12,0,183315,0:0:0:0:
256,192,183856,12,0,183356,0:0:0:0:
256,192,183898,12,0,183398,0:0:0:0:
256,192,183939,12,0,183439,0:0:0:0:
256,192,183982,12,0,183482,0:0:0:0:
256,192,184023,12,0,183523,0:0:0:0:
256,192,184065,12,0,183565,0:0:0:0:
256,192,184106,12,0,183606,0:0:0:0:
256,192,184149,12,0,183649,0:0:0:0:
256,192,184190,12,0,183690,0:0:0:0:
256,192,184232,12,0,183732,0:0:0:0:
256,192,184273,12,0,183773,0:0:0:0:
256,192,184315,12,0,183815,0:0:0:0:
256,192,184356,12,0,183856,0:0:0:0:
256,192,184398,12,0,183898,0:0:0:0:
256,192,184439,12,0,183939,0:0:0:0:
256,192,184481,12,0,183981,0:0:0:0:
256,192,184522,12,0,184022,0:0:0:0:
256,192,184564,12,0,184064,0:0:0:0:
256,192,184605,12,0,184105,0:0:0:0:
256,192,184648,12,0,184148,0:0:0:0:
256,192,184689,12,0,184189,0:0:0:0:
256,192,184731,12,0,184231,0:0:0:0:
256,192,184772,12,0,184272,0:0:0:0:
256,192,184815,12,0,184315,0:0:0:0:
256,192,184856,12,0,184356,0:0:0:0:
256,192,184898,12,0,184398,0:0:0:0:
256,192,184939,12,0,184439,0:0:0:0:
256,192,184982,12,0,184482,0:0:0:0:
256,192,185023,12,0,184523,0:0:0:0:
256,192,185065,12,0,184565,0:0:0:0:
256,192,185106,12,0,184606,0:0:0:0:
256,192,185148,12,0,184648,0:0:0:0:
256,192,185189,12,0,184689,0:0:0:0:
256,192,185231,12,0,184731,0:0:0:0:
256,192,185272,12,0,184772,0:0:0:0:
256,192,185315,12,0,184815,0:0:0:0:
256,192,185356,12,0,184856,0:0:0:0:
256,192,185398,12,0,184898,0:0:0:0:
256,192,185439,12,0,184939,0:0:0:0:
256,192,185482,12,0,184982,0:0:0:0:
256,192,185523,12,0,185023,0:0:0:0:
256,192,185565,12,0,185065,0:0:0:0:
256,192,185606,12,0,185106,0:0:0:0:
256,192,185648,12,0,185148,0:0:0:0:
256,192,185689,12,0,185189,0:0:0:0:
256,192,185731,12,0,185231,0:0:0:0:
256,192,185772,12,0,185272,0:0:0:0:
256,192,185814,12,0,185314,0:0:0:0:
256,192,185855,12,0,185355,0:0:0:0:
256,192,185897,12,0,185397,0:0:0:0:
256,192,185938,12,0,185438,0:0:0:0:
256,192,185981,12,0,185481,0:0:0:0:
256,192,186022,12,0,185522,0:0:0:0:
256,192,186064,12,0,185564,0:0:0:0:
256,192,186105,12,0,185605,0:0:0:0:
256,192,186148,12,0,185648,0:0:0:0:
256,192,186189,12,0,185689,0:0:0:0:
256,192,186231,12,0,185731,0:0:0:0:
256,192,186272,12,0,185772,0:0:0:0:
256,192,186315,12,0,185815,0:0:0:0:
256,192,186356,12,0,185856,0:0:0:0:
256,192,186398,12,0,185898,0:0:0:0:
256,192,186439,12,0,185939,0:0:0:0:
256,192,186481,12,0,185981,0:0:0:0:
256,192,186522,12,0,186022,0:0:0:0:
256,192,186564,12,0,186064,0:0:0:0:
256,192,186605,12,0,186105,0:0:0:0:
256,192,186648,12,0,186148,0:0:0:0:
256,192,186689,12,0,186189,0:0:0:0:
256,192,186731,12,0,186231,0:0:0:0:
256,192,186772,12,0,186272,0:0:0:0:
256,192,186815,12,0,186315,0:0:0:0:
256,192,186856,12,0,186356,0:0:0:0:
256,192,186898,12,0,186398,0:0:0:0:
256,192,186939,12,0,186439,0:0:0:0:
256,192,186981,12,0,186481,0:0:0:0:
256,192,187022,12,0,186522,0:0:0:0:
256,192,187064,12,0,186564,0:0:0:0:
256,192,187105,12,0,186605,0:0:0:0:
256,192,187147,12,0,186647,0:0:0:0:
256,192,187188,12,0,186688,0:0:0:0:
256,192,187230,12,0,186730,0:0:0:0:
256,192,187271,12,0,186771,0:0:0:0:
256,192,187314,12,0,186814,0:0:0:0:
256,192,187355,12,0,186855,0:0:0:0:
256,192,187397,12,0,186897,0:0:0:0:
256,192,187438,12,0,186938,0:0:0:0:
256,192,187481,12,0,186981,0:0:0:0:
256,192,187522,12,0,187022,0:0:0:0:
256,192,187564,12,0,187064,0:0:0:0:
256,192,187605,12,0,187105,0:0:0:0:
256,192,187649,12,0,187149,0:0:0:0:
256,192,187690,12,0,187190,0:0:0:0:
256,192,187732,12,0,187232,0:0:0:0:
256,192,187773,12,0,187273,0:0:0:0:
256,192,187815,12,0,187315,0:0:0:0:
256,192,187856,12,0,187356,0:0:0:0:
256,192,187898,12,0,187398,0:0:0:0:
256,192,187939,12,0,187439,0:0:0:0:
256,192,187982,12,0,187482,0:0:0:0:
256,192,188023,12,0,187523,0:0:0:0:
256,192,188065,12,0,187565,0:0:0:0:
256,192,188106,12,0,187606,0:0:0:0:
256,192,188149,12,0,187649,0:0:0:0:
256,192,188190,12,0,187690,0:0:0:0:
256,192,188232,12,0,187732,0:0:0:0:
256,192,188273,12,0,187773,0:0:0:0:
256,192,188315,12,0,187815,0:0:0:0:
256,192,188356,12,0,187856,0:0:0:0:
256,192,188398,12,0,187898,0:0:0:0:
256,192,188439,12,0,187939,0:0:0:0:
256,192,188481,12,0,187981,0:0:0:0:
256,192,188522,12,0,188022,0:0:0:0:
256,192,188564,12,0,188064,0:0:0:0:
256,192,188605,12,0,188105,0:0:0:0:
256,192,188648,12,0,188148,0:0:0:0:
256,192,188689,12,0,188189,0:0:0:0:
256,192,188731,12,0,188231,0:0:0:0:
256,192,188772,12,0,188272,0:0:0:0:
256,192,188815,12,0,188315,0:0:0:0:
256,192,188856,12,0,188356,0:0:0:0:
256,192,188898,12,0,188398,0:0:0:0:
256,192,188939,12,0,188439,0:0:0:0:
256,192,188982,12,0,188482,0:0:0:0:
256,192,189023,12,0,188523,0:0:0:0:
256,192,189065,12,0,188565,0:0:0:0:
256,192,189106,12,0,188606,0:0:0:0:
256,192,189148,12,0,188648,0:0:0:0:
256,192,189189,12,0,188689,0:0:0:0:
256,192,189231,12,0,188731,0:0:0:0:
256,192,189272,12,0,188772,0:0:0:0:
256,192,189315,12,0,188815,0:0:0:0:
256,192,189356,12,0,188856,0:0:0:0:
256,192,189398,12,0,188898,0:0:0:0:
256,192,189439,12,0,188939,0:0:0:0:
256,192,189482,12,0,188982,0:0:0:0:
256,192,189523,12,0,189023,0:0:0:0:
256,192,189565,12,0,189065,0:0:0:0:
256,192,189606,12,0,189106,0:0:0:0:
256,192,189648,12,0,189148,0:0:0:0:
256,192,189689,12,0,189189,0:0:0:0:
256,192,189731,12,0,189231,0:0:0:0:
256,192,189772,12,0,189272,0:0:0:0:
256,192,189814,12,0,189314,0:0:0:0:
256,192,189855,12,0,189355,0:0:0:0:
256,192,189897,12,0,189397,0:0:0:0:
256,192,189938,12,0,189438,0:0:0:0:
256,192,189981,12,0,189481,0:0:0:0:
256,192,190022,12,0,189522,0:0:0:0:
256,192,190064,12,0,189564,0:0:0:0:
256,192,190105,12,0,189605,0:0:0:0:
256,192,190148,12,0,189648,0:0:0:0:
256,192,190189,12,0,189689,0:0:0:0:
256,192,190231,12,0,189731,0:0:0:0:
256,192,190272,12,0,189772,0:0:0:0:
256,192,190315,12,0,189815,0:0:0:0:
256,192,190356,12,0,189856,0:0:0:0:
256,192,190398,12,0,189898,0:0:0:0:
256,192,190439,12,0,189939,0:0:0:0:
256,192,190481,12,0,189981,0:0:0:0:
256,192,190522,12,0,190022,0:0:0:0:
256,192,190564,12,0,190064,0:0:0:0:
256,192,190605,12,0,190105,0:0:0:0:
256,192,190648,12,0,190148,0:0:0:0:
256,192,190689,12,0,190189,0:0:0:0:
256,192,190731,12,0,190231,0:0:0:0:
256,192,190772,12,0,190272,0:0:0:0:
256,192,190815,12,0,190315,0:0:0:0:
256,192,190856,12,0,190356,0:0:0:0:
256,192,190898,12,0,190398,0:0:0:0:
256,192,190939,12,0,190439,0:0:0:0:
256,192,190981,12,0,190481,0:0:0:0:
256,192,191022,12,0,190522,0:0:0:0:
256,192,191064,12,0,190564,0:0:0:0:
256,192,191105,12,0,190605,0:0:0:0:
256,192,191147,12,0,190647,0:0:0:0:
256,192,191188,12,0,190688,0:0:0:0:
256,192,191230,12,0,190730,0:0:0:0:
256,192,191271,12,0,190771,0:0:0:0:
256,192,191314,12,0,190814,0:0:0:0:
256,192,191355,12,0,190855,0:0:0:0:
256,192,191397,12,0,190897,0:0:0:0:
256,192,191438,12,0,190938,0:0:0:0:
256,192,191481,12,0,190981,0:0:0:0:
256,192,191522,12,0,191022,0:0:0:0:
256,192,191564,12,0,191064,0:0:0:0:
256,192,191605,12,0,191105,0:0:0:0:
256,192,191649,12,0,191149,0:0:0:0:
256,192,191690,12,0,191190,0:0:0:0:
256,192,191732,12,0,191232,0:0:0:0:
256,192,191773,12,0,191273,0:0:0:0:
256,192,191815,12,0,191315,0:0:0:0:
256,192,191856,12,0,191356,0:0:0:0:
256,192,191898,12,0,191398,0:0:0:0:
256,192,191939,12,0,191439,0:0:0:0:
256,192,191982,12,0,191482,0:0:0:0:
256,192,192023,12,0,191523,0:0:0:0:
256,192,192065,12,0,191565,0:0:0:0:
256,192,192106,12,0,191606,0:0:0:0:
256,192,192149,12,0,191649,0:0:0:0:
256,192,192190,12,0,191690,0:0:0:0:
256,192,192232,12,0,191732,0:0:0:0:
256,192,192273,12,0,191773,0:0:0:0:
256,192,192315,12,0,191815,0:0:0:0:
256,192,192356,12,0,191856,0:0:0:0:
256,192,192398,12,0,191898,0:0:0:0:
256,192,192439,12,0,191939,0:0:0:0:
256,192,192481,12,0,191981,0:0:0:0:
256,192,192522,12,0,192022,0:0:0:0:
256,192,192564,12,0,192064,0:0:0:0:
256,192,192605,12,0,192105,0:0:0:0:
256,192,192648,12,0,192148,0:0:0:0:
256,192,192689,12,0,192189,0:0:0:0:
256,192,192731,12,0,192231,0:0:0:0:
256,192,192772,12,0,192272,0:0:0:0:
256,192,192815,12,0,192315,0:0:0:0:
256,192,192856,12,0,192356,0:0:0:0:
256,192,192898,12,0,192398,0:0:0:0:
256,192,192939,12,0,192439,0:0:0:0:
256,192,192982,12,0,192482,0:0:0:0:
256,192,193023,12,0,192523,0:0:0:0:
256,192,193065,12,0,192565,0:0:0:0:
256,192,193106,12,0,192606,0:0:0:0:
256,192,193148,12,0,192648,0:0:0:0:
256,192,193189,12,0,192689,0:0:0:0:
256,192,193231,12,0,192731,0:0:0:0:
256,192,193272,12,0,192772,0:0:0:0:
256,192,193315,12,0,192815,0:0:0:0:
256,192,193356,12,0,192856,0:0:0:0:
256,192,193398,12,0,192898,0:0:0:0:
256,192,193439,12,0,192939,0:0:0:0:
256,192,193482,12,0,192982,0:0:0:0:
256,192,193523,12,0,193023,0:0:0:0:
256,192,193565,12,0,193065,0:0:0:0:
256,192,193606,12,0,193106,0:0:0:0:
256,192,193648,12,0,193148,0:0:0:0:
256,192,193689,12,0,193189,0:0:0:0:
256,192,193731,12,0,193231,0:0:0:0:
256,192,193772,12,0,193272,0:0:0:0:
256,192,193814,12,0,193314,0:0:0:0:
256,192,193855,12,0,193355,0:0:0:0:
256,192,193897,12,0,193397,0:0:0:0:
256,192,193938,12,0,193438,0:0:0:0:
256,192,193981,12,0,193481,0:0:0:0:
256,192,194022,12,0,193522,0:0:0:0:
256,192,194064,12,0,193564,0:0:0:0:
256,192,194105,12,0,193605,0:0:0:0:
256,192,194148,12,0,193648,0:0:0:0:
256,192,194189,12,0,193689,0:0:0:0:
256,192,194231,12,0,193731,0:0:0:0:
256,192,194272,12,0,193772,0:0:0:0:
256,192,194315,12,0,193815,0:0:0:0:
256,192,194356,12,0,193856,0:0:0:0:
256,192,194398,12,0,193898,0:0:0:0:
256,192,194439,12,0,193939,0:0:0:0:
256,192,194481,12,0,193981,0:0:0:0:
256,192,194522,12,0,194022,0:0:0:0:
256,192,194564,12,0,194064,0:0:0:0:
256,192,194605,12,0,194105,0:0:0:0:
256,192,194648,12,0,194148,0:0:0:0:
256,192,194689,12,0,194189,0:0:0:0:
256,192,194731,12,0,194231,0:0:0:0:
256,192,194772,12,0,194272,0:0:0:0:
256,192,194815,12,0,194315,0:0:0:0:
256,192,194856,12,0,194356,0:0:0:0:
256,192,194898,12,0,194398,0:0:0:0:
256,192,194939,12,0,194439,0:0:0:0:
256,192,194981,12,0,194481,0:0:0:0:
256,192,195022,12,0,194522,0:0:0:0:
256,192,195064,12,0,194564,0:0:0:0:
256,192,195105,12,0,194605,0:0:0:0:
256,192,195147,12,0,194647,0:0:0:0:
256,192,195188,12,0,194688,0:0:0:0:
256,192,195230,12,0,194730,0:0:0:0:
256,192,195271,12,0,194771,0:0:0:0:
256,192,195314,12,0,194814,0:0:0:0:
256,192,195355,12,0,194855,0:0:0:0:
256,192,195397,12,0,194897,0:0:0:0:
256,192,195438,12,0,194938,0:0:0:0:
256,192,195481,12,0,194981,0:0:0:0:
256,192,195522,12,0,195022,0:0:0:0:
256,192,195564,12,0,195064,0:0:0:0:
256,192,195605,12,0,195105,0:0:0:0:
256,192,195649,12,0,195149,0:0:0:0:
256,192,195690,12,0,195190,0:0:0:0:
256,192,195732,12,0,195232,0:0:0:0:
256,192,195773,12,0,195273,0:0:0:0:
256,192,195815,12,0,195315,0:0:0:0:
256,192,195856,12,0,195356,0:0:0:0:
256,192,195898,12,0,195398,0:0:0:0:
256,192,195939,12,0,195439,0:0:0:0:
256,192,195982,12,0,195482,0:0:0:0:
256,192,196023,12,0,195523,0:0:0:0:
256,192,196065,12,0,195565,0:0:0:0:
256,192,196106,12,0,195606,0:0:0:0:
256,192,196149,12,0,195649,0:0:0:0:
256,192,196190,12,0,195690,0:0:0:0:
256,192,196232,12,0,195732,0:0:0:0:
256,192,196273,12,0,195773,0:0:0:0:
256,192,196315,12,0,195815,0:0:0:0:
256,192,196356,12,0,195856,0:0:0:0:
256,192,196398,12,0,195898,0:0:0:0:
256,192,196439,12,0,195939,0:0:0:0:
256,192,196481,12,0,195981,0:0:0:0:
256,192,196522,12,0,196022,0:0:0:0:
256,192,196564,12,0,196064,0:0:0:0:
256,192,196605,12,0,196105,0:0:0:0:
256,192,196648,12,0,196148,0:0:0:0:
256,192,196689,12,0,196189,0:0:0:0:
256,192,196731,12,0,196231,0:0:0:0:
256,192,196772,12,0,196272,0:0:0:0:
256,192,196815,12,0,196315,0:0:0:0:
256,192,196856,12,0,196356,0:0:0:0:
256,192,196898,12,0,196398,0:0:0:0:
256,192,196939,12,0,196439,0:0:0:0:
256,192,196982,12,0,196482,0:0:0:0:
256,192,197023,12,0,196523,0:0:0:0:
256,192,197065,12,0,196565,0:0:0:0:
256,192,197106,12,0,196606,0:0:0:0:
256,192,197148,12,0,196648,0:0:0:0:
256,192,197189,12,0,196689,0:0:0:0:
256,192,197231,12,0,196731,0:0:0:0:
256,192,197272,12,0,196772,0:0:0:0:
256,192,197315,12,0,196815,0:0:0:0:
256,192,197356,12,0,196856,0:0:0:0:
256,192,197398,12,0,196898,0:0:0:0:
256,192,197439,12,0,196939,0:0:0:0:
256,192,197482,12,0,196982,0:0:0:0:
256,192,197523,12,0,197023,0:0:0:0:
256,192,197565,12,0,197065,0:0:0:0:
256,192,197606,12,0,197106,0:0:0:0:
256,192,197648,12,0,197148,0:0:0:0:
256,192,197689,12,0,197189,0:0:0:0:
256,192,197731,12,0,197231,0:0:0:0:
256,192,197772,12,0,197272,0:0:0:0:
256,192,197814,12,0,197314,0:0:0:0:
256,192,197855,12,0,197355,0:0:0:0:
256,192,197897,12,0,197397,0:0:0:0:
256,192,197938,12,0,197438,0:0:0:0:
256,192,197981,12,0,197481,0:0:0:0:
256,192,198022,12,0,197522,0:0:0:0:
256,192,198064,12,0,197564,0:0:0:0:
256,192,198105,12,0,197605,0:0:0:0:
256,192,198148,12,0,197648,0:0:0:0:
256,192,198189,12,0,197689,0:0:0:0:
256,192,198231,12,0,197731,0:0:0:0:
256,192,198272,12,0,197772,0:0:0:0:
256,192,198315,12,0,197815,0:0:0:0:
256,192,198356,12,0,197856,0:0:0:0:
256,192,198398,12,0,197898,0:0:0:0:
256,192,198439,12,0,197939,0:0:0:0:
256,192,198481,12,0,197981,0:0:0:0:
256,192,198522,12,0,198022,0:0:0:0:
256,192,198564,12,0,198064,0:0:0:0:
256,192,198605,12,0,198105,0:0:0:0:
256,192,198648,12,0,198148,0:0:0:0:
256,192,198689,12,0,198189,0:0:0:0:
256,192,198731,12,0,198231,0:0:0:0:
256,192,198772,12,0,198272,0:0:0:0:
256,192,198815,12,0,198315,0:0:0:0:
256,192,198856,12,0,198356,0:0:0:0:
256,192,198898,12,0,198398,0:0:0:0:
256,192,198939,12,0,198439,0:0:0:0:
256,192,198981,12,0,198481,0:0:0:0:
256,192,199022,12,0,198522,0:0:0:0:
256,192,199064,12,0,198564,0:0:0:0:
256,192,199105,12,0,198605,0:0:0:0:
256,192,199147,12,0,198647,0:0:0:0:
256,192,199188,12,0,198688,0:0:0:0:
256,192,199230,12,0,198730,0:0:0:0:
256,192,199271,12,0,198771,0:0:0:0:
256,192,199314,12,0,198814,0:0:0:0:
256,192,199355,12,0,198855,0:0:0:0:
256,192,199397,12,0,198897,0:0:0:0:
256,192,199438,12,0,198938,0:0:0:0:
256,192,199481,12,0,198981,0:0:0:0:
256,192,199522,12,0,199022,0:0:0:0:
256,192,199564,12,0,199064,0:0:0:0:
256,192,199605,12,0,199105,0:0:0:0:
256,192,199649,12,0,199149,0:0:0:0:
256,192,199690,12,0,199190,0:0:0:0:
256,192,199732,12,0,199232,0:0:0:0:
256,192,199773,12,0,199273,0:0:0:0:
256,192,199815,12,0,199315,0:0:0:0:
256,192,199856,12,0,199356,0:0:0:0:
256,192,199898,12,0,199398,0:0:0:0:
256,192,199939,12,0,199439,0:0:0:0:
256,192,199982,12,0,199482,0:0:0:0:
256,192,200023,12,0,199523,0:0:0:0:
256,192,200065,12,0,199565,0:0:0:0:
256,192,200106,12,0,199606,0:0:0:0:
256,192,200149,12,0,199649,0:0:0:0:
256,192,200190,12,0,199690,0:0:0:0:
256,192,200232,12,0,199732,0:0:0:0:
256,192,200273,12,0,199773,0:0:0:0:
256,192,200315,12,0,199815,0:0:0:0:
256,192,200356,12,0,199856,0:0:0:0:
256,192,200398,12,0,199898,0:0:0:0:
256,192,200439,12,0,199939,0:0:0:0:
256,192,200481,12,0,199981,0:0:0:0:
256,192,200522,12,0,200022,0:0:0:0:
256,192,200564,12,0,200064,0:0:0:0:
256,192,200605,12,0,200105,0:0:0:0:
256,192,200648,12,0,200148,0:0:0:0:
256,192,200689,12,0,200189,0:0:0:0:
256,192,200731,12,0,200231,0:0:0:0:
256,192,200772,12,0,200272,0:0:0:0:
256,192,200815,12,0,200315,0:0:0:0:
256,192,200856,12,0,200356,0:0:0:0:
256,192,200898,12,0,200398,0:0:0:0:
256,192,200939,12,0,200439,0:0:0:0:
256,192,200982,12,0,200482,0:0:0:0:
256,192,201023,12,0,200523,0:0:0:0:
256,192,201065,12,0,200565,0:0:0:0:
256,192,201106,12,0,200606,0:0:0:0:
256,192,201148,12,0,200648,0:0:0:0:
256,192,201189,12,0,200689,0:0:0:0:
256,192,201231,12,0,200731,0:0:0:0:
256,192,201272,12,0,200772,0:0:0:0:
256,192,201315,12,0,200815,0:0:0:0:
256,192,201356,12,0,200856,0:0:0:0:
256,192,201398,12,0,200898,0:0:0:0:
256,192,201439,12,0,200939,0:0:0:0:
256,192,201482,12,0,200982,0:0:0:0:
256,192,201523,12,0,201023,0:0:0:0:
256,192,201565,12,0,201065,0:0:0:0:
256,192,201606,12,0,201106,0:0:0:0:
256,192,201648,12,0,201148,0:0:0:0:
256,192,201689,12,0,201189,0:0:0:0:
256,192,201731,12,0,201231,0:0:0:0:
256,192,201772,12,0,201272,0:0:0:0:
256,192,201814,12,0,201314,0:0:0:0:
256,192,201855,12,0,201355,0:0:0:0:
256,192,201897,12,0,201397,0:0:0:0:
256,192,201938,12,0,201438,0:0:0:0:
256,192,201981,12,0,201481,0:0:0:0:
256,192,202022,12,0,201522,0:0:0:0:
256,192,202064,12,0,201564,0:0:0:0:
256,192,202105,12,0,201605,0:0:0:0:
256,192,202148,12,0,201648,0:0:0:0:
256,192,202189,12,0,201689,0:0:0:0:
256,192,202231,12,0,201731,0:0:0:0:
256,192,202272,12,0,201772,0:0:0:0:
256,192,202315,12,0,201815,0:0:0:0:
256,192,202356,12,0,201856,0:0:0:0:
256,192,202398,12,0,201898,0:0:0:0:
256,192,202439,12,0,201939,0:0:0:0:
256,192,202481,12,0,201981,0:0:0:0:
256,192,202522,12,0,202022,0:0:0:0:
256,192,202564,12,0,202064,0:0:0:0:
256,192,202605,12,0,202105,0:0:0:0:
256,192,202648,12,0,202148,0:0:0:0:
256,192,202689,12,0,202189,0:0:0:0:
256,192,202731,12,0,202231,0:0:0:0:
256,192,202772,12,0,202272,0:0:0:0:
256,192,202815,12,0,202315,0:0:0:0:
256,192,202856,12,0,202356,0:0:0:0:
256,192,202898,12,0,202398,0:0:0:0:
256,192,202939,12,0,202439,0:0:0:0:
256,192,202981,12,0,202481,0:0:0:0:
256,192,203022,12,0,202522,0:0:0:0:
256,192,203064,12,0,202564,0:0:0:0:
256,192,203105,12,0,202605,0:0:0:0:
256,192,203147,12,0,202647,0:0:0:0:
256,192,203188,12,0,202688,0:0:0:0:
256,192,203230,12,0,202730,0:0:0:0:
256,192,203271,12,0,202771,0:0:0:0:
256,192,203314,12,0,202814,0:0:0:0:
256,192,203355,12,0,202855,0:0:0:0:
256,192,203397,12,0,202897,0:0:0:0:
256,192,203438,12,0,202938,0:0:0:0:
256,192,203481,12,0,202981,0:0:0:0:
256,192,203522,12,0,203022,0:0:0:0:
256,192,203564,12,0,203064,0:0:0:0:
256,192,203605,12,0,203105,0:0:0:0:
256,192,203649,12,0,203149,0:0:0:0:
256,192,203690,12,0,203190,0:0:0:0:
256,192,203732,12,0,203232,0:0:0:0:
256,192,203773,12,0,203273,0:0:0:0:
256,192,203815,12,0,203315,0:0:0:0:
256,192,203856,12,0,203356,0:0:0:0:
256,192,203898,12,0,203398,0:0:0:0:
256,192,203939,12,0,203439,0:0:0:0:
256,192,203982,12,0,203482,0:0:0:0:
256,192,204023,12,0,203523,0:0:0:0:
256,192,204065,12,0,203565,0:0:0:0:
256,192,204106,12,0,203606,0:0:0:0:
256,192,204149,12,0,203649,0:0:0:0:
256,192,204190,12,0,203690,0:0:0:0:
256,192,204232,12,0,203732,0:0:0:0:
256,192,204273,12,0,203773,0:0:0:0:
256,192,204315,12,0,203815,0:0:0:0:
256,192,204356,12,0,203856,0:0:0:0:
256,192,204398,12,0,203898,0:0:0:0:
256,192,204439,12,0,203939,0:0:0:0:
256,192,204481,12,0,203981,0:0:0:0:
256,192,204522,12,0,204022,0:0:0:0:
256,192,204564,12,0,204064,0:0:0:0:
256,192,204605,12,0,204105,0:0:0:0:
256,192,204648,12,0,204148,0:0:0:0:
256,192,204689,12,0,204189,0:0:0:0:
256,192,204731,12,0,204231,0:0:0:0:
256,192,204772,12,0,204272,0:0:0:0:
256,192,204815,12,0,204315,0:0:0:0:
256,192,204856,12,0,204356,0:0:0:0:
256,192,204898,12,0,204398,0:0:0:0:
256,192,204939,12,0,204439,0:0:0:0:
256,192,204982,12,0,204482,0:0:0:0:
256,192,205023,12,0,204523,0:0:0:0:
256,192,205065,12,0,204565,0:0:0:0:
256,192,205106,12,0,204606,0:0:0:0:
256,192,205148,12,0,204648,0:0:0:0:
256,192,205189,12,0,204689,0:0:0:0:
256,192,205231,12,0,204731,0:0:0:0:
256,192,205272,12,0,204772,0:0:0:0:
256,192,205315,12,0,204815,0:0:0:0:
256,192,205356,12,0,204856,0:0:0:0:
256,192,205398,12,0,204898,0:0:0:0:
256,192,205439,12,0,204939,0:0:0:0:
256,192,205482,12,0,204982,0:0:0:0:
256,192,205523,12,0,205023,0:0:0:0:
256,192,205565,12,0,205065,0:0:0:0:
256,192,205606,12,0,205106,0:0:0:0:
256,192,205648,12,0,205148,0:0:0:0:
256,192,205689,12,0,205189,0:0:0:0:
256,192,205731,12,0,205231,0:0:0:0:
256,192,205772,12,0,205272,0:0:0:0:
256,192,205814,12,0,205314,0:0:0:0:
256,192,205855,12,0,205355,0:0:0:0:
256,192,205897,12,0,205397,0:0:0:0:
256,192,205938,12,0,205438,0:0:0:0:
256,192,205981,12,0,205481,0:0:0:0:
256,192,206022,12,0,205522,0:0:0:0:
256,192,206064,12,0,205564,0:0:0:0:
256,192,206105,12,0,205605,0:0:0:0:
256,192,206148,12,0,205648,0:0:0:0:
256,192,206189,12,0,205689,0:0:0:0:
256,192,206231,12,0,205731,0:0:0:0:
256,192,206272,12,0,205772,0:0:0:0:
256,192,206315,12,0,205815,0:0:0:0:
256,192,206356,12,0,205856,0:0:0:0:
256,192,206398,12,0,205898,0:0:0:0:
256,192,206439,12,0,205939,0:0:0:0:
256,192,206481,12,0,205981,0:0:0:0:
256,192,206522,12,0,206022,0:0:0:0:
256,192,206564,12,0,206064,0:0:0:0:
256,192,206605,12,0,206105,0:0:0:0:
256,192,206648,12,0,206148,0:0:0:0:
256,192,206689,12,0,206189,0:0:0:0:
256,192,206731,12,0,206231,0:0:0:0:
256,192,206772,12,0,206272,0:0:0:0:
256,192,206815,12,0,206315,0:0:0:0:
256,192,206856,12,0,206356,0:0:0:0:
256,192,206898,12,0,206398,0:0:0:0:
256,192,206939,12,0,206439,0:0:0:0:
256,192,206981,12,0,206481,0:0:0:0:
256,192,207022,12,0,206522,0:0:0:0:
256,192,207064,12,0,206564,0:0:0:0:
256,192,207105,12,0,206605,0:0:0:0:
256,192,207147,12,0,206647,0:0:0:0:
256,192,207188,12,0,206688,0:0:0:0:
256,192,207230,12,0,206730,0:0:0:0:
256,192,207271,12,0,206771,0:0:0:0:
256,192,207314,12,0,206814,0:0:0:0:
256,192,207355,12,0,206855,0:0:0:0:
256,192,207397,12,0,206897,0:0:0:0:
256,192,207438,12,0,206938,0:0:0:0:
256,192,207481,12,0,206981,0:0:0:0:
256,192,207522,12,0,207022,0:0:0:0:
256,192,207564,12,0,207064,0:0:0:0:
256,192,207605,12,0,207105,0:0:0:0:
256,192,207649,12,0,207149,0:0:0:0:
256,192,207690,12,0,207190,0:0:0:0:
256,192,207732,12,0,207232,0:0:0:0:
256,192,207773,12,0,207273,0:0:0:0:
256,192,207815,12,0,207315,0:0:0:0:
256,192,207856,12,0,207356,0:0:0:0:
256,192,207898,12,0,207398,0:0:0:0:
256,192,207939,12,0,207439,0:0:0:0:
256,192,207982,12,0,207482,0:0:0:0:
256,192,208023,12,0,207523,0:0:0:0:
256,192,208065,12,0,207565,0:0:0:0:
256,192,208106,12,0,207606,0:0:0:0:
256,192,208149,12,0,207649,0:0:0:0:
256,192,208190,12,0,207690,0:0:0:0:
256,192,208232,12,0,207732,0:0:0:0:
256,192,208273,12,0,207773,0:0:0:0:
256,192,208315,12,0,207815,0:0:0:0:
256,192,208356,12,0,207856,0:0:0:0:
256,192,208398,12,0,207898,0:0:0:0:
256,192,208439,12,0,207939,0:0:0:0:
256,192,208481,12,0,207981,0:0:0:0:
256,192,208522,12,0,208022,0:0:0:0:
256,192,208564,12,0,208064,0:0:0:0:
256,192,208605,12,0,208105,0:0:0:0:
256,192,208648,12,0,208148,0:0:0:0:
256,192,208689,12,0,208189,0:0:0:0:
256,192,208731,12,0,208231,0:0:0:0:
256,192,208772,12,0,208272,0:0:0:0:
256,192,208815,12,0,208315,0:0:0:0:
256,192,208856,12,0,208356,0:0:0:0:
256,192,208898,12,0,208398,0:0:0:0:
256,192,208939,12,0,208439,0:0:0:0:
256,192,208982,12,0,208482,0:0:0:0:
256,192,209023,12,0,208523,0:0:0:0:
256,192,209065,12,0,208565,0:0:0:0:
256,192,209106,12,0,208606,0:0:0:0:
256,192,209148,12,0,208648,0:0:0:0:
256,192,209189,12,0,208689,0:0:0:0:
256,192,209231,12,0,208731,0:0:0:0:
256,192,209272,12,0,208772,0:0:0:0:
256,192,209315,12,0,208815,0:0:0:0:
256,192,209356,12,0,208856,0:0:0:0:
256,192,209398,12,0,208898,0:0:0:0:
256,192,209439,12,0,208939,0:0:0:0:
256,192,209482,12,0,208982,0:0:0:0:
256,192,209523,12,0,209023,0:0:0:0:
256,192,209565,12,0,209065,0:0:0:0:
256,192,209606,12,0,209106,0:0:0:0:
256,192,209648,12,0,209148,0:0:0:0:
256,192,209689,12,0,209189,0:0:0:0:
256,192,209731,12,0,209231,0:0:0:0:
256,192,209772,12,0,209272,0:0:0:0:
256,192,209814,12,0,209314,0:0:0:0:
256,192,209855,12,0,209355,0:0:0:0:
256,192,209897,12,0,209397,0:0:0:0:
256,192,209938,12,0,209438,0:0:0:0:
256,192,209981,12,0,209481,0:0:0:0:
256,192,210022,12,0,209522,0:0:0:0:
256,192,210064,12,0,209564,0:0:0:0:
256,192,210105,12,0,209605,0:0:0:0:
256,192,210148,12,0,209648,0:0:0:0:
256,192,210189,12,0,209689,0:0:0:0:
256,192,210231,12,0,209731,0:0:0:0:
256,192,210272,12,0,209772,0:0:0:0:
256,192,210315,12,0,209815,0:0:0:0:
256,192,210356,12,0,209856,0:0:0:0:
256,192,210398,12,0,209898,0:0:0:0:
256,192,210439,12,0,209939,0:0:0:0:
256,192,210481,12,0,209981,0:0:0:0:
256,192,210522,12,0,210022,0:0:0:0:
256,192,210564,12,0,210064,0:0:0:0:
256,192,210605,12,0,210105,0:0:0:0:
256,192,210648,12,0,210148,0:0:0:0:
256,192,210689,12,0,210189,0:0:0:0:
256,192,210731,12,0,210231,0:0:0:0:
256,192,210772,12,0,210272,0:0:0:0:
256,192,210815,12,0,210315,0:0:0:0:
256,192,210856,12,0,210356,0:0:0:0:
256,192,210898,12,0,210398,0:0:0:0:
256,192,210939,12,0,210439,0:0:0:0:
256,192,210981,12,0,210481,0:0:0:0:
256,192,211022,12,0,210522,0:0:0:0:
256,192,211064,12,0,210564,0:0:0:0:
256,192,211105,12,0,210605,0:0:0:0:
256,192,211147,12,0,210647,0:0:0:0:
256,192,211188,12,0,210688,0:0:0:0:
256,192,211230,12,0,210730,0:0:0:0:
256,192,211271,12,0,210771,0:0:0:0:
256,192,211314,12,0,210814,0:0:0:0:
256,192,211355,12,0,210855,0:0:0:0:
256,192,211397,12,0,210897,0:0:0:0:
256,192,211438,12,0,210938,0:0:0:0:
256,192,211481,12,0,210981,0:0:0:0:
256,192,211522,12,0,211022,0:0:0:0:
256,192,211564,12,0,211064,0:0:0:0:
256,192,211605,12,0,211105,0:0:0:0:
256,192,211649,12,0,211149,0:0:0:0:
256,192,211690,12,0,211190,0:0:0:0:
256,192,211732,12,0,211232,0:0:0:0:
256,192,211773,12,0,211273,0:0:0:0:
256,192,211815,12,0,211315,0:0:0:0:
256,192,211856,12,0,211356,0:0:0:0:
256,192,211898,12,0,211398,0:0:0:0:
256,192,211939,12,0,211439,0:0:0:0:
256,192,211982,12,0,211482,0:0:0:0:
256,192,212023,12,0,211523,0:0:0:0:
256,192,212065,12,0,211565,0:0:0:0:
256,192,212106,12,0,211606,0:0:0:0:
256,192,212149,12,0,211649,0:0:0:0:
256,192,212190,12,0,211690,0:0:0:0:
256,192,212232,12,0,211732,0:0:0:0:
256,192,212273,12,0,211773,0:0:0:0:
256,192,212315,12,0,211815,0:0:0:0:
256,192,212356,12,0,211856,0:0:0:0:
256,192,212398,12,0,211898,0:0:0:0:
256,192,212439,12,0,211939,0:0:0:0:
256,192,212481,12,0,211981,0:0:0:0:
256,192,212522,12,0,212022,0:0:0:0:
256,192,212564,12,0,212064,0:0:0:0:
256,192,212605,12,0,212105,0:0:0:0:
256,192,212648,12,0,212148,0:0:0:0:
256,192,212689,12,0,212189,0:0:0:0:
256,192,212731,12,0,212231,0:0:0:0:
256,192,212772,12,0,212272,0:0:0:0:
256,192,212815,12,0,212315,0:0:0:0:
256,192,212856,12,0,212356,0:0:0:0:
256,192,212898,12,0,212398,0:0:0:0:
256,192,212939,12,0,212439,0:0:0:0:
256,192,212982,12,0,212482,0:0:0:0:
256,192,213023,12,0,212523,0:0:0:0:
256,192,213065,12,0,212565,0:0:0:0:
256,192,213106,12,0,212606,0:0:0:0:
256,192,213148,12,0,212648,0:0:0:0:
256,192,213189,12,0,212689,0:0:0:0:
256,192,213231,12,0,212731,0:0:0:0:
256,192,213272,12,0,212772,0:0:0:0:
256,192,213315,12,0,212815,0:0:0:0:
256,192,213356,12,0,212856,0:0:0:0:
256,192,213398,12,0,212898,0:0:0:0:
256,192,213439,12,0,212939,0:0:0:0:
256,192,213482,12,0,212982,0:0:0:0:
256,192,213523,12,0,213023,0:0:0:0:
256,192,213565,12,0,213065,0:0:0:0:
256,192,213606,12,0,213106,0:0:0:0:
256,192,213648,12,0,213148,0:0:0:0:
256,192,213689,12,0,213189,0:0:0:0:
256,192,213731,12,0,213231,0:0:0:0:
256,192,213772,12,0,213272,0:0:0:0:
256,192,213814,12,0,213314,0:0:0:0:
256,192,213855,12,0,213355,0:0:0:0:
256,192,213897,12,0,213397,0:0:0:0:
256,192,213938,12,0,213438,0:0:0:0:
256,192,213981,12,0,213481,0:0:0:0:
256,192,214022,12,0,213522,0:0:0:0:
256,192,214064,12,0,213564,0:0:0:0:
256,192,214105,12,0,213605,0:0:0:0:
256,192,214148,12,0,213648,0:0:0:0:
256,192,214189,12,0,213689,0:0:0:0:
256,192,214231,12,0,213731,0:0:0:0:
256,192,214272,12,0,213772,0:0:0:0:
256,192,214315,12,0,213815,0:0:0:0:
256,192,214356,12,0,213856,0:0:0:0:
256,192,214398,12,0,213898,0:0:0:0:
256,192,214439,12,0,213939,0:0:0:0:
256,192,214481,12,0,213981,0:0:0:0:
256,192,214522,12,0,214022,0:0:0:0:
256,192,214564,12,0,214064,0:0:0:0:
256,192,214605,12,0,214105,0:0:0:0:
256,192,214648,12,0,214148,0:0:0:0:
256,192,214689,12,0,214189,0:0:0:0:
256,192,214731,12,0,214231,0:0:0:0:
256,192,214772,12,0,214272,0:0:0:0:
256,192,214815,12,0,214315,0:0:0:0:
256,192,214856,12,0,214356,0:0:0:0:
256,192,214898,12,0,214398,0:0:0:0:
256,192,214939,12,0,214439,0:0:0:0:
256,192,214981,12,0,214481,0:0:0:0:
256,192,215022,12,0,214522,0:0:0:0:
256,192,215064,12,0,214564,0:0:0:0:
256,192,215105,12,0,214605,0:0:0:0:
256,192,215147,12,0,214647,0:0:0:0:
256,192,215188,12,0,214688,0:0:0:0:
256,192,215230,12,0,214730,0:0:0:0:
256,192,215271,12,0,214771,0:0:0:0:
256,192,215314,12,0,214814,0:0:0:0:
256,192,215355,12,0,214855,0:0:0:0:
256,192,215397,12,0,214897,0:0:0:0:
256,192,215438,12,0,214938,0:0:0:0:
256,192,215481,12,0,214981,0:0:0:0:
256,192,215522,12,0,215022,0:0:0:0:
256,192,215564,12,0,215064,0:0:0:0:
256,192,215605,12,0,215105,0:0:0:0:
256,192,215649,12,0,215149,0:0:0:0:
256,192,215690,12,0,215190,0:0:0:0:
256,192,215732,12,0,215232,0:0:0:0:
256,192,215773,12,0,215273,0:0:0:0:
256,192,215815,12,0,215315,0:0:0:0:
256,192,215856,12,0,215356,0:0:0:0:
256,192,215898,12,0,215398,0:0:0:0:
256,192,215939,12,0,215439,0:0:0:0:
256,192,215982,12,0,215482,0:0:0:0:
256,192,216023,12,0,215523,0:0:0:0:
256,192,216065,12,0,215565,0:0:0:0:
256,192,216106,12,0,215606,0:0:0:0:
256,192,216149,12,0,215649,0:0:0:0:
256,192,216190,12,0,215690,0:0:0:0:
256,192,216232,12,0,215732,0:0:0:0:
256,192,216273,12,0,215773,0:0:0:0:
256,192,216315,12,0,215815,0:0:0:0:
256,192,216356,12,0,215856,0:0:0:0:
256,192,216398,12,0,215898,0:0:0:0:
256,192,216439,12,0,215939,0:0:0:0:
256,192,216481,12,0,215981,0:0:0:0:
256,192,216522,12,0,216022,0:0:0:0:
256,192,216564,12,0,216064,0:0:0:0:
256,192,216605,12,0,216105,0:0:0:0:
256,192,216648,12,0,216148,0:0:0:0:
256,192,216689,12,0,216189,0:0:0:0:
256,192,216731,12,0,216231,0:0:0:0:
256,192,216772,12,0,216272,0:0:0:0:
256,192,216815,12,0,216315,0:0:0:0:
256,192,216856,12,0,216356,0:0:0:0:
256,192,216898,12,0,216398,0:0:0:0:
256,192,216939,12,0,216439,0:0:0:0:
256,192,216982,12,0,216482,0:0:0:0:
256,192,217023,12,0,216523,0:0:0:0:
256,192,217065,12,0,216565,0:0:0:0:
256,192,217106,12,0,216606,0:0:0:0:
256,192,217148,12,0,216648,0:0:0:0:
256,192,217189,12,0,216689,0:0:0:0:
256,192,217231,12,0,216731,0:0:0:0:
256,192,217272,12,0,216772,0:0:0:0:
256,192,217315,12,0,216815,0:0:0:0:
256,192,217356,12,0,216856,0:0:0:0:
256,192,217398,12,0,216898,0:0:0:0:
256,192,217439,12,0,216939,0:0:0:0:
256,192,217482,12,0,216982,0:0:0:0:
256,192,217523,12,0,217023,0:0:0:0:
256,192,217565,12,0,217065,0:0:0:0:
256,192,217606,12,0,217106,0:0:0:0:
256,192,217648,12,0,217148,0:0:0:0:
256,192,217689,12,0,217189,0:0:0:0:
256,192,217731,12,0,217231,0:0:0:0:
256,192,217772,12,0,217272,0:0:0:0:
256,192,217814,12,0,217314,0:0:0:0:
256,192,217855,12,0,217355,0:0:0:0:
256,192,217897,12,0,217397,0:0:0:0:
256,192,217938,12,0,217438,0:0:0:0:
256,192,217981,12,0,217481,0:0:0:0:
256,192,218022,12,0,217522,0:0:0:0:
256,192,218064,12,0,217564,0:0:0:0:
256,192,218105,12,0,217605,0:0:0:0:
256,192,218148,12,0,217648,0:0:0:0:
256,192,218189,12,0,217689,0:0:0:0:
256,192,218231,12,0,217731,0:0:0:0:
256,192,218272,12,0,217772,0:0:0:0:
256,192,218315,12,0,217815,0:0:0:0:
256,192,218356,12,0,217856,0:0:0:0:
256,192,218398,12,0,217898,0:0:0:0:
256,192,218439,12,0,217939,0:0:0:0:
256,192,218481,12,0,217981,0:0:0:0:
256,192,218522,12,0,218022,0:0:0:0:
256,192,218564,12,0,218064,0:0:0:0:
256,192,218605,12,0,218105,0:0:0:0:
256,192,218648,12,0,218148,0:0:0:0:
256,192,218689,12,0,218189,0:0:0:0:
256,192,218731,12,0,218231,0:0:0:0:
256,192,218772,12,0,218272,0:0:0:0:
256,192,218815,12,0,218315,0:0:0:0:
256,192,218856,12,0,218356,0:0:0:0:
256,192,218898,12,0,218398,0:0:0:0:
256,192,218939,12,0,218439,0:0:0:0:
256,192,218981,12,0,218481,0:0:0:0:
256,192,219022,12,0,218522,0:0:0:0:
256,192,219064,12,0,218564,0:0:0:0:
256,192,219105,12,0,218605,0:0:0:0:
256,192,219147,12,0,218647,0:0:0:0:
256,192,219188,12,0,218688,0:0:0:0:
256,192,219230,12,0,218730,0:0:0:0:
256,192,219271,12,0,218771,0:0:0:0:
256,192,219314,12,0,218814,0:0:0:0:
256,192,219355,12,0,218855,0:0:0:0:
256,192,219397,12,0,218897,0:0:0:0:
256,192,219438,12,0,218938,0:0:0:0:
256,192,219481,12,0,218981,0:0:0:0:
256,192,219522,12,0,219022,0:0:0:0:
256,192,219564,12,0,219064,0:0:0:0:
256,192,219605,12,0,219105,0:0:0:0:
256,192,219649,12,0,219149,0:0:0:0:
256,192,219690,12,0,219190,0:0:0:0:
256,192,219732,12,0,219232,0:0:0:0:
256,192,219773,12,0,219273,0:0:0:0:
256,192,219815,12,0,219315,0:0:0:0:
256,192,219856,12,0,219356,0:0:0:0:
256,192,219898,12,0,219398,0:0:0:0:
256,192,219939,12,0,219439,0:0:0:0:
256,192,219982,12,0,219482,0:0:0:0:
256,192,220023,12,0,219523,0:0:0:0:
256,192,220065,12,0,219565,0:0:0:0:
256,192,220106,12,0,219606,0:0:0:0:
256,192,220149,12,0,219649,0:0:0:0:
256,192,220190,12,0,219690,0:0:0:0:
256,192,220232,12,0,219732,0:0:0:0:
256,192,220273,12,0,219773,0:0:0:0:
256,192,220315,12,0,219815,0:0:0:0:
256,192,220356,12,0,219856,0:0:0:0:
256,192,220398,12,0,219898,0:0:0:0:
256,192,220439,12,0,219939,0:0:0:0:
256,192,220481,12,0,219981,0:0:0:0:
256,192,220522,12,0,220022,0:0:0:0:
256,192,220564,12,0,220064,0:0:0:0:
256,192,220605,12,0,220105,0:0:0:0:
256,192,220648,12,0,220148,0:0:0:0:
256,192,220689,12,0,220189,0:0:0:0:
256,192,220731,12,0,220231,0:0:0:0:
256,192,220772,12,0,220272,0:0:0:0:
256,192,220815,12,0,220315,0:0:0:0:
256,192,220856,12,0,220356,0:0:0:0:
256,192,220898,12,0,220398,0:0:0:0:
256,192,220939,12,0,220439,0:0:0:0:
256,192,220982,12,0,220482,0:0:0:0:
256,192,221023,12,0,220523,0:0:0:0:
256,192,221065,12,0,220565,0:0:0:0:
256,192,221106,12,0,220606,0:0:0:0:
256,192,221148,12,0,220648,0:0:0:0:
256,192,221189,12,0,220689,0:0:0:0:
256,192,221231,12,0,220731,0:0:0:0:
256,192,221272,12,0,220772,0:0:0:0:
256,192,221315,12,0,220815,0:0:0:0:
256,192,221356,12,0,220856,0:0:0:0:
256,192,221398,12,0,220898,0:0:0:0:
256,192,221439,12,0,220939,0:0:0:0:
256,192,221482,12,0,220982,0:0:0:0:
256,192,221523,12,0,221023,0:0:0:0:
256,192,221565,12,0,221065,0:0:0:0:
256,192,221606,12,0,221106,0:0:0:0:
256,192,221648,12,0,221148,0:0:0:0:
256,192,221689,12,0,221189,0:0:0:0:
256,192,221731,12,0,221231,0:0:0:0:
256,192,221772,12,0,221272,0:0:0:0:
256,192,221814,12,0,221314,0:0:0:0:
256,192,221855,12,0,221355,0:0:0:0:
256,192,221897,12,0,221397,0:0:0:0:
256,192,221938,12,0,221438,0:0:0:0:
256,192,221981,12,0,221481,0:0:0:0:
256,192,222022,12,0,221522,0:0:0:0:
256,192,222064,12,0,221564,0:0:0:0:
256,192,222105,12,0,221605,0:0:0:0:
256,192,222148,12,0,221648,0:0:0:0:
256,192,222189,12,0,221689,0:0:0:0:
256,192,222231,12,0,221731,0:0:0:0:
256,192,222272,12,0,221772,0:0:0:0:
256,192,222315,12,0,221815,0:0:0:0:
256,192,222356,12,0,221856,0:0:0:0:
256,192,222398,12,0,221898,0:0:0:0:
256,192,222439,12,0,221939,0:0:0:0:
256,192,222481,12,0,221981,0:0:0:0:
256,192,222522,12,0,222022,0:0:0:0:
256,192,222564,12,0,222064,0:0:0:0:
256,192,222605,12,0,222105,0:0:0:0:
256,192,222648,12,0,222148,0:0:0:0:
256,192,222689,12,0,222189,0:0:0:0:
256,192,222731,12,0,222231,0:0:0:0:
256,192,222772,12,0,222272,0:0:0:0:
256,192,222815,12,0,222315,0:0:0:0:
256,192,222856,12,0,222356,0:0:0:0:
256,192,222898,12,0,222398,0:0:0:0:
256,192,222939,12,0,222439,0:0:0:0:
256,192,222981,12,0,222481,0:0:0:0:
256,192,223022,12,0,222522,0:0:0:0:
256,192,223064,12,0,222564,0:0:0:0:
256,192,223105,12,0,222605,0:0:0:0:
256,192,223147,12,0,222647,0:0:0:0:
256,192,223188,12,0,222688,0:0:0:0:
256,192,223230,12,0,222730,0:0:0:0:
256,192,223271,12,0,222771,0:0:0:0:
256,192,223314,12,0,222814,0:0:0:0:
256,192,223355,12,0,222855,0:0:0:0:
256,192,223397,12,0,222897,0:0:0:0:
256,192,223438,12,0,222938,0:0:0:0:
256,192,223481,12,0,222981,0:0:0:0:
256,192,223522,12,0,223022,0:0:0:0:
256,192,223564,12,0,223064,0:0:0:0:
256,192,223605,12,0,223105,0:0:0:0:
256,192,223649,12,0,223149,0:0:0:0:
256,192,223690,12,0,223190,0:0:0:0:
256,192,223732,12,0,223232,0:0:0:0:
256,192,223773,12,0,223273,0:0:0:0:
256,192,223815,12,0,223315,0:0:0:0:
256,192,223856,12,0,223356,0:0:0:0:
256,192,223898,12,0,223398,0:0:0:0:
256,192,223939,12,0,223439,0:0:0:0:
256,192,223982,12,0,223482,0:0:0:0:
256,192,224023,12,0,223523,0:0:0:0:
256,192,224065,12,0,223565,0:0:0:0:
256,192,224106,12,0,223606,0:0:0:0:
256,192,224149,12,0,223649,0:0:0:0:
256,192,224190,12,0,223690,0:0:0:0:
256,192,224232,12,0,223732,0:0:0:0:
256,192,224273,12,0,223773,0:0:0:0:
256,192,224315,12,0,223815,0:0:0:0:
256,192,224356,12,0,223856,0:0:0:0:
256,192,224398,12,0,223898,0:0:0:0:
256,192,224439,12,0,223939,0:0:0:0:
256,192,224481,12,0,223981,0:0:0:0:
256,192,224522,12,0,224022,0:0:0:0:
256,192,224564,12,0,224064,0:0:0:0:
256,192,224605,12,0,224105,0:0:0:0:
256,192,224648,12,0,224148,0:0:0:0:
256,192,224689,12,0,224189,0:0:0:0:
256,192,224731,12,0,224231,0:0:0:0:
256,192,224772,12,0,224272,0:0:0:0:
256,192,224815,12,0,224315,0:0:0:0:
256,192,224856,12,0,224356,0:0:0:0:
256,192,224898,12,0,224398,0:0:0:0:
256,192,224939,12,0,224439,0:0:0:0:
256,192,224982,12,0,224482,0:0:0:0:
256,192,225023,12,0,224523,0:0:0:0:
256,192,225065,12,0,224565,0:0:0:0:
256,192,225106,12,0,224606,0:0:0:0:
256,192,225148,12,0,224648,0:0:0:0:
256,192,225189,12,0,224689,0:0:0:0:
256,192,225231,12,0,224731,0:0:0:0:
256,192,225272,12,0,224772,0:0:0:0:
256,192,225315,12,0,224815,0:0:0:0:
256,192,225356,12,0,224856,0:0:0:0:
256,192,225398,12,0,224898,0:0:0:0:
256,192,225439,12,0,224939,0:0:0:0:
256,192,225482,12,0,224982,0:0:0:0:
256,192,225523,12,0,225023,0:0:0:0:
256,192,225565,12,0,225065,0:0:0:0:
256,192,225606,12,0,225106,0:0:0:0:
256,192,225648,12,0,225148,0:0:0:0:
256,192,225689,12,0,225189,0:0:0:0:
256,192,225731,12,0,225231,0:0:0:0:
256,192,225772,12,0,225272,0:0:0:0:
256,192,225814,12,0,225314,0:0:0:0:
256,192,225855,12,0,225355,0:0:0:0:
256,192,225897,12,0,225397,0:0:0:0:
256,192,225938,12,0,225438,0:0:0:0:
256,192,225981,12,0,225481,0:0:0:0:
256,192,226022,12,0,225522,0:0:0:0:
256,192,226064,12,0,225564,0:0:0:0:
256,192,226105,12,0,225605,0:0:0:0:
256,192,226148,12,0,225648,0:0:0:0:
256,192,226189,12,0,225689,0:0:0:0:
256,192,226231,12,0,225731,0:0:0:0:
256,192,226272,12,0,225772,0:0:0:0:
256,192,226315,12,0,225815,0:0:0:0:
256,192,226356,12,0,225856,0:0:0:0:
256,192,226398,12,0,225898,0:0:0:0:
256,192,226439,12,0,225939,0:0:0:0:
256,192,226481,12,0,225981,0:0:0:0:
256,192,226522,12,0,226022,0:0:0:0:
256,192,226564,12,0,226064,0:0:0:0:
256,192,226605,12,0,226105,0:0:0:0:
256,192,226648,12,0,226148,0:0:0:0:
256,192,226689,12,0,226189,0:0:0:0:
256,192,226731,12,0,226231,0:0:0:0:
256,192,226772,12,0,226272,0:0:0:0:
256,192,226815,12,0,226315,0:0:0:0:
256,192,226856,12,0,226356,0:0:0:0:
256,192,226898,12,0,226398,0:0:0:0:
256,192,226939,12,0,226439,0:0:0:0:
256,192,226981,12,0,226481,0:0:0:0:
256,192,227022,12,0,226522,0:0:0:0:
256,192,227064,12,0,226564,0:0:0:0:
256,192,227105,12,0,226605,0:0:0:0:
256,192,227147,12,0,226647,0:0:0:0:
256,192,227188,12,0,226688,0:0:0:0:
256,192,227230,12,0,226730,0:0:0:0:
256,192,227271,12,0,226771,0:0:0:0:
256,192,227314,12,0,226814,0:0:0:0:
256,192,227355,12,0,226855,0:0:0:0:
256,192,227397,12,0,226897,0:0:0:0:
256,192,227438,12,0,226938,0:0:0:0:
256,192,227481,12,0,226981,0:0:0:0:
256,192,227522,12,0,227022,0:0:0:0:
256,192,227564,12,0,227064,0:0:0:0:
256,192,227605,12,0,227105,0:0:0:0:
256,192,227649,12,0,227149,0:0:0:0:
256,192,227690,12,0,227190,0:0:0:0:
256,192,227732,12,0,227232,0:0:0:0:
256,192,227773,12,0,227273,0:0:0:0:
256,192,227815,12,0,227315,0:0:0:0:
256,192,227856,12,0,227356,0:0:0:0:
256,192,227898,12,0,227398,0:0:0:0:
256,192,227939,12,0,227439,0:0:0:0:
256,192,227982,12,0,227482,0:0:0:0:
256,192,228023,12,0,227523,0:0:0:0:
256,192,228065,12,0,227565,0:0:0:0:
256,192,228106,12,0,227606,0:0:0:0:
256,192,228149,12,0,227649,0:0:0:0:
256,192,228190,12,0,227690,0:0:0:0:
256,192,228232,12,0,227732,0:0:0:0:
256,192,228273,12,0,227773,0:0:0:0:
256,192,228315,12,0,227815,0:0:0:0:
256,192,228356,12,0,227856,0:0:0:0:
256,192,228398,12,0,227898,0:0:0:0:
256,192,228439,12,0,227939,0:0:0:0:
256,192,228481,12,0,227981,0:0:0:0:
256,192,228522,12,0,228022,0:0:0:0:
256,192,228564,12,0,228064,0:0:0:0:
256,192,228605,12,0,228105,0:0:0:0:
256,192,228648,12,0,228148,0:0:0:0:
256,192,228689,12,0,228189,0:0:0:0:
256,192,228731,12,0,228231,0:0:0:0:
256,192,228772,12,0,228272,0:0:0:0:
256,192,228815,12,0,228315,0:0:0:0:
256,192,228856,12,0,228356,0:0:0:0:
256,192,228898,12,0,228398,0:0:0:0:
256,192,228939,12,0,228439,0:0:0:0:
256,192,228982,12,0,228482,0:0:0:0:
256,192,229023,12,0,228523,0:0:0:0:
256,192,229065,12,0,228565,0:0:0:0:
256,192,229106,12,0,228606,0:0:0:0:
256,192,229148,12,0,228648,0:0:0:0:
256,192,229189,12,0,228689,0:0:0:0:
256,192,229231,12,0,228731,0:0:0:0:
256,192,229272,12,0,228772,0:0:0:0:
256,192,229315,12,0,228815,0:0:0:0:
256,192,229356,12,0,228856,0:0:0:0:
256,192,229398,12,0,228898,0:0:0:0:
256,192,229439,12,0,228939,0:0:0:0:
256,192,229482,12,0,228982,0:0:0:0:
256,192,229523,12,0,229023,0:0:0:0:
256,192,229565,12,0,229065,0:0:0:0:
256,192,229606,12,0,229106,0:0:0:0:
256,192,229648,12,0,229148,0:0:0:0:
256,192,229689,12,0,229189,0:0:0:0:
256,192,229731,12,0,229231,0:0:0:0:
256,192,229772,12,0,229272,0:0:0:0:
256,192,229814,12,0,229314,0:0:0:0:
256,192,229855,12,0,229355,0:0:0:0:
256,192,229897,12,0,229397,0:0:0:0:
256,192,229938,12,0,229438,0:0:0:0:
256,192,229981,12,0,229481,0:0:0:0:
256,192,230022,12,0,229522,0:0:0:0:
256,192,230064,12,0,229564,0:0:0:0:
256,192,230105,12,0,229605,0:0:0:0:
256,192,230148,12,0,229648,0:0:0:0:
256,192,230189,12,0,229689,0:0:0:0:
256,192,230231,12,0,229731,0:0:0:0:
256,192,230272,12,0,229772,0:0:0:0:
256,192,230315,12,0,229815,0:0:0:0:
256,192,230356,12,0,229856,0:0:0:0:
256,192,230398,12,0,229898,0:0:0:0:
256,192,230439,12,0,229939,0:0:0:0:
256,192,230481,12,0,229981,0:0:0:0:
256,192,230522,12,0,230022,0:0:0:0:
256,192,230564,12,0,230064,0:0:0:0:
256,192,230605,12,0,230105,0:0:0:0:
256,192,230648,12,0,230148,0:0:0:0:
256,192,230689,12,0,230189,0:0:0:0:
256,192,230731,12,0,230231,0:0:0:0:
256,192,230772,12,0,230272,0:0:0:0:
256,192,230815,12,0,230315,0:0:0:0:
256,192,230856,12,0,230356,0:0:0:0:
256,192,230898,12,0,230398,0:0:0:0:
256,192,230939,12,0,230439,0:0:0:0:
256,192,230981,12,0,230481,0:0:0:0:
256,192,231022,12,0,230522,0:0:0:0:
256,192,231064,12,0,230564,0:0:0:0:
256,192,231105,12,0,230605,0:0:0:0:
256,192,231147,12,0,230647,0:0:0:0:
256,192,231188,12,0,230688,0:0:0:0:
256,192,231230,12,0,230730,0:0:0:0:
256,192,231271,12,0,230771,0:0:0:0:
256,192,231314,12,0,230814,0:0:0:0:
256,192,231355,12,0,230855,0:0:0:0:
256,192,231397,12,0,230897,0:0:0:0:
256,192,231438,12,0,230938,0:0:0:0:
256,192,231481,12,0,230981,0:0:0:0:
256,192,231522,12,0,231022,0:0:0:0:
256,192,231564,12,0,231064,0:0:0:0:
256,192,231605,12,0,231105,0:0:0:0:
256,192,231649,12,0,231149,0:0:0:0:
256,192,231690,12,0,231190,0:0:0:0:
256,192,231732,12,0,231232,0:0:0:0:
256,192,231773,12,0,231273,0:0:0:0:
256,192,231815,12,0,231315,0:0:0:0:
256,192,231856,12,0,231356,0:0:0:0:
256,192,231898,12,0,231398,0:0:0:0:
256,192,231939,12,0,231439,0:0:0:0:
256,192,231982,12,0,231482,0:0:0:0:
256,192,232023,12,0,231523,0:0:0:0:
256,192,232065,12,0,231565,0:0:0:0:
256,192,232106,12,0,231606,0:0:0:0:
256,192,232149,12,0,231649,0:0:0:0:
256,192,232190,12,0,231690,0:0:0:0:
256,192,232232,12,0,231732,0:0:0:0:
256,192,232273,12,0,231773,0:0:0:0:
256,192,232315,12,0,231815,0:0:0:0:
256,192,232356,12,0,231856,0:0:0:0:
256,192,232398,12,0,231898,0:0:0:0:
256,192,232439,12,0,231939,0:0:0:0:
256,192,232481,12,0,231981,0:0:0:0:
256,192,232522,12,0,232022,0:0:0:0:
256,192,232564,12,0,232064,0:0:0:0:
256,192,232605,12,0,232105,0:0:0:0:
256,192,232648,12,0,232148,0:0:0:0:
256,192,232689,12,0,232189,0:0:0:0:
256,192,232731,12,0,232231,0:0:0:0:
256,192,232772,12,0,232272,0:0:0:0:
256,192,232815,12,0,232315,0:0:0:0:
256,192,232856,12,0,232356,0:0:0:0:
256,192,232898,12,0,232398,0:0:0:0:
256,192,232939,12,0,232439,0:0:0:0:
256,192,232982,12,0,232482,0:0:0:0:
256,192,233023,12,0,232523,0:0:0:0:
256,192,233065,12,0,232565,0:0:0:0:
256,192,233106,12,0,232606,0:0:0:0:
256,192,233148,12,0,232648,0:0:0:0:
256,192,233189,12,0,232689,0:0:0:0:
256,192,233231,12,0,232731,0:0:0:0:
256,192,233272,12,0,232772,0:0:0:0:
256,192,233315,12,0,232815,0:0:0:0:
256,192,233356,12,0,232856,0:0:0:0:
256,192,233398,12,0,232898,0:0:0:0:
256,192,233439,12,0,232939,0:0:0:0:
256,192,233482,12,0,232982,0:0:0:0:
256,192,233523,12,0,233023,0:0:0:0:
256,192,233565,12,0,233065,0:0:0:0:
256,192,233606,12,0,233106,0:0:0:0:
256,192,233648,12,0,233148,0:0:0:0:
256,192,233689,12,0,233189,0:0:0:0:
256,192,233731,12,0,233231,0:0:0:0:
256,192,233772,12,0,233272,0:0:0:0:
256,192,233814,12,0,233314,0:0:0:0:
256,192,233855,12,0,233355,0:0:0:0:
256,192,233897,12,0,233397,0:0:0:0:
256,192,233938,12,0,233438,0:0:0:0:
256,192,233981,12,0,233481,0:0:0:0:
256,192,234022,12,0,233522,0:0:0:0:
256,192,234064,12,0,233564,0:0:0:0:
256,192,234105,12,0,233605,0:0:0:0:
256,192,234148,12,0,233648,0:0:0:0:
256,192,234189,12,0,233689,0:0:0:0:
256,192,234231,12,0,233731,0:0:0:0:
256,192,234272,12,0,233772,0:0:0:0:
256,192,234315,12,0,233815,0:0:0:0:
256,192,234356,12,0,233856,0:0:0:0:
256,192,234398,12,0,233898,0:0:0:0:
256,192,234439,12,0,233939,0:0:0:0:
256,192,234481,12,0,233981,0:0:0:0:
256,192,234522,12,0,234022,0:0:0:0:
256,192,234564,12,0,234064,0:0:0:0:
256,192,234605,12,0,234105,0:0:0:0:
256,192,234648,12,0,234148,0:0:0:0:
256,192,234689,12,0,234189,0:0:0:0:
256,192,234731,12,0,234231,0:0:0:0:
256,192,234772,12,0,234272,0:0:0:0:
256,192,234815,12,0,234315,0:0:0:0:
256,192,234856,12,0,234356,0:0:0:0:
256,192,234898,12,0,234398,0:0:0:0:
256,192,234939,12,0,234439,0:0:0:0:
256,192,234981,12,0,234481,0:0:0:0:
256,192,235022,12,0,234522,0:0:0:0:
256,192,235064,12,0,234564,0:0:0:0:
256,192,235105,12,0,234605,0:0:0:0:
256,192,235147,12,0,234647,0:0:0:0:
256,192,235188,12,0,234688,0:0:0:0:
256,192,235230,12,0,234730,0:0:0:0:
256,192,235271,12,0,234771,0:0:0:0:
256,192,235314,12,0,234814,0:0:0:0:
256,192,235355,12,0,234855,0:0:0:0:
256,192,235397,12,0,234897,0:0:0:0:
256,192,235438,12,0,234938,0:0:0:0:
256,192,235481,12,0,234981,0:0:0:0:
256,192,235522,12,0,235022,0:0:0:0:
256,192,235564,12,0,235064,0:0:0:0:
256,192,235605,12,0,235105,0:0:0:0:
256,192,235649,12,0,235149,0:0:0:0:
256,192,235690,12,0,235190,0:0:0:0:
256,192,235732,12,0,235232,0:0:0:0:
256,192,235773,12,0,235273,0:0:0:0:
256,192,235815,12,0,235315,0:0:0:0:
256,192,235856,12,0,235356,0:0:0:0:
256,192,235898,12,0,235398,0:0:0:0:
256,192,235939,12,0,235439,0:0:0:0:
256,192,235982,12,0,235482,0:0:0:0:
256,192,236023,12,0,235523,0:0:0:0:
256,192,236065,12,0,235565,0:0:0:0:
256,192,236106,12,0,235606,0:0:0:0:
256,192,236149,12,0,235649,0:0:0:0:
256,192,236190,12,0,235690,0:0:0:0:
256,192,236232,12,0,235732,0:0:0:0:
256,192,236273,12,0,235773,0:0:0:0:
256,192,236315,12,0,235815,0:0:0:0:
256,192,236356,12,0,235856,0:0:0:0:
256,192,236398,12,0,235898,0:0:0:0:
256,192,236439,12,0,235939,0:0:0:0:
256,192,236481,12,0,235981,0:0:0:0:
256,192,236522,12,0,236022,0:0:0:0:
256,192,236564,12,0,236064,0:0:0:0:
256,192,236605,12,0,236105,0:0:0:0:
256,192,236648,12,0,236148,0:0:0:0:
256,192,236689,12,0,236189,0:0:0:0:
256,192,236731,12,0,236231,0:0:0:0:
256,192,236772,12,0,236272,0:0:0:0:
256,192,236815,12,0,236315,0:0:0:0:
256,192,236856,12,0,236356,0:0:0:0:
256,192,236898,12,0,236398,0:0:0:0:
256,192,236939,12,0,236439,0:0:0:0:
256,192,236982,12,0,236482,0:0:0:0:
256,192,237023,12,0,236523,0:0:0:0:
256,192,237065,12,0,236565,0:0:0:0:
256,192,237106,12,0,236606,0:0:0:0:
256,192,237148,12,0,236648,0:0:0:0:
256,192,237189,12,0,236689,0:0:0:0:
256,192,237231,12,0,236731,0:0:0:0:
256,192,237272,12,0,236772,0:0:0:0:
256,192,237315,12,0,236815,0:0:0:0:
256,192,237356,12,0,236856,0:0:0:0:
256,192,237398,12,0,236898,0:0:0:0:
256,192,237439,12,0,236939,0:0:0:0:
256,192,237482,12,0,236982,0:0:0:0:
256,192,237523,12,0,237023,0:0:0:0:
256,192,237565,12,0,237065,0:0:0:0:
256,192,237606,12,0,237106,0:0:0:0:
256,192,237648,12,0,237148,0:0:0:0:
256,192,237689,12,0,237189,0:0:0:0:
256,192,237731,12,0,237231,0:0:0:0:
256,192,237772,12,0,237272,0:0:0:0:
256,192,237814,12,0,237314,0:0:0:0:
256,192,237855,12,0,237355,0:0:0:0:
256,192,237897,12,0,237397,0:0:0:0:
256,192,237938,12,0,237438,0:0:0:0:
256,192,237981,12,0,237481,0:0:0:0:
256,192,238022,12,0,237522,0:0:0:0:
256,192,238064,12,0,237564,0:0:0:0:
256,192,238105,12,0,237605,0:0:0:0:
256,192,238148,12,0,237648,0:0:0:0:
256,192,238189,12,0,237689,0:0:0:0:
256,192,238231,12,0,237731,0:0:0:0:
256,192,238272,12,0,237772,0:0:0:0:
256,192,238315,12,0,237815,0:0:0:0:
256,192,238356,12,0,237856,0:0:0:0:
256,192,238398,12,0,237898,0:0:0:0:
256,192,238439,12,0,237939,0:0:0:0:
256,192,238481,12,0,237981,0:0:0:0:
256,192,238522,12,0,238022,0:0:0:0:
256,192,238564,12,0,238064,0:0:0:0:
256,192,238605,12,0,238105,0:0:0:0:
256,192,238648,12,0,238148,0:0:0:0:
256,192,238689,12,0,238189,0:0:0:0:
256,192,238731,12,0,238231,0:0:0:0:
256,192,238772,12,0,238272,0:0:0:0:
256,192,238815,12,0,238315,0:0:0:0:
256,192,238856,12,0,238356,0:0:0:0:
256,192,238898,12,0,238398,0:0:0:0:
256,192,238939,12,0,238439,0:0:0:0:
256,192,238981,12,0,238481,0:0:0:0:
256,192,239022,12,0,238522,0:0:0:0:
256,192,239064,12,0,238564,0:0:0:0:
256,192,239105,12,0,238605,0:0:0:0:
256,192,239147,12,0,238647,0:0:0:0:
256,192,239188,12,0,238688,0:0:0:0:
256,192,239230,12,0,238730,0:0:0:0:
256,192,239271,12,0,238771,0:0:0:0:
256,192,239314,12,0,238814,0:0:0:0:
256,192,239355,12,0,238855,0:0:0:0:
256,192,239397,12,0,238897,0:0:0:0:
256,192,239438,12,0,238938,0:0:0:0:
256,192,239481,12,0,238981,0:0:0:0:
256,192,239522,12,0,239022,0:0:0:0:
256,192,239564,12,0,239064,0:0:0:0:
256,192,239605,12,0,239105,0:0:0:0:
256,192,239649,12,0,239149,0:0:0:0:
256,192,239690,12,0,239190,0:0:0:0:
256,192,239732,12,0,239232,0:0:0:0:
256,192,239773,12,0,239273,0:0:0:0:
256,192,239815,12,0,239315,0:0:0:0:
256,192,239856,12,0,239356,0:0:0:0:
256,192,239898,12,0,239398,0:0:0:0:
256,192,239939,12,0,239439,0:0:0:0:
256,192,239982,12,0,239482,0:0:0:0:
256,192,240023,12,0,239523,0:0:0:0:
256,192,240065,12,0,239565,0:0:0:0:
256,192,240106,12,0,239606,0:0:0:0:
256,192,240149,12,0,239649,0:0:0:0:
256,192,240190,12,0,239690,0:0:0:0:
256,192,240232,12,0,239732,0:0:0:0:
256,192,240273,12,0,239773,0:0:0:0:
256,192,240315,12,0,239815,0:0:0:0:
256,192,240356,12,0,239856,0:0:0:0:
256,192,240398,12,0,239898,0:0:0:0:
256,192,240439,12,0,239939,0:0:0:0:
256,192,240481,12,0,239981,0:0:0:0:
256,192,240522,12,0,240022,0:0:0:0:
256,192,240564,12,0,240064,0:0:0:0:
256,192,240605,12,0,240105,0:0:0:0:
256,192,240648,12,0,240148,0:0:0:0:
256,192,240689,12,0,240189,0:0:0:0:
256,192,240731,12,0,240231,0:0:0:0:
256,192,240772,12,0,240272,0:0:0:0:
256,192,240815,12,0,240315,0:0:0:0:
256,192,240856,12,0,240356,0:0:0:0:
256,192,240898,12,0,240398,0:0:0:0:
256,192,240939,12,0,240439,0:0:0:0:
256,192,240982,12,0,240482,0:0:0:0:
256,192,241023,12,0,240523,0:0:0:0:
256,192,241065,12,0,240565,0:0:0:0:
256,192,241106,12,0,240606,0:0:0:0:
256,192,241148,12,0,240648,0:0:0:0:
256,192,241189,12,0,240689,0:0:0:0:
256,192,241231,12,0,240731,0:0:0:0:
256,192,241272,12,0,240772,0:0:0:0:
256,192,241315,12,0,240815,0:0:0:0:
256,192,241356,12,0,240856,0:0:0:0:
256,192,241398,12,0,240898,0:0:0:0:
256,192,241439,12,0,240939,0:0:0:0:
256,192,241482,12,0,240982,0:0:0:0:
256,192,241523,12,0,241023,0:0:0:0:
256,192,241565,12,0,241065,0:0:0:0:
256,192,241606,12,0,241106,0:0:0:0:
256,192,241648,12,0,241148,0:0:0:0:
256,192,241689,12,0,241189,0:0:0:0:
256,192,241731,12,0,241231,0:0:0:0:
256,192,241772,12,0,241272,0:0:0:0:
256,192,241814,12,0,241314,0:0:0:0:
256,192,241855,12,0,241355,0:0:0:0:
256,192,241897,12,0,241397,0:0:0:0:
256,192,241938,12,0,241438,0:0:0:0:
256,192,241981,12,0,241481,0:0:0:0:
256,192,242022,12,0,241522,0:0:0:0:
256,192,242064,12,0,241564,0:0:0:0:
256,192,242105,12,0,241605,0:0:0:0:
256,192,242148,12,0,241648,0:0:0:0:
256,192,242189,12,0,241689,0:0:0:0:
256,192,242231,12,0,241731,0:0:0:0:
256,192,242272,12,0,241772,0:0:0:0:
256,192,242315,12,0,241815,0:0:0:0:
256,192,242356,12,0,241856,0:0:0:0:
256,192,242398,12,0,241898,0:0:0:0:
256,192,242439,12,0,241939,0:0:0:0:
256,192,242481,12,0,241981,0:0:0:0:
256,192,242522,12,0,242022,0:0:0:0:
256,192,242564,12,0,242064,0:0:0:0:
256,192,242605,12,0,242105,0:0:0:0:
256,192,242648,12,0,242148,0:0:0:0:
256,192,242689,12,0,242189,0:0:0:0:
256,192,242731,12,0,242231,0:0:0:0:
256,192,242772,12,0,242272,0:0:0:0:
256,192,242815,12,0,242315,0:0:0:0:
256,192,242856,12,0,242356,0:0:0:0:
256,192,242898,12,0,242398,0:0:0:0:
256,192,242939,12,0,242439,0:0:0:0:
256,192,242981,12,0,242481,0:0:0:0:
256,192,243022,12,0,242522,0:0:0:0:
256,192,243064,12,0,242564,0:0:0:0:
256,192,243105,12,0,242605,0:0:0:0:
256,192,243147,12,0,242647,0:0:0:0:
256,192,243188,12,0,242688,0:0:0:0:
256,192,243230,12,0,242730,0:0:0:0:
256,192,243271,12,0,242771,0:0:0:0:
256,192,243314,12,0,242814,0:0:0:0:
256,192,243355,12,0,242855,0:0:0:0:
256,192,243397,12,0,242897,0:0:0:0:
256,192,243438,12,0,242938,0:0:0:0:
256,192,243481,12,0,242981,0:0:0:0:
256,192,243522,12,0,243022,0:0:0:0:
256,192,243564,12,0,243064,0:0:0:0:
256,192,243605,12,0,243105,0:0:0:0:
256,192,243649,12,0,243149,0:0:0:0:
256,192,243690,12,0,243190,0:0:0:0:
256,192,243732,12,0,243232,0:0:0:0:
256,192,243773,12,0,243273,0:0:0:0:
256,192,243815,12,0,243315,0:0:0:0:
256,192,243856,12,0,243356,0:0:0:0:
256,192,243898,12,0,243398,0:0:0:0:
256,192,243939,12,0,243439,0:0:0:0:
256,192,243982,12,0,243482,0:0:0:0:
256,192,244023,12,0,243523,0:0:0:0:
256,192,244065,12,0,243565,0:0:0:0:
256,192,244106,12,0,243606,0:0:0:0:
256,192,244149,12,0,243649,0:0:0:0:
256,192,244190,12,0,243690,0:0:0:0:
256,192,244232,12,0,243732,0:0:0:0:
256,192,244273,12,0,243773,0:0:0:0:
256,192,244315,12,0,243815,0:0:0:0:
256,192,244356,12,0,243856,0:0:0:0:
256,192,244398,12,0,243898,0:0:0:0:
256,192,244439,12,0,243939,0:0:0:0:
256,192,244481,12,0,243981,0:0:0:0:
256,192,244522,12,0,244022,0:0:0:0:
256,192,244564,12,0,244064,0:0:0:0:
256,192,244605,12,0,244105,0:0:0:0:
256,192,244648,12,0,244148,0:0:0:0:
256,192,244689,12,0,244189,0:0:0:0:
256,192,244731,12,0,244231,0:0:0:0:
256,192,244772,12,0,244272,0:0:0:0:
256,192,244815,12,0,244315,0:0:0:0:
256,192,244856,12,0,244356,0:0:0:0:
256,192,244898,12,0,244398,0:0:0:0:
256,192,244939,12,0,244439,0:0:0:0:
256,192,244982,12,0,244482,0:0:0:0:
256,192,245023,12,0,244523,0:0:0:0:
256,192,245065,12,0,244565,0:0:0:0:
256,192,245106,12,0,244606,0:0:0:0:
256,192,245148,12,0,244648,0:0:0:0:
256,192,245189,12,0,244689,0:0:0:0:
256,192,245231,12,0,244731,0:0:0:0:
256,192,245272,12,0,244772,0:0:0:0:
256,192,245315,12,0,244815,0:0:0:0:
256,192,245356,12,0,244856,0:0:0:0:
256,192,245398,12,0,244898,0:0:0:0:
256,192,245439,12,0,244939,0:0:0:0:
256,192,245482,12,0,244982,0:0:0:0:
256,192,245523,12,0,245023,0:0:0:0:
256,192,245565,12,0,245065,0:0:0:0:
256,192,245606,12,0,245106,0:0:0:0:
256,192,245648,12,0,245148,0:0:0:0:
256,192,245689,12,0,245189,0:0:0:0:
256,192,245731,12,0,245231,0:0:0:0:
256,192,245772,12,0,245272,0:0:0:0:
256,192,245814,12,0,245314,0:0:0:0:
256,192,245855,12,0,245355,0:0:0:0:
256,192,245897,12,0,245397,0:0:0:0:
256,192,245938,12,0,245438,0:0:0:0:
256,192,245981,12,0,245481,0:0:0:0:
256,192,246022,12,0,245522,0:0:0:0:
256,192,246064,12,0,245564,0:0:0:0:
256,192,246105,12,0,245605,0:0:0:0:
256,192,246148,12,0,245648,0:0:0:0:
256,192,246189,12,0,245689,0:0:0:0:
256,192,246231,12,0,245731,0:0:0:0:
256,192,246272,12,0,245772,0:0:0:0:
256,192,246315,12,0,245815,0:0:0:0:
256,192,246356,12,0,245856,0:0:0:0:
256,192,246398,12,0,245898,0:0:0:0:
256,192,246439,12,0,245939,0:0:0:0:
256,192,246481,12,0,245981,0:0:0:0:
256,192,246522,12,0,246022,0:0:0:0:
256,192,246564,12,0,246064,0:0:0:0:
256,192,246605,12,0,246105,0:0:0:0:
256,192,246648,12,0,246148,0:0:0:0:
256,192,246689,12,0,246189,0:0:0:0:
256,192,246731,12,0,246231,0:0:0:0:
256,192,246772,12,0,246272,0:0:0:0:
256,192,246815,12,0,246315,0:0:0:0:
256,192,246856,12,0,246356,0:0:0:0:
256,192,246898,12,0,246398,0:0:0:0:
256,192,246939,12,0,246439,0:0:0:0:
256,192,246981,12,0,246481,0:0:0:0:
256,192,247022,12,0,246522,0:0:0:0:
256,192,247064,12,0,246564,0:0:0:0:
256,192,247105,12,0,246605,0:0:0:0:
256,192,247147,12,0,246647,0:0:0:0:
256,192,247188,12,0,246688,0:0:0:0:
256,192,247230,12,0,246730,0:0:0:0:
256,192,247271,12,0,246771,0:0:0:0:
256,192,247314,12,0,246814,0:0:0:0:
256,192,247355,12,0,246855,0:0:0:0:
256,192,247397,12,0,246897,0:0:0:0:
256,192,247438,12,0,246938,0:0:0:0:
256,192,247481,12,0,246981,0:0:0:0:
256,192,247522,12,0,247022,0:0:0:0:
256,192,247564,12,0,247064,0:0:0:0:
256,192,247605,12,0,247105,0:0:0:0:
256,192,247649,12,0,247149,0:0:0:0:
256,192,247690,12,0,247190,0:0:0:0:
256,192,247732,12,0,247232,0:0:0:0:
256,192,247773,12,0,247273,0:0:0:0:
256,192,247815,12,0,247315,0:0:0:0:
256,192,247856,12,0,247356,0:0:0:0:
256,192,247898,12,0,247398,0:0:0:0:
256,192,247939,12,0,247439,0:0:0:0:
256,192,247982,12,0,247482,0:0:0:0:
256,192,248023,12,0,247523,0:0:0:0:
256,192,248065,12,0,247565,0:0:0:0:
256,192,248106,12,0,247606,0:0:0:0:
256,192,248149,12,0,247649,0:0:0:0:
256,192,248190,12,0,247690,0:0:0:0:
256,192,248232,12,0,247732,0:0:0:0:
256,192,248273,12,0,247773,0:0:0:0:
256,192,248315,12,0,247815,0:0:0:0:
256,192,248356,12,0,247856,0:0:0:0:
256,192,248398,12,0,247898,0:0:0:0:
256,192,248439,12,0,247939,0:0:0:0:
256,192,248481,12,0,247981,0:0:0:0:
256,192,248522,12,0,248022,0:0:0:0:
256,192,248564,12,0,248064,0:0:0:0:
256,192,248605,12,0,248105,0:0:0:0:
256,192,248648,12,0,248148,0:0:0:0:
256,192,248689,12,0,248189,0:0:0:0:
256,192,248731,12,0,248231,0:0:0:0:
256,192,248772,12,0,248272,0:0:0:0:
256,192,248815,12,0,248315,0:0:0:0:
256,192,248856,12,0,248356,0:0:0:0:
256,192,248898,12,0,248398,0:0:0:0:
256,192,248939,12,0,248439,0:0:0:0:
256,192,248982,12,0,248482,0:0:0:0:
256,192,249023,12,0,248523,0:0:0:0:
256,192,249065,12,0,248565,0:0:0:0:
256,192,249106,12,0,248606,0:0:0:0:
256,192,249148,12,0,248648,0:0:0:0:
256,192,249189,12,0,248689,0:0:0:0:
256,192,249231,12,0,248731,0:0:0:0:
256,192,249272,12,0,248772,0:0:0:0:
256,192,249315,12,0,248815,0:0:0:0:
256,192,249356,12,0,248856,0:0:0:0:
256,192,249398,12,0,248898,0:0:0:0:
256,192,249439,12,0,248939,0:0:0:0:
256,192,249482,12,0,248982,0:0:0:0:
256,192,249523,12,0,249023,0:0:0:0:
256,192,249565,12,0,249065,0:0:0:0:
256,192,249606,12,0,249106,0:0:0:0:
256,192,249648,12,0,249148,0:0:0:0:
256,192,249689,12,0,249189,0:0:0:0:
256,192,249731,12,0,249231,0:0:0:0:
256,192,249772,12,0,249272,0:0:0:0:
256,192,249814,12,0,249314,0:0:0:0:
256,192,249855,12,0,249355,0:0:0:0:
256,192,249897,12,0,249397,0:0:0:0:
256,192,249938,12,0,249438,0:0:0:0:
256,192,249981,12,0,249481,0:0:0:0:
256,192,250022,12,0,249522,0:0:0:0:
256,192,250064,12,0,249564,0:0:0:0:
256,192,250105,12,0,249605,0:0:0:0:
256,192,250148,12,0,249648,0:0:0:0:
256,192,250189,12,0,249689,0:0:0:0:
256,192,250231,12,0,249731,0:0:0:0:
256,192,250272,12,0,249772,0:0:0:0:
256,192,250315,12,0,249815,0:0:0:0:
256,192,250356,12,0,249856,0:0:0:0:
256,192,250398,12,0,249898,0:0:0:0:
256,192,250439,12,0,249939,0:0:0:0:
256,192,250481,12,0,249981,0:0:0:0:
256,192,250522,12,0,250022,0:0:0:0:
256,192,250564,12,0,250064,0:0:0:0:
256,192,250605,12,0,250105,0:0:0:0:
256,192,250648,12,0,250148,0:0:0:0:
256,192,250689,12,0,250189,0:0:0:0:
256,192,250731,12,0,250231,0:0:0:0:
256,192,250772,12,0,250272,0:0:0:0:
256,192,250815,12,0,250315,0:0:0:0:
256,192,250856,12,0,250356,0:0:0:0:
256,192,250898,12,0,250398,0:0:0:0:
256,192,250939,12,0,250439,0:0:0:0:
256,192,250981,12,0,250481,0:0:0:0:
256,192,251022,12,0,250522,0:0:0:0:
256,192,251064,12,0,250564,0:0:0:0:
256,192,251105,12,0,250605,0:0:0:0:
256,192,251147,12,0,250647,0:0:0:0:
256,192,251188,12,0,250688,0:0:0:0:
256,192,251230,12,0,250730,0:0:0:0:
256,192,251271,12,0,250771,0:0:0:0:
256,192,251314,12,0,250814,0:0:0:0:
256,192,251355,12,0,250855,0:0:0:0:
256,192,251397,12,0,250897,0:0:0:0:
256,192,251438,12,0,250938,0:0:0:0:
256,192,251481,12,0,250981,0:0:0:0:
256,192,251522,12,0,251022,0:0:0:0:
256,192,251564,12,0,251064,0:0:0:0:
256,192,251605,12,0,251105,0:0:0:0:
256,192,251649,12,0,251149,0:0:0:0:
256,192,251690,12,0,251190,0:0:0:0:
256,192,251732,12,0,251232,0:0:0:0:
256,192,251773,12,0,251273,0:0:0:0:
256,192,251815,12,0,251315,0:0:0:0:
256,192,251856,12,0,251356,0:0:0:0:
256,192,251898,12,0,251398,0:0:0:0:
256,192,251939,12,0,251439,0:0:0:0:
256,192,251982,12,0,251482,0:0:0:0:
256,192,252023,12,0,251523,0:0:0:0:
256,192,252065,12,0,251565,0:0:0:0:
256,192,252106,12,0,251606,0:0:0:0:
256,192,252149,12,0,251649,0:0:0:0:
256,192,252190,12,0,251690,0:0:0:0:
256,192,252232,12,0,251732,0:0:0:0:
256,192,252273,12,0,251773,0:0:0:0:
256,192,252315,12,0,251815,0:0:0:0:
256,192,252356,12,0,251856,0:0:0:0:
256,192,252398,12,0,251898,0:0:0:0:
256,192,252439,12,0,251939,0:0:0:0:
256,192,252481,12,0,251981,0:0:0:0:
256,192,252522,12,0,252022,0:0:0:0:
256,192,252564,12,0,252064,0:0:0:0:
256,192,252605,12,0,252105,0:0:0:0:
256,192,252648,12,0,252148,0:0:0:0:
256,192,252689,12,0,252189,0:0:0:0:
256,192,252731,12,0,252231,0:0:0:0:
256,192,252772,12,0,252272,0:0:0:0:
256,192,252815,12,0,252315,0:0:0:0:
256,192,252856,12,0,252356,0:0:0:0:
256,192,252898,12,0,252398,0:0:0:0:
256,192,252939,12,0,252439,0:0:0:0:
256,192,252982,12,0,252482,0:0:0:0:
256,192,253023,12,0,252523,0:0:0:0:
256,192,253065,12,0,252565,0:0:0:0:
256,192,253106,12,0,252606,0:0:0:0:
256,192,253148,12,0,252648,0:0:0:0:
256,192,253189,12,0,252689,0:0:0:0:
256,192,253231,12,0,252731,0:0:0:0:
256,192,253272,12,0,252772,0:0:0:0:
256,192,253315,12,0,252815,0:0:0:0:
256,192,253356,12,0,252856,0:0:0:0:
256,192,253398,12,0,252898,0:0:0:0:
256,192,253439,12,0,252939,0:0:0:0:
256,192,253482,12,0,252982,0:0:0:0:
256,192,253523,12,0,253023,0:0:0:0:
256,192,253565,12,0,253065,0:0:0:0:
256,192,253606,12,0,253106,0:0:0:0:
256,192,253648,12,0,253148,0:0:0:0:
256,192,253689,12,0,253189,0:0:0:0:
256,192,253731,12,0,253231,0:0:0:0:
256,192,253772,12,0,253272,0:0:0:0:
256,192,253814,12,0,253314,0:0:0:0:
256,192,253855,12,0,253355,0:0:0:0:
256,192,253897,12,0,253397,0:0:0:0:
256,192,253938,12,0,253438,0:0:0:0:
256,192,253981,12,0,253481,0:0:0:0:
256,192,254022,12,0,253522,0:0:0:0:
256,192,254064,12,0,253564,0:0:0:0:
256,192,254105,12,0,253605,0:0:0:0:
256,192,254148,12,0,253648,0:0:0:0:
256,192,254189,12,0,253689,0:0:0:0:
256,192,254231,12,0,253731,0:0:0:0:
256,192,254272,12,0,253772,0:0:0:0:
256,192,254315,12,0,253815,0:0:0:0:
256,192,254356,12,0,253856,0:0:0:0:
256,192,254398,12,0,253898,0:0:0:0:
256,192,254439,12,0,253939,0:0:0:0:
256,192,254481,12,0,253981,0:0:0:0:
256,192,254522,12,0,254022,0:0:0:0:
256,192,254564,12,0,254064,0:0:0:0:
256,192,254605,12,0,254105,0:0:0:0:
256,192,254648,12,0,254148,0:0:0:0:
256,192,254689,12,0,254189,0:0:0:0:
256,192,254731,12,0,254231,0:0:0:0:
256,192,254772,12,0,254272,0:0:0:0:
256,192,254815,12,0,254315,0:0:0:0:
256,192,254856,12,0,254356,0:0:0:0:
256,192,254898,12,0,254398,0:0:0:0:
256,192,254939,12,0,254439,0:0:0:0:
256,192,254981,12,0,254481,0:0:0:0:
256,192,255022,12,0,254522,0:0:0:0:
256,192,255064,12,0,254564,0:0:0:0:
256,192,255105,12,0,254605,0:0:0:0:
256,192,255147,12,0,254647,0:0:0:0:
256,192,255188,12,0,254688,0:0:0:0:
256,192,255230,12,0,254730,0:0:0:0:
256,192,255271,12,0,254771,0:0:0:0:
256,192,255314,12,0,254814,0:0:0:0:
256,192,255355,12,0,254855,0:0:0:0:
256,192,255397,12,0,254897,0:0:0:0:
256,192,255438,12,0,254938,0:0:0:0:
256,192,255481,12,0,254981,0:0:0:0:
256,192,255522,12,0,255022,0:0:0:0:
256,192,255564,12,0,255064,0:0:0:0:
256,192,255605,12,0,255105,0:0:0:0:
256,192,255649,12,0,255149,0:0:0:0:
256,192,255690,12,0,255190,0:0:0:0:
256,192,255732,12,0,255232,0:0:0:0:
256,192,255773,12,0,255273,0:0:0:0:
256,192,255815,12,0,255315,0:0:0:0:
256,192,255856,12,0,255356,0:0:0:0:
256,192,255898,12,0,255398,0:0:0:0:
256,192,255939,12,0,255439,0:0:0:0:
256,192,255982,12,0,255482,0:0:0:0:
256,192,256023,12,0,255523,0:0:0:0:
256,192,256065,12,0,255565,0:0:0:0:
256,192,256106,12,0,255606,0:0:0:0:
256,192,256149,12,0,255649,0:0:0:0:
256,192,256190,12,0,255690,0:0:0:0:
256,192,256232,12,0,255732,0:0:0:0:
256,192,256273,12,0,255773,0:0:0:0:
256,192,256315,12,0,255815,0:0:0:0:
256,192,256356,12,0,255856,0:0:0:0:
256,192,256398,12,0,255898,0:0:0:0:
256,192,256439,12,0,255939,0:0:0:0:
256,192,256481,12,0,255981,0:0:0:0:
256,192,256522,12,0,256022,0:0:0:0:
256,192,256564,12,0,256064,0:0:0:0:
256,192,256605,12,0,256105,0:0:0:0:
256,192,256648,12,0,256148,0:0:0:0:
256,192,256689,12,0,256189,0:0:0:0:
256,192,256731,12,0,256231,0:0:0:0:
256,192,256772,12,0,256272,0:0:0:0:
256,192,256815,12,0,256315,0:0:0:0:
256,192,256856,12,0,256356,0:0:0:0:
256,192,256898,12,0,256398,0:0:0:0:
256,192,256939,12,0,256439,0:0:0:0:
256,192,256982,12,0,256482,0:0:0:0:
256,192,257023,12,0,256523,0:0:0:0:
256,192,257065,12,0,256565,0:0:0:0:
256,192,257106,12,0,256606,0:0:0:0:
256,192,257148,12,0,256648,0:0:0:0:
256,192,257189,12,0,256689,0:0:0:0:
256,192,257231,12,0,256731,0:0:0:0:
256,192,257272,12,0,256772,0:0:0:0:
256,192,257315,12,0,256815,0:0:0:0:
256,192,257356,12,0,256856,0:0:0:0:
256,192,257398,12,0,256898,0:0:0:0:
256,192,257439,12,0,256939,0:0:0:0:
256,192,257482,12,0,256982,0:0:0:0:
256,192,257523,12,0,257023,0:0:0:0:
256,192,257565,12,0,257065,0:0:0:0:
256,192,257606,12,0,257106,0:0:0:0:
256,192,257648,12,0,257148,0:0:0:0:
256,192,257689,12,0,257189,0:0:0:0:
256,192,257731,12,0,257231,0:0:0:0:
256,192,257772,12,0,257272,0:0:0:0:
256,192,257814,12,0,257314,0:0:0:0:
256,192,257855,12,0,257355,0:0:0:0:
256,192,257897,12,0,257397,0:0:0:0:
256,192,257938,12,0,257438,0:0:0:0:
256,192,257981,12,0,257481,0:0:0:0:
256,192,258022,12,0,257522,0:0:0:0:
256,192,258064,12,0,257564,0:0:0:0:
256,192,258105,12,0,257605,0:0:0:0:
256,192,258148,12,0,257648,0:0:0:0:
256,192,258189,12,0,257689,0:0:0:0:
256,192,258231,12,0,257731,0:0:0:0:
256,192,258272,12,0,257772,0:0:0:0:
256,192,258315,12,0,257815,0:0:0:0:
256,192,258356,12,0,257856,0:0:0:0:
256,192,258398,12,0,257898,0:0:0:0:
256,192,258439,12,0,257939,0:0:0:0:
256,192,258481,12,0,257981,0:0:0:0:
256,192,258522,12,0,258022,0:0:0:0:
256,192,258564,12,0,258064,0:0:0:0:
256,192,258605,12,0,258105,0:0:0:0:
256,192,258648,12,0,258148,0:0:0:0:
256,192,258689,12,0,258189,0:0:0:0:
256,192,258731,12,0,258231,0:0:0:0:
256,192,258772,12,0,258272,0:0:0:0:
256,192,258815,12,0,258315,0:0:0:0:
256,192,258856,12,0,258356,0:0:0:0:
256,192,258898,12,0,258398,0:0:0:0:
256,192,258939,12,0,258439,0:0:0:0:
256,192,258981,12,0,258481,0:0:0:0:
256,192,259022,12,0,258522,0:0:0:0:
256,192,259064,12,0,258564,0:0:0:0:
256,192,259105,12,0,258605,0:0:0:0:
256,192,259147,12,0,258647,0:0:0:0:
256,192,259188,12,0,258688,0:0:0:0:
256,192,259230,12,0,258730,0:0:0:0:
256,192,259271,12,0,258771,0:0:0:0:
256,192,259314,12,0,258814,0:0:0:0:
256,192,259355,12,0,258855,0:0:0:0:
256,192,259397,12,0,258897,0:0:0:0:
256,192,259438,12,0,258938,0:0:0:0:
256,192,259481,12,0,258981,0:0:0:0:
256,192,259522,12,0,259022,0:0:0:0:
256,192,259564,12,0,259064,0:0:0:0:
256,192,259605,12,0,259105,0:0:0:0:
256,192,259649,12,0,259149,0:0:0:0:
256,192,259690,12,0,259190,0:0:0:0:
256,192,259732,12,0,259232,0:0:0:0:
256,192,259773,12,0,259273,0:0:0:0:
256,192,259815,12,0,259315,0:0:0:0:
256,192,259856,12,0,259356,0:0:0:0:
256,192,259898,12,0,259398,0:0:0:0:
256,192,259939,12,0,259439,0:0:0:0:
256,192,259982,12,0,259482,0:0:0:0:
256,192,260023,12,0,259523,0:0:0:0:
256,192,260065,12,0,259565,0:0:0:0:
256,192,260106,12,0,259606,0:0:0:0:
256,192,260149,12,0,259649,0:0:0:0:
256,192,260190,12,0,259690,0:0:0:0:
256,192,260232,12,0,259732,0:0:0:0:
256,192,260273,12,0,259773,0:0:0:0:
256,192,260315,12,0,259815,0:0:0:0:
256,192,260356,12,0,259856,0:0:0:0:
256,192,260398,12,0,259898,0:0:0:0:
256,192,260439,12,0,259939,0:0:0:0:
256,192,260481,12,0,259981,0:0:0:0:
256,192,260522,12,0,260022,0:0:0:0:
256,192,260564,12,0,260064,0:0:0:0:
256,192,260605,12,0,260105,0:0:0:0:
256,192,260648,12,0,260148,0:0:0:0:
256,192,260689,12,0,260189,0:0:0:0:
256,192,260731,12,0,260231,0:0:0:0:
256,192,260772,12,0,260272,0:0:0:0:
256,192,260815,12,0,260315,0:0:0:0:
256,192,260856,12,0,260356,0:0:0:0:
256,192,260898,12,0,260398,0:0:0:0:
256,192,260939,12,0,260439,0:0:0:0:
256,192,260982,12,0,260482,0:0:0:0:
256,192,261023,12,0,260523,0:0:0:0:
256,192,261065,12,0,260565,0:0:0:0:
256,192,261106,12,0,260606,0:0:0:0:
256,192,261148,12,0,260648,0:0:0:0:
256,192,261189,12,0,260689,0:0:0:0:
256,192,261231,12,0,260731,0:0:0:0:
256,192,261272,12,0,260772,0:0:0:0:
256,192,261315,12,0,260815,0:0:0:0:
256,192,261356,12,0,260856,0:0:0:0:
256,192,261398,12,0,260898,0:0:0:0:
256,192,261439,12,0,260939,0:0:0:0:
256,192,261482,12,0,260982,0:0:0:0:
256,192,261523,12,0,261023,0:0:0:0:
256,192,261565,12,0,261065,0:0:0:0:
256,192,261606,12,0,261106,0:0:0:0:
256,192,261648,12,0,261148,0:0:0:0:
256,192,261689,12,0,261189,0:0:0:0:
256,192,261731,12,0,261231,0:0:0:0:
256,192,261772,12,0,261272,0:0:0:0:
256,192,261814,12,0,261314,0:0:0:0:
256,192,261855,12,0,261355,0:0:0:0:
256,192,261897,12,0,261397,0:0:0:0:
256,192,261938,12,0,261438,0:0:0:0:
256,192,261981,12,0,261481,0:0:0:0:
256,192,262022,12,0,261522,0:0:0:0:
256,192,262064,12,0,261564,0:0:0:0:
256,192,262105,12,0,261605,0:0:0:0:
256,192,262148,12,0,261648,0:0:0:0:
256,192,262189,12,0,261689,0:0:0:0:
256,192,262231,12,0,261731,0:0:0:0:
256,192,262272,12,0,261772,0:0:0:0:
256,192,262315,12,0,261815,0:0:0:0:
256,192,262356,12,0,261856,0:0:0:0:
256,192,262398,12,0,261898,0:0:0:0:
256,192,262439,12,0,261939,0:0:0:0:
256,192,262481,12,0,261981,0:0:0:0:
256,192,262522,12,0,262022,0:0:0:0:
256,192,262564,12,0,262064,0:0:0:0:
256,192,262605,12,0,262105,0:0:0:0:
256,192,262648,12,0,262148,0:0:0:0:
256,192,262689,12,0,262189,0:0:0:0:
256,192,262731,12,0,262231,0:0:0:0:
256,192,262772,12,0,262272,0:0:0:0:
256,192,262815,12,0,262315,0:0:0:0:
256,192,262856,12,0,262356,0:0:0:0:
256,192,262898,12,0,262398,0:0:0:0:
256,192,262939,12,0,262439,0:0:0:0:
256,192,262981,12,0,262481,0:0:0:0:
256,192,263022,12,0,262522,0:0:0:0:
256,192,263064,12,0,262564,0:0:0:0:
256,192,263105,12,0,262605,0:0:0:0:
256,192,263147,12,0,262647,0:0:0:0:
256,192,263188,12,0,262688,0:0:0:0:
256,192,263230,12,0,262730,0:0:0:0:
256,192,263271,12,0,262771,0:0:0:0:
256,192,263314,12,0,262814,0:0:0:0:
256,192,263355,12,0,262855,0:0:0:0:
256,192,263397,12,0,262897,0:0:0:0:
256,192,263438,12,0,262938,0:0:0:0:
256,192,263481,12,0,262981,0:0:0:0:
256,192,263522,12,0,263022,0:0:0:0:
256,192,263564,12,0,263064,0:0:0:0:
256,192,263605,12,0,263105,0:0:0:0:
256,192,263649,12,0,263149,0:0:0:0:
256,192,263690,12,0,263190,0:0:0:0:
256,192,263732,12,0,263232,0:0:0:0:
256,192,263773,12,0,263273,0:0:0:0:
256,192,263815,12,0,263315,0:0:0:0:
256,192,263856,12,0,263356,0:0:0:0:
256,192,263898,12,0,263398,0:0:0:0:
256,192,263939,12,0,263439,0:0:0:0:
256,192,263982,12,0,263482,0:0:0:0:
256,192,264023,12,0,263523,0:0:0:0:
256,192,264065,12,0,263565,0:0:0:0:
256,192,264106,12,0,263606,0:0:0:0:
256,192,264149,12,0,263649,0:0:0:0:
256,192,264190,12,0,263690,0:0:0:0:
256,192,264232,12,0,263732,0:0:0:0:
256,192,264273,12,0,263773,0:0:0:0:
256,192,264315,12,0,263815,0:0:0:0:
256,192,264356,12,0,263856,0:0:0:0:
256,192,264398,12,0,263898,0:0:0:0:
256,192,264439,12,0,263939,0:0:0:0:
256,192,264481,12,0,263981,0:0:0:0:
256,192,264522,12,0,264022,0:0:0:0:
256,192,264564,12,0,264064,0:0:0:0:
256,192,264605,12,0,264105,0:0:0:0:
256,192,264648,12,0,264148,0:0:0:0:
256,192,264689,12,0,264189,0:0:0:0:
256,192,264731,12,0,264231,0:0:0:0:
256,192,264772,12,0,264272,0:0:0:0:
256,192,264815,12,0,264315,0:0:0:0:
256,192,264856,12,0,264356,0:0:0:0:
256,192,264898,12,0,264398,0:0:0:0:
256,192,264939,12,0,264439,0:0:0:0:
256,192,264982,12,0,264482,0:0:0:0:
256,192,265023,12,0,264523,0:0:0:0:
256,192,265065,12,0,264565,0:0:0:0:
256,192,265106,12,0,264606,0:0:0:0:
256,192,265148,12,0,264648,0:0:0:0:
256,192,265189,12,0,264689,0:0:0:0:
256,192,265231,12,0,264731,0:0:0:0:
256,192,265272,12,0,264772,0:0:0:0:
256,192,265315,12,0,264815,0:0:0:0:
256,192,265356,12,0,264856,0:0:0:0:
256,192,265398,12,0,264898,0:0:0:0:
256,192,265439,12,0,264939,0:0:0:0:
256,192,265482,12,0,264982,0:0:0:0:
256,192,265523,12,0,265023,0:0:0:0:
256,192,265565,12,0,265065,0:0:0:0:
256,192,265606,12,0,265106,0:0:0:0:
256,192,265648,12,0,265148,0:0:0:0:
256,192,265689,12,0,265189,0:0:0:0:
256,192,265731,12,0,265231,0:0:0:0:
256,192,265772,12,0,265272,0:0:0:0:
256,192,265814,12,0,265314,0:0:0:0:
256,192,265855,12,0,265355,0:0:0:0:
256,192,265897,12,0,265397,0:0:0:0:
256,192,265938,12,0,265438,0:0:0:0:
256,192,265981,12,0,265481,0:0:0:0:
256,192,266022,12,0,265522,0:0:0:0:
256,192,266064,12,0,265564,0:0:0:0:
256,192,266105,12,0,265605,0:0:0:0:
256,192,266148,12,0,265648,0:0:0:0:
256,192,266189,12,0,265689,0:0:0:0:
256,192,266231,12,0,265731,0:0:0:0:
256,192,266272,12,0,265772,0:0:0:0:
256,192,266315,12,0,265815,0:0:0:0:
256,192,266356,12,0,265856,0:0:0:0:
256,192,266398,12,0,265898,0:0:0:0:
256,192,266439,12,0,265939,0:0:0:0:
256,192,266481,12,0,265981,0:0:0:0:
256,192,266522,12,0,266022,0:0:0:0:
256,192,266564,12,0,266064,0:0:0:0:
256,192,266605,12,0,266105,0:0:0:0:
256,192,266648,12,0,266148,0:0:0:0:
256,192,266689,12,0,266189,0:0:0:0:
256,192,266731,12,0,266231,0:0:0:0:
256,192,266772,12,0,266272,0:0:0:0:
256,192,266815,12,0,266315,0:0:0:0:
256,192,266856,12,0,266356,0:0:0:0:
256,192,266898,12,0,266398,0:0:0:0:
256,192,266939,12,0,266439,0:0:0:0:
256,192,266981,12,0,266481,0:0:0:0:
256,192,267022,12,0,266522,0:0:0:0:
256,192,267064,12,0,266564,0:0:0:0:
256,192,267105,12,0,266605,0:0:0:0:
256,192,267147,12,0,266647,0:0:0:0:
256,192,267188,12,0,266688,0:0:0:0:
256,192,267230,12,0,266730,0:0:0:0:
256,192,267271,12,0,266771,0:0:0:0:
256,192,267314,12,0,266814,0:0:0:0:
256,192,267355,12,0,266855,0:0:0:0:
256,192,267397,12,0,266897,0:0:0:0:
256,192,267438,12,0,266938,0:0:0:0:
256,192,267481,12,0,266981,0:0:0:0:
256,192,267522,12,0,267022,0:0:0:0:
256,192,267564,12,0,267064,0:0:0:0:
256,192,267605,12,0,267105,0:0:0:0:
256,192,267649,12,0,267149,0:0:0:0:
256,192,267690,12,0,267190,0:0:0:0:
256,192,267732,12,0,267232,0:0:0:0:
256,192,267773,12,0,267273,0:0:0:0:
256,192,267815,12,0,267315,0:0:0:0:
256,192,267856,12,0,267356,0:0:0:0:
256,192,267898,12,0,267398,0:0:0:0:
256,192,267939,12,0,267439,0:0:0:0:
256,192,267982,12,0,267482,0:0:0:0:
256,192,268023,12,0,267523,0:0:0:0:
256,192,268065,12,0,267565,0:0:0:0:
256,192,268106,12,0,267606,0:0:0:0:
256,192,268149,12,0,267649,0:0:0:0:
256,192,268190,12,0,267690,0:0:0:0:
256,192,268232,12,0,267732,0:0:0:0:
256,192,268273,12,0,267773,0:0:0:0:
256,192,268315,12,0,267815,0:0:0:0:
256,192,268356,12,0,267856,0:0:0:0:
256,192,268398,12,0,267898,0:0:0:0:
256,192,268439,12,0,267939,0:0:0:0:
256,192,268481,12,0,267981,0:0:0:0:
256,192,268522,12,0,268022,0:0:0:0:
256,192,268564,12,0,268064,0:0:0:0:
256,192,268605,12,0,268105,0:0:0:0:
256,192,268648,12,0,268148,0:0:0:0:
256,192,268689,12,0,268189,0:0:0:0:
256,192,268731,12,0,268231,0:0:0:0:
256,192,268772,12,0,268272,0:0:0:0:
256,192,268815,12,0,268315,0:0:0:0:
256,192,268856,12,0,268356,0:0:0:0:
256,192,268898,12,0,268398,0:0:0:0:
256,192,268939,12,0,268439,0:0:0:0:
256,192,268982,12,0,268482,0:0:0:0:
256,192,269023,12,0,268523,0:0:0:0:
256,192,269065,12,0,268565,0:0:0:0:
256,192,269106,12,0,268606,0:0:0:0:
256,192,269148,12,0,268648,0:0:0:0:
256,192,269189,12,0,268689,0:0:0:0:
256,192,269231,12,0,268731,0:0:0:0:
256,192,269272,12,0,268772,0:0:0:0:
256,192,269315,12,0,268815,0:0:0:0:
256,192,269356,12,0,268856,0:0:0:0:
256,192,269398,12,0,268898,0:0:0:0:
256,192,269439,12,0,268939,0:0:0:0:
256,192,269482,12,0,268982,0:0:0:0:
256,192,269523,12,0,269023,0:0:0:0:
256,192,269565,12,0,269065,0:0:0:0:
256,192,269606,12,0,269106,0:0:0:0:
256,192,269648,12,0,269148,0:0:0:0:
256,192,269689,12,0,269189,0:0:0:0:
256,192,269731,12,0,269231,0:0:0:0:
256,192,269772,12,0,269272,0:0:0:0:
256,192,269814,12,0,269314,0:0:0:0:
256,192,269855,12,0,269355,0:0:0:0:
256,192,269897,12,0,269397,0:0:0:0:
256,192,269938,12,0,269438,0:0:0:0:
256,192,269981,12,0,269481,0:0:0:0:
256,192,270022,12,0,269522,0:0:0:0:
256,192,270064,12,0,269564,0:0:0:0:
256,192,270105,12,0,269605,0:0:0:0:
256,192,270148,12,0,269648,0:0:0:0:
256,192,270189,12,0,269689,0:0:0:0:
256,192,270231,12,0,269731,0:0:0:0:
256,192,270272,12,0,269772,0:0:0:0:
256,192,270315,12,0,269815,0:0:0:0:
256,192,270356,12,0,269856,0:0:0:0:
256,192,270398,12,0,269898,0:0:0:0:
256,192,270439,12,0,269939,0:0:0:0:
256,192,270481,12,0,269981,0:0:0:0:
256,192,270522,12,0,270022,0:0:0:0:
256,192,270564,12,0,270064,0:0:0:0:
256,192,270605,12,0,270105,0:0:0:0:
256,192,270648,12,0,270148,0:0:0:0:
256,192,270689,12,0,270189,0:0:0:0:
256,192,270731,12,0,270231,0:0:0:0:
256,192,270772,12,0,270272,0:0:0:0:
256,192,270815,12,0,270315,0:0:0:0:
256,192,270856,12,0,270356,0:0:0:0:
256,192,270898,12,0,270398,0:0:0:0:
256,192,270939,12,0,270439,0:0:0:0:
256,192,270981,12,0,270481,0:0:0:0:
256,192,271022,12,0,270522,0:0:0:0:
256,192,271064,12,0,270564,0:0:0:0:
256,192,271105,12,0,270605,0:0:0:0:
256,192,271147,12,0,270647,0:0:0:0:
256,192,271188,12,0,270688,0:0:0:0:
256,192,271230,12,0,270730,0:0:0:0:
256,192,271271,12,0,270771,0:0:0:0:
256,192,271314,12,0,270814,0:0:0:0:
256,192,271355,12,0,270855,0:0:0:0:
256,192,271397,12,0,270897,0:0:0:0:
256,192,271438,12,0,270938,0:0:0:0:
256,192,271481,12,0,270981,0:0:0:0:
256,192,271522,12,0,271022,0:0:0:0:
256,192,271564,12,0,271064,0:0:0:0:
256,192,271605,12,0,271105,0:0:0:0:
256,192,271649,12,0,271149,0:0:0:0:
256,192,271690,12,0,271190,0:0:0:0:
256,192,271732,12,0,271232,0:0:0:0:
256,192,271773,12,0,271273,0:0:0:0:
256,192,271815,12,0,271315,0:0:0:0:
256,192,271856,12,0,271356,0:0:0:0:
256,192,271898,12,0,271398,0:0:0:0:
256,192,271939,12,0,271439,0:0:0:0:
256,192,271982,12,0,271482,0:0:0:0:
256,192,272023,12,0,271523,0:0:0:0:
256,192,272065,12,0,271565,0:0:0:0:
256,192,272106,12,0,271606,0:0:0:0:
256,192,272149,12,0,271649,0:0:0:0:
256,192,272190,12,0,271690,0:0:0:0:
256,192,272232,12,0,271732,0:0:0:0:
256,192,272273,12,0,271773,0:0:0:0:
256,192,272315,12,0,271815,0:0:0:0:
256,192,272356,12,0,271856,0:0:0:0:
256,192,272398,12,0,271898,0:0:0:0:
256,192,272439,12,0,271939,0:0:0:0:
256,192,272481,12,0,271981,0:0:0:0:
256,192,272522,12,0,272022,0:0:0:0:
256,192,272564,12,0,272064,0:0:0:0:
256,192,272605,12,0,272105,0:0:0:0:
256,192,272648,12,0,272148,0:0:0:0:
256,192,272689,12,0,272189,0:0:0:0:
256,192,272731,12,0,272231,0:0:0:0:
256,192,272772,12,0,272272,0:0:0:0:
256,192,272815,12,0,272315,0:0:0:0:
256,192,272856,12,0,272356,0:0:0:0:
256,192,272898,12,0,272398,0:0:0:0:
256,192,272939,12,0,272439,0:0:0:0:
256,192,272982,12,0,272482,0:0:0:0:
256,192,273023,12,0,272523,0:0:0:0:
256,192,273065,12,0,272565,0:0:0:0:
256,192,273106,12,0,272606,0:0:0:0:
256,192,273148,12,0,272648,0:0:0:0:
256,192,273189,12,0,272689,0:0:0:0:
256,192,273231,12,0,272731,0:0:0:0:
256,192,273272,12,0,272772,0:0:0:0:
256,192,273315,12,0,272815,0:0:0:0:
256,192,273356,12,0,272856,0:0:0:0:
256,192,273398,12,0,272898,0:0:0:0:
256,192,273439,12,0,272939,0:0:0:0:
256,192,273482,12,0,272982,0:0:0:0:
256,192,273523,12,0,273023,0:0:0:0:
256,192,273565,12,0,273065,0:0:0:0:
256,192,273606,12,0,273106,0:0:0:0:
256,192,273648,12,0,273148,0:0:0:0:
256,192,273689,12,0,273189,0:0:0:0:
256,192,273731,12,0,273231,0:0:0:0:
256,192,273772,12,0,273272,0:0:0:0:
256,192,273814,12,0,273314,0:0:0:0:
256,192,273855,12,0,273355,0:0:0:0:
256,192,273897,12,0,273397,0:0:0:0:
256,192,273938,12,0,273438,0:0:0:0:
256,192,273981,12,0,273481,0:0:0:0:
256,192,274022,12,0,273522,0:0:0:0:
256,192,274064,12,0,273564,0:0:0:0:
256,192,274105,12,0,273605,0:0:0:0:
256,192,274148,12,0,273648,0:0:0:0:
256,192,274189,12,0,273689,0:0:0:0:
256,192,274231,12,0,273731,0:0:0:0:
256,192,274272,12,0,273772,0:0:0:0:
256,192,274315,12,0,273815,0:0:0:0:
256,192,274356,12,0,273856,0:0:0:0:
256,192,274398,12,0,273898,0:0:0:0:
256,192,274439,12,0,273939,0:0:0:0:
256,192,274481,12,0,273981,0:0:0:0:
256,192,274522,12,0,274022,0:0:0:0:
256,192,274564,12,0,274064,0:0:0:0:
256,192,274605,12,0,274105,0:0:0:0:
256,192,274648,12,0,274148,0:0:0:0:
256,192,274689,12,0,274189,0:0:0:0:
256,192,274731,12,0,274231,0:0:0:0:
256,192,274772,12,0,274272,0:0:0:0:
256,192,274815,12,0,274315,0:0:0:0:
256,192,274856,12,0,274356,0:0:0:0:
256,192,274898,12,0,274398,0:0:0:0:
256,192,274939,12,0,274439,0:0:0:0:
256,192,274981,12,0,274481,0:0:0:0:
256,192,275022,12,0,274522,0:0:0:0:
256,192,275064,12,0,274564,0:0:0:0:
256,192,275105,12,0,274605,0:0:0:0:
256,192,275147,12,0,274647,0:0:0:0:
256,192,275188,12,0,274688,0:0:0:0:
256,192,275230,12,0,274730,0:0:0:0:
256,192,275271,12,0,274771,0:0:0:0:
256,192,275314,12,0,274814,0:0:0:0:
256,192,275355,12,0,274855,0:0:0:0:
256,192,275397,12,0,274897,0:0:0:0:
256,192,275438,12,0,274938,0:0:0:0:
256,192,275481,12,0,274981,0:0:0:0:
256,192,275522,12,0,275022,0:0:0:0:
256,192,275564,12,0,275064,0:0:0:0:
256,192,275605,12,0,275105,0:0:0:0:
256,192,275649,12,0,275149,0:0:0:0:
256,192,275690,12,0,275190,0:0:0:0:
256,192,275732,12,0,275232,0:0:0:0:
256,192,275773,12,0,275273,0:0:0:0:
256,192,275815,12,0,275315,0:0:0:0:
256,192,275856,12,0,275356,0:0:0:0:
256,192,275898,12,0,275398,0:0:0:0:
256,192,275939,12,0,275439,0:0:0:0:
256,192,275982,12,0,275482,0:0:0:0:
256,192,276023,12,0,275523,0:0:0:0:
256,192,276065,12,0,275565,0:0:0:0:
256,192,276106,12,0,275606,0:0:0:0:
256,192,276149,12,0,275649,0:0:0:0:
256,192,276190,12,0,275690,0:0:0:0:
256,192,276232,12,0,275732,0:0:0:0:
256,192,276273,12,0,275773,0:0:0:0:
256,192,276315,12,0,275815,0:0:0:0:
256,192,276356,12,0,275856,0:0:0:0:
256,192,276398,12,0,275898,0:0:0:0:
256,192,276439,12,0,275939,0:0:0:0:
256,192,276481,12,0,275981,0:0:0:0:
256,192,276522,12,0,276022,0:0:0:0:
256,192,276564,12,0,276064,0:0:0:0:
256,192,276605,12,0,276105,0:0:0:0:
256,192,276648,12,0,276148,0:0:0:0:
256,192,276689,12,0,276189,0:0:0:0:
256,192,276731,12,0,276231,0:0:0:0:
256,192,276772,12,0,276272,0:0:0:0:
256,192,276815,12,0,276315,0:0:0:0:
256,192,276856,12,0,276356,0:0:0:0:
256,192,276898,12,0,276398,0:0:0:0:
256,192,276939,12,0,276439,0:0:0:0:
256,192,276982,12,0,276482,0:0:0:0:
256,192,277023,12,0,276523,0:0:0:0:
256,192,277065,12,0,276565,0:0:0:0:
256,192,277106,12,0,276606,0:0:0:0:
256,192,277148,12,0,276648,0:0:0:0:
256,192,277189,12,0,276689,0:0:0:0:
256,192,277231,12,0,276731,0:0:0:0:
256,192,277272,12,0,276772,0:0:0:0:
256,192,277315,12,0,276815,0:0:0:0:
256,192,277356,12,0,276856,0:0:0:0:
256,192,277398,12,0,276898,0:0:0:0:
256,192,277439,12,0,276939,0:0:0:0:
256,192,277482,12,0,276982,0:0:0:0:
256,192,277523,12,0,277023,0:0:0:0:
256,192,277565,12,0,277065,0:0:0:0:
256,192,277606,12,0,277106,0:0:0:0:
256,192,277648,12,0,277148,0:0:0:0:
256,192,277689,12,0,277189,0:0:0:0:
256,192,277731,12,0,277231,0:0:0:0:
256,192,277772,12,0,277272,0:0:0:0:
256,192,277814,12,0,277314,0:0:0:0:
256,192,277855,12,0,277355,0:0:0:0:
256,192,277897,12,0,277397,0:0:0:0:
256,192,277938,12,0,277438,0:0:0:0:
256,192,277981,12,0,277481,0:0:0:0:
256,192,278022,12,0,277522,0:0:0:0:
256,192,278064,12,0,277564,0:0:0:0:
256,192,278105,12,0,277605,0:0:0:0:
256,192,278148,12,0,277648,0:0:0:0:
256,192,278189,12,0,277689,0:0:0:0:
256,192,278231,12,0,277731,0:0:0:0:
256,192,278272,12,0,277772,0:0:0:0:
256,192,278315,12,0,277815,0:0:0:0:
256,192,278356,12,0,277856,0:0:0:0:
256,192,278398,12,0,277898,0:0:0:0:
256,192,278439,12,0,277939,0:0:0:0:
256,192,278481,12,0,277981,0:0:0:0:
256,192,278522,12,0,278022,0:0:0:0:
256,192,278564,12,0,278064,0:0:0:0:
256,192,278605,12,0,278105,0:0:0:0:
256,192,278648,12,0,278148,0:0:0:0:
256,192,278689,12,0,278189,0:0:0:0:
256,192,278731,12,0,278231,0:0:0:0:
256,192,278772,12,0,278272,0:0:0:0:
256,192,278815,12,0,278315,0:0:0:0:
256,192,278856,12,0,278356,0:0:0:0:
256,192,278898,12,0,278398,0:0:0:0:
256,192,278939,12,0,278439,0:0:0:0:
256,192,278981,12,0,278481,0:0:0:0:
256,192,279022,12,0,278522,0:0:0:0:
256,192,279064,12,0,278564,0:0:0:0:
256,192,279105,12,0,278605,0:0:0:0:
256,192,279147,12,0,278647,0:0:0:0:
256,192,279188,12,0,278688,0:0:0:0:
256,192,279230,12,0,278730,0:0:0:0:
256,192,279271,12,0,278771,0:0:0:0:
256,192,279314,12,0,278814,0:0:0:0:
256,192,279355,12,0,278855,0:0:0:0:
256,192,279397,12,0,278897,0:0:0:0:
256,192,279438,12,0,278938,0:0:0:0:
256,192,279481,12,0,278981,0:0:0:0:
256,192,279522,12,0,279022,0:0:0:0:
256,192,279564,12,0,279064,0:0:0:0:
256,192,279605,12,0,279105,0:0:0:0:
256,192,279649,12,0,279149,0:0:0:0:
256,192,279690,12,0,279190,0:0:0:0:
256,192,279732,12,0,279232,0:0:0:0:
256,192,279773,12,0,279273,0:0:0:0:
256,192,279815,12,0,279315,0:0:0:0:
256,192,279856,12,0,279356,0:0:0:0:
256,192,279898,12,0,279398,0:0:0:0:
256,192,279939,12,0,279439,0:0:0:0:
256,192,279982,12,0,279482,0:0:0:0:
256,192,280023,12,0,279523,0:0:0:0:
256,192,280065,12,0,279565,0:0:0:0:
256,192,280106,12,0,279606,0:0:0:0:
256,192,280149,12,0,279649,0:0:0:0:
256,192,280190,12,0,279690,0:0:0:0:
256,192,280232,12,0,279732,0:0:0:0:
256,192,280273,12,0,279773,0:0:0:0:
256,192,280315,12,0,279815,0:0:0:0:
256,192,280356,12,0,279856,0:0:0:0:
256,192,280398,12,0,279898,0:0:0:0:
256,192,280439,12,0,279939,0:0:0:0:
256,192,280481,12,0,279981,0:0:0:0:
256,192,280522,12,0,280022,0:0:0:0:
256,192,280564,12,0,280064,0:0:0:0:
256,192,280605,12,0,280105,0:0:0:0:
256,192,280648,12,0,280148,0:0:0:0:
256,192,280689,12,0,280189,0:0:0:0:
256,192,280731,12,0,280231,0:0:0:0:
256,192,280772,12,0,280272,0:0:0:0:
256,192,280815,12,0,280315,0:0:0:0:
256,192,280856,12,0,280356,0:0:0:0:
256,192,280898,12,0,280398,0:0:0:0:
256,192,280939,12,0,280439,0:0:0:0:
256,192,280982,12,0,280482,0:0:0:0:
256,192,281023,12,0,280523,0:0:0:0:
256,192,281065,12,0,280565,0:0:0:0:
256,192,281106,12,0,280606,0:0:0:0:
256,192,281148,12,0,280648,0:0:0:0:
256,192,281189,12,0,280689,0:0:0:0:
256,192,281231,12,0,280731,0:0:0:0:
256,192,281272,12,0,280772,0:0:0:0:
256,192,281315,12,0,280815,0:0:0:0:
256,192,281356,12,0,280856,0:0:0:0:
256,192,281398,12,0,280898,0:0:0:0:
256,192,281439,12,0,280939,0:0:0:0:
256,192,281482,12,0,280982,0:0:0:0:
256,192,281523,12,0,281023,0:0:0:0:
256,192,281565,12,0,281065,0:0:0:0:
256,192,281606,12,0,281106,0:0:0:0:
256,192,281648,12,0,281148,0:0:0:0:
256,192,281689,12,0,281189,0:0:0:0:
256,192,281731,12,0,281231,0:0:0:0:
256,192,281772,12,0,281272,0:0:0:0:
256,192,281814,12,0,281314,0:0:0:0:
256,192,281855,12,0,281355,0:0:0:0:
256,192,281897,12,0,281397,0:0:0:0:
256,192,281938,12,0,281438,0:0:0:0:
256,192,281981,12,0,281481,0:0:0:0:
256,192,282022,12,0,281522,0:0:0:0:
256,192,282064,12,0,281564,0:0:0:0:
256,192,282105,12,0,281605,0:0:0:0:
256,192,282148,12,0,281648,0:0:0:0:
256,192,282189,12,0,281689,0:0:0:0:
256,192,282231,12,0,281731,0:0:0:0:
256,192,282272,12,0,281772,0:0:0:0:
256,192,282315,12,0,281815,0:0:0:0:
256,192,282356,12,0,281856,0:0:0:0:
256,192,282398,12,0,281898,0:0:0:0:
256,192,282439,12,0,281939,0:0:0:0:
256,192,282481,12,0,281981,0:0:0:0:
256,192,282522,12,0,282022,0:0:0:0:
256,192,282564,12,0,282064,0:0:0:0:
256,192,282605,12,0,282105,0:0:0:0:
256,192,282648,12,0,282148,0:0:0:0:
256,192,282689,12,0,282189,0:0:0:0:
256,192,282731,12,0,282231,0:0:0:0:
256,192,282772,12,0,282272,0:0:0:0:
256,192,282815,12,0,282315,0:0:0:0:
256,192,282856,12,0,282356,0:0:0:0:
256,192,282898,12,0,282398,0:0:0:0:
256,192,282939,12,0,282439,0:0:0:0:
256,192,282981,12,0,282481,0:0:0:0:
