osu file format v12

[General]
AudioFilename: 8th.mp3
AudioLeadIn: 1004
PreviewTime: 56297
Countdown: 0
SampleSet: Soft
StackLeniency: 0.7
Mode: 0
LetterboxInBreaks: 1
WidescreenStoryboard: 1

[Editor]
DistanceSpacing: 0.6
BeatDivisor: 6
GridSize: 4

[Metadata]
Title:SeventH HeaveN
TitleUnicode:SeventH HeaveN
Artist:sasakure.UK
ArtistUnicode:sasakure.UK
Creator:Meramipop
Version:6th Heaven
Source:7th Dragon 2020
Tags:hatsune miku SeventH-HeaveN Fix Some The Fantastic Reality of Aesop vocaloid vocaloid2 セブンスドラゴン
BeatmapID:351725
BeatmapSetID:140933

[Difficulty]
HPDrainRate:3
CircleSize:4
OverallDifficulty:8
ApproachRate:9
SliderMultiplier:0.400000005960464
SliderTickRate:1

[Events]
//Background and Video events
0,0,"bg.jpg",0,0
//Break Periods
//Storyboard Layer 0 (Background)
//Storyboard Layer 1 (Fail)
//Storyboard Layer 2 (Pass)
//Storyboard Layer 3 (Foreground)
//Storyboard Sound Samples
//Background Colour Transformations
3,100,163,162,255

[TimingPoints]
6316,333.333333333333,4,2,1,15,1,0
6371,-200,4,2,1,15,0,0

[Colours]
Combo1 : 164,255,235
Combo2 : 140,255,140
Combo3 : 164,205,255

[HitObjects]
256,184,6982,2,0,L|260:204,1,20.0000002980232
256,192,7982,12,0,7482,0:0:0:0:
256,192,8038,12,0,7538,0:0:0:0:
256,192,8093,12,0,7593,0:0:0:0:
256,192,8149,12,0,7649,0:0:0:0:
256,192,8204,12,0,7704,0:0:0:0:
256,192,8260,12,0,7760,0:0:0:0:
256,192,8315,12,0,7815,0:0:0:0:
256,192,8371,12,0,7871,0:0:0:0:
256,192,8426,12,0,7926,0:0:0:0:
256,192,8482,12,0,7982,0:0:0:0:
256,192,8537,12,0,8037,0:0:0:0:
256,192,8593,12,0,8093,0:0:0:0:
256,192,8649,12,0,8149,0:0:0:0:
256,192,8705,12,0,8205,0:0:0:0:
256,192,8760,12,0,8260,0:0:0:0:
256,192,8816,12,0,8316,0:0:0:0:
256,192,8871,12,0,8371,0:0:0:0:
256,192,8927,12,0,8427,0:0:0:0:
256,192,8982,12,0,8482,0:0:0:0:
256,192,9038,12,0,8538,0:0:0:0:
256,192,9093,12,0,8593,0:0:0:0:
256,192,9149,12,0,8649,0:0:0:0:
256,192,9204,12,0,8704,0:0:0:0:
256,192,9260,12,0,8760,0:0:0:0:
256,192,9315,12,0,8815,0:0:0:0:
256,192,9371,12,0,8871,0:0:0:0:
256,192,9426,12,0,8926,0:0:0:0:
256,192,9482,12,0,8982,0:0:0:0:
256,192,9537,12,0,9037,0:0:0:0:
256,192,9593,12,0,9093,0:0:0:0:
256,192,9648,12,0,9148,0:0:0:0:
256,192,9704,12,0,9204,0:0:0:0:
256,192,9759,12,0,9259,0:0:0:0:
256,192,9815,12,0,9315,0:0:0:0:
256,192,9870,12,0,9370,0:0:0:0:
256,192,9926,12,0,9426,0:0:0:0:
256,192,9982,12,0,9482,0:0:0:0:
256,192,10038,12,0,9538,0:0:0:0:
256,192,10093,12,0,9593,0:0:0:0:
256,192,10149,12,0,9649,0:0:0:0:
256,192,10204,12,0,9704,0:0:0:0:
256,192,10260,12,0,9760,0:0:0:0:
256,192,10315,12,0,9815,0:0:0:0:
256,192,10371,12,0,9871,0:0:0:0:
256,192,10426,12,0,9926,0:0:0:0:
256,192,10482,12,0,9982,0:0:0:0:
256,192,10537,12,0,10037,0:0:0:0:
256,192,10593,12,0,10093,0:0:0:0:
256,192,10649,12,0,10149,0:0:0:0:
256,192,10705,12,0,10205,0:0:0:0:
256,192,10760,12,0,10260,0:0:0:0:
256,192,10816,12,0,10316,0:0:0:0:
256,192,10871,12,0,10371,0:0:0:0:
256,192,10927,12,0,10427,0:0:0:0:
256,192,10982,12,0,10482,0:0:0:0:
256,192,11038,12,0,10538,0:0:0:0:
256,192,11093,12,0,10593,0:0:0:0:
256,192,11149,12,0,10649,0:0:0:0:
256,192,11204,12,0,10704,0:0:0:0:
256,192,11260,12,0,10760,0:0:0:0:
256,192,11316,12,0,10816,0:0:0:0:
256,192,11372,12,0,10872,0:0:0:0:
256,192,11427,12,0,10927,0:0:0:0:
256,192,11483,12,0,10983,0:0:0:0:
256,192,11538,12,0,11038,0:0:0:0:
256,192,11594,12,0,11094,0:0:0:0:
256,192,11649,12,0,11149,0:0:0:0:
256,192,11705,12,0,11205,0:0:0:0:
256,192,11760,12,0,11260,0:0:0:0:
256,192,11816,12,0,11316,0:0:0:0:
256,192,11871,12,0,11371,0:0:0:0:
256,192,11927,12,0,11427,0:0:0:0:
256,192,11982,12,0,11482,0:0:0:0:
256,192,12038,12,0,11538,0:0:0:0:
256,192,12093,12,0,11593,0:0:0:0:
256,192,12149,12,0,11649,0:0:0:0:
256,192,12204,12,0,11704,0:0:0:0:
256,192,12260,12,0,11760,0:0:0:0:
256,192,12315,12,0,11815,0:0:0:0:
256,192,12371,12,0,11871,0:0:0:0:
256,192,12426,12,0,11926,0:0:0:0:
256,192,12482,12,0,11982,0:0:0:0:
256,192,12537,12,0,12037,0:0:0:0:
256,192,12593,12,0,12093,0:0:0:0:
256,192,12649,12,0,12149,0:0:0:0:
256,192,12705,12,0,12205,0:0:0:0:
256,192,12760,12,0,12260,0:0:0:0:
256,192,12816,12,0,12316,0:0:0:0:
256,192,12871,12,0,12371,0:0:0:0:
256,192,12927,12,0,12427,0:0:0:0:
256,192,12982,12,0,12482,0:0:0:0:
256,192,13038,12,0,12538,0:0:0:0:
256,192,13093,12,0,12593,0:0:0:0:
256,192,13149,12,0,12649,0:0:0:0:
256,192,13204,12,0,12704,0:0:0:0:
256,192,13260,12,0,12760,0:0:0:0:
256,192,13315,12,0,12815,0:0:0:0:
256,192,13371,12,0,12871,0:0:0:0:
256,192,13426,12,0,12926,0:0:0:0:
256,192,13482,12,0,12982,0:0:0:0:
256,192,13537,12,0,13037,0:0:0:0:
256,192,13593,12,0,13093,0:0:0:0:
256,192,13648,12,0,13148,0:0:0:0:
256,192,13704,12,0,13204,0:0:0:0:
256,192,13759,12,0,13259,0:0:0:0:
256,192,13815,12,0,13315,0:0:0:0:
256,192,13870,12,0,13370,0:0:0:0:
256,192,13926,12,0,13426,0:0:0:0:
256,192,13982,12,0,13482,0:0:0:0:
256,192,14038,12,0,13538,0:0:0:0:
256,192,14093,12,0,13593,0:0:0:0:
256,192,14149,12,0,13649,0:0:0:0:
256,192,14204,12,0,13704,0:0:0:0:
256,192,14260,12,0,13760,0:0:0:0:
256,192,14315,12,0,13815,0:0:0:0:
256,192,14371,12,0,13871,0:0:0:0:
256,192,14426,12,0,13926,0:0:0:0:
256,192,14482,12,0,13982,0:0:0:0:
256,192,14537,12,0,14037,0:0:0:0:
256,192,14593,12,0,14093,0:0:0:0:
256,192,14649,12,0,14149,0:0:0:0:
256,192,14705,12,0,14205,0:0:0:0:
256,192,14760,12,0,14260,0:0:0:0:
256,192,14816,12,0,14316,0:0:0:0:
256,192,14871,12,0,14371,0:0:0:0:
256,192,14927,12,0,14427,0:0:0:0:
256,192,14982,12,0,14482,0:0:0:0:
256,192,15038,12,0,14538,0:0:0:0:
256,192,15093,12,0,14593,0:0:0:0:
256,192,15149,12,0,14649,0:0:0:0:
256,192,15204,12,0,14704,0:0:0:0:
256,192,15260,12,0,14760,0:0:0:0:
256,192,15316,12,0,14816,0:0:0:0:
256,192,15372,12,0,14872,0:0:0:0:
256,192,15427,12,0,14927,0:0:0:0:
256,192,15483,12,0,14983,0:0:0:0:
256,192,15538,12,0,15038,0:0:0:0:
256,192,15594,12,0,15094,0:0:0:0:
256,192,15649,12,0,15149,0:0:0:0:
256,192,15705,12,0,15205,0:0:0:0:
256,192,15760,12,0,15260,0:0:0:0:
256,192,15816,12,0,15316,0:0:0:0:
256,192,15871,12,0,15371,0:0:0:0:
256,192,15927,12,0,15427,0:0:0:0:
256,192,15982,12,0,15482,0:0:0:0:
256,192,16038,12,0,15538,0:0:0:0:
256,192,16093,12,0,15593,0:0:0:0:
256,192,16149,12,0,15649,0:0:0:0:
256,192,16204,12,0,15704,0:0:0:0:
256,192,16260,12,0,15760,0:0:0:0:
256,192,16315,12,0,15815,0:0:0:0:
256,192,16371,12,0,15871,0:0:0:0:
256,192,16426,12,0,15926,0:0:0:0:
256,192,16482,12,0,15982,0:0:0:0:
256,192,16537,12,0,16037,0:0:0:0:
256,192,16593,12,0,16093,0:0:0:0:
256,192,16649,12,0,16149,0:0:0:0:
256,192,16705,12,0,16205,0:0:0:0:
256,192,16760,12,0,16260,0:0:0:0:
256,192,16816,12,0,16316,0:0:0:0:
256,192,16871,12,0,16371,0:0:0:0:
256,192,16927,12,0,16427,0:0:0:0:
256,192,16982,12,0,16482,0:0:0:0:
256,192,17038,12,0,16538,0:0:0:0:
256,192,17093,12,0,16593,0:0:0:0:
256,192,17149,12,0,16649,0:0:0:0:
256,192,17204,12,0,16704,0:0:0:0:
256,192,17260,12,0,16760,0:0:0:0:
256,192,17315,12,0,16815,0:0:0:0:
256,192,17371,12,0,16871,0:0:0:0:
256,192,17426,12,0,16926,0:0:0:0:
256,192,17482,12,0,16982,0:0:0:0:
256,192,17537,12,0,17037,0:0:0:0:
256,192,17593,12,0,17093,0:0:0:0:
256,192,17648,12,0,17148,0:0:0:0:
256,192,17704,12,0,17204,0:0:0:0:
256,192,17759,12,0,17259,0:0:0:0:
256,192,17815,12,0,17315,0:0:0:0:
256,192,17870,12,0,17370,0:0:0:0:
256,192,17926,12,0,17426,0:0:0:0:
256,192,17982,12,0,17482,0:0:0:0:
256,192,18038,12,0,17538,0:0:0:0:
256,192,18093,12,0,17593,0:0:0:0:
256,192,18149,12,0,17649,0:0:0:0:
256,192,18204,12,0,17704,0:0:0:0:
256,192,18260,12,0,17760,0:0:0:0:
256,192,18315,12,0,17815,0:0:0:0:
256,192,18371,12,0,17871,0:0:0:0:
256,192,18426,12,0,17926,0:0:0:0:
256,192,18482,12,0,17982,0:0:0:0:
256,192,18537,12,0,18037,0:0:0:0:
256,192,18593,12,0,18093,0:0:0:0:
256,192,18649,12,0,18149,0:0:0:0:
256,192,18705,12,0,18205,0:0:0:0:
256,192,18760,12,0,18260,0:0:0:0:
256,192,18816,12,0,18316,0:0:0:0:
256,192,18871,12,0,18371,0:0:0:0:
256,192,18927,12,0,18427,0:0:0:0:
256,192,18982,12,0,18482,0:0:0:0:
256,192,19038,12,0,18538,0:0:0:0:
256,192,19093,12,0,18593,0:0:0:0:
256,192,19149,12,0,18649,0:0:0:0:
256,192,19204,12,0,18704,0:0:0:0:
256,192,19260,12,0,18760,0:0:0:0:
256,192,19316,12,0,18816,0:0:0:0:
256,192,19372,12,0,18872,0:0:0:0:
256,192,19427,12,0,18927,0:0:0:0:
256,192,19483,12,0,18983,0:0:0:0:
256,192,19538,12,0,19038,0:0:0:0:
256,192,19594,12,0,19094,0:0:0:0:
256,192,19649,12,0,19149,0:0:0:0:
256,192,19705,12,0,19205,0:0:0:0:
256,192,19760,12,0,19260,0:0:0:0:
256,192,19816,12,0,19316,0:0:0:0:
256,192,19871,12,0,19371,0:0:0:0:
256,192,19927,12,0,19427,0:0:0:0:
256,192,19982,12,0,19482,0:0:0:0:
256,192,20038,12,0,19538,0:0:0:0:
256,192,20093,12,0,19593,0:0:0:0:
256,192,20149,12,0,19649,0:0:0:0:
256,192,20204,12,0,19704,0:0:0:0:
256,192,20260,12,0,19760,0:0:0:0:
256,192,20315,12,0,19815,0:0:0:0:
256,192,20371,12,0,19871,0:0:0:0:
256,192,20426,12,0,19926,0:0:0:0:
256,192,20482,12,0,19982,0:0:0:0:
256,192,20537,12,0,20037,0:0:0:0:
256,192,20593,12,0,20093,0:0:0:0:
256,192,20649,12,0,20149,0:0:0:0:
256,192,20705,12,0,20205,0:0:0:0:
256,192,20760,12,0,20260,0:0:0:0:
256,192,20816,12,0,20316,0:0:0:0:
256,192,20871,12,0,20371,0:0:0:0:
256,192,20927,12,0,20427,0:0:0:0:
256,192,20982,12,0,20482,0:0:0:0:
256,192,21038,12,0,20538,0:0:0:0:
256,192,21093,12,0,20593,0:0:0:0:
256,192,21149,12,0,20649,0:0:0:0:
256,192,21204,12,0,20704,0:0:0:0:
256,192,21260,12,0,20760,0:0:0:0:
256,192,21315,12,0,20815,0:0:0:0:
256,192,21371,12,0,20871,0:0:0:0:
256,192,21426,12,0,20926,0:0:0:0:
256,192,21482,12,0,20982,0:0:0:0:
256,192,21537,12,0,21037,0:0:0:0:
256,192,21593,12,0,21093,0:0:0:0:
256,192,21648,12,0,21148,0:0:0:0:
256,192,21704,12,0,21204,0:0:0:0:
256,192,21759,12,0,21259,0:0:0:0:
256,192,21815,12,0,21315,0:0:0:0:
256,192,21870,12,0,21370,0:0:0:0:
256,192,21926,12,0,21426,0:0:0:0:
256,192,21982,12,0,21482,0:0:0:0:
256,192,22038,12,0,21538,0:0:0:0:
256,192,22093,12,0,21593,0:0:0:0:
256,192,22149,12,0,21649,0:0:0:0:
256,192,22204,12,0,21704,0:0:0:0:
256,192,22260,12,0,21760,0:0:0:0:
256,192,22315,12,0,21815,0:0:0:0:
256,192,22371,12,0,21871,0:0:0:0:
256,192,22426,12,0,21926,0:0:0:0:
256,192,22482,12,0,21982,0:0:0:0:
256,192,22537,12,0,22037,0:0:0:0:
256,192,22593,12,0,22093,0:0:0:0:
256,192,22649,12,0,22149,0:0:0:0:
256,192,22705,12,0,22205,0:0:0:0:
256,192,22760,12,0,22260,0:0:0:0:
256,192,22816,12,0,22316,0:0:0:0:
256,192,22871,12,0,22371,0:0:0:0:
256,192,22927,12,0,22427,0:0:0:0:
256,192,22982,12,0,22482,0:0:0:0:
256,192,23038,12,0,22538,0:0:0:0:
256,192,23093,12,0,22593,0:0:0:0:
256,192,23149,12,0,22649,0:0:0:0:
256,192,23204,12,0,22704,0:0:0:0:
256,192,23260,12,0,22760,0:0:0:0:
256,192,23316,12,0,22816,0:0:0:0:
256,192,23372,12,0,22872,0:0:0:0:
256,192,23427,12,0,22927,0:0:0:0:
256,192,23483,12,0,22983,0:0:0:0:
256,192,23538,12,0,23038,0:0:0:0:
256,192,23594,12,0,23094,0:0:0:0:
256,192,23649,12,0,23149,0:0:0:0:
256,192,23705,12,0,23205,0:0:0:0:
256,192,23760,12,0,23260,0:0:0:0:
256,192,23816,12,0,23316,0:0:0:0:
256,192,23871,12,0,23371,0:0:0:0:
256,192,23927,12,0,23427,0:0:0:0:
256,192,23982,12,0,23482,0:0:0:0:
256,192,24038,12,0,23538,0:0:0:0:
256,192,24093,12,0,23593,0:0:0:0:
256,192,24149,12,0,23649,0:0:0:0:
256,192,24204,12,0,23704,0:0:0:0:
256,192,24260,12,0,23760,0:0:0:0:
256,192,24315,12,0,23815,0:0:0:0:
256,192,24371,12,0,23871,0:0:0:0:
256,192,24426,12,0,23926,0:0:0:0:
256,192,24482,12,0,23982,0:0:0:0:
256,192,24537,12,0,24037,0:0:0:0:
256,192,24593,12,0,24093,0:0:0:0:
256,192,24649,12,0,24149,0:0:0:0:
256,192,24705,12,0,24205,0:0:0:0:
256,192,24760,12,0,24260,0:0:0:0:
256,192,24816,12,0,24316,0:0:0:0:
256,192,24871,12,0,24371,0:0:0:0:
256,192,24927,12,0,24427,0:0:0:0:
256,192,24982,12,0,24482,0:0:0:0:
256,192,25038,12,0,24538,0:0:0:0:
256,192,25093,12,0,24593,0:0:0:0:
256,192,25149,12,0,24649,0:0:0:0:
256,192,25204,12,0,24704,0:0:0:0:
256,192,25260,12,0,24760,0:0:0:0:
256,192,25315,12,0,24815,0:0:0:0:
256,192,25371,12,0,24871,0:0:0:0:
256,192,25426,12,0,24926,0:0:0:0:
256,192,25482,12,0,24982,0:0:0:0:
256,192,25537,12,0,25037,0:0:0:0:
256,192,25593,12,0,25093,0:0:0:0:
256,192,25648,12,0,25148,0:0:0:0:
256,192,25704,12,0,25204,0:0:0:0:
256,192,25759,12,0,25259,0:0:0:0:
256,192,25815,12,0,25315,0:0:0:0:
256,192,25870,12,0,25370,0:0:0:0:
256,192,25926,12,0,25426,0:0:0:0:
256,192,25982,12,0,25482,0:0:0:0:
256,192,26038,12,0,25538,0:0:0:0:
256,192,26093,12,0,25593,0:0:0:0:
256,192,26149,12,0,25649,0:0:0:0:
256,192,26204,12,0,25704,0:0:0:0:
256,192,26260,12,0,25760,0:0:0:0:
256,192,26315,12,0,25815,0:0:0:0:
256,192,26371,12,0,25871,0:0:0:0:
256,192,26426,12,0,25926,0:0:0:0:
256,192,26482,12,0,25982,0:0:0:0:
256,192,26537,12,0,26037,0:0:0:0:
256,192,26593,12,0,26093,0:0:0:0:
256,192,26649,12,0,26149,0:0:0:0:
256,192,26705,12,0,26205,0:0:0:0:
256,192,26760,12,0,26260,0:0:0:0:
256,192,26816,12,0,26316,0:0:0:0:
256,192,26871,12,0,26371,0:0:0:0:
256,192,26927,12,0,26427,0:0:0:0:
256,192,26982,12,0,26482,0:0:0:0:
256,192,27038,12,0,26538,0:0:0:0:
256,192,27093,12,0,26593,0:0:0:0:
256,192,27149,12,0,26649,0:0:0:0:
256,192,27204,12,0,26704,0:0:0:0:
256,192,27260,12,0,26760,0:0:0:0:
256,192,27316,12,0,26816,0:0:0:0:
256,192,27372,12,0,26872,0:0:0:0:
256,192,27427,12,0,26927,0:0:0:0:
256,192,27483,12,0,26983,0:0:0:0:
256,192,27538,12,0,27038,0:0:0:0:
256,192,27594,12,0,27094,0:0:0:0:
256,192,27649,12,0,27149,0:0:0:0:
256,192,27705,12,0,27205,0:0:0:0:
256,192,27760,12,0,27260,0:0:0:0:
256,192,27816,12,0,27316,0:0:0:0:
256,192,27871,12,0,27371,0:0:0:0:
256,192,27927,12,0,27427,0:0:0:0:
256,192,27982,12,0,27482,0:0:0:0:
256,192,28038,12,0,27538,0:0:0:0:
256,192,28093,12,0,27593,0:0:0:0:
256,192,28149,12,0,27649,0:0:0:0:
256,192,28204,12,0,27704,0:0:0:0:
256,192,28260,12,0,27760,0:0:0:0:
256,192,28315,12,0,27815,0:0:0:0:
256,192,28371,12,0,27871,0:0:0:0:
256,192,28426,12,0,27926,0:0:0:0:
256,192,28482,12,0,27982,0:0:0:0:
256,192,28537,12,0,28037,0:0:0:0:
256,192,28593,12,0,28093,0:0:0:0:
256,192,28649,12,0,28149,0:0:0:0:
256,192,28705,12,0,28205,0:0:0:0:
256,192,28760,12,0,28260,0:0:0:0:
256,192,28816,12,0,28316,0:0:0:0:
256,192,28871,12,0,28371,0:0:0:0:
256,192,28927,12,0,28427,0:0:0:0:
256,192,28982,12,0,28482,0:0:0:0:
256,192,29038,12,0,28538,0:0:0:0:
256,192,29093,12,0,28593,0:0:0:0:
256,192,29149,12,0,28649,0:0:0:0:
256,192,29204,12,0,28704,0:0:0:0:
256,192,29260,12,0,28760,0:0:0:0:
256,192,29315,12,0,28815,0:0:0:0:
256,192,29371,12,0,28871,0:0:0:0:
256,192,29426,12,0,28926,0:0:0:0:
256,192,29482,12,0,28982,0:0:0:0:
256,192,29537,12,0,29037,0:0:0:0:
256,192,29593,12,0,29093,0:0:0:0:
256,192,29648,12,0,29148,0:0:0:0:
256,192,29704,12,0,29204,0:0:0:0:
256,192,29759,12,0,29259,0:0:0:0:
256,192,29815,12,0,29315,0:0:0:0:
256,192,29870,12,0,29370,0:0:0:0:
256,192,29926,12,0,29426,0:0:0:0:
256,192,29982,12,0,29482,0:0:0:0:
256,192,30038,12,0,29538,0:0:0:0:
256,192,30093,12,0,29593,0:0:0:0:
256,192,30149,12,0,29649,0:0:0:0:
256,192,30204,12,0,29704,0:0:0:0:
256,192,30260,12,0,29760,0:0:0:0:
256,192,30315,12,0,29815,0:0:0:0:
256,192,30371,12,0,29871,0:0:0:0:
256,192,30426,12,0,29926,0:0:0:0:
256,192,30482,12,0,29982,0:0:0:0:
256,192,30537,12,0,30037,0:0:0:0:
256,192,30593,12,0,30093,0:0:0:0:
256,192,30649,12,0,30149,0:0:0:0:
256,192,30705,12,0,30205,0:0:0:0:
256,192,30760,12,0,30260,0:0:0:0:
256,192,30816,12,0,30316,0:0:0:0:
256,192,30871,12,0,30371,0:0:0:0:
256,192,30927,12,0,30427,0:0:0:0:
256,192,30982,12,0,30482,0:0:0:0:
256,192,31038,12,0,30538,0:0:0:0:
256,192,31093,12,0,30593,0:0:0:0:
256,192,31149,12,0,30649,0:0:0:0:
256,192,31204,12,0,30704,0:0:0:0:
256,192,31260,12,0,30760,0:0:0:0:
256,192,31316,12,0,30816,0:0:0:0:
256,192,31372,12,0,30872,0:0:0:0:
256,192,31427,12,0,30927,0:0:0:0:
256,192,31483,12,0,30983,0:0:0:0:
256,192,31538,12,0,31038,0:0:0:0:
256,192,31594,12,0,31094,0:0:0:0:
256,192,31649,12,0,31149,0:0:0:0:
256,192,31705,12,0,31205,0:0:0:0:
256,192,31760,12,0,31260,0:0:0:0:
256,192,31816,12,0,31316,0:0:0:0:
256,192,31871,12,0,31371,0:0:0:0:
256,192,31927,12,0,31427,0:0:0:0:
256,192,31982,12,0,31482,0:0:0:0:
256,192,32038,12,0,31538,0:0:0:0:
256,192,32093,12,0,31593,0:0:0:0:
256,192,32149,12,0,31649,0:0:0:0:
256,192,32204,12,0,31704,0:0:0:0:
256,192,32260,12,0,31760,0:0:0:0:
256,192,32315,12,0,31815,0:0:0:0:
256,192,32371,12,0,31871,0:0:0:0:
256,192,32426,12,0,31926,0:0:0:0:
256,192,32482,12,0,31982,0:0:0:0:
256,192,32537,12,0,32037,0:0:0:0:
256,192,32593,12,0,32093,0:0:0:0:
256,192,32649,12,0,32149,0:0:0:0:
256,192,32705,12,0,32205,0:0:0:0:
256,192,32760,12,0,32260,0:0:0:0:
256,192,32816,12,0,32316,0:0:0:0:
256,192,32871,12,0,32371,0:0:0:0:
256,192,32927,12,0,32427,0:0:0:0:
256,192,32982,12,0,32482,0:0:0:0:
256,192,33038,12,0,32538,0:0:0:0:
256,192,33093,12,0,32593,0:0:0:0:
256,192,33149,12,0,32649,0:0:0:0:
256,192,33204,12,0,32704,0:0:0:0:
256,192,33260,12,0,32760,0:0:0:0:
256,192,33315,12,0,32815,0:0:0:0:
256,192,33371,12,0,32871,0:0:0:0:
256,192,33426,12,0,32926,0:0:0:0:
256,192,33482,12,0,32982,0:0:0:0:
256,192,33537,12,0,33037,0:0:0:0:
256,192,33593,12,0,33093,0:0:0:0:
256,192,33648,12,0,33148,0:0:0:0:
256,192,33704,12,0,33204,0:0:0:0:
256,192,33759,12,0,33259,0:0:0:0:
256,192,33815,12,0,33315,0:0:0:0:
256,192,33870,12,0,33370,0:0:0:0:
256,192,33926,12,0,33426,0:0:0:0:
256,192,33982,12,0,33482,0:0:0:0:
256,192,34038,12,0,33538,0:0:0:0:
256,192,34093,12,0,33593,0:0:0:0:
256,192,34149,12,0,33649,0:0:0:0:
256,192,34204,12,0,33704,0:0:0:0:
256,192,34260,12,0,33760,0:0:0:0:
256,192,34315,12,0,33815,0:0:0:0:
256,192,34371,12,0,33871,0:0:0:0:
256,192,34426,12,0,33926,0:0:0:0:
256,192,34482,12,0,33982,0:0:0:0:
256,192,34537,12,0,34037,0:0:0:0:
256,192,34593,12,0,34093,0:0:0:0:
256,192,34649,12,0,34149,0:0:0:0:
256,192,34705,12,0,34205,0:0:0:0:
256,192,34760,12,0,34260,0:0:0:0:
256,192,34816,12,0,34316,0:0:0:0:
256,192,34871,12,0,34371,0:0:0:0:
256,192,34927,12,0,34427,0:0:0:0:
256,192,34982,12,0,34482,0:0:0:0:
256,192,35038,12,0,34538,0:0:0:0:
256,192,35093,12,0,34593,0:0:0:0:
256,192,35149,12,0,34649,0:0:0:0:
256,192,35204,12,0,34704,0:0:0:0:
256,192,35260,12,0,34760,0:0:0:0:
256,192,35316,12,0,34816,0:0:0:0:
256,192,35372,12,0,34872,0:0:0:0:
256,192,35427,12,0,34927,0:0:0:0:
256,192,35483,12,0,34983,0:0:0:0:
256,192,35538,12,0,35038,0:0:0:0:
256,192,35594,12,0,35094,0:0:0:0:
256,192,35649,12,0,35149,0:0:0:0:
256,192,35705,12,0,35205,0:0:0:0:
256,192,35760,12,0,35260,0:0:0:0:
256,192,35816,12,0,35316,0:0:0:0:
256,192,35871,12,0,35371,0:0:0:0:
256,192,35927,12,0,35427,0:0:0:0:
256,192,35982,12,0,35482,0:0:0:0:
256,192,36038,12,0,35538,0:0:0:0:
256,192,36093,12,0,35593,0:0:0:0:
256,192,36149,12,0,35649,0:0:0:0:
256,192,36204,12,0,35704,0:0:0:0:
256,192,36260,12,0,35760,0:0:0:0:
256,192,36315,12,0,35815,0:0:0:0:
256,192,36371,12,0,35871,0:0:0:0:
256,192,36426,12,0,35926,0:0:0:0:
256,192,36482,12,0,35982,0:0:0:0:
256,192,36537,12,0,36037,0:0:0:0:
256,192,36593,12,0,36093,0:0:0:0:
256,192,36649,12,0,36149,0:0:0:0:
256,192,36705,12,0,36205,0:0:0:0:
256,192,36760,12,0,36260,0:0:0:0:
256,192,36816,12,0,36316,0:0:0:0:
256,192,36871,12,0,36371,0:0:0:0:
256,192,36927,12,0,36427,0:0:0:0:
256,192,36982,12,0,36482,0:0:0:0:
256,192,37038,12,0,36538,0:0:0:0:
256,192,37093,12,0,36593,0:0:0:0:
256,192,37149,12,0,36649,0:0:0:0:
256,192,37204,12,0,36704,0:0:0:0:
256,192,37260,12,0,36760,0:0:0:0:
256,192,37315,12,0,36815,0:0:0:0:
256,192,37371,12,0,36871,0:0:0:0:
256,192,37426,12,0,36926,0:0:0:0:
256,192,37482,12,0,36982,0:0:0:0:
256,192,37537,12,0,37037,0:0:0:0:
256,192,37593,12,0,37093,0:0:0:0:
256,192,37648,12,0,37148,0:0:0:0:
256,192,37704,12,0,37204,0:0:0:0:
256,192,37759,12,0,37259,0:0:0:0:
256,192,37815,12,0,37315,0:0:0:0:
256,192,37870,12,0,37370,0:0:0:0:
256,192,37926,12,0,37426,0:0:0:0:
256,192,37982,12,0,37482,0:0:0:0:
256,192,38038,12,0,37538,0:0:0:0:
256,192,38093,12,0,37593,0:0:0:0:
256,192,38149,12,0,37649,0:0:0:0:
256,192,38204,12,0,37704,0:0:0:0:
256,192,38260,12,0,37760,0:0:0:0:
256,192,38315,12,0,37815,0:0:0:0:
256,192,38371,12,0,37871,0:0:0:0:
256,192,38426,12,0,37926,0:0:0:0:
256,192,38482,12,0,37982,0:0:0:0:
256,192,38537,12,0,38037,0:0:0:0:
256,192,38593,12,0,38093,0:0:0:0:
256,192,38649,12,0,38149,0:0:0:0:
256,192,38705,12,0,38205,0:0:0:0:
256,192,38760,12,0,38260,0:0:0:0:
256,192,38816,12,0,38316,0:0:0:0:
256,192,38871,12,0,38371,0:0:0:0:
256,192,38927,12,0,38427,0:0:0:0:
256,192,38982,12,0,38482,0:0:0:0:
256,192,39038,12,0,38538,0:0:0:0:
256,192,39093,12,0,38593,0:0:0:0:
256,192,39149,12,0,38649,0:0:0:0:
256,192,39204,12,0,38704,0:0:0:0:
256,192,39260,12,0,38760,0:0:0:0:
256,192,39316,12,0,38816,0:0:0:0:
256,192,39372,12,0,38872,0:0:0:0:
256,192,39427,12,0,38927,0:0:0:0:
256,192,39483,12,0,38983,0:0:0:0:
256,192,39538,12,0,39038,0:0:0:0:
256,192,39594,12,0,39094,0:0:0:0:
256,192,39649,12,0,39149,0:0:0:0:
256,192,39705,12,0,39205,0:0:0:0:
256,192,39760,12,0,39260,0:0:0:0:
256,192,39816,12,0,39316,0:0:0:0:
256,192,39871,12,0,39371,0:0:0:0:
256,192,39927,12,0,39427,0:0:0:0:
256,192,39982,12,0,39482,0:0:0:0:
256,192,40038,12,0,39538,0:0:0:0:
256,192,40093,12,0,39593,0:0:0:0:
256,192,40149,12,0,39649,0:0:0:0:
256,192,40204,12,0,39704,0:0:0:0:
256,192,40260,12,0,39760,0:0:0:0:
256,192,40315,12,0,39815,0:0:0:0:
256,192,40371,12,0,39871,0:0:0:0:
256,192,40426,12,0,39926,0:0:0:0:
256,192,40482,12,0,39982,0:0:0:0:
256,192,40537,12,0,40037,0:0:0:0:
256,192,40593,12,0,40093,0:0:0:0:
256,192,40649,12,0,40149,0:0:0:0:
256,192,40705,12,0,40205,0:0:0:0:
256,192,40760,12,0,40260,0:0:0:0:
256,192,40816,12,0,40316,0:0:0:0:
256,192,40871,12,0,40371,0:0:0:0:
256,192,40927,12,0,40427,0:0:0:0:
256,192,40982,12,0,40482,0:0:0:0:
256,192,41038,12,0,40538,0:0:0:0:
256,192,41093,12,0,40593,0:0:0:0:
256,192,41149,12,0,40649,0:0:0:0:
256,192,41204,12,0,40704,0:0:0:0:
256,192,41260,12,0,40760,0:0:0:0:
256,192,41315,12,0,40815,0:0:0:0:
256,192,41371,12,0,40871,0:0:0:0:
256,192,41426,12,0,40926,0:0:0:0:
256,192,41482,12,0,40982,0:0:0:0:
256,192,41537,12,0,41037,0:0:0:0:
256,192,41593,12,0,41093,0:0:0:0:
256,192,41648,12,0,41148,0:0:0:0:
256,192,41704,12,0,41204,0:0:0:0:
256,192,41759,12,0,41259,0:0:0:0:
256,192,41815,12,0,41315,0:0:0:0:
256,192,41870,12,0,41370,0:0:0:0:
256,192,41926,12,0,41426,0:0:0:0:
256,192,41982,12,0,41482,0:0:0:0:
256,192,42038,12,0,41538,0:0:0:0:
256,192,42093,12,0,41593,0:0:0:0:
256,192,42149,12,0,41649,0:0:0:0:
256,192,42204,12,0,41704,0:0:0:0:
256,192,42260,12,0,41760,0:0:0:0:
256,192,42315,12,0,41815,0:0:0:0:
256,192,42371,12,0,41871,0:0:0:0:
256,192,42426,12,0,41926,0:0:0:0:
256,192,42482,12,0,41982,0:0:0:0:
256,192,42537,12,0,42037,0:0:0:0:
256,192,42593,12,0,42093,0:0:0:0:
256,192,42649,12,0,42149,0:0:0:0:
256,192,42705,12,0,42205,0:0:0:0:
256,192,42760,12,0,42260,0:0:0:0:
256,192,42816,12,0,42316,0:0:0:0:
256,192,42871,12,0,42371,0:0:0:0:
256,192,42927,12,0,42427,0:0:0:0:
256,192,42982,12,0,42482,0:0:0:0:
256,192,43038,12,0,42538,0:0:0:0:
256,192,43093,12,0,42593,0:0:0:0:
256,192,43149,12,0,42649,0:0:0:0:
256,192,43204,12,0,42704,0:0:0:0:
256,192,43260,12,0,42760,0:0:0:0:
256,192,43316,12,0,42816,0:0:0:0:
256,192,43372,12,0,42872,0:0:0:0:
256,192,43427,12,0,42927,0:0:0:0:
256,192,43483,12,0,42983,0:0:0:0:
256,192,43538,12,0,43038,0:0:0:0:
256,192,43594,12,0,43094,0:0:0:0:
256,192,43649,12,0,43149,0:0:0:0:
256,192,43705,12,0,43205,0:0:0:0:
256,192,43760,12,0,43260,0:0:0:0:
256,192,43816,12,0,43316,0:0:0:0:
256,192,43871,12,0,43371,0:0:0:0:
256,192,43927,12,0,43427,0:0:0:0:
256,192,43982,12,0,43482,0:0:0:0:
256,192,44038,12,0,43538,0:0:0:0:
256,192,44093,12,0,43593,0:0:0:0:
256,192,44149,12,0,43649,0:0:0:0:
256,192,44204,12,0,43704,0:0:0:0:
256,192,44260,12,0,43760,0:0:0:0:
256,192,44315,12,0,43815,0:0:0:0:
256,192,44371,12,0,43871,0:0:0:0:
256,192,44426,12,0,43926,0:0:0:0:
256,192,44482,12,0,43982,0:0:0:0:
256,192,44537,12,0,44037,0:0:0:0:
256,192,44593,12,0,44093,0:0:0:0:
256,192,44649,12,0,44149,0:0:0:0:
256,192,44705,12,0,44205,0:0:0:0:
256,192,44760,12,0,44260,0:0:0:0:
256,192,44816,12,0,44316,0:0:0:0:
256,192,44871,12,0,44371,0:0:0:0:
256,192,44927,12,0,44427,0:0:0:0:
256,192,44982,12,0,44482,0:0:0:0:
256,192,45038,12,0,44538,0:0:0:0:
256,192,45093,12,0,44593,0:0:0:0:
256,192,45149,12,0,44649,0:0:0:0:
256,192,45204,12,0,44704,0:0:0:0:
256,192,45260,12,0,44760,0:0:0:0:
256,192,45315,12,0,44815,0:0:0:0:
256,192,45371,12,0,44871,0:0:0:0:
256,192,45426,12,0,44926,0:0:0:0:
256,192,45482,12,0,44982,0:0:0:0:
256,192,45537,12,0,45037,0:0:0:0:
256,192,45593,12,0,45093,0:0:0:0:
256,192,45648,12,0,45148,0:0:0:0:
256,192,45704,12,0,45204,0:0:0:0:
256,192,45759,12,0,45259,0:0:0:0:
256,192,45815,12,0,45315,0:0:0:0:
256,192,45870,12,0,45370,0:0:0:0:
256,192,45926,12,0,45426,0:0:0:0:
256,192,45982,12,0,45482,0:0:0:0:
256,192,46038,12,0,45538,0:0:0:0:
256,192,46093,12,0,45593,0:0:0:0:
256,192,46149,12,0,45649,0:0:0:0:
256,192,46204,12,0,45704,0:0:0:0:
256,192,46260,12,0,45760,0:0:0:0:
256,192,46315,12,0,45815,0:0:0:0:
256,192,46371,12,0,45871,0:0:0:0:
256,192,46426,12,0,45926,0:0:0:0:
256,192,46482,12,0,45982,0:0:0:0:
256,192,46537,12,0,46037,0:0:0:0:
256,192,46593,12,0,46093,0:0:0:0:
256,192,46649,12,0,46149,0:0:0:0:
256,192,46705,12,0,46205,0:0:0:0:
256,192,46760,12,0,46260,0:0:0:0:
256,192,46816,12,0,46316,0:0:0:0:
256,192,46871,12,0,46371,0:0:0:0:
256,192,46927,12,0,46427,0:0:0:0:
256,192,46982,12,0,46482,0:0:0:0:
256,192,47038,12,0,46538,0:0:0:0:
256,192,47093,12,0,46593,0:0:0:0:
256,192,47149,12,0,46649,0:0:0:0:
256,192,47204,12,0,46704,0:0:0:0:
256,192,47260,12,0,46760,0:0:0:0:
256,192,47316,12,0,46816,0:0:0:0:
256,192,47372,12,0,46872,0:0:0:0:
256,192,47427,12,0,46927,0:0:0:0:
256,192,47483,12,0,46983,0:0:0:0:
256,192,47538,12,0,47038,0:0:0:0:
256,192,47594,12,0,47094,0:0:0:0:
256,192,47649,12,0,47149,0:0:0:0:
256,192,47705,12,0,47205,0:0:0:0:
256,192,47760,12,0,47260,0:0:0:0:
256,192,47816,12,0,47316,0:0:0:0:
256,192,47871,12,0,47371,0:0:0:0:
256,192,47927,12,0,47427,0:0:0:0:
256,192,47982,12,0,47482,0:0:0:0:
256,192,48038,12,0,47538,0:0:0:0:
256,192,48093,12,0,47593,0:0:0:0:
256,192,48149,12,0,47649,0:0:0:0:
256,192,48204,12,0,47704,0:0:0:0:
256,192,48260,12,0,47760,0:0:0:0:
256,192,48315,12,0,47815,0:0:0:0:
256,192,48371,12,0,47871,0:0:0:0:
256,192,48426,12,0,47926,0:0:0:0:
256,192,48482,12,0,47982,0:0:0:0:
256,192,48537,12,0,48037,0:0:0:0:
256,192,48593,12,0,48093,0:0:0:0:
256,192,48649,12,0,48149,0:0:0:0:
256,192,48705,12,0,48205,0:0:0:0:
256,192,48760,12,0,48260,0:0:0:0:
256,192,48816,12,0,48316,0:0:0:0:
256,192,48871,12,0,48371,0:0:0:0:
256,192,48927,12,0,48427,0:0:0:0:
256,192,48982,12,0,48482,0:0:0:0:
256,192,49038,12,0,48538,0:0:0:0:
256,192,49093,12,0,48593,0:0:0:0:
256,192,49149,12,0,48649,0:0:0:0:
256,192,49204,12,0,48704,0:0:0:0:
256,192,49260,12,0,48760,0:0:0:0:
256,192,49315,12,0,48815,0:0:0:0:
256,192,49371,12,0,48871,0:0:0:0:
256,192,49426,12,0,48926,0:0:0:0:
256,192,49482,12,0,48982,0:0:0:0:
256,192,49537,12,0,49037,0:0:0:0:
256,192,49593,12,0,49093,0:0:0:0:
256,192,49648,12,0,49148,0:0:0:0:
256,192,49704,12,0,49204,0:0:0:0:
256,192,49759,12,0,49259,0:0:0:0:
256,192,49815,12,0,49315,0:0:0:0:
256,192,49870,12,0,49370,0:0:0:0:
256,192,49926,12,0,49426,0:0:0:0:
256,192,49982,12,0,49482,0:0:0:0:
256,192,50038,12,0,49538,0:0:0:0:
256,192,50093,12,0,49593,0:0:0:0:
256,192,50149,12,0,49649,0:0:0:0:
256,192,50204,12,0,49704,0:0:0:0:
256,192,50260,12,0,49760,0:0:0:0:
256,192,50315,12,0,49815,0:0:0:0:
256,192,50371,12,0,49871,0:0:0:0:
256,192,50426,12,0,49926,0:0:0:0:
256,192,50482,12,0,49982,0:0:0:0:
256,192,50537,12,0,50037,0:0:0:0:
256,192,50593,12,0,50093,0:0:0:0:
256,192,50649,12,0,50149,0:0:0:0:
256,192,50705,12,0,50205,0:0:0:0:
256,192,50760,12,0,50260,0:0:0:0:
256,192,50816,12,0,50316,0:0:0:0:
256,192,50871,12,0,50371,0:0:0:0:
256,192,50927,12,0,50427,0:0:0:0:
256,192,50982,12,0,50482,0:0:0:0:
256,192,51038,12,0,50538,0:0:0:0:
256,192,51093,12,0,50593,0:0:0:0:
256,192,51149,12,0,50649,0:0:0:0:
256,192,51204,12,0,50704,0:0:0:0:
256,192,51260,12,0,50760,0:0:0:0:
256,192,51316,12,0,50816,0:0:0:0:
256,192,51372,12,0,50872,0:0:0:0:
256,192,51427,12,0,50927,0:0:0:0:
256,192,51483,12,0,50983,0:0:0:0:
256,192,51538,12,0,51038,0:0:0:0:
256,192,51594,12,0,51094,0:0:0:0:
256,192,51649,12,0,51149,0:0:0:0:
256,192,51705,12,0,51205,0:0:0:0:
256,192,51760,12,0,51260,0:0:0:0:
256,192,51816,12,0,51316,0:0:0:0:
256,192,51871,12,0,51371,0:0:0:0:
256,192,51927,12,0,51427,0:0:0:0:
256,192,51982,12,0,51482,0:0:0:0:
256,192,52038,12,0,51538,0:0:0:0:
256,192,52093,12,0,51593,0:0:0:0:
256,192,52149,12,0,51649,0:0:0:0:
256,192,52204,12,0,51704,0:0:0:0:
256,192,52260,12,0,51760,0:0:0:0:
256,192,52315,12,0,51815,0:0:0:0:
256,192,52371,12,0,51871,0:0:0:0:
256,192,52426,12,0,51926,0:0:0:0:
256,192,52482,12,0,51982,0:0:0:0:
256,192,52537,12,0,52037,0:0:0:0:
256,192,52593,12,0,52093,0:0:0:0:
256,192,52649,12,0,52149,0:0:0:0:
256,192,52705,12,0,52205,0:0:0:0:
256,192,52760,12,0,52260,0:0:0:0:
256,192,52816,12,0,52316,0:0:0:0:
256,192,52871,12,0,52371,0:0:0:0:
256,192,52927,12,0,52427,0:0:0:0:
256,192,52982,12,0,52482,0:0:0:0:
256,192,53038,12,0,52538,0:0:0:0:
256,192,53093,12,0,52593,0:0:0:0:
256,192,53149,12,0,52649,0:0:0:0:
256,192,53204,12,0,52704,0:0:0:0:
256,192,53260,12,0,52760,0:0:0:0:
256,192,53315,12,0,52815,0:0:0:0:
256,192,53371,12,0,52871,0:0:0:0:
256,192,53426,12,0,52926,0:0:0:0:
256,192,53482,12,0,52982,0:0:0:0:
256,192,53537,12,0,53037,0:0:0:0:
256,192,53593,12,0,53093,0:0:0:0:
256,192,53648,12,0,53148,0:0:0:0:
256,192,53704,12,0,53204,0:0:0:0:
256,192,53759,12,0,53259,0:0:0:0:
256,192,53815,12,0,53315,0:0:0:0:
256,192,53870,12,0,53370,0:0:0:0:
256,192,53926,12,0,53426,0:0:0:0:
256,192,53982,12,0,53482,0:0:0:0:
256,192,54038,12,0,53538,0:0:0:0:
256,192,54093,12,0,53593,0:0:0:0:
256,192,54149,12,0,53649,0:0:0:0:
256,192,54204,12,0,53704,0:0:0:0:
256,192,54260,12,0,53760,0:0:0:0:
256,192,54315,12,0,53815,0:0:0:0:
256,192,54371,12,0,53871,0:0:0:0:
256,192,54426,12,0,53926,0:0:0:0:
256,192,54482,12,0,53982,0:0:0:0:
256,192,54537,12,0,54037,0:0:0:0:
256,192,54593,12,0,54093,0:0:0:0:
256,192,54649,12,0,54149,0:0:0:0:
256,192,54705,12,0,54205,0:0:0:0:
256,192,54760,12,0,54260,0:0:0:0:
256,192,54816,12,0,54316,0:0:0:0:
256,192,54871,12,0,54371,0:0:0:0:
256,192,54927,12,0,54427,0:0:0:0:
256,192,54982,12,0,54482,0:0:0:0:
256,192,55038,12,0,54538,0:0:0:0:
256,192,55093,12,0,54593,0:0:0:0:
256,192,55149,12,0,54649,0:0:0:0:
256,192,55204,12,0,54704,0:0:0:0:
256,192,55260,12,0,54760,0:0:0:0:
256,192,55316,12,0,54816,0:0:0:0:
256,192,55372,12,0,54872,0:0:0:0:
256,192,55427,12,0,54927,0:0:0:0:
256,192,55483,12,0,54983,0:0:0:0:
256,192,55538,12,0,55038,0:0:0:0:
256,192,55594,12,0,55094,0:0:0:0:
256,192,55649,12,0,55149,0:0:0:0:
256,192,55705,12,0,55205,0:0:0:0:
256,192,55760,12,0,55260,0:0:0:0:
256,192,55816,12,0,55316,0:0:0:0:
256,192,55871,12,0,55371,0:0:0:0:
256,192,55927,12,0,55427,0:0:0:0:
256,192,55982,12,0,55482,0:0:0:0:
256,192,56038,12,0,55538,0:0:0:0:
256,192,56093,12,0,55593,0:0:0:0:
256,192,56149,12,0,55649,0:0:0:0:
256,192,56204,12,0,55704,0:0:0:0:
256,192,56260,12,0,55760,0:0:0:0:
256,192,56315,12,0,55815,0:0:0:0:
256,192,56371,12,0,55871,0:0:0:0:
256,192,56426,12,0,55926,0:0:0:0:
256,192,56482,12,0,55982,0:0:0:0:
256,192,56537,12,0,56037,0:0:0:0:
256,192,56593,12,0,56093,0:0:0:0:
256,192,56649,12,0,56149,0:0:0:0:
256,192,56705,12,0,56205,0:0:0:0:
256,192,56760,12,0,56260,0:0:0:0:
256,192,56816,12,0,56316,0:0:0:0:
256,192,56871,12,0,56371,0:0:0:0:
256,192,56927,12,0,56427,0:0:0:0:
256,192,56982,12,0,56482,0:0:0:0:
256,192,57038,12,0,56538,0:0:0:0:
256,192,57093,12,0,56593,0:0:0:0:
256,192,57149,12,0,56649,0:0:0:0:
256,192,57204,12,0,56704,0:0:0:0:
256,192,57260,12,0,56760,0:0:0:0:
256,192,57315,12,0,56815,0:0:0:0:
256,192,57371,12,0,56871,0:0:0:0:
256,192,57426,12,0,56926,0:0:0:0:
256,192,57482,12,0,56982,0:0:0:0:
256,192,57537,12,0,57037,0:0:0:0:
256,192,57593,12,0,57093,0:0:0:0:
256,192,57648,12,0,57148,0:0:0:0:
256,192,57704,12,0,57204,0:0:0:0:
256,192,57759,12,0,57259,0:0:0:0:
256,192,57815,12,0,57315,0:0:0:0:
256,192,57870,12,0,57370,0:0:0:0:
256,192,57926,12,0,57426,0:0:0:0:
256,192,57982,12,0,57482,0:0:0:0:
256,192,58038,12,0,57538,0:0:0:0:
256,192,58093,12,0,57593,0:0:0:0:
256,192,58149,12,0,57649,0:0:0:0:
256,192,58204,12,0,57704,0:0:0:0:
256,192,58260,12,0,57760,0:0:0:0:
256,192,58315,12,0,57815,0:0:0:0:
256,192,58371,12,0,57871,0:0:0:0:
256,192,58426,12,0,57926,0:0:0:0:
256,192,58482,12,0,57982,0:0:0:0:
256,192,58537,12,0,58037,0:0:0:0:
256,192,58593,12,0,58093,0:0:0:0:
256,192,58649,12,0,58149,0:0:0:0:
256,192,58705,12,0,58205,0:0:0:0:
256,192,58760,12,0,58260,0:0:0:0:
256,192,58816,12,0,58316,0:0:0:0:
256,192,58871,12,0,58371,0:0:0:0:
256,192,58927,12,0,58427,0:0:0:0:
256,192,58982,12,0,58482,0:0:0:0:
256,192,59038,12,0,58538,0:0:0:0:
256,192,59093,12,0,58593,0:0:0:0:
256,192,59149,12,0,58649,0:0:0:0:
256,192,59204,12,0,58704,0:0:0:0:
256,192,59260,12,0,58760,0:0:0:0:
256,192,59316,12,0,58816,0:0:0:0:
256,192,59372,12,0,58872,0:0:0:0:
256,192,59427,12,0,58927,0:0:0:0:
256,192,59483,12,0,58983,0:0:0:0:
256,192,59538,12,0,59038,0:0:0:0:
256,192,59594,12,0,59094,0:0:0:0:
256,192,59649,12,0,59149,0:0:0:0:
256,192,59705,12,0,59205,0:0:0:0:
256,192,59760,12,0,59260,0:0:0:0:
256,192,59816,12,0,59316,0:0:0:0:
256,192,59871,12,0,59371,0:0:0:0:
256,192,59927,12,0,59427,0:0:0:0:
256,192,59982,12,0,59482,0:0:0:0:
256,192,60038,12,0,59538,0:0:0:0:
256,192,60093,12,0,59593,0:0:0:0:
256,192,60149,12,0,59649,0:0:0:0:
256,192,60204,12,0,59704,0:0:0:0:
256,192,60260,12,0,59760,0:0:0:0:
256,192,60315,12,0,59815,0:0:0:0:
256,192,60371,12,0,59871,0:0:0:0:
256,192,60426,12,0,59926,0:0:0:0:
256,192,60482,12,0,59982,0:0:0:0:
256,192,60537,12,0,60037,0:0:0:0:
256,192,60593,12,0,60093,0:0:0:0:
256,192,60649,12,0,60149,0:0:0:0:
256,192,60705,12,0,60205,0:0:0:0:
256,192,60760,12,0,60260,0:0:0:0:
256,192,60816,12,0,60316,0:0:0:0:
256,192,60871,12,0,60371,0:0:0:0:
256,192,60927,12,0,60427,0:0:0:0:
256,192,60982,12,0,60482,0:0:0:0:
256,192,61038,12,0,60538,0:0:0:0:
256,192,61093,12,0,60593,0:0:0:0:
256,192,61149,12,0,60649,0:0:0:0:
256,192,61204,12,0,60704,0:0:0:0:
256,192,61260,12,0,60760,0:0:0:0:
256,192,61315,12,0,60815,0:0:0:0:
256,192,61371,12,0,60871,0:0:0:0:
256,192,61426,12,0,60926,0:0:0:0:
256,192,61482,12,0,60982,0:0:0:0:
256,192,61537,12,0,61037,0:0:0:0:
256,192,61593,12,0,61093,0:0:0:0:
256,192,61648,12,0,61148,0:0:0:0:
256,192,61704,12,0,61204,0:0:0:0:
256,192,61759,12,0,61259,0:0:0:0:
256,192,61815,12,0,61315,0:0:0:0:
256,192,61870,12,0,61370,0:0:0:0:
256,192,61926,12,0,61426,0:0:0:0:
256,192,61982,12,0,61482,0:0:0:0:
256,192,62038,12,0,61538,0:0:0:0:
256,192,62093,12,0,61593,0:0:0:0:
256,192,62149,12,0,61649,0:0:0:0:
256,192,62204,12,0,61704,0:0:0:0:
256,192,62260,12,0,61760,0:0:0:0:
256,192,62315,12,0,61815,0:0:0:0:
256,192,62371,12,0,61871,0:0:0:0:
256,192,62426,12,0,61926,0:0:0:0:
256,192,62482,12,0,61982,0:0:0:0:
256,192,62537,12,0,62037,0:0:0:0:
256,192,62593,12,0,62093,0:0:0:0:
256,192,62649,12,0,62149,0:0:0:0:
256,192,62705,12,0,62205,0:0:0:0:
256,192,62760,12,0,62260,0:0:0:0:
256,192,62816,12,0,62316,0:0:0:0:
256,192,62871,12,0,62371,0:0:0:0:
256,192,62927,12,0,62427,0:0:0:0:
256,192,62982,12,0,62482,0:0:0:0:
256,192,63038,12,0,62538,0:0:0:0:
256,192,63093,12,0,62593,0:0:0:0:
256,192,63149,12,0,62649,0:0:0:0:
256,192,63204,12,0,62704,0:0:0:0:
256,192,63260,12,0,62760,0:0:0:0:
256,192,63316,12,0,62816,0:0:0:0:
256,192,63372,12,0,62872,0:0:0:0:
256,192,63427,12,0,62927,0:0:0:0:
256,192,63483,12,0,62983,0:0:0:0:
256,192,63538,12,0,63038,0:0:0:0:
256,192,63594,12,0,63094,0:0:0:0:
256,192,63649,12,0,63149,0:0:0:0:
256,192,63705,12,0,63205,0:0:0:0:
256,192,63760,12,0,63260,0:0:0:0:
256,192,63816,12,0,63316,0:0:0:0:
256,192,63871,12,0,63371,0:0:0:0:
256,192,63927,12,0,63427,0:0:0:0:
256,192,63982,12,0,63482,0:0:0:0:
256,192,64038,12,0,63538,0:0:0:0:
256,192,64093,12,0,63593,0:0:0:0:
256,192,64149,12,0,63649,0:0:0:0:
256,192,64204,12,0,63704,0:0:0:0:
256,192,64260,12,0,63760,0:0:0:0:
256,192,64315,12,0,63815,0:0:0:0:
256,192,64371,12,0,63871,0:0:0:0:
256,192,64426,12,0,63926,0:0:0:0:
256,192,64482,12,0,63982,0:0:0:0:
256,192,64537,12,0,64037,0:0:0:0:
256,192,64593,12,0,64093,0:0:0:0:
256,192,64649,12,0,64149,0:0:0:0:
256,192,64705,12,0,64205,0:0:0:0:
256,192,64760,12,0,64260,0:0:0:0:
256,192,64816,12,0,64316,0:0:0:0:
256,192,64871,12,0,64371,0:0:0:0:
256,192,64927,12,0,64427,0:0:0:0:
256,192,64982,12,0,64482,0:0:0:0:
256,192,65038,12,0,64538,0:0:0:0:
256,192,65093,12,0,64593,0:0:0:0:
256,192,65149,12,0,64649,0:0:0:0:
256,192,65204,12,0,64704,0:0:0:0:
256,192,65260,12,0,64760,0:0:0:0:
256,192,65315,12,0,64815,0:0:0:0:
256,192,65371,12,0,64871,0:0:0:0:
256,192,65426,12,0,64926,0:0:0:0:
256,192,65482,12,0,64982,0:0:0:0:
256,192,65537,12,0,65037,0:0:0:0:
256,192,65593,12,0,65093,0:0:0:0:
256,192,65648,12,0,65148,0:0:0:0:
256,192,65704,12,0,65204,0:0:0:0:
256,192,65759,12,0,65259,0:0:0:0:
256,192,65815,12,0,65315,0:0:0:0:
256,192,65870,12,0,65370,0:0:0:0:
256,192,65926,12,0,65426,0:0:0:0:
256,192,65982,12,0,65482,0:0:0:0:
256,192,66038,12,0,65538,0:0:0:0:
256,192,66093,12,0,65593,0:0:0:0:
256,192,66149,12,0,65649,0:0:0:0:
256,192,66204,12,0,65704,0:0:0:0:
256,192,66260,12,0,65760,0:0:0:0:
256,192,66315,12,0,65815,0:0:0:0:
256,192,66371,12,0,65871,0:0:0:0:
256,192,66426,12,0,65926,0:0:0:0:
256,192,66482,12,0,65982,0:0:0:0:
256,192,66537,12,0,66037,0:0:0:0:
256,192,66593,12,0,66093,0:0:0:0:
256,192,66649,12,0,66149,0:0:0:0:
256,192,66705,12,0,66205,0:0:0:0:
256,192,66760,12,0,66260,0:0:0:0:
256,192,66816,12,0,66316,0:0:0:0:
256,192,66871,12,0,66371,0:0:0:0:
256,192,66927,12,0,66427,0:0:0:0:
256,192,66982,12,0,66482,0:0:0:0:
256,192,67038,12,0,66538,0:0:0:0:
256,192,67093,12,0,66593,0:0:0:0:
256,192,67149,12,0,66649,0:0:0:0:
256,192,67204,12,0,66704,0:0:0:0:
256,192,67260,12,0,66760,0:0:0:0:
256,192,67316,12,0,66816,0:0:0:0:
256,192,67372,12,0,66872,0:0:0:0:
256,192,67427,12,0,66927,0:0:0:0:
256,192,67483,12,0,66983,0:0:0:0:
256,192,67538,12,0,67038,0:0:0:0:
256,192,67594,12,0,67094,0:0:0:0:
256,192,67649,12,0,67149,0:0:0:0:
256,192,67705,12,0,67205,0:0:0:0:
256,192,67760,12,0,67260,0:0:0:0:
256,192,67816,12,0,67316,0:0:0:0:
256,192,67871,12,0,67371,0:0:0:0:
256,192,67927,12,0,67427,0:0:0:0:
256,192,67982,12,0,67482,0:0:0:0:
256,192,68038,12,0,67538,0:0:0:0:
256,192,68093,12,0,67593,0:0:0:0:
256,192,68149,12,0,67649,0:0:0:0:
256,192,68204,12,0,67704,0:0:0:0:
256,192,68260,12,0,67760,0:0:0:0:
256,192,68315,12,0,67815,0:0:0:0:
256,192,68371,12,0,67871,0:0:0:0:
256,192,68426,12,0,67926,0:0:0:0:
256,192,68482,12,0,67982,0:0:0:0:
256,192,68537,12,0,68037,0:0:0:0:
256,192,68593,12,0,68093,0:0:0:0:
256,192,68649,12,0,68149,0:0:0:0:
256,192,68705,12,0,68205,0:0:0:0:
256,192,68760,12,0,68260,0:0:0:0:
256,192,68816,12,0,68316,0:0:0:0:
256,192,68871,12,0,68371,0:0:0:0:
256,192,68927,12,0,68427,0:0:0:0:
256,192,68982,12,0,68482,0:0:0:0:
256,192,69038,12,0,68538,0:0:0:0:
256,192,69093,12,0,68593,0:0:0:0:
256,192,69149,12,0,68649,0:0:0:0:
256,192,69204,12,0,68704,0:0:0:0:
256,192,69260,12,0,68760,0:0:0:0:
256,192,69315,12,0,68815,0:0:0:0:
256,192,69371,12,0,68871,0:0:0:0:
256,192,69426,12,0,68926,0:0:0:0:
256,192,69482,12,0,68982,0:0:0:0:
256,192,69537,12,0,69037,0:0:0:0:
256,192,69593,12,0,69093,0:0:0:0:
256,192,69648,12,0,69148,0:0:0:0:
256,192,69704,12,0,69204,0:0:0:0:
256,192,69759,12,0,69259,0:0:0:0:
256,192,69815,12,0,69315,0:0:0:0:
256,192,69870,12,0,69370,0:0:0:0:
256,192,69926,12,0,69426,0:0:0:0:
256,192,69982,12,0,69482,0:0:0:0:
256,192,70038,12,0,69538,0:0:0:0:
256,192,70093,12,0,69593,0:0:0:0:
256,192,70149,12,0,69649,0:0:0:0:
256,192,70204,12,0,69704,0:0:0:0:
256,192,70260,12,0,69760,0:0:0:0:
256,192,70315,12,0,69815,0:0:0:0:
256,192,70371,12,0,69871,0:0:0:0:
256,192,70426,12,0,69926,0:0:0:0:
256,192,70482,12,0,69982,0:0:0:0:
256,192,70537,12,0,70037,0:0:0:0:
256,192,70593,12,0,70093,0:0:0:0:
256,192,70649,12,0,70149,0:0:0:0:
256,192,70705,12,0,70205,0:0:0:0:
256,192,70760,12,0,70260,0:0:0:0:
256,192,70816,12,0,70316,0:0:0:0:
256,192,70871,12,0,70371,0:0:0:0:
256,192,70927,12,0,70427,0:0:0:0:
256,192,70982,12,0,70482,0:0:0:0:
256,192,71038,12,0,70538,0:0:0:0:
256,192,71093,12,0,70593,0:0:0:0:
256,192,71149,12,0,70649,0:0:0:0:
256,192,71204,12,0,70704,0:0:0:0:
256,192,71260,12,0,70760,0:0:0:0:
256,192,71316,12,0,70816,0:0:0:0:
256,192,71372,12,0,70872,0:0:0:0:
256,192,71427,12,0,70927,0:0:0:0:
256,192,71483,12,0,70983,0:0:0:0:
256,192,71538,12,0,71038,0:0:0:0:
256,192,71594,12,0,71094,0:0:0:0:
256,192,71649,12,0,71149,0:0:0:0:
256,192,71705,12,0,71205,0:0:0:0:
256,192,71760,12,0,71260,0:0:0:0:
256,192,71816,12,0,71316,0:0:0:0:
256,192,71871,12,0,71371,0:0:0:0:
256,192,71927,12,0,71427,0:0:0:0:
256,192,71982,12,0,71482,0:0:0:0:
256,192,72038,12,0,71538,0:0:0:0:
256,192,72093,12,0,71593,0:0:0:0:
256,192,72149,12,0,71649,0:0:0:0:
256,192,72204,12,0,71704,0:0:0:0:
256,192,72260,12,0,71760,0:0:0:0:
256,192,72315,12,0,71815,0:0:0:0:
256,192,72371,12,0,71871,0:0:0:0:
256,192,72426,12,0,71926,0:0:0:0:
256,192,72482,12,0,71982,0:0:0:0:
256,192,72537,12,0,72037,0:0:0:0:
256,192,72593,12,0,72093,0:0:0:0:
256,192,72649,12,0,72149,0:0:0:0:
256,192,72705,12,0,72205,0:0:0:0:
256,192,72760,12,0,72260,0:0:0:0:
256,192,72816,12,0,72316,0:0:0:0:
256,192,72871,12,0,72371,0:0:0:0:
256,192,72927,12,0,72427,0:0:0:0:
256,192,72982,12,0,72482,0:0:0:0:
256,192,73038,12,0,72538,0:0:0:0:
256,192,73093,12,0,72593,0:0:0:0:
256,192,73149,12,0,72649,0:0:0:0:
256,192,73204,12,0,72704,0:0:0:0:
256,192,73260,12,0,72760,0:0:0:0:
256,192,73315,12,0,72815,0:0:0:0:
256,192,73371,12,0,72871,0:0:0:0:
256,192,73426,12,0,72926,0:0:0:0:
256,192,73482,12,0,72982,0:0:0:0:
256,192,73537,12,0,73037,0:0:0:0:
256,192,73593,12,0,73093,0:0:0:0:
256,192,73648,12,0,73148,0:0:0:0:
256,192,73704,12,0,73204,0:0:0:0:
256,192,73759,12,0,73259,0:0:0:0:
256,192,73815,12,0,73315,0:0:0:0:
256,192,73870,12,0,73370,0:0:0:0:
256,192,73926,12,0,73426,0:0:0:0:
256,192,73982,12,0,73482,0:0:0:0:
256,192,74038,12,0,73538,0:0:0:0:
256,192,74093,12,0,73593,0:0:0:0:
256,192,74149,12,0,73649,0:0:0:0:
256,192,74204,12,0,73704,0:0:0:0:
256,192,74260,12,0,73760,0:0:0:0:
256,192,74315,12,0,73815,0:0:0:0:
256,192,74371,12,0,73871,0:0:0:0:
256,192,74426,12,0,73926,0:0:0:0:
256,192,74482,12,0,73982,0:0:0:0:
256,192,74537,12,0,74037,0:0:0:0:
256,192,74593,12,0,74093,0:0:0:0:
256,192,74649,12,0,74149,0:0:0:0:
256,192,74705,12,0,74205,0:0:0:0:
256,192,74760,12,0,74260,0:0:0:0:
256,192,74816,12,0,74316,0:0:0:0:
256,192,74871,12,0,74371,0:0:0:0:
256,192,74927,12,0,74427,0:0:0:0:
256,192,74982,12,0,74482,0:0:0:0:
256,192,75038,12,0,74538,0:0:0:0:
256,192,75093,12,0,74593,0:0:0:0:
256,192,75149,12,0,74649,0:0:0:0:
256,192,75204,12,0,74704,0:0:0:0:
256,192,75260,12,0,74760,0:0:0:0:
256,192,75316,12,0,74816,0:0:0:0:
256,192,75372,12,0,74872,0:0:0:0:
256,192,75427,12,0,74927,0:0:0:0:
256,192,75483,12,0,74983,0:0:0:0:
256,192,75538,12,0,75038,0:0:0:0:
256,192,75594,12,0,75094,0:0:0:0:
256,192,75649,12,0,75149,0:0:0:0:
256,192,75705,12,0,75205,0:0:0:0:
256,192,75760,12,0,75260,0:0:0:0:
256,192,75816,12,0,75316,0:0:0:0:
256,192,75871,12,0,75371,0:0:0:0:
256,192,75927,12,0,75427,0:0:0:0:
256,192,75982,12,0,75482,0:0:0:0:
256,192,76038,12,0,75538,0:0:0:0:
256,192,76093,12,0,75593,0:0:0:0:
256,192,76149,12,0,75649,0:0:0:0:
256,192,76204,12,0,75704,0:0:0:0:
256,192,76260,12,0,75760,0:0:0:0:
256,192,76315,12,0,75815,0:0:0:0:
256,192,76371,12,0,75871,0:0:0:0:
256,192,76426,12,0,75926,0:0:0:0:
256,192,76482,12,0,75982,0:0:0:0:
256,192,76537,12,0,76037,0:0:0:0:
256,192,76593,12,0,76093,0:0:0:0:
256,192,76649,12,0,76149,0:0:0:0:
256,192,76705,12,0,76205,0:0:0:0:
256,192,76760,12,0,76260,0:0:0:0:
256,192,76816,12,0,76316,0:0:0:0:
256,192,76871,12,0,76371,0:0:0:0:
256,192,76927,12,0,76427,0:0:0:0:
256,192,76982,12,0,76482,0:0:0:0:
256,192,77038,12,0,76538,0:0:0:0:
256,192,77093,12,0,76593,0:0:0:0:
256,192,77149,12,0,76649,0:0:0:0:
256,192,77204,12,0,76704,0:0:0:0:
256,192,77260,12,0,76760,0:0:0:0:
256,192,77315,12,0,76815,0:0:0:0:
256,192,77371,12,0,76871,0:0:0:0:
256,192,77426,12,0,76926,0:0:0:0:
256,192,77482,12,0,76982,0:0:0:0:
256,192,77537,12,0,77037,0:0:0:0:
256,192,77593,12,0,77093,0:0:0:0:
256,192,77648,12,0,77148,0:0:0:0:
256,192,77704,12,0,77204,0:0:0:0:
256,192,77759,12,0,77259,0:0:0:0:
256,192,77815,12,0,77315,0:0:0:0:
256,192,77870,12,0,77370,0:0:0:0:
256,192,77926,12,0,77426,0:0:0:0:
256,192,77982,12,0,77482,0:0:0:0:
256,192,78038,12,0,77538,0:0:0:0:
256,192,78093,12,0,77593,0:0:0:0:
256,192,78149,12,0,77649,0:0:0:0:
256,192,78204,12,0,77704,0:0:0:0:
256,192,78260,12,0,77760,0:0:0:0:
256,192,78315,12,0,77815,0:0:0:0:
256,192,78371,12,0,77871,0:0:0:0:
256,192,78426,12,0,77926,0:0:0:0:
256,192,78482,12,0,77982,0:0:0:0:
256,192,78537,12,0,78037,0:0:0:0:
256,192,78593,12,0,78093,0:0:0:0:
256,192,78649,12,0,78149,0:0:0:0:
256,192,78705,12,0,78205,0:0:0:0:
256,192,78760,12,0,78260,0:0:0:0:
256,192,78816,12,0,78316,0:0:0:0:
256,192,78871,12,0,78371,0:0:0:0:
256,192,78927,12,0,78427,0:0:0:0:
256,192,78982,12,0,78482,0:0:0:0:
256,192,79038,12,0,78538,0:0:0:0:
256,192,79093,12,0,78593,0:0:0:0:
256,192,79149,12,0,78649,0:0:0:0:
256,192,79204,12,0,78704,0:0:0:0:
256,192,79260,12,0,78760,0:0:0:0:
256,192,79316,12,0,78816,0:0:0:0:
256,192,79372,12,0,78872,0:0:0:0:
256,192,79427,12,0,78927,0:0:0:0:
256,192,79483,12,0,78983,0:0:0:0:
256,192,79538,12,0,79038,0:0:0:0:
256,192,79594,12,0,79094,0:0:0:0:
256,192,79649,12,0,79149,0:0:0:0:
256,192,79705,12,0,79205,0:0:0:0:
256,192,79760,12,0,79260,0:0:0:0:
256,192,79816,12,0,79316,0:0:0:0:
256,192,79871,12,0,79371,0:0:0:0:
256,192,79927,12,0,79427,0:0:0:0:
256,192,79982,12,0,79482,0:0:0:0:
256,192,80038,12,0,79538,0:0:0:0:
256,192,80093,12,0,79593,0:0:0:0:
256,192,80149,12,0,79649,0:0:0:0:
256,192,80204,12,0,79704,0:0:0:0:
256,192,80260,12,0,79760,0:0:0:0:
256,192,80315,12,0,79815,0:0:0:0:
256,192,80371,12,0,79871,0:0:0:0:
256,192,80426,12,0,79926,0:0:0:0:
256,192,80482,12,0,79982,0:0:0:0:
256,192,80537,12,0,80037,0:0:0:0:
256,192,80593,12,0,80093,0:0:0:0:
256,192,80649,12,0,80149,0:0:0:0:
256,192,80705,12,0,80205,0:0:0:0:
256,192,80760,12,0,80260,0:0:0:0:
256,192,80816,12,0,80316,0:0:0:0:
256,192,80871,12,0,80371,0:0:0:0:
256,192,80927,12,0,80427,0:0:0:0:
256,192,80982,12,0,80482,0:0:0:0:
256,192,81038,12,0,80538,0:0:0:0:
256,192,81093,12,0,80593,0:0:0:0:
256,192,81149,12,0,80649,0:0:0:0:
256,192,81204,12,0,80704,0:0:0:0:
256,192,81260,12,0,80760,0:0:0:0:
256,192,81315,12,0,80815,0:0:0:0:
256,192,81371,12,0,80871,0:0:0:0:
256,192,81426,12,0,80926,0:0:0:0:
256,192,81482,12,0,80982,0:0:0:0:
256,192,81537,12,0,81037,0:0:0:0:
256,192,81593,12,0,81093,0:0:0:0:
256,192,81648,12,0,81148,0:0:0:0:
256,192,81704,12,0,81204,0:0:0:0:
256,192,81759,12,0,81259,0:0:0:0:
256,192,81815,12,0,81315,0:0:0:0:
256,192,81870,12,0,81370,0:0:0:0:
256,192,81926,12,0,81426,0:0:0:0:
256,192,81982,12,0,81482,0:0:0:0:
256,192,82038,12,0,81538,0:0:0:0:
256,192,82093,12,0,81593,0:0:0:0:
256,192,82149,12,0,81649,0:0:0:0:
256,192,82204,12,0,81704,0:0:0:0:
256,192,82260,12,0,81760,0:0:0:0:
256,192,82315,12,0,81815,0:0:0:0:
256,192,82371,12,0,81871,0:0:0:0:
256,192,82426,12,0,81926,0:0:0:0:
256,192,82482,12,0,81982,0:0:0:0:
256,192,82537,12,0,82037,0:0:0:0:
256,192,82593,12,0,82093,0:0:0:0:
256,192,82649,12,0,82149,0:0:0:0:
256,192,82705,12,0,82205,0:0:0:0:
256,192,82760,12,0,82260,0:0:0:0:
256,192,82816,12,0,82316,0:0:0:0:
256,192,82871,12,0,82371,0:0:0:0:
256,192,82927,12,0,82427,0:0:0:0:
256,192,82982,12,0,82482,0:0:0:0:
256,192,83038,12,0,82538,0:0:0:0:
256,192,83093,12,0,82593,0:0:0:0:
256,192,83149,12,0,82649,0:0:0:0:
256,192,83204,12,0,82704,0:0:0:0:
256,192,83260,12,0,82760,0:0:0:0:
256,192,83316,12,0,82816,0:0:0:0:
256,192,83372,12,0,82872,0:0:0:0:
256,192,83427,12,0,82927,0:0:0:0:
256,192,83483,12,0,82983,0:0:0:0:
256,192,83538,12,0,83038,0:0:0:0:
256,192,83594,12,0,83094,0:0:0:0:
256,192,83649,12,0,83149,0:0:0:0:
256,192,83705,12,0,83205,0:0:0:0:
256,192,83760,12,0,83260,0:0:0:0:
256,192,83816,12,0,83316,0:0:0:0:
256,192,83871,12,0,83371,0:0:0:0:
256,192,83927,12,0,83427,0:0:0:0:
256,192,83982,12,0,83482,0:0:0:0:
256,192,84038,12,0,83538,0:0:0:0:
256,192,84093,12,0,83593,0:0:0:0:
256,192,84149,12,0,83649,0:0:0:0:
256,192,84204,12,0,83704,0:0:0:0:
256,192,84260,12,0,83760,0:0:0:0:
256,192,84315,12,0,83815,0:0:0:0:
256,192,84371,12,0,83871,0:0:0:0:
256,192,84426,12,0,83926,0:0:0:0:
256,192,84482,12,0,83982,0:0:0:0:
256,192,84537,12,0,84037,0:0:0:0:
256,192,84593,12,0,84093,0:0:0:0:
256,192,84649,12,0,84149,0:0:0:0:
256,192,84705,12,0,84205,0:0:0:0:
256,192,84760,12,0,84260,0:0:0:0:
256,192,84816,12,0,84316,0:0:0:0:
256,192,84871,12,0,84371,0:0:0:0:
256,192,84927,12,0,84427,0:0:0:0:
256,192,84982,12,0,84482,0:0:0:0:
256,192,85038,12,0,84538,0:0:0:0:
256,192,85093,12,0,84593,0:0:0:0:
256,192,85149,12,0,84649,0:0:0:0:
256,192,85204,12,0,84704,0:0:0:0:
256,192,85260,12,0,84760,0:0:0:0:
256,192,85315,12,0,84815,0:0:0:0:
256,192,85371,12,0,84871,0:0:0:0:
256,192,85426,12,0,84926,0:0:0:0:
256,192,85482,12,0,84982,0:0:0:0:
256,192,85537,12,0,85037,0:0:0:0:
256,192,85593,12,0,85093,0:0:0:0:
256,192,85648,12,0,85148,0:0:0:0:
256,192,85704,12,0,85204,0:0:0:0:
256,192,85759,12,0,85259,0:0:0:0:
256,192,85815,12,0,85315,0:0:0:0:
256,192,85870,12,0,85370,0:0:0:0:
256,192,85926,12,0,85426,0:0:0:0:
256,192,85982,12,0,85482,0:0:0:0:
256,192,86038,12,0,85538,0:0:0:0:
256,192,86093,12,0,85593,0:0:0:0:
256,192,86149,12,0,85649,0:0:0:0:
256,192,86204,12,0,85704,0:0:0:0:
256,192,86260,12,0,85760,0:0:0:0:
256,192,86315,12,0,85815,0:0:0:0:
256,192,86371,12,0,85871,0:0:0:0:
256,192,86426,12,0,85926,0:0:0:0:
256,192,86482,12,0,85982,0:0:0:0:
256,192,86537,12,0,86037,0:0:0:0:
256,192,86593,12,0,86093,0:0:0:0:
256,192,86649,12,0,86149,0:0:0:0:
256,192,86705,12,0,86205,0:0:0:0:
256,192,86760,12,0,86260,0:0:0:0:
256,192,86816,12,0,86316,0:0:0:0:
256,192,86871,12,0,86371,0:0:0:0:
256,192,86927,12,0,86427,0:0:0:0:
256,192,86982,12,0,86482,0:0:0:0:
256,192,87038,12,0,86538,0:0:0:0:
256,192,87093,12,0,86593,0:0:0:0:
256,192,87149,12,0,86649,0:0:0:0:
256,192,87204,12,0,86704,0:0:0:0:
256,192,87260,12,0,86760,0:0:0:0:
256,192,87316,12,0,86816,0:0:0:0:
256,192,87372,12,0,86872,0:0:0:0:
256,192,87427,12,0,86927,0:0:0:0:
256,192,87483,12,0,86983,0:0:0:0:
256,192,87538,12,0,87038,0:0:0:0:
256,192,87594,12,0,87094,0:0:0:0:
256,192,87649,12,0,87149,0:0:0:0:
256,192,87705,12,0,87205,0:0:0:0:
256,192,87760,12,0,87260,0:0:0:0:
256,192,87816,12,0,87316,0:0:0:0:
256,192,87871,12,0,87371,0:0:0:0:
256,192,87927,12,0,87427,0:0:0:0:
256,192,87982,12,0,87482,0:0:0:0:
256,192,88038,12,0,87538,0:0:0:0:
256,192,88093,12,0,87593,0:0:0:0:
256,192,88149,12,0,87649,0:0:0:0:
256,192,88204,12,0,87704,0:0:0:0:
256,192,88260,12,0,87760,0:0:0:0:
256,192,88315,12,0,87815,0:0:0:0:
256,192,88371,12,0,87871,0:0:0:0:
256,192,88426,12,0,87926,0:0:0:0:
256,192,88482,12,0,87982,0:0:0:0:
256,192,88537,12,0,88037,0:0:0:0:
256,192,88593,12,0,88093,0:0:0:0:
256,192,88649,12,0,88149,0:0:0:0:
256,192,88705,12,0,88205,0:0:0:0:
256,192,88760,12,0,88260,0:0:0:0:
256,192,88816,12,0,88316,0:0:0:0:
256,192,88871,12,0,88371,0:0:0:0:
256,192,88927,12,0,88427,0:0:0:0:
256,192,88982,12,0,88482,0:0:0:0:
256,192,89038,12,0,88538,0:0:0:0:
256,192,89093,12,0,88593,0:0:0:0:
256,192,89149,12,0,88649,0:0:0:0:
256,192,89204,12,0,88704,0:0:0:0:
256,192,89260,12,0,88760,0:0:0:0:
256,192,89315,12,0,88815,0:0:0:0:
256,192,89371,12,0,88871,0:0:0:0:
256,192,89426,12,0,88926,0:0:0:0:
256,192,89482,12,0,88982,0:0:0:0:
256,192,89537,12,0,89037,0:0:0:0:
256,192,89593,12,0,89093,0:0:0:0:
256,192,89648,12,0,89148,0:0:0:0:
256,192,89704,12,0,89204,0:0:0:0:
256,192,89759,12,0,89259,0:0:0:0:
256,192,89815,12,0,89315,0:0:0:0:
256,192,89870,12,0,89370,0:0:0:0:
256,192,89926,12,0,89426,0:0:0:0:
256,192,89982,12,0,89482,0:0:0:0:
256,192,90038,12,0,89538,0:0:0:0:
256,192,90093,12,0,89593,0:0:0:0:
256,192,90149,12,0,89649,0:0:0:0:
256,192,90204,12,0,89704,0:0:0:0:
256,192,90260,12,0,89760,0:0:0:0:
256,192,90315,12,0,89815,0:0:0:0:
256,192,90371,12,0,89871,0:0:0:0:
256,192,90426,12,0,89926,0:0:0:0:
256,192,90482,12,0,89982,0:0:0:0:
256,192,90537,12,0,90037,0:0:0:0:
256,192,90593,12,0,90093,0:0:0:0:
256,192,90649,12,0,90149,0:0:0:0:
256,192,90705,12,0,90205,0:0:0:0:
256,192,90760,12,0,90260,0:0:0:0:
256,192,90816,12,0,90316,0:0:0:0:
256,192,90871,12,0,90371,0:0:0:0:
256,192,90927,12,0,90427,0:0:0:0:
256,192,90982,12,0,90482,0:0:0:0:
256,192,91038,12,0,90538,0:0:0:0:
256,192,91093,12,0,90593,0:0:0:0:
256,192,91149,12,0,90649,0:0:0:0:
256,192,91204,12,0,90704,0:0:0:0:
256,192,91260,12,0,90760,0:0:0:0:
256,192,91316,12,0,90816,0:0:0:0:
256,192,91372,12,0,90872,0:0:0:0:
256,192,91427,12,0,90927,0:0:0:0:
256,192,91483,12,0,90983,0:0:0:0:
256,192,91538,12,0,91038,0:0:0:0:
256,192,91594,12,0,91094,0:0:0:0:
256,192,91649,12,0,91149,0:0:0:0:
256,192,91705,12,0,91205,0:0:0:0:
256,192,91760,12,0,91260,0:0:0:0:
256,192,91816,12,0,91316,0:0:0:0:
256,192,91871,12,0,91371,0:0:0:0:
256,192,91927,12,0,91427,0:0:0:0:
256,192,91982,12,0,91482,0:0:0:0:
256,192,92038,12,0,91538,0:0:0:0:
256,192,92093,12,0,91593,0:0:0:0:
256,192,92149,12,0,91649,0:0:0:0:
256,192,92204,12,0,91704,0:0:0:0:
256,192,92260,12,0,91760,0:0:0:0:
256,192,92315,12,0,91815,0:0:0:0:
256,192,92371,12,0,91871,0:0:0:0:
256,192,92426,12,0,91926,0:0:0:0:
256,192,92482,12,0,91982,0:0:0:0:
256,192,92537,12,0,92037,0:0:0:0:
256,192,92593,12,0,92093,0:0:0:0:
256,192,92649,12,0,92149,0:0:0:0:
256,192,92705,12,0,92205,0:0:0:0:
256,192,92760,12,0,92260,0:0:0:0:
256,192,92816,12,0,92316,0:0:0:0:
256,192,92871,12,0,92371,0:0:0:0:
256,192,92927,12,0,92427,0:0:0:0:
256,192,92982,12,0,92482,0:0:0:0:
256,192,93038,12,0,92538,0:0:0:0:
256,192,93093,12,0,92593,0:0:0:0:
256,192,93149,12,0,92649,0:0:0:0:
256,192,93204,12,0,92704,0:0:0:0:
256,192,93260,12,0,92760,0:0:0:0:
256,192,93315,12,0,92815,0:0:0:0:
256,192,93371,12,0,92871,0:0:0:0:
256,192,93426,12,0,92926,0:0:0:0:
256,192,93482,12,0,92982,0:0:0:0:
256,192,93537,12,0,93037,0:0:0:0:
256,192,93593,12,0,93093,0:0:0:0:
256,192,93648,12,0,93148,0:0:0:0:
256,192,93704,12,0,93204,0:0:0:0:
256,192,93759,12,0,93259,0:0:0:0:
256,192,93815,12,0,93315,0:0:0:0:
256,192,93870,12,0,93370,0:0:0:0:
256,192,93926,12,0,93426,0:0:0:0:
256,192,93982,12,0,93482,0:0:0:0:
256,192,94038,12,0,93538,0:0:0:0:
256,192,94093,12,0,93593,0:0:0:0:
256,192,94149,12,0,93649,0:0:0:0:
256,192,94204,12,0,93704,0:0:0:0:
256,192,94260,12,0,93760,0:0:0:0:
256,192,94315,12,0,93815,0:0:0:0:
256,192,94371,12,0,93871,0:0:0:0:
256,192,94426,12,0,93926,0:0:0:0:
256,192,94482,12,0,93982,0:0:0:0:
256,192,94537,12,0,94037,0:0:0:0:
256,192,94593,12,0,94093,0:0:0:0:
256,192,94649,12,0,94149,0:0:0:0:
256,192,94705,12,0,94205,0:0:0:0:
256,192,94760,12,0,94260,0:0:0:0:
256,192,94816,12,0,94316,0:0:0:0:
256,192,94871,12,0,94371,0:0:0:0:
256,192,94927,12,0,94427,0:0:0:0:
256,192,94982,12,0,94482,0:0:0:0:
256,192,95038,12,0,94538,0:0:0:0:
256,192,95093,12,0,94593,0:0:0:0:
256,192,95149,12,0,94649,0:0:0:0:
256,192,95204,12,0,94704,0:0:0:0:
256,192,95260,12,0,94760,0:0:0:0:
256,192,95316,12,0,94816,0:0:0:0:
256,192,95372,12,0,94872,0:0:0:0:
256,192,95427,12,0,94927,0:0:0:0:
256,192,95483,12,0,94983,0:0:0:0:
256,192,95538,12,0,95038,0:0:0:0:
256,192,95594,12,0,95094,0:0:0:0:
256,192,95649,12,0,95149,0:0:0:0:
256,192,95705,12,0,95205,0:0:0:0:
256,192,95760,12,0,95260,0:0:0:0:
256,192,95816,12,0,95316,0:0:0:0:
256,192,95871,12,0,95371,0:0:0:0:
256,192,95927,12,0,95427,0:0:0:0:
256,192,95982,12,0,95482,0:0:0:0:
256,192,96038,12,0,95538,0:0:0:0:
256,192,96093,12,0,95593,0:0:0:0:
256,192,96149,12,0,95649,0:0:0:0:
256,192,96204,12,0,95704,0:0:0:0:
256,192,96260,12,0,95760,0:0:0:0:
256,192,96315,12,0,95815,0:0:0:0:
256,192,96371,12,0,95871,0:0:0:0:
256,192,96426,12,0,95926,0:0:0:0:
256,192,96482,12,0,95982,0:0:0:0:
256,192,96537,12,0,96037,0:0:0:0:
256,192,96593,12,0,96093,0:0:0:0:
256,192,96649,12,0,96149,0:0:0:0:
256,192,96705,12,0,96205,0:0:0:0:
256,192,96760,12,0,96260,0:0:0:0:
256,192,96816,12,0,96316,0:0:0:0:
256,192,96871,12,0,96371,0:0:0:0:
256,192,96927,12,0,96427,0:0:0:0:
256,192,96982,12,0,96482,0:0:0:0:
256,192,97038,12,0,96538,0:0:0:0:
256,192,97093,12,0,96593,0:0:0:0:
256,192,97149,12,0,96649,0:0:0:0:
256,192,97204,12,0,96704,0:0:0:0:
256,192,97260,12,0,96760,0:0:0:0:
256,192,97315,12,0,96815,0:0:0:0:
256,192,97371,12,0,96871,0:0:0:0:
256,192,97426,12,0,96926,0:0:0:0:
256,192,97482,12,0,96982,0:0:0:0:
256,192,97537,12,0,97037,0:0:0:0:
256,192,97593,12,0,97093,0:0:0:0:
256,192,97648,12,0,97148,0:0:0:0:
256,192,97704,12,0,97204,0:0:0:0:
256,192,97759,12,0,97259,0:0:0:0:
256,192,97815,12,0,97315,0:0:0:0:
256,192,97870,12,0,97370,0:0:0:0:
256,192,97926,12,0,97426,0:0:0:0:
256,192,97982,12,0,97482,0:0:0:0:
256,192,98038,12,0,97538,0:0:0:0:
256,192,98093,12,0,97593,0:0:0:0:
256,192,98149,12,0,97649,0:0:0:0:
256,192,98204,12,0,97704,0:0:0:0:
256,192,98260,12,0,97760,0:0:0:0:
256,192,98315,12,0,97815,0:0:0:0:
256,192,98371,12,0,97871,0:0:0:0:
256,192,98426,12,0,97926,0:0:0:0:
256,192,98482,12,0,97982,0:0:0:0:
256,192,98537,12,0,98037,0:0:0:0:
256,192,98593,12,0,98093,0:0:0:0:
256,192,98649,12,0,98149,0:0:0:0:
256,192,98705,12,0,98205,0:0:0:0:
256,192,98760,12,0,98260,0:0:0:0:
256,192,98816,12,0,98316,0:0:0:0:
256,192,98871,12,0,98371,0:0:0:0:
256,192,98927,12,0,98427,0:0:0:0:
256,192,98982,12,0,98482,0:0:0:0:
256,192,99038,12,0,98538,0:0:0:0:
256,192,99093,12,0,98593,0:0:0:0:
256,192,99149,12,0,98649,0:0:0:0:
256,192,99204,12,0,98704,0:0:0:0:
256,192,99260,12,0,98760,0:0:0:0:
256,192,99316,12,0,98816,0:0:0:0:
256,192,99372,12,0,98872,0:0:0:0:
256,192,99427,12,0,98927,0:0:0:0:
256,192,99483,12,0,98983,0:0:0:0:
256,192,99538,12,0,99038,0:0:0:0:
256,192,99594,12,0,99094,0:0:0:0:
256,192,99649,12,0,99149,0:0:0:0:
256,192,99705,12,0,99205,0:0:0:0:
256,192,99760,12,0,99260,0:0:0:0:
256,192,99816,12,0,99316,0:0:0:0:
256,192,99871,12,0,99371,0:0:0:0:
256,192,99927,12,0,99427,0:0:0:0:
256,192,99982,12,0,99482,0:0:0:0:
256,192,100038,12,0,99538,0:0:0:0:
256,192,100093,12,0,99593,0:0:0:0:
256,192,100149,12,0,99649,0:0:0:0:
256,192,100204,12,0,99704,0:0:0:0:
256,192,100260,12,0,99760,0:0:0:0:
256,192,100315,12,0,99815,0:0:0:0:
256,192,100371,12,0,99871,0:0:0:0:
256,192,100426,12,0,99926,0:0:0:0:
256,192,100482,12,0,99982,0:0:0:0:
256,192,100537,12,0,100037,0:0:0:0:
256,192,100593,12,0,100093,0:0:0:0:
256,192,100649,12,0,100149,0:0:0:0:
256,192,100705,12,0,100205,0:0:0:0:
256,192,100760,12,0,100260,0:0:0:0:
256,192,100816,12,0,100316,0:0:0:0:
256,192,100871,12,0,100371,0:0:0:0:
256,192,100927,12,0,100427,0:0:0:0:
256,192,100982,12,0,100482,0:0:0:0:
256,192,101038,12,0,100538,0:0:0:0:
256,192,101093,12,0,100593,0:0:0:0:
256,192,101149,12,0,100649,0:0:0:0:
256,192,101204,12,0,100704,0:0:0:0:
256,192,101260,12,0,100760,0:0:0:0:
256,192,101315,12,0,100815,0:0:0:0:
256,192,101371,12,0,100871,0:0:0:0:
256,192,101426,12,0,100926,0:0:0:0:
256,192,101482,12,0,100982,0:0:0:0:
256,192,101537,12,0,101037,0:0:0:0:
256,192,101593,12,0,101093,0:0:0:0:
256,192,101648,12,0,101148,0:0:0:0:
256,192,101704,12,0,101204,0:0:0:0:
256,192,101759,12,0,101259,0:0:0:0:
256,192,101815,12,0,101315,0:0:0:0:
256,192,101870,12,0,101370,0:0:0:0:
256,192,101926,12,0,101426,0:0:0:0:
256,192,101982,12,0,101482,0:0:0:0:
256,192,102038,12,0,101538,0:0:0:0:
256,192,102093,12,0,101593,0:0:0:0:
256,192,102149,12,0,101649,0:0:0:0:
256,192,102204,12,0,101704,0:0:0:0:
256,192,102260,12,0,101760,0:0:0:0:
256,192,102315,12,0,101815,0:0:0:0:
256,192,102371,12,0,101871,0:0:0:0:
256,192,102426,12,0,101926,0:0:0:0:
256,192,102482,12,0,101982,0:0:0:0:
256,192,102537,12,0,102037,0:0:0:0:
256,192,102593,12,0,102093,0:0:0:0:
256,192,102649,12,0,102149,0:0:0:0:
256,192,102705,12,0,102205,0:0:0:0:
256,192,102760,12,0,102260,0:0:0:0:
256,192,102816,12,0,102316,0:0:0:0:
256,192,102871,12,0,102371,0:0:0:0:
256,192,102927,12,0,102427,0:0:0:0:
256,192,102982,12,0,102482,0:0:0:0:
256,192,103038,12,0,102538,0:0:0:0:
256,192,103093,12,0,102593,0:0:0:0:
256,192,103149,12,0,102649,0:0:0:0:
256,192,103204,12,0,102704,0:0:0:0:
256,192,103260,12,0,102760,0:0:0:0:
256,192,103316,12,0,102816,0:0:0:0:
256,192,103372,12,0,102872,0:0:0:0:
256,192,103427,12,0,102927,0:0:0:0:
256,192,103483,12,0,102983,0:0:0:0:
256,192,103538,12,0,103038,0:0:0:0:
256,192,103594,12,0,103094,0:0:0:0:
256,192,103649,12,0,103149,0:0:0:0:
256,192,103705,12,0,103205,0:0:0:0:
256,192,103760,12,0,103260,0:0:0:0:
256,192,103816,12,0,103316,0:0:0:0:
256,192,103871,12,0,103371,0:0:0:0:
256,192,103927,12,0,103427,0:0:0:0:
256,192,103982,12,0,103482,0:0:0:0:
256,192,104038,12,0,103538,0:0:0:0:
256,192,104093,12,0,103593,0:0:0:0:
256,192,104149,12,0,103649,0:0:0:0:
256,192,104204,12,0,103704,0:0:0:0:
256,192,104260,12,0,103760,0:0:0:0:
256,192,104315,12,0,103815,0:0:0:0:
256,192,104371,12,0,103871,0:0:0:0:
256,192,104426,12,0,103926,0:0:0:0:
256,192,104482,12,0,103982,0:0:0:0:
256,192,104537,12,0,104037,0:0:0:0:
256,192,104593,12,0,104093,0:0:0:0:
256,192,104649,12,0,104149,0:0:0:0:
256,192,104705,12,0,104205,0:0:0:0:
256,192,104760,12,0,104260,0:0:0:0:
256,192,104816,12,0,104316,0:0:0:0:
256,192,104871,12,0,104371,0:0:0:0:
256,192,104927,12,0,104427,0:0:0:0:
256,192,104982,12,0,104482,0:0:0:0:
256,192,105038,12,0,104538,0:0:0:0:
256,192,105093,12,0,104593,0:0:0:0:
256,192,105149,12,0,104649,0:0:0:0:
256,192,105204,12,0,104704,0:0:0:0:
256,192,105260,12,0,104760,0:0:0:0:
256,192,105315,12,0,104815,0:0:0:0:
256,192,105371,12,0,104871,0:0:0:0:
256,192,105426,12,0,104926,0:0:0:0:
256,192,105482,12,0,104982,0:0:0:0:
256,192,105537,12,0,105037,0:0:0:0:
256,192,105593,12,0,105093,0:0:0:0:
256,192,105648,12,0,105148,0:0:0:0:
256,192,105704,12,0,105204,0:0:0:0:
256,192,105759,12,0,105259,0:0:0:0:
256,192,105815,12,0,105315,0:0:0:0:
256,192,105870,12,0,105370,0:0:0:0:
256,192,105926,12,0,105426,0:0:0:0:
256,192,105982,12,0,105482,0:0:0:0:
256,192,106038,12,0,105538,0:0:0:0:
256,192,106093,12,0,105593,0:0:0:0:
256,192,106149,12,0,105649,0:0:0:0:
256,192,106204,12,0,105704,0:0:0:0:
256,192,106260,12,0,105760,0:0:0:0:
256,192,106315,12,0,105815,0:0:0:0:
256,192,106371,12,0,105871,0:0:0:0:
256,192,106426,12,0,105926,0:0:0:0:
256,192,106482,12,0,105982,0:0:0:0:
256,192,106537,12,0,106037,0:0:0:0:
256,192,106593,12,0,106093,0:0:0:0:
256,192,106649,12,0,106149,0:0:0:0:
256,192,106705,12,0,106205,0:0:0:0:
256,192,106760,12,0,106260,0:0:0:0:
256,192,106816,12,0,106316,0:0:0:0:
256,192,106871,12,0,106371,0:0:0:0:
256,192,106927,12,0,106427,0:0:0:0:
256,192,106982,12,0,106482,0:0:0:0:
256,192,107038,12,0,106538,0:0:0:0:
256,192,107093,12,0,106593,0:0:0:0:
256,192,107149,12,0,106649,0:0:0:0:
256,192,107204,12,0,106704,0:0:0:0:
256,192,107260,12,0,106760,0:0:0:0:
256,192,107316,12,0,106816,0:0:0:0:
256,192,107372,12,0,106872,0:0:0:0:
256,192,107427,12,0,106927,0:0:0:0:
256,192,107483,12,0,106983,0:0:0:0:
256,192,107538,12,0,107038,0:0:0:0:
256,192,107594,12,0,107094,0:0:0:0:
256,192,107649,12,0,107149,0:0:0:0:
256,192,107705,12,0,107205,0:0:0:0:
256,192,107760,12,0,107260,0:0:0:0:
256,192,107816,12,0,107316,0:0:0:0:
256,192,107871,12,0,107371,0:0:0:0:
256,192,107927,12,0,107427,0:0:0:0:
256,192,107982,12,0,107482,0:0:0:0:
256,192,108038,12,0,107538,0:0:0:0:
256,192,108093,12,0,107593,0:0:0:0:
256,192,108149,12,0,107649,0:0:0:0:
256,192,108204,12,0,107704,0:0:0:0:
256,192,108260,12,0,107760,0:0:0:0:
256,192,108315,12,0,107815,0:0:0:0:
256,192,108371,12,0,107871,0:0:0:0:
256,192,108426,12,0,107926,0:0:0:0:
256,192,108482,12,0,107982,0:0:0:0:
256,192,108537,12,0,108037,0:0:0:0:
256,192,108593,12,0,108093,0:0:0:0:
256,192,108649,12,0,108149,0:0:0:0:
256,192,108705,12,0,108205,0:0:0:0:
256,192,108760,12,0,108260,0:0:0:0:
256,192,108816,12,0,108316,0:0:0:0:
256,192,108871,12,0,108371,0:0:0:0:
256,192,108927,12,0,108427,0:0:0:0:
256,192,108982,12,0,108482,0:0:0:0:
256,192,109038,12,0,108538,0:0:0:0:
256,192,109093,12,0,108593,0:0:0:0:
256,192,109149,12,0,108649,0:0:0:0:
256,192,109204,12,0,108704,0:0:0:0:
256,192,109260,12,0,108760,0:0:0:0:
256,192,109315,12,0,108815,0:0:0:0:
256,192,109371,12,0,108871,0:0:0:0:
256,192,109426,12,0,108926,0:0:0:0:
256,192,109482,12,0,108982,0:0:0:0:
256,192,109537,12,0,109037,0:0:0:0:
256,192,109593,12,0,109093,0:0:0:0:
256,192,109648,12,0,109148,0:0:0:0:
256,192,109704,12,0,109204,0:0:0:0:
256,192,109759,12,0,109259,0:0:0:0:
256,192,109815,12,0,109315,0:0:0:0:
256,192,109870,12,0,109370,0:0:0:0:
256,192,109926,12,0,109426,0:0:0:0:
256,192,109982,12,0,109482,0:0:0:0:
256,192,110038,12,0,109538,0:0:0:0:
256,192,110093,12,0,109593,0:0:0:0:
256,192,110149,12,0,109649,0:0:0:0:
256,192,110204,12,0,109704,0:0:0:0:
256,192,110260,12,0,109760,0:0:0:0:
256,192,110315,12,0,109815,0:0:0:0:
256,192,110371,12,0,109871,0:0:0:0:
256,192,110426,12,0,109926,0:0:0:0:
256,192,110482,12,0,109982,0:0:0:0:
256,192,110537,12,0,110037,0:0:0:0:
256,192,110593,12,0,110093,0:0:0:0:
256,192,110649,12,0,110149,0:0:0:0:
256,192,110705,12,0,110205,0:0:0:0:
256,192,110760,12,0,110260,0:0:0:0:
256,192,110816,12,0,110316,0:0:0:0:
256,192,110871,12,0,110371,0:0:0:0:
256,192,110927,12,0,110427,0:0:0:0:
256,192,110982,12,0,110482,0:0:0:0:
256,192,111038,12,0,110538,0:0:0:0:
256,192,111093,12,0,110593,0:0:0:0:
256,192,111149,12,0,110649,0:0:0:0:
256,192,111204,12,0,110704,0:0:0:0:
256,192,111260,12,0,110760,0:0:0:0:
256,192,111316,12,0,110816,0:0:0:0:
256,192,111372,12,0,110872,0:0:0:0:
256,192,111427,12,0,110927,0:0:0:0:
256,192,111483,12,0,110983,0:0:0:0:
256,192,111538,12,0,111038,0:0:0:0:
256,192,111594,12,0,111094,0:0:0:0:
256,192,111649,12,0,111149,0:0:0:0:
256,192,111705,12,0,111205,0:0:0:0:
256,192,111760,12,0,111260,0:0:0:0:
256,192,111816,12,0,111316,0:0:0:0:
256,192,111871,12,0,111371,0:0:0:0:
256,192,111927,12,0,111427,0:0:0:0:
256,192,111982,12,0,111482,0:0:0:0:
256,192,112038,12,0,111538,0:0:0:0:
256,192,112093,12,0,111593,0:0:0:0:
256,192,112149,12,0,111649,0:0:0:0:
256,192,112204,12,0,111704,0:0:0:0:
256,192,112260,12,0,111760,0:0:0:0:
256,192,112315,12,0,111815,0:0:0:0:
256,192,112371,12,0,111871,0:0:0:0:
256,192,112426,12,0,111926,0:0:0:0:
256,192,112482,12,0,111982,0:0:0:0:
256,192,112537,12,0,112037,0:0:0:0:
256,192,112593,12,0,112093,0:0:0:0:
256,192,112649,12,0,112149,0:0:0:0:
256,192,112705,12,0,112205,0:0:0:0:
256,192,112760,12,0,112260,0:0:0:0:
256,192,112816,12,0,112316,0:0:0:0:
256,192,112871,12,0,112371,0:0:0:0:
256,192,112927,12,0,112427,0:0:0:0:
256,192,112982,12,0,112482,0:0:0:0:
256,192,113038,12,0,112538,0:0:0:0:
256,192,113093,12,0,112593,0:0:0:0:
256,192,113149,12,0,112649,0:0:0:0:
256,192,113204,12,0,112704,0:0:0:0:
256,192,113260,12,0,112760,0:0:0:0:
256,192,113315,12,0,112815,0:0:0:0:
256,192,113371,12,0,112871,0:0:0:0:
256,192,113426,12,0,112926,0:0:0:0:
256,192,113482,12,0,112982,0:0:0:0:
256,192,113537,12,0,113037,0:0:0:0:
256,192,113593,12,0,113093,0:0:0:0:
256,192,113648,12,0,113148,0:0:0:0:
256,192,113704,12,0,113204,0:0:0:0:
256,192,113759,12,0,113259,0:0:0:0:
256,192,113815,12,0,113315,0:0:0:0:
256,192,113870,12,0,113370,0:0:0:0:
256,192,113926,12,0,113426,0:0:0:0:
256,192,113982,12,0,113482,0:0:0:0:
256,192,114038,12,0,113538,0:0:0:0:
256,192,114093,12,0,113593,0:0:0:0:
256,192,114149,12,0,113649,0:0:0:0:
256,192,114204,12,0,113704,0:0:0:0:
256,192,114260,12,0,113760,0:0:0:0:
256,192,114315,12,0,113815,0:0:0:0:
256,192,114371,12,0,113871,0:0:0:0:
256,192,114426,12,0,113926,0:0:0:0:
256,192,114482,12,0,113982,0:0:0:0:
256,192,114537,12,0,114037,0:0:0:0:
256,192,114593,12,0,114093,0:0:0:0:
256,192,114649,12,0,114149,0:0:0:0:
256,192,114705,12,0,114205,0:0:0:0:
256,192,114760,12,0,114260,0:0:0:0:
256,192,114816,12,0,114316,0:0:0:0:
256,192,114871,12,0,114371,0:0:0:0:
256,192,114927,12,0,114427,0:0:0:0:
256,192,114982,12,0,114482,0:0:0:0:
256,192,115038,12,0,114538,0:0:0:0:
256,192,115093,12,0,114593,0:0:0:0:
256,192,115149,12,0,114649,0:0:0:0:
256,192,115204,12,0,114704,0:0:0:0:
256,192,115260,12,0,114760,0:0:0:0:
256,192,115316,12,0,114816,0:0:0:0:
256,192,115372,12,0,114872,0:0:0:0:
256,192,115427,12,0,114927,0:0:0:0:
256,192,115483,12,0,114983,0:0:0:0:
256,192,115538,12,0,115038,0:0:0:0:
256,192,115594,12,0,115094,0:0:0:0:
256,192,115649,12,0,115149,0:0:0:0:
256,192,115705,12,0,115205,0:0:0:0:
256,192,115760,12,0,115260,0:0:0:0:
256,192,115816,12,0,115316,0:0:0:0:
256,192,115871,12,0,115371,0:0:0:0:
256,192,115927,12,0,115427,0:0:0:0:
256,192,115982,12,0,115482,0:0:0:0:
256,192,116038,12,0,115538,0:0:0:0:
256,192,116093,12,0,115593,0:0:0:0:
256,192,116149,12,0,115649,0:0:0:0:
256,192,116204,12,0,115704,0:0:0:0:
256,192,116260,12,0,115760,0:0:0:0:
256,192,116315,12,0,115815,0:0:0:0:
256,192,116371,12,0,115871,0:0:0:0:
256,192,116426,12,0,115926,0:0:0:0:
256,192,116482,12,0,115982,0:0:0:0:
256,192,116537,12,0,116037,0:0:0:0:
256,192,116593,12,0,116093,0:0:0:0:
256,192,116649,12,0,116149,0:0:0:0:
256,192,116705,12,0,116205,0:0:0:0:
256,192,116760,12,0,116260,0:0:0:0:
256,192,116816,12,0,116316,0:0:0:0:
256,192,116871,12,0,116371,0:0:0:0:
256,192,116927,12,0,116427,0:0:0:0:
256,192,116982,12,0,116482,0:0:0:0:
256,192,117038,12,0,116538,0:0:0:0:
256,192,117093,12,0,116593,0:0:0:0:
256,192,117149,12,0,116649,0:0:0:0:
256,192,117204,12,0,116704,0:0:0:0:
256,192,117260,12,0,116760,0:0:0:0:
256,192,117315,12,0,116815,0:0:0:0:
256,192,117371,12,0,116871,0:0:0:0:
256,192,117426,12,0,116926,0:0:0:0:
256,192,117482,12,0,116982,0:0:0:0:
256,192,117537,12,0,117037,0:0:0:0:
256,192,117593,12,0,117093,0:0:0:0:
256,192,117648,12,0,117148,0:0:0:0:
256,192,117704,12,0,117204,0:0:0:0:
256,192,117759,12,0,117259,0:0:0:0:
256,192,117815,12,0,117315,0:0:0:0:
256,192,117870,12,0,117370,0:0:0:0:
256,192,117926,12,0,117426,0:0:0:0:
256,192,117982,12,0,117482,0:0:0:0:
256,192,118038,12,0,117538,0:0:0:0:
256,192,118093,12,0,117593,0:0:0:0:
256,192,118149,12,0,117649,0:0:0:0:
256,192,118204,12,0,117704,0:0:0:0:
256,192,118260,12,0,117760,0:0:0:0:
256,192,118315,12,0,117815,0:0:0:0:
256,192,118371,12,0,117871,0:0:0:0:
256,192,118426,12,0,117926,0:0:0:0:
256,192,118482,12,0,117982,0:0:0:0:
256,192,118537,12,0,118037,0:0:0:0:
256,192,118593,12,0,118093,0:0:0:0:
256,192,118649,12,0,118149,0:0:0:0:
256,192,118705,12,0,118205,0:0:0:0:
256,192,118760,12,0,118260,0:0:0:0:
256,192,118816,12,0,118316,0:0:0:0:
256,192,118871,12,0,118371,0:0:0:0:
256,192,118927,12,0,118427,0:0:0:0:
256,192,118982,12,0,118482,0:0:0:0:
256,192,119038,12,0,118538,0:0:0:0:
256,192,119093,12,0,118593,0:0:0:0:
256,192,119149,12,0,118649,0:0:0:0:
256,192,119204,12,0,118704,0:0:0:0:
256,192,119260,12,0,118760,0:0:0:0:
256,192,119316,12,0,118816,0:0:0:0:
256,192,119372,12,0,118872,0:0:0:0:
256,192,119427,12,0,118927,0:0:0:0:
256,192,119483,12,0,118983,0:0:0:0:
256,192,119538,12,0,119038,0:0:0:0:
256,192,119594,12,0,119094,0:0:0:0:
256,192,119649,12,0,119149,0:0:0:0:
256,192,119705,12,0,119205,0:0:0:0:
256,192,119760,12,0,119260,0:0:0:0:
256,192,119816,12,0,119316,0:0:0:0:
256,192,119871,12,0,119371,0:0:0:0:
256,192,119927,12,0,119427,0:0:0:0:
256,192,119982,12,0,119482,0:0:0:0:
256,192,120038,12,0,119538,0:0:0:0:
256,192,120093,12,0,119593,0:0:0:0:
256,192,120149,12,0,119649,0:0:0:0:
256,192,120204,12,0,119704,0:0:0:0:
256,192,120260,12,0,119760,0:0:0:0:
256,192,120315,12,0,119815,0:0:0:0:
256,192,120371,12,0,119871,0:0:0:0:
256,192,120426,12,0,119926,0:0:0:0:
256,192,120482,12,0,119982,0:0:0:0:
256,192,120537,12,0,120037,0:0:0:0:
256,192,120593,12,0,120093,0:0:0:0:
256,192,120649,12,0,120149,0:0:0:0:
256,192,120705,12,0,120205,0:0:0:0:
256,192,120760,12,0,120260,0:0:0:0:
256,192,120816,12,0,120316,0:0:0:0:
256,192,120871,12,0,120371,0:0:0:0:
256,192,120927,12,0,120427,0:0:0:0:
256,192,120982,12,0,120482,0:0:0:0:
256,192,121038,12,0,120538,0:0:0:0:
256,192,121093,12,0,120593,0:0:0:0:
256,192,121149,12,0,120649,0:0:0:0:
256,192,121204,12,0,120704,0:0:0:0:
256,192,121260,12,0,120760,0:0:0:0:
256,192,121315,12,0,120815,0:0:0:0:
256,192,121371,12,0,120871,0:0:0:0:
256,192,121426,12,0,120926,0:0:0:0:
256,192,121482,12,0,120982,0:0:0:0:
256,192,121537,12,0,121037,0:0:0:0:
256,192,121593,12,0,121093,0:0:0:0:
256,192,121648,12,0,121148,0:0:0:0:
256,192,121704,12,0,121204,0:0:0:0:
256,192,121759,12,0,121259,0:0:0:0:
256,192,121815,12,0,121315,0:0:0:0:
256,192,121870,12,0,121370,0:0:0:0:
256,192,121926,12,0,121426,0:0:0:0:
256,192,121982,12,0,121482,0:0:0:0:
256,192,122038,12,0,121538,0:0:0:0:
256,192,122093,12,0,121593,0:0:0:0:
256,192,122149,12,0,121649,0:0:0:0:
256,192,122204,12,0,121704,0:0:0:0:
256,192,122260,12,0,121760,0:0:0:0:
256,192,122315,12,0,121815,0:0:0:0:
256,192,122371,12,0,121871,0:0:0:0:
256,192,122426,12,0,121926,0:0:0:0:
256,192,122482,12,0,121982,0:0:0:0:
256,192,122537,12,0,122037,0:0:0:0:
256,192,122593,12,0,122093,0:0:0:0:
256,192,122649,12,0,122149,0:0:0:0:
256,192,122705,12,0,122205,0:0:0:0:
256,192,122760,12,0,122260,0:0:0:0:
256,192,122816,12,0,122316,0:0:0:0:
256,192,122871,12,0,122371,0:0:0:0:
256,192,122927,12,0,122427,0:0:0:0:
256,192,122982,12,0,122482,0:0:0:0:
256,192,123038,12,0,122538,0:0:0:0:
256,192,123093,12,0,122593,0:0:0:0:
256,192,123149,12,0,122649,0:0:0:0:
256,192,123204,12,0,122704,0:0:0:0:
256,192,123260,12,0,122760,0:0:0:0:
256,192,123316,12,0,122816,0:0:0:0:
256,192,123372,12,0,122872,0:0:0:0:
256,192,123427,12,0,122927,0:0:0:0:
256,192,123483,12,0,122983,0:0:0:0:
256,192,123538,12,0,123038,0:0:0:0:
256,192,123594,12,0,123094,0:0:0:0:
256,192,123649,12,0,123149,0:0:0:0:
256,192,123705,12,0,123205,0:0:0:0:
256,192,123760,12,0,123260,0:0:0:0:
256,192,123816,12,0,123316,0:0:0:0:
256,192,123871,12,0,123371,0:0:0:0:
256,192,123927,12,0,123427,0:0:0:0:
256,192,123982,12,0,123482,0:0:0:0:
256,192,124038,12,0,123538,0:0:0:0:
256,192,124093,12,0,123593,0:0:0:0:
256,192,124149,12,0,123649,0:0:0:0:
256,192,124204,12,0,123704,0:0:0:0:
256,192,124260,12,0,123760,0:0:0:0:
256,192,124315,12,0,123815,0:0:0:0:
256,192,124371,12,0,123871,0:0:0:0:
256,192,124426,12,0,123926,0:0:0:0:
256,192,124482,12,0,123982,0:0:0:0:
256,192,124537,12,0,124037,0:0:0:0:
256,192,124593,12,0,124093,0:0:0:0:
256,192,124649,12,0,124149,0:0:0:0:
256,192,124705,12,0,124205,0:0:0:0:
256,192,124760,12,0,124260,0:0:0:0:
256,192,124816,12,0,124316,0:0:0:0:
256,192,124871,12,0,124371,0:0:0:0:
256,192,124927,12,0,124427,0:0:0:0:
256,192,124982,12,0,124482,0:0:0:0:
256,192,125038,12,0,124538,0:0:0:0:
256,192,125093,12,0,124593,0:0:0:0:
256,192,125149,12,0,124649,0:0:0:0:
256,192,125204,12,0,124704,0:0:0:0:
256,192,125260,12,0,124760,0:0:0:0:
256,192,125315,12,0,124815,0:0:0:0:
256,192,125371,12,0,124871,0:0:0:0:
256,192,125426,12,0,124926,0:0:0:0:
256,192,125482,12,0,124982,0:0:0:0:
256,192,125537,12,0,125037,0:0:0:0:
256,192,125593,12,0,125093,0:0:0:0:
256,192,125648,12,0,125148,0:0:0:0:
256,192,125704,12,0,125204,0:0:0:0:
256,192,125759,12,0,125259,0:0:0:0:
256,192,125815,12,0,125315,0:0:0:0:
256,192,125870,12,0,125370,0:0:0:0:
256,192,125926,12,0,125426,0:0:0:0:
256,192,125982,12,0,125482,0:0:0:0:
256,192,126038,12,0,125538,0:0:0:0:
256,192,126093,12,0,125593,0:0:0:0:
256,192,126149,12,0,125649,0:0:0:0:
256,192,126204,12,0,125704,0:0:0:0:
256,192,126260,12,0,125760,0:0:0:0:
256,192,126315,12,0,125815,0:0:0:0:
256,192,126371,12,0,125871,0:0:0:0:
256,192,126426,12,0,125926,0:0:0:0:
256,192,126482,12,0,125982,0:0:0:0:
256,192,126537,12,0,126037,0:0:0:0:
256,192,126593,12,0,126093,0:0:0:0:
256,192,126649,12,0,126149,0:0:0:0:
256,192,126705,12,0,126205,0:0:0:0:
256,192,126760,12,0,126260,0:0:0:0:
256,192,126816,12,0,126316,0:0:0:0:
256,192,126871,12,0,126371,0:0:0:0:
256,192,126927,12,0,126427,0:0:0:0:
256,192,126982,12,0,126482,0:0:0:0:
256,192,127038,12,0,126538,0:0:0:0:
256,192,127093,12,0,126593,0:0:0:0:
256,192,127149,12,0,126649,0:0:0:0:
256,192,127204,12,0,126704,0:0:0:0:
256,192,127260,12,0,126760,0:0:0:0:
256,192,127316,12,0,126816,0:0:0:0:
256,192,127372,12,0,126872,0:0:0:0:
256,192,127427,12,0,126927,0:0:0:0:
256,192,127483,12,0,126983,0:0:0:0:
256,192,127538,12,0,127038,0:0:0:0:
256,192,127594,12,0,127094,0:0:0:0:
256,192,127649,12,0,127149,0:0:0:0:
256,192,127705,12,0,127205,0:0:0:0:
256,192,127760,12,0,127260,0:0:0:0:
256,192,127816,12,0,127316,0:0:0:0:
256,192,127871,12,0,127371,0:0:0:0:
256,192,127927,12,0,127427,0:0:0:0:
256,192,127982,12,0,127482,0:0:0:0:
256,192,128038,12,0,127538,0:0:0:0:
256,192,128093,12,0,127593,0:0:0:0:
256,192,128149,12,0,127649,0:0:0:0:
256,192,128204,12,0,127704,0:0:0:0:
256,192,128260,12,0,127760,0:0:0:0:
256,192,128315,12,0,127815,0:0:0:0:
256,192,128371,12,0,127871,0:0:0:0:
256,192,128426,12,0,127926,0:0:0:0:
256,192,128482,12,0,127982,0:0:0:0:
256,192,128537,12,0,128037,0:0:0:0:
256,192,128593,12,0,128093,0:0:0:0:
256,192,128649,12,0,128149,0:0:0:0:
256,192,128705,12,0,128205,0:0:0:0:
256,192,128760,12,0,128260,0:0:0:0:
256,192,128816,12,0,128316,0:0:0:0:
256,192,128871,12,0,128371,0:0:0:0:
256,192,128927,12,0,128427,0:0:0:0:
256,192,128982,12,0,128482,0:0:0:0:
256,192,129038,12,0,128538,0:0:0:0:
256,192,129093,12,0,128593,0:0:0:0:
256,192,129149,12,0,128649,0:0:0:0:
256,192,129204,12,0,128704,0:0:0:0:
256,192,129260,12,0,128760,0:0:0:0:
256,192,129315,12,0,128815,0:0:0:0:
256,192,129371,12,0,128871,0:0:0:0:
256,192,129426,12,0,128926,0:0:0:0:
256,192,129482,12,0,128982,0:0:0:0:
256,192,129537,12,0,129037,0:0:0:0:
256,192,129593,12,0,129093,0:0:0:0:
256,192,129648,12,0,129148,0:0:0:0:
256,192,129704,12,0,129204,0:0:0:0:
256,192,129759,12,0,129259,0:0:0:0:
256,192,129815,12,0,129315,0:0:0:0:
256,192,129870,12,0,129370,0:0:0:0:
256,192,129926,12,0,129426,0:0:0:0:
256,192,129982,12,0,129482,0:0:0:0:
256,192,130038,12,0,129538,0:0:0:0:
256,192,130093,12,0,129593,0:0:0:0:
256,192,130149,12,0,129649,0:0:0:0:
256,192,130204,12,0,129704,0:0:0:0:
256,192,130260,12,0,129760,0:0:0:0:
256,192,130315,12,0,129815,0:0:0:0:
256,192,130371,12,0,129871,0:0:0:0:
256,192,130426,12,0,129926,0:0:0:0:
256,192,130482,12,0,129982,0:0:0:0:
256,192,130537,12,0,130037,0:0:0:0:
256,192,130593,12,0,130093,0:0:0:0:
256,192,130649,12,0,130149,0:0:0:0:
256,192,130705,12,0,130205,0:0:0:0:
256,192,130760,12,0,130260,0:0:0:0:
256,192,130816,12,0,130316,0:0:0:0:
256,192,130871,12,0,130371,0:0:0:0:
256,192,130927,12,0,130427,0:0:0:0:
256,192,130982,12,0,130482,0:0:0:0:
256,192,131038,12,0,130538,0:0:0:0:
256,192,131093,12,0,130593,0:0:0:0:
256,192,131149,12,0,130649,0:0:0:0:
256,192,131204,12,0,130704,0:0:0:0:
256,192,131260,12,0,130760,0:0:0:0:
256,192,131316,12,0,130816,0:0:0:0:
256,192,131372,12,0,130872,0:0:0:0:
256,192,131427,12,0,130927,0:0:0:0:
256,192,131483,12,0,130983,0:0:0:0:
256,192,131538,12,0,131038,0:0:0:0:
256,192,131594,12,0,131094,0:0:0:0:
256,192,131649,12,0,131149,0:0:0:0:
256,192,131705,12,0,131205,0:0:0:0:
256,192,131760,12,0,131260,0:0:0:0:
256,192,131816,12,0,131316,0:0:0:0:
256,192,131871,12,0,131371,0:0:0:0:
256,192,131927,12,0,131427,0:0:0:0:
256,192,131982,12,0,131482,0:0:0:0:
256,192,132038,12,0,131538,0:0:0:0:
256,192,132093,12,0,131593,0:0:0:0:
256,192,132149,12,0,131649,0:0:0:0:
256,192,132204,12,0,131704,0:0:0:0:
256,192,132260,12,0,131760,0:0:0:0:
256,192,132315,12,0,131815,0:0:0:0:
256,192,132371,12,0,131871,0:0:0:0:
256,192,132426,12,0,131926,0:0:0:0:
256,192,132482,12,0,131982,0:0:0:0:
256,192,132537,12,0,132037,0:0:0:0:
256,192,132593,12,0,132093,0:0:0:0:
256,192,132649,12,0,132149,0:0:0:0:
256,192,132705,12,0,132205,0:0:0:0:
256,192,132760,12,0,132260,0:0:0:0:
256,192,132816,12,0,132316,0:0:0:0:
256,192,132871,12,0,132371,0:0:0:0:
256,192,132927,12,0,132427,0:0:0:0:
256,192,132982,12,0,132482,0:0:0:0:
256,192,133038,12,0,132538,0:0:0:0:
256,192,133093,12,0,132593,0:0:0:0:
256,192,133149,12,0,132649,0:0:0:0:
256,192,133204,12,0,132704,0:0:0:0:
256,192,133260,12,0,132760,0:0:0:0:
256,192,133315,12,0,132815,0:0:0:0:
256,192,133371,12,0,132871,0:0:0:0:
256,192,133426,12,0,132926,0:0:0:0:
256,192,133482,12,0,132982,0:0:0:0:
256,192,133537,12,0,133037,0:0:0:0:
256,192,133593,12,0,133093,0:0:0:0:
256,192,133648,12,0,133148,0:0:0:0:
256,192,133704,12,0,133204,0:0:0:0:
256,192,133759,12,0,133259,0:0:0:0:
256,192,133815,12,0,133315,0:0:0:0:
256,192,133870,12,0,133370,0:0:0:0:
256,192,133926,12,0,133426,0:0:0:0:
256,192,133982,12,0,133482,0:0:0:0:
256,192,134038,12,0,133538,0:0:0:0:
256,192,134093,12,0,133593,0:0:0:0:
256,192,134149,12,0,133649,0:0:0:0:
256,192,134204,12,0,133704,0:0:0:0:
256,192,134260,12,0,133760,0:0:0:0:
256,192,134315,12,0,133815,0:0:0:0:
256,192,134371,12,0,133871,0:0:0:0:
256,192,134426,12,0,133926,0:0:0:0:
256,192,134482,12,0,133982,0:0:0:0:
256,192,134537,12,0,134037,0:0:0:0:
256,192,134593,12,0,134093,0:0:0:0:
256,192,134649,12,0,134149,0:0:0:0:
256,192,134705,12,0,134205,0:0:0:0:
256,192,134760,12,0,134260,0:0:0:0:
256,192,134816,12,0,134316,0:0:0:0:
256,192,134871,12,0,134371,0:0:0:0:
256,192,134927,12,0,134427,0:0:0:0:
256,192,134982,12,0,134482,0:0:0:0:
256,192,135038,12,0,134538,0:0:0:0:
256,192,135093,12,0,134593,0:0:0:0:
256,192,135149,12,0,134649,0:0:0:0:
256,192,135204,12,0,134704,0:0:0:0:
256,192,135260,12,0,134760,0:0:0:0:
256,192,135316,12,0,134816,0:0:0:0:
256,192,135372,12,0,134872,0:0:0:0:
256,192,135427,12,0,134927,0:0:0:0:
256,192,135483,12,0,134983,0:0:0:0:
256,192,135538,12,0,135038,0:0:0:0:
256,192,135594,12,0,135094,0:0:0:0:
256,192,135649,12,0,135149,0:0:0:0:
256,192,135705,12,0,135205,0:0:0:0:
256,192,135760,12,0,135260,0:0:0:0:
256,192,135816,12,0,135316,0:0:0:0:
256,192,135871,12,0,135371,0:0:0:0:
256,192,135927,12,0,135427,0:0:0:0:
256,192,135982,12,0,135482,0:0:0:0:
256,192,136038,12,0,135538,0:0:0:0:
256,192,136093,12,0,135593,0:0:0:0:
256,192,136149,12,0,135649,0:0:0:0:
256,192,136204,12,0,135704,0:0:0:0:
256,192,136260,12,0,135760,0:0:0:0:
256,192,136315,12,0,135815,0:0:0:0:
256,192,136371,12,0,135871,0:0:0:0:
256,192,136426,12,0,135926,0:0:0:0:
256,192,136482,12,0,135982,0:0:0:0:
256,192,136537,12,0,136037,0:0:0:0:
256,192,136593,12,0,136093,0:0:0:0:
256,192,136649,12,0,136149,0:0:0:0:
256,192,136705,12,0,136205,0:0:0:0:
256,192,136760,12,0,136260,0:0:0:0:
256,192,136816,12,0,136316,0:0:0:0:
256,192,136871,12,0,136371,0:0:0:0:
256,192,136927,12,0,136427,0:0:0:0:
256,192,136982,12,0,136482,0:0:0:0:
256,192,137038,12,0,136538,0:0:0:0:
256,192,137093,12,0,136593,0:0:0:0:
256,192,137149,12,0,136649,0:0:0:0:
256,192,137204,12,0,136704,0:0:0:0:
256,192,137260,12,0,136760,0:0:0:0:
256,192,137315,12,0,136815,0:0:0:0:
256,192,137371,12,0,136871,0:0:0:0:
256,192,137426,12,0,136926,0:0:0:0:
256,192,137482,12,0,136982,0:0:0:0:
256,192,137537,12,0,137037,0:0:0:0:
256,192,137593,12,0,137093,0:0:0:0:
256,192,137648,12,0,137148,0:0:0:0:
256,192,137704,12,0,137204,0:0:0:0:
256,192,137759,12,0,137259,0:0:0:0:
256,192,137815,12,0,137315,0:0:0:0:
256,192,137870,12,0,137370,0:0:0:0:
256,192,137926,12,0,137426,0:0:0:0:
256,192,137982,12,0,137482,0:0:0:0:
256,192,138038,12,0,137538,0:0:0:0:
256,192,138093,12,0,137593,0:0:0:0:
256,192,138149,12,0,137649,0:0:0:0:
256,192,138204,12,0,137704,0:0:0:0:
256,192,138260,12,0,137760,0:0:0:0:
256,192,138315,12,0,137815,0:0:0:0:
256,192,138371,12,0,137871,0:0:0:0:
256,192,138426,12,0,137926,0:0:0:0:
256,192,138482,12,0,137982,0:0:0:0:
256,192,138537,12,0,138037,0:0:0:0:
256,192,138593,12,0,138093,0:0:0:0:
256,192,138649,12,0,138149,0:0:0:0:
256,192,138705,12,0,138205,0:0:0:0:
256,192,138760,12,0,138260,0:0:0:0:
256,192,138816,12,0,138316,0:0:0:0:
256,192,138871,12,0,138371,0:0:0:0:
256,192,138927,12,0,138427,0:0:0:0:
256,192,138982,12,0,138482,0:0:0:0:
256,192,139038,12,0,138538,0:0:0:0:
256,192,139093,12,0,138593,0:0:0:0:
256,192,139149,12,0,138649,0:0:0:0:
256,192,139204,12,0,138704,0:0:0:0:
256,192,139260,12,0,138760,0:0:0:0:
256,192,139316,12,0,138816,0:0:0:0:
256,192,139372,12,0,138872,0:0:0:0:
256,192,139427,12,0,138927,0:0:0:0:
256,192,139483,12,0,138983,0:0:0:0:
256,192,139538,12,0,139038,0:0:0:0:
256,192,139594,12,0,139094,0:0:0:0:
256,192,139649,12,0,139149,0:0:0:0:
256,192,139705,12,0,139205,0:0:0:0:
256,192,139760,12,0,139260,0:0:0:0:
256,192,139816,12,0,139316,0:0:0:0:
256,192,139871,12,0,139371,0:0:0:0:
256,192,139927,12,0,139427,0:0:0:0:
256,192,139982,12,0,139482,0:0:0:0:
256,192,140038,12,0,139538,0:0:0:0:
256,192,140093,12,0,139593,0:0:0:0:
256,192,140149,12,0,139649,0:0:0:0:
256,192,140204,12,0,139704,0:0:0:0:
256,192,140260,12,0,139760,0:0:0:0:
256,192,140315,12,0,139815,0:0:0:0:
256,192,140371,12,0,139871,0:0:0:0:
256,192,140426,12,0,139926,0:0:0:0:
256,192,140482,12,0,139982,0:0:0:0:
256,192,140537,12,0,140037,0:0:0:0:
256,192,140593,12,0,140093,0:0:0:0:
256,192,140649,12,0,140149,0:0:0:0:
256,192,140705,12,0,140205,0:0:0:0:
256,192,140760,12,0,140260,0:0:0:0:
256,192,140816,12,0,140316,0:0:0:0:
256,192,140871,12,0,140371,0:0:0:0:
256,192,140927,12,0,140427,0:0:0:0:
256,192,140982,12,0,140482,0:0:0:0:
256,192,141038,12,0,140538,0:0:0:0:
256,192,141093,12,0,140593,0:0:0:0:
256,192,141149,12,0,140649,0:0:0:0:
256,192,141204,12,0,140704,0:0:0:0:
256,192,141260,12,0,140760,0:0:0:0:
256,192,141315,12,0,140815,0:0:0:0:
256,192,141371,12,0,140871,0:0:0:0:
256,192,141426,12,0,140926,0:0:0:0:
256,192,141482,12,0,140982,0:0:0:0:
256,192,141537,12,0,141037,0:0:0:0:
256,192,141593,12,0,141093,0:0:0:0:
256,192,141648,12,0,141148,0:0:0:0:
256,192,141704,12,0,141204,0:0:0:0:
256,192,141759,12,0,141259,0:0:0:0:
256,192,141815,12,0,141315,0:0:0:0:
256,192,141870,12,0,141370,0:0:0:0:
256,192,141926,12,0,141426,0:0:0:0:
256,192,141982,12,0,141482,0:0:0:0:
256,192,142038,12,0,141538,0:0:0:0:
256,192,142093,12,0,141593,0:0:0:0:
256,192,142149,12,0,141649,0:0:0:0:
256,192,142204,12,0,141704,0:0:0:0:
256,192,142260,12,0,141760,0:0:0:0:
256,192,142315,12,0,141815,0:0:0:0:
256,192,142371,12,0,141871,0:0:0:0:
256,192,142426,12,0,141926,0:0:0:0:
256,192,142482,12,0,141982,0:0:0:0:
256,192,142537,12,0,142037,0:0:0:0:
256,192,142593,12,0,142093,0:0:0:0:
256,192,142649,12,0,142149,0:0:0:0:
256,192,142705,12,0,142205,0:0:0:0:
256,192,142760,12,0,142260,0:0:0:0:
256,192,142816,12,0,142316,0:0:0:0:
256,192,142871,12,0,142371,0:0:0:0:
256,192,142927,12,0,142427,0:0:0:0:
256,192,142982,12,0,142482,0:0:0:0:
256,192,143038,12,0,142538,0:0:0:0:
256,192,143093,12,0,142593,0:0:0:0:
256,192,143149,12,0,142649,0:0:0:0:
256,192,143204,12,0,142704,0:0:0:0:
256,192,143260,12,0,142760,0:0:0:0:
256,192,143316,12,0,142816,0:0:0:0:
256,192,143372,12,0,142872,0:0:0:0:
256,192,143427,12,0,142927,0:0:0:0:
256,192,143483,12,0,142983,0:0:0:0:
256,192,143538,12,0,143038,0:0:0:0:
256,192,143594,12,0,143094,0:0:0:0:
256,192,143649,12,0,143149,0:0:0:0:
256,192,143705,12,0,143205,0:0:0:0:
256,192,143760,12,0,143260,0:0:0:0:
256,192,143816,12,0,143316,0:0:0:0:
256,192,143871,12,0,143371,0:0:0:0:
256,192,143927,12,0,143427,0:0:0:0:
256,192,143982,12,0,143482,0:0:0:0:
256,192,144038,12,0,143538,0:0:0:0:
256,192,144093,12,0,143593,0:0:0:0:
256,192,144149,12,0,143649,0:0:0:0:
256,192,144204,12,0,143704,0:0:0:0:
256,192,144260,12,0,143760,0:0:0:0:
256,192,144315,12,0,143815,0:0:0:0:
256,192,144371,12,0,143871,0:0:0:0:
256,192,144426,12,0,143926,0:0:0:0:
256,192,144482,12,0,143982,0:0:0:0:
256,192,144537,12,0,144037,0:0:0:0:
256,192,144593,12,0,144093,0:0:0:0:
256,192,144649,12,0,144149,0:0:0:0:
256,192,144705,12,0,144205,0:0:0:0:
256,192,144760,12,0,144260,0:0:0:0:
256,192,144816,12,0,144316,0:0:0:0:
256,192,144871,12,0,144371,0:0:0:0:
256,192,144927,12,0,144427,0:0:0:0:
256,192,144982,12,0,144482,0:0:0:0:
256,192,145038,12,0,144538,0:0:0:0:
256,192,145093,12,0,144593,0:0:0:0:
256,192,145149,12,0,144649,0:0:0:0:
256,192,145204,12,0,144704,0:0:0:0:
256,192,145260,12,0,144760,0:0:0:0:
256,192,145315,12,0,144815,0:0:0:0:
256,192,145371,12,0,144871,0:0:0:0:
256,192,145426,12,0,144926,0:0:0:0:
256,192,145482,12,0,144982,0:0:0:0:
256,192,145537,12,0,145037,0:0:0:0:
256,192,145593,12,0,145093,0:0:0:0:
256,192,145648,12,0,145148,0:0:0:0:
256,192,145704,12,0,145204,0:0:0:0:
256,192,145759,12,0,145259,0:0:0:0:
256,192,145815,12,0,145315,0:0:0:0:
256,192,145870,12,0,145370,0:0:0:0:
256,192,145926,12,0,145426,0:0:0:0:
256,192,145982,12,0,145482,0:0:0:0:
256,192,146038,12,0,145538,0:0:0:0:
256,192,146093,12,0,145593,0:0:0:0:
256,192,146149,12,0,145649,0:0:0:0:
256,192,146204,12,0,145704,0:0:0:0:
256,192,146260,12,0,145760,0:0:0:0:
256,192,146315,12,0,145815,0:0:0:0:
256,192,146371,12,0,145871,0:0:0:0:
256,192,146426,12,0,145926,0:0:0:0:
256,192,146482,12,0,145982,0:0:0:0:
256,192,146537,12,0,146037,0:0:0:0:
256,192,146593,12,0,146093,0:0:0:0:
256,192,146649,12,0,146149,0:0:0:0:
256,192,146705,12,0,146205,0:0:0:0:
256,192,146760,12,0,146260,0:0:0:0:
256,192,146816,12,0,146316,0:0:0:0:
256,192,146871,12,0,146371,0:0:0:0:
256,192,146927,12,0,146427,0:0:0:0:
256,192,146982,12,0,146482,0:0:0:0:
256,192,147038,12,0,146538,0:0:0:0:
256,192,147093,12,0,146593,0:0:0:0:
256,192,147149,12,0,146649,0:0:0:0:
256,192,147204,12,0,146704,0:0:0:0:
256,192,147260,12,0,146760,0:0:0:0:
256,192,147316,12,0,146816,0:0:0:0:
256,192,147372,12,0,146872,0:0:0:0:
256,192,147427,12,0,146927,0:0:0:0:
256,192,147483,12,0,146983,0:0:0:0:
256,192,147538,12,0,147038,0:0:0:0:
256,192,147594,12,0,147094,0:0:0:0:
256,192,147649,12,0,147149,0:0:0:0:
256,192,147705,12,0,147205,0:0:0:0:
256,192,147760,12,0,147260,0:0:0:0:
256,192,147816,12,0,147316,0:0:0:0:
256,192,147871,12,0,147371,0:0:0:0:
256,192,147927,12,0,147427,0:0:0:0:
256,192,147982,12,0,147482,0:0:0:0:
256,192,148038,12,0,147538,0:0:0:0:
256,192,148093,12,0,147593,0:0:0:0:
256,192,148149,12,0,147649,0:0:0:0:
256,192,148204,12,0,147704,0:0:0:0:
256,192,148260,12,0,147760,0:0:0:0:
256,192,148315,12,0,147815,0:0:0:0:
256,192,148371,12,0,147871,0:0:0:0:
256,192,148426,12,0,147926,0:0:0:0:
256,192,148482,12,0,147982,0:0:0:0:
256,192,148537,12,0,148037,0:0:0:0:
256,192,148593,12,0,148093,0:0:0:0:
256,192,148649,12,0,148149,0:0:0:0:
256,192,148705,12,0,148205,0:0:0:0:
256,192,148760,12,0,148260,0:0:0:0:
256,192,148816,12,0,148316,0:0:0:0:
256,192,148871,12,0,148371,0:0:0:0:
256,192,148927,12,0,148427,0:0:0:0:
256,192,148982,12,0,148482,0:0:0:0:
256,192,149038,12,0,148538,0:0:0:0:
256,192,149093,12,0,148593,0:0:0:0:
256,192,149149,12,0,148649,0:0:0:0:
256,192,149204,12,0,148704,0:0:0:0:
256,192,149260,12,0,148760,0:0:0:0:
256,192,149315,12,0,148815,0:0:0:0:
256,192,149371,12,0,148871,0:0:0:0:
256,192,149426,12,0,148926,0:0:0:0:
256,192,149482,12,0,148982,0:0:0:0:
256,192,149537,12,0,149037,0:0:0:0:
256,192,149593,12,0,149093,0:0:0:0:
256,192,149648,12,0,149148,0:0:0:0:
256,192,149704,12,0,149204,0:0:0:0:
256,192,149759,12,0,149259,0:0:0:0:
256,192,149815,12,0,149315,0:0:0:0:
256,192,149870,12,0,149370,0:0:0:0:
256,192,149926,12,0,149426,0:0:0:0:
256,192,149982,12,0,149482,0:0:0:0:
256,192,150038,12,0,149538,0:0:0:0:
256,192,150093,12,0,149593,0:0:0:0:
256,192,150149,12,0,149649,0:0:0:0:
256,192,150204,12,0,149704,0:0:0:0:
256,192,150260,12,0,149760,0:0:0:0:
256,192,150315,12,0,149815,0:0:0:0:
256,192,150371,12,0,149871,0:0:0:0:
256,192,150426,12,0,149926,0:0:0:0:
256,192,150482,12,0,149982,0:0:0:0:
256,192,150537,12,0,150037,0:0:0:0:
256,192,150593,12,0,150093,0:0:0:0:
256,192,150649,12,0,150149,0:0:0:0:
256,192,150705,12,0,150205,0:0:0:0:
256,192,150760,12,0,150260,0:0:0:0:
256,192,150816,12,0,150316,0:0:0:0:
256,192,150871,12,0,150371,0:0:0:0:
256,192,150927,12,0,150427,0:0:0:0:
256,192,150982,12,0,150482,0:0:0:0:
256,192,151038,12,0,150538,0:0:0:0:
256,192,151093,12,0,150593,0:0:0:0:
256,192,151149,12,0,150649,0:0:0:0:
256,192,151204,12,0,150704,0:0:0:0:
256,192,151260,12,0,150760,0:0:0:0:
256,192,151316,12,0,150816,0:0:0:0:
256,192,151372,12,0,150872,0:0:0:0:
256,192,151427,12,0,150927,0:0:0:0:
256,192,151483,12,0,150983,0:0:0:0:
256,192,151538,12,0,151038,0:0:0:0:
256,192,151594,12,0,151094,0:0:0:0:
256,192,151649,12,0,151149,0:0:0:0:
256,192,151705,12,0,151205,0:0:0:0:
256,192,151760,12,0,151260,0:0:0:0:
256,192,151816,12,0,151316,0:0:0:0:
256,192,151871,12,0,151371,0:0:0:0:
256,192,151927,12,0,151427,0:0:0:0:
256,192,151982,12,0,151482,0:0:0:0:
256,192,152038,12,0,151538,0:0:0:0:
256,192,152093,12,0,151593,0:0:0:0:
256,192,152149,12,0,151649,0:0:0:0:
256,192,152204,12,0,151704,0:0:0:0:
256,192,152260,12,0,151760,0:0:0:0:
256,192,152315,12,0,151815,0:0:0:0:
256,192,152371,12,0,151871,0:0:0:0:
256,192,152426,12,0,151926,0:0:0:0:
256,192,152482,12,0,151982,0:0:0:0:
256,192,152537,12,0,152037,0:0:0:0:
256,192,152593,12,0,152093,0:0:0:0:
256,192,152649,12,0,152149,0:0:0:0:
256,192,152705,12,0,152205,0:0:0:0:
256,192,152760,12,0,152260,0:0:0:0:
256,192,152816,12,0,152316,0:0:0:0:
256,192,152871,12,0,152371,0:0:0:0:
256,192,152927,12,0,152427,0:0:0:0:
256,192,152982,12,0,152482,0:0:0:0:
256,192,153038,12,0,152538,0:0:0:0:
256,192,153093,12,0,152593,0:0:0:0:
256,192,153149,12,0,152649,0:0:0:0:
256,192,153204,12,0,152704,0:0:0:0:
256,192,153260,12,0,152760,0:0:0:0:
256,192,153315,12,0,152815,0:0:0:0:
256,192,153371,12,0,152871,0:0:0:0:
256,192,153426,12,0,152926,0:0:0:0:
256,192,153482,12,0,152982,0:0:0:0:
256,192,153537,12,0,153037,0:0:0:0:
256,192,153593,12,0,153093,0:0:0:0:
256,192,153648,12,0,153148,0:0:0:0:
256,192,153704,12,0,153204,0:0:0:0:
256,192,153759,12,0,153259,0:0:0:0:
256,192,153815,12,0,153315,0:0:0:0:
256,192,153870,12,0,153370,0:0:0:0:
256,192,153926,12,0,153426,0:0:0:0:
256,192,153982,12,0,153482,0:0:0:0:
256,192,154038,12,0,153538,0:0:0:0:
256,192,154093,12,0,153593,0:0:0:0:
256,192,154149,12,0,153649,0:0:0:0:
256,192,154204,12,0,153704,0:0:0:0:
256,192,154260,12,0,153760,0:0:0:0:
256,192,154315,12,0,153815,0:0:0:0:
256,192,154371,12,0,153871,0:0:0:0:
256,192,154426,12,0,153926,0:0:0:0:
256,192,154482,12,0,153982,0:0:0:0:
256,192,154537,12,0,154037,0:0:0:0:
256,192,154593,12,0,154093,0:0:0:0:
256,192,154649,12,0,154149,0:0:0:0:
256,192,154705,12,0,154205,0:0:0:0:
256,192,154760,12,0,154260,0:0:0:0:
256,192,154816,12,0,154316,0:0:0:0:
256,192,154871,12,0,154371,0:0:0:0:
256,192,154927,12,0,154427,0:0:0:0:
256,192,154982,12,0,154482,0:0:0:0:
256,192,155038,12,0,154538,0:0:0:0:
256,192,155093,12,0,154593,0:0:0:0:
256,192,155149,12,0,154649,0:0:0:0:
256,192,155204,12,0,154704,0:0:0:0:
256,192,155260,12,0,154760,0:0:0:0:
256,192,155316,12,0,154816,0:0:0:0:
256,192,155372,12,0,154872,0:0:0:0:
256,192,155427,12,0,154927,0:0:0:0:
256,192,155483,12,0,154983,0:0:0:0:
256,192,155538,12,0,155038,0:0:0:0:
256,192,155594,12,0,155094,0:0:0:0:
256,192,155649,12,0,155149,0:0:0:0:
256,192,155705,12,0,155205,0:0:0:0:
256,192,155760,12,0,155260,0:0:0:0:
256,192,155816,12,0,155316,0:0:0:0:
256,192,155871,12,0,155371,0:0:0:0:
256,192,155927,12,0,155427,0:0:0:0:
256,192,155982,12,0,155482,0:0:0:0:
256,192,156038,12,0,155538,0:0:0:0:
256,192,156093,12,0,155593,0:0:0:0:
256,192,156149,12,0,155649,0:0:0:0:
256,192,156204,12,0,155704,0:0:0:0:
256,192,156260,12,0,155760,0:0:0:0:
256,192,156315,12,0,155815,0:0:0:0:
256,192,156371,12,0,155871,0:0:0:0:
256,192,156426,12,0,155926,0:0:0:0:
256,192,156482,12,0,155982,0:0:0:0:
256,192,156537,12,0,156037,0:0:0:0:
256,192,156593,12,0,156093,0:0:0:0:
256,192,156649,12,0,156149,0:0:0:0:
256,192,156705,12,0,156205,0:0:0:0:
256,192,156760,12,0,156260,0:0:0:0:
256,192,156816,12,0,156316,0:0:0:0:
256,192,156871,12,0,156371,0:0:0:0:
256,192,156927,12,0,156427,0:0:0:0:
256,192,156982,12,0,156482,0:0:0:0:
256,192,157038,12,0,156538,0:0:0:0:
256,192,157093,12,0,156593,0:0:0:0:
256,192,157149,12,0,156649,0:0:0:0:
256,192,157204,12,0,156704,0:0:0:0:
256,192,157260,12,0,156760,0:0:0:0:
256,192,157315,12,0,156815,0:0:0:0:
256,192,157371,12,0,156871,0:0:0:0:
256,192,157426,12,0,156926,0:0:0:0:
256,192,157482,12,0,156982,0:0:0:0:
256,192,157537,12,0,157037,0:0:0:0:
256,192,157593,12,0,157093,0:0:0:0:
256,192,157648,12,0,157148,0:0:0:0:
256,192,157704,12,0,157204,0:0:0:0:
256,192,157759,12,0,157259,0:0:0:0:
256,192,157815,12,0,157315,0:0:0:0:
256,192,157870,12,0,157370,0:0:0:0:
256,192,157926,12,0,157426,0:0:0:0:
256,192,157982,12,0,157482,0:0:0:0:
256,192,158038,12,0,157538,0:0:0:0:
256,192,158093,12,0,157593,0:0:0:0:
256,192,158149,12,0,157649,0:0:0:0:
256,192,158204,12,0,157704,0:0:0:0:
256,192,158260,12,0,157760,0:0:0:0:
256,192,158315,12,0,157815,0:0:0:0:
256,192,158371,12,0,157871,0:0:0:0:
256,192,158426,12,0,157926,0:0:0:0:
256,192,158482,12,0,157982,0:0:0:0:
256,192,158537,12,0,158037,0:0:0:0:
256,192,158593,12,0,158093,0:0:0:0:
256,192,158649,12,0,158149,0:0:0:0:
256,192,158705,12,0,158205,0:0:0:0:
256,192,158760,12,0,158260,0:0:0:0:
256,192,158816,12,0,158316,0:0:0:0:
256,192,158871,12,0,158371,0:0:0:0:
256,192,158927,12,0,158427,0:0:0:0:
256,192,158982,12,0,158482,0:0:0:0:
256,192,159038,12,0,158538,0:0:0:0:
256,192,159093,12,0,158593,0:0:0:0:
256,192,159149,12,0,158649,0:0:0:0:
256,192,159204,12,0,158704,0:0:0:0:
256,192,159260,12,0,158760,0:0:0:0:
256,192,159316,12,0,158816,0:0:0:0:
256,192,159372,12,0,158872,0:0:0:0:
256,192,159427,12,0,158927,0:0:0:0:
256,192,159483,12,0,158983,0:0:0:0:
256,192,159538,12,0,159038,0:0:0:0:
256,192,159594,12,0,159094,0:0:0:0:
256,192,159649,12,0,159149,0:0:0:0:
256,192,159705,12,0,159205,0:0:0:0:
256,192,159760,12,0,159260,0:0:0:0:
256,192,159816,12,0,159316,0:0:0:0:
256,192,159871,12,0,159371,0:0:0:0:
256,192,159927,12,0,159427,0:0:0:0:
256,192,159982,12,0,159482,0:0:0:0:
256,192,160038,12,0,159538,0:0:0:0:
256,192,160093,12,0,159593,0:0:0:0:
256,192,160149,12,0,159649,0:0:0:0:
256,192,160204,12,0,159704,0:0:0:0:
256,192,160260,12,0,159760,0:0:0:0:
256,192,160315,12,0,159815,0:0:0:0:
256,192,160371,12,0,159871,0:0:0:0:
256,192,160426,12,0,159926,0:0:0:0:
256,192,160482,12,0,159982,0:0:0:0:
256,192,160537,12,0,160037,0:0:0:0:
256,192,160593,12,0,160093,0:0:0:0:
256,192,160649,12,0,160149,0:0:0:0:
256,192,160705,12,0,160205,0:0:0:0:
256,192,160760,12,0,160260,0:0:0:0:
256,192,160816,12,0,160316,0:0:0:0:
256,192,160871,12,0,160371,0:0:0:0:
256,192,160927,12,0,160427,0:0:0:0:
256,192,160982,12,0,160482,0:0:0:0:
256,192,161038,12,0,160538,0:0:0:0:
256,192,161093,12,0,160593,0:0:0:0:
256,192,161149,12,0,160649,0:0:0:0:
256,192,161204,12,0,160704,0:0:0:0:
256,192,161260,12,0,160760,0:0:0:0:
256,192,161315,12,0,160815,0:0:0:0:
256,192,161371,12,0,160871,0:0:0:0:
256,192,161426,12,0,160926,0:0:0:0:
256,192,161482,12,0,160982,0:0:0:0:
256,192,161537,12,0,161037,0:0:0:0:
256,192,161593,12,0,161093,0:0:0:0:
256,192,161648,12,0,161148,0:0:0:0:
256,192,161704,12,0,161204,0:0:0:0:
256,192,161759,12,0,161259,0:0:0:0:
256,192,161815,12,0,161315,0:0:0:0:
256,192,161870,12,0,161370,0:0:0:0:
256,192,161926,12,0,161426,0:0:0:0:
256,192,161982,12,0,161482,0:0:0:0:
256,192,162038,12,0,161538,0:0:0:0:
256,192,162093,12,0,161593,0:0:0:0:
256,192,162149,12,0,161649,0:0:0:0:
256,192,162204,12,0,161704,0:0:0:0:
256,192,162260,12,0,161760,0:0:0:0:
256,192,162315,12,0,161815,0:0:0:0:
256,192,162371,12,0,161871,0:0:0:0:
256,192,162426,12,0,161926,0:0:0:0:
256,192,162482,12,0,161982,0:0:0:0:
256,192,162537,12,0,162037,0:0:0:0:
256,192,162593,12,0,162093,0:0:0:0:
256,192,162649,12,0,162149,0:0:0:0:
256,192,162705,12,0,162205,0:0:0:0:
256,192,162760,12,0,162260,0:0:0:0:
256,192,162816,12,0,162316,0:0:0:0:
256,192,162871,12,0,162371,0:0:0:0:
256,192,162927,12,0,162427,0:0:0:0:
256,192,162982,12,0,162482,0:0:0:0:
256,192,163038,12,0,162538,0:0:0:0:
256,192,163093,12,0,162593,0:0:0:0:
256,192,163149,12,0,162649,0:0:0:0:
256,192,163204,12,0,162704,0:0:0:0:
256,192,163260,12,0,162760,0:0:0:0:
256,192,163316,12,0,162816,0:0:0:0:
256,192,163372,12,0,162872,0:0:0:0:
256,192,163427,12,0,162927,0:0:0:0:
256,192,163483,12,0,162983,0:0:0:0:
256,192,163538,12,0,163038,0:0:0:0:
256,192,163594,12,0,163094,0:0:0:0:
256,192,163649,12,0,163149,0:0:0:0:
256,192,163705,12,0,163205,0:0:0:0:
256,192,163760,12,0,163260,0:0:0:0:
256,192,163816,12,0,163316,0:0:0:0:
256,192,163871,12,0,163371,0:0:0:0:
256,192,163927,12,0,163427,0:0:0:0:
256,192,163982,12,0,163482,0:0:0:0:
256,192,164038,12,0,163538,0:0:0:0:
256,192,164093,12,0,163593,0:0:0:0:
256,192,164149,12,0,163649,0:0:0:0:
256,192,164204,12,0,163704,0:0:0:0:
256,192,164260,12,0,163760,0:0:0:0:
256,192,164315,12,0,163815,0:0:0:0:
256,192,164371,12,0,163871,0:0:0:0:
256,192,164426,12,0,163926,0:0:0:0:
256,192,164482,12,0,163982,0:0:0:0:
256,192,164537,12,0,164037,0:0:0:0:
256,192,164593,12,0,164093,0:0:0:0:
256,192,164649,12,0,164149,0:0:0:0:
256,192,164705,12,0,164205,0:0:0:0:
256,192,164760,12,0,164260,0:0:0:0:
256,192,164816,12,0,164316,0:0:0:0:
256,192,164871,12,0,164371,0:0:0:0:
256,192,164927,12,0,164427,0:0:0:0:
256,192,164982,12,0,164482,0:0:0:0:
256,192,165038,12,0,164538,0:0:0:0:
256,192,165093,12,0,164593,0:0:0:0:
256,192,165149,12,0,164649,0:0:0:0:
256,192,165204,12,0,164704,0:0:0:0:
256,192,165260,12,0,164760,0:0:0:0:
256,192,165315,12,0,164815,0:0:0:0:
256,192,165371,12,0,164871,0:0:0:0:
256,192,165426,12,0,164926,0:0:0:0:
256,192,165482,12,0,164982,0:0:0:0:
256,192,165537,12,0,165037,0:0:0:0:
256,192,165593,12,0,165093,0:0:0:0:
256,192,165648,12,0,165148,0:0:0:0:
256,192,165704,12,0,165204,0:0:0:0:
256,192,165759,12,0,165259,0:0:0:0:
256,192,165815,12,0,165315,0:0:0:0:
256,192,165870,12,0,165370,0:0:0:0:
256,192,165926,12,0,165426,0:0:0:0:
256,192,165982,12,0,165482,0:0:0:0:
256,192,166038,12,0,165538,0:0:0:0:
256,192,166093,12,0,165593,0:0:0:0:
256,192,166149,12,0,165649,0:0:0:0:
256,192,166204,12,0,165704,0:0:0:0:
256,192,166260,12,0,165760,0:0:0:0:
256,192,166315,12,0,165815,0:0:0:0:
256,192,166371,12,0,165871,0:0:0:0:
256,192,166426,12,0,165926,0:0:0:0:
256,192,166482,12,0,165982,0:0:0:0:
256,192,166537,12,0,166037,0:0:0:0:
256,192,166593,12,0,166093,0:0:0:0:
256,192,166649,12,0,166149,0:0:0:0:
256,192,166705,12,0,166205,0:0:0:0:
256,192,166760,12,0,166260,0:0:0:0:
256,192,166816,12,0,166316,0:0:0:0:
256,192,166871,12,0,166371,0:0:0:0:
256,192,166927,12,0,166427,0:0:0:0:
256,192,166982,12,0,166482,0:0:0:0:
256,192,167038,12,0,166538,0:0:0:0:
256,192,167093,12,0,166593,0:0:0:0:
256,192,167149,12,0,166649,0:0:0:0:
256,192,167204,12,0,166704,0:0:0:0:
256,192,167260,12,0,166760,0:0:0:0:
256,192,167316,12,0,166816,0:0:0:0:
256,192,167372,12,0,166872,0:0:0:0:
256,192,167427,12,0,166927,0:0:0:0:
256,192,167483,12,0,166983,0:0:0:0:
256,192,167538,12,0,167038,0:0:0:0:
256,192,167594,12,0,167094,0:0:0:0:
256,192,167649,12,0,167149,0:0:0:0:
256,192,167705,12,0,167205,0:0:0:0:
256,192,167760,12,0,167260,0:0:0:0:
256,192,167816,12,0,167316,0:0:0:0:
256,192,167871,12,0,167371,0:0:0:0:
256,192,167927,12,0,167427,0:0:0:0:
256,192,167982,12,0,167482,0:0:0:0:
256,192,168038,12,0,167538,0:0:0:0:
256,192,168093,12,0,167593,0:0:0:0:
256,192,168149,12,0,167649,0:0:0:0:
256,192,168204,12,0,167704,0:0:0:0:
256,192,168260,12,0,167760,0:0:0:0:
256,192,168315,12,0,167815,0:0:0:0:
256,192,168371,12,0,167871,0:0:0:0:
256,192,168426,12,0,167926,0:0:0:0:
256,192,168482,12,0,167982,0:0:0:0:
256,192,168537,12,0,168037,0:0:0:0:
256,192,168593,12,0,168093,0:0:0:0:
256,192,168649,12,0,168149,0:0:0:0:
256,192,168705,12,0,168205,0:0:0:0:
256,192,168760,12,0,168260,0:0:0:0:
256,192,168816,12,0,168316,0:0:0:0:
256,192,168871,12,0,168371,0:0:0:0:
256,192,168927,12,0,168427,0:0:0:0:
256,192,168982,12,0,168482,0:0:0:0:
256,192,169038,12,0,168538,0:0:0:0:
256,192,169093,12,0,168593,0:0:0:0:
256,192,169149,12,0,168649,0:0:0:0:
256,192,169204,12,0,168704,0:0:0:0:
256,192,169260,12,0,168760,0:0:0:0:
256,192,169315,12,0,168815,0:0:0:0:
256,192,169371,12,0,168871,0:0:0:0:
256,192,169426,12,0,168926,0:0:0:0:
256,192,169482,12,0,168982,0:0:0:0:
256,192,169537,12,0,169037,0:0:0:0:
256,192,169593,12,0,169093,0:0:0:0:
256,192,169648,12,0,169148,0:0:0:0:
256,192,169704,12,0,169204,0:0:0:0:
256,192,169759,12,0,169259,0:0:0:0:
256,192,169815,12,0,169315,0:0:0:0:
256,192,169870,12,0,169370,0:0:0:0:
256,192,169926,12,0,169426,0:0:0:0:
256,192,169982,12,0,169482,0:0:0:0:
256,192,170038,12,0,169538,0:0:0:0:
256,192,170093,12,0,169593,0:0:0:0:
256,192,170149,12,0,169649,0:0:0:0:
256,192,170204,12,0,169704,0:0:0:0:
256,192,170260,12,0,169760,0:0:0:0:
256,192,170315,12,0,169815,0:0:0:0:
256,192,170371,12,0,169871,0:0:0:0:
256,192,170426,12,0,169926,0:0:0:0:
256,192,170482,12,0,169982,0:0:0:0:
256,192,170537,12,0,170037,0:0:0:0:
256,192,170593,12,0,170093,0:0:0:0:
256,192,170649,12,0,170149,0:0:0:0:
256,192,170705,12,0,170205,0:0:0:0:
256,192,170760,12,0,170260,0:0:0:0:
256,192,170816,12,0,170316,0:0:0:0:
256,192,170871,12,0,170371,0:0:0:0:
256,192,170927,12,0,170427,0:0:0:0:
256,192,170982,12,0,170482,0:0:0:0:
256,192,171038,12,0,170538,0:0:0:0:
256,192,171093,12,0,170593,0:0:0:0:
256,192,171149,12,0,170649,0:0:0:0:
256,192,171204,12,0,170704,0:0:0:0:
256,192,171260,12,0,170760,0:0:0:0:
256,192,171316,12,0,170816,0:0:0:0:
256,192,171372,12,0,170872,0:0:0:0:
256,192,171427,12,0,170927,0:0:0:0:
256,192,171483,12,0,170983,0:0:0:0:
256,192,171538,12,0,171038,0:0:0:0:
256,192,171594,12,0,171094,0:0:0:0:
256,192,171649,12,0,171149,0:0:0:0:
256,192,171705,12,0,171205,0:0:0:0:
256,192,171760,12,0,171260,0:0:0:0:
256,192,171816,12,0,171316,0:0:0:0:
256,192,171871,12,0,171371,0:0:0:0:
256,192,171927,12,0,171427,0:0:0:0:
256,192,171982,12,0,171482,0:0:0:0:
256,192,172038,12,0,171538,0:0:0:0:
256,192,172093,12,0,171593,0:0:0:0:
256,192,172149,12,0,171649,0:0:0:0:
256,192,172204,12,0,171704,0:0:0:0:
256,192,172260,12,0,171760,0:0:0:0:
256,192,172315,12,0,171815,0:0:0:0:
256,192,172371,12,0,171871,0:0:0:0:
256,192,172426,12,0,171926,0:0:0:0:
256,192,172482,12,0,171982,0:0:0:0:
256,192,172537,12,0,172037,0:0:0:0:
256,192,172593,12,0,172093,0:0:0:0:
256,192,172649,12,0,172149,0:0:0:0:
256,192,172705,12,0,172205,0:0:0:0:
256,192,172760,12,0,172260,0:0:0:0:
256,192,172816,12,0,172316,0:0:0:0:
256,192,172871,12,0,172371,0:0:0:0:
256,192,172927,12,0,172427,0:0:0:0:
256,192,172982,12,0,172482,0:0:0:0:
256,192,173038,12,0,172538,0:0:0:0:
256,192,173093,12,0,172593,0:0:0:0:
256,192,173149,12,0,172649,0:0:0:0:
256,192,173204,12,0,172704,0:0:0:0:
256,192,173260,12,0,172760,0:0:0:0:
256,192,173315,12,0,172815,0:0:0:0:
256,192,173371,12,0,172871,0:0:0:0:
256,192,173426,12,0,172926,0:0:0:0:
256,192,173482,12,0,172982,0:0:0:0:
256,192,173537,12,0,173037,0:0:0:0:
256,192,173593,12,0,173093,0:0:0:0:
256,192,173648,12,0,173148,0:0:0:0:
256,192,173704,12,0,173204,0:0:0:0:
256,192,173759,12,0,173259,0:0:0:0:
256,192,173815,12,0,173315,0:0:0:0:
256,192,173870,12,0,173370,0:0:0:0:
256,192,173926,12,0,173426,0:0:0:0:
256,192,173982,12,0,173482,0:0:0:0:
256,192,174038,12,0,173538,0:0:0:0:
256,192,174093,12,0,173593,0:0:0:0:
256,192,174149,12,0,173649,0:0:0:0:
256,192,174204,12,0,173704,0:0:0:0:
256,192,174260,12,0,173760,0:0:0:0:
256,192,174315,12,0,173815,0:0:0:0:
256,192,174371,12,0,173871,0:0:0:0:
256,192,174426,12,0,173926,0:0:0:0:
256,192,174482,12,0,173982,0:0:0:0:
256,192,174537,12,0,174037,0:0:0:0:
256,192,174593,12,0,174093,0:0:0:0:
256,192,174649,12,0,174149,0:0:0:0:
256,192,174705,12,0,174205,0:0:0:0:
256,192,174760,12,0,174260,0:0:0:0:
256,192,174816,12,0,174316,0:0:0:0:
256,192,174871,12,0,174371,0:0:0:0:
256,192,174927,12,0,174427,0:0:0:0:
256,192,174982,12,0,174482,0:0:0:0:
256,192,175038,12,0,174538,0:0:0:0:
256,192,175093,12,0,174593,0:0:0:0:
256,192,175149,12,0,174649,0:0:0:0:
256,192,175204,12,0,174704,0:0:0:0:
256,192,175260,12,0,174760,0:0:0:0:
256,192,175316,12,0,174816,0:0:0:0:
256,192,175372,12,0,174872,0:0:0:0:
256,192,175427,12,0,174927,0:0:0:0:
256,192,175483,12,0,174983,0:0:0:0:
256,192,175538,12,0,175038,0:0:0:0:
256,192,175594,12,0,175094,0:0:0:0:
256,192,175649,12,0,175149,0:0:0:0:
256,192,175705,12,0,175205,0:0:0:0:
256,192,175760,12,0,175260,0:0:0:0:
256,192,175816,12,0,175316,0:0:0:0:
256,192,175871,12,0,175371,0:0:0:0:
256,192,175927,12,0,175427,0:0:0:0:
256,192,175982,12,0,175482,0:0:0:0:
256,192,176038,12,0,175538,0:0:0:0:
256,192,176093,12,0,175593,0:0:0:0:
256,192,176149,12,0,175649,0:0:0:0:
256,192,176204,12,0,175704,0:0:0:0:
256,192,176260,12,0,175760,0:0:0:0:
256,192,176315,12,0,175815,0:0:0:0:
256,192,176371,12,0,175871,0:0:0:0:
256,192,176426,12,0,175926,0:0:0:0:
256,192,176482,12,0,175982,0:0:0:0:
256,192,176537,12,0,176037,0:0:0:0:
256,192,176593,12,0,176093,0:0:0:0:
256,192,176649,12,0,176149,0:0:0:0:
256,192,176705,12,0,176205,0:0:0:0:
256,192,176760,12,0,176260,0:0:0:0:
256,192,176816,12,0,176316,0:0:0:0:
256,192,176871,12,0,176371,0:0:0:0:
256,192,176927,12,0,176427,0:0:0:0:
256,192,176982,12,0,176482,0:0:0:0:
256,192,177038,12,0,176538,0:0:0:0:
256,192,177093,12,0,176593,0:0:0:0:
256,192,177149,12,0,176649,0:0:0:0:
256,192,177204,12,0,176704,0:0:0:0:
256,192,177260,12,0,176760,0:0:0:0:
256,192,177315,12,0,176815,0:0:0:0:
256,192,177371,12,0,176871,0:0:0:0:
256,192,177426,12,0,176926,0:0:0:0:
256,192,177482,12,0,176982,0:0:0:0:
256,192,177537,12,0,177037,0:0:0:0:
256,192,177593,12,0,177093,0:0:0:0:
256,192,177648,12,0,177148,0:0:0:0:
256,192,177704,12,0,177204,0:0:0:0:
256,192,177759,12,0,177259,0:0:0:0:
256,192,177815,12,0,177315,0:0:0:0:
256,192,177870,12,0,177370,0:0:0:0:
256,192,177926,12,0,177426,0:0:0:0:
256,192,177982,12,0,177482,0:0:0:0:
256,192,178038,12,0,177538,0:0:0:0:
256,192,178093,12,0,177593,0:0:0:0:
256,192,178149,12,0,177649,0:0:0:0:
256,192,178204,12,0,177704,0:0:0:0:
256,192,178260,12,0,177760,0:0:0:0:
256,192,178315,12,0,177815,0:0:0:0:
256,192,178371,12,0,177871,0:0:0:0:
256,192,178426,12,0,177926,0:0:0:0:
256,192,178482,12,0,177982,0:0:0:0:
256,192,178537,12,0,178037,0:0:0:0:
256,192,178593,12,0,178093,0:0:0:0:
256,192,178649,12,0,178149,0:0:0:0:
256,192,178705,12,0,178205,0:0:0:0:
256,192,178760,12,0,178260,0:0:0:0:
256,192,178816,12,0,178316,0:0:0:0:
256,192,178871,12,0,178371,0:0:0:0:
256,192,178927,12,0,178427,0:0:0:0:
256,192,178982,12,0,178482,0:0:0:0:
256,192,179038,12,0,178538,0:0:0:0:
256,192,179093,12,0,178593,0:0:0:0:
256,192,179149,12,0,178649,0:0:0:0:
256,192,179204,12,0,178704,0:0:0:0:
256,192,179260,12,0,178760,0:0:0:0:
256,192,179316,12,0,178816,0:0:0:0:
256,192,179372,12,0,178872,0:0:0:0:
256,192,179427,12,0,178927,0:0:0:0:
256,192,179483,12,0,178983,0:0:0:0:
256,192,179538,12,0,179038,0:0:0:0:
256,192,179594,12,0,179094,0:0:0:0:
256,192,179649,12,0,179149,0:0:0:0:
256,192,179705,12,0,179205,0:0:0:0:
256,192,179760,12,0,179260,0:0:0:0:
256,192,179816,12,0,179316,0:0:0:0:
256,192,179871,12,0,179371,0:0:0:0:
256,192,179927,12,0,179427,0:0:0:0:
256,192,179982,12,0,179482,0:0:0:0:
256,192,180038,12,0,179538,0:0:0:0:
256,192,180093,12,0,179593,0:0:0:0:
256,192,180149,12,0,179649,0:0:0:0:
256,192,180204,12,0,179704,0:0:0:0:
256,192,180260,12,0,179760,0:0:0:0:
256,192,180315,12,0,179815,0:0:0:0:
256,192,180371,12,0,179871,0:0:0:0:
256,192,180426,12,0,179926,0:0:0:0:
256,192,180482,12,0,179982,0:0:0:0:
256,192,180537,12,0,180037,0:0:0:0:
256,192,180593,12,0,180093,0:0:0:0:
256,192,180649,12,0,180149,0:0:0:0:
256,192,180705,12,0,180205,0:0:0:0:
256,192,180760,12,0,180260,0:0:0:0:
256,192,180816,12,0,180316,0:0:0:0:
256,192,180871,12,0,180371,0:0:0:0:
256,192,180927,12,0,180427,0:0:0:0:
256,192,180982,12,0,180482,0:0:0:0:
256,192,181038,12,0,180538,0:0:0:0:
256,192,181093,12,0,180593,0:0:0:0:
256,192,181149,12,0,180649,0:0:0:0:
256,192,181204,12,0,180704,0:0:0:0:
256,192,181260,12,0,180760,0:0:0:0:
256,192,181315,12,0,180815,0:0:0:0:
256,192,181371,12,0,180871,0:0:0:0:
256,192,181426,12,0,180926,0:0:0:0:
256,192,181482,12,0,180982,0:0:0:0:
256,192,181537,12,0,181037,0:0:0:0:
256,192,181593,12,0,181093,0:0:0:0:
256,192,181648,12,0,181148,0:0:0:0:
256,192,181704,12,0,181204,0:0:0:0:
256,192,181759,12,0,181259,0:0:0:0:
256,192,181815,12,0,181315,0:0:0:0:
256,192,181870,12,0,181370,0:0:0:0:
256,192,181926,12,0,181426,0:0:0:0:
256,192,181982,12,0,181482,0:0:0:0:
256,192,182038,12,0,181538,0:0:0:0:
256,192,182093,12,0,181593,0:0:0:0:
256,192,182149,12,0,181649,0:0:0:0:
256,192,182204,12,0,181704,0:0:0:0:
256,192,182260,12,0,181760,0:0:0:0:
256,192,182315,12,0,181815,0:0:0:0:
256,192,182371,12,0,181871,0:0:0:0:
256,192,182426,12,0,181926,0:0:0:0:
256,192,182482,12,0,181982,0:0:0:0:
256,192,182537,12,0,182037,0:0:0:0:
256,192,182593,12,0,182093,0:0:0:0:
256,192,182649,12,0,182149,0:0:0:0:
256,192,182705,12,0,182205,0:0:0:0:
256,192,182760,12,0,182260,0:0:0:0:
256,192,182816,12,0,182316,0:0:0:0:
256,192,182871,12,0,182371,0:0:0:0:
256,192,182927,12,0,182427,0:0:0:0:
256,192,182982,12,0,182482,0:0:0:0:
256,192,183038,12,0,182538,0:0:0:0:
256,192,183093,12,0,182593,0:0:0:0:
256,192,183149,12,0,182649,0:0:0:0:
256,192,183204,12,0,182704,0:0:0:0:
256,192,183260,12,0,182760,0:0:0:0:
256,192,183316,12,0,182816,0:0:0:0:
256,192,183372,12,0,182872,0:0:0:0:
256,192,183427,12,0,182927,0:0:0:0:
256,192,183483,12,0,182983,0:0:0:0:
256,192,183538,12,0,183038,0:0:0:0:
256,192,183594,12,0,183094,0:0:0:0:
256,192,183649,12,0,183149,0:0:0:0:
256,192,183705,12,0,183205,0:0:0:0:
256,192,183760,12,0,183260,0:0:0:0:
256,192,183816,12,0,183316,0:0:0:0:
256,192,183871,12,0,183371,0:0:0:0:
256,192,183927,12,0,183427,0:0:0:0:
256,192,183982,12,0,183482,0:0:0:0:
256,192,184038,12,0,183538,0:0:0:0:
256,192,184093,12,0,183593,0:0:0:0:
256,192,184149,12,0,183649,0:0:0:0:
256,192,184204,12,0,183704,0:0:0:0:
256,192,184260,12,0,183760,0:0:0:0:
256,192,184315,12,0,183815,0:0:0:0:
256,192,184371,12,0,183871,0:0:0:0:
256,192,184426,12,0,183926,0:0:0:0:
256,192,184482,12,0,183982,0:0:0:0:
256,192,184537,12,0,184037,0:0:0:0:
256,192,184593,12,0,184093,0:0:0:0:
256,192,184649,12,0,184149,0:0:0:0:
256,192,184705,12,0,184205,0:0:0:0:
256,192,184760,12,0,184260,0:0:0:0:
256,192,184816,12,0,184316,0:0:0:0:
256,192,184871,12,0,184371,0:0:0:0:
256,192,184927,12,0,184427,0:0:0:0:
256,192,184982,12,0,184482,0:0:0:0:
256,192,185038,12,0,184538,0:0:0:0:
256,192,185093,12,0,184593,0:0:0:0:
256,192,185149,12,0,184649,0:0:0:0:
256,192,185204,12,0,184704,0:0:0:0:
256,192,185260,12,0,184760,0:0:0:0:
256,192,185315,12,0,184815,0:0:0:0:
256,192,185371,12,0,184871,0:0:0:0:
256,192,185426,12,0,184926,0:0:0:0:
256,192,185482,12,0,184982,0:0:0:0:
256,192,185537,12,0,185037,0:0:0:0:
256,192,185593,12,0,185093,0:0:0:0:
256,192,185648,12,0,185148,0:0:0:0:
256,192,185704,12,0,185204,0:0:0:0:
256,192,185759,12,0,185259,0:0:0:0:
256,192,185815,12,0,185315,0:0:0:0:
256,192,185870,12,0,185370,0:0:0:0:
256,192,185926,12,0,185426,0:0:0:0:
256,192,185982,12,0,185482,0:0:0:0:
256,192,186038,12,0,185538,0:0:0:0:
256,192,186093,12,0,185593,0:0:0:0:
256,192,186149,12,0,185649,0:0:0:0:
256,192,186204,12,0,185704,0:0:0:0:
256,192,186260,12,0,185760,0:0:0:0:
256,192,186315,12,0,185815,0:0:0:0:
256,192,186371,12,0,185871,0:0:0:0:
256,192,186426,12,0,185926,0:0:0:0:
256,192,186482,12,0,185982,0:0:0:0:
256,192,186537,12,0,186037,0:0:0:0:
256,192,186593,12,0,186093,0:0:0:0:
256,192,186649,12,0,186149,0:0:0:0:
256,192,186705,12,0,186205,0:0:0:0:
256,192,186760,12,0,186260,0:0:0:0:
256,192,186816,12,0,186316,0:0:0:0:
256,192,186871,12,0,186371,0:0:0:0:
256,192,186927,12,0,186427,0:0:0:0:
256,192,186982,12,0,186482,0:0:0:0:
256,192,187038,12,0,186538,0:0:0:0:
256,192,187093,12,0,186593,0:0:0:0:
256,192,187149,12,0,186649,0:0:0:0:
256,192,187204,12,0,186704,0:0:0:0:
256,192,187260,12,0,186760,0:0:0:0:
256,192,187316,12,0,186816,0:0:0:0:
256,192,187372,12,0,186872,0:0:0:0:
256,192,187427,12,0,186927,0:0:0:0:
256,192,187483,12,0,186983,0:0:0:0:
256,192,187538,12,0,187038,0:0:0:0:
256,192,187594,12,0,187094,0:0:0:0:
256,192,187649,12,0,187149,0:0:0:0:
256,192,187705,12,0,187205,0:0:0:0:
256,192,187760,12,0,187260,0:0:0:0:
256,192,187816,12,0,187316,0:0:0:0:
256,192,187871,12,0,187371,0:0:0:0:
256,192,187927,12,0,187427,0:0:0:0:
256,192,187982,12,0,187482,0:0:0:0:
256,192,188038,12,0,187538,0:0:0:0:
256,192,188093,12,0,187593,0:0:0:0:
256,192,188149,12,0,187649,0:0:0:0:
256,192,188204,12,0,187704,0:0:0:0:
256,192,188260,12,0,187760,0:0:0:0:
256,192,188315,12,0,187815,0:0:0:0:
256,192,188371,12,0,187871,0:0:0:0:
256,192,188426,12,0,187926,0:0:0:0:
256,192,188482,12,0,187982,0:0:0:0:
256,192,188537,12,0,188037,0:0:0:0:
256,192,188593,12,0,188093,0:0:0:0:
256,192,188649,12,0,188149,0:0:0:0:
256,192,188705,12,0,188205,0:0:0:0:
256,192,188760,12,0,188260,0:0:0:0:
256,192,188816,12,0,188316,0:0:0:0:
256,192,188871,12,0,188371,0:0:0:0:
256,192,188927,12,0,188427,0:0:0:0:
256,192,188982,12,0,188482,0:0:0:0:
256,192,189038,12,0,188538,0:0:0:0:
256,192,189093,12,0,188593,0:0:0:0:
256,192,189149,12,0,188649,0:0:0:0:
256,192,189204,12,0,188704,0:0:0:0:
256,192,189260,12,0,188760,0:0:0:0:
256,192,189315,12,0,188815,0:0:0:0:
256,192,189371,12,0,188871,0:0:0:0:
256,192,189426,12,0,188926,0:0:0:0:
256,192,189482,12,0,188982,0:0:0:0:
256,192,189537,12,0,189037,0:0:0:0:
256,192,189593,12,0,189093,0:0:0:0:
256,192,189648,12,0,189148,0:0:0:0:
256,192,189704,12,0,189204,0:0:0:0:
256,192,189759,12,0,189259,0:0:0:0:
256,192,189815,12,0,189315,0:0:0:0:
256,192,189870,12,0,189370,0:0:0:0:
256,192,189926,12,0,189426,0:0:0:0:
256,192,189982,12,0,189482,0:0:0:0:
256,192,190038,12,0,189538,0:0:0:0:
256,192,190093,12,0,189593,0:0:0:0:
256,192,190149,12,0,189649,0:0:0:0:
256,192,190204,12,0,189704,0:0:0:0:
256,192,190260,12,0,189760,0:0:0:0:
256,192,190315,12,0,189815,0:0:0:0:
256,192,190371,12,0,189871,0:0:0:0:
256,192,190426,12,0,189926,0:0:0:0:
256,192,190482,12,0,189982,0:0:0:0:
256,192,190537,12,0,190037,0:0:0:0:
256,192,190593,12,0,190093,0:0:0:0:
256,192,190649,12,0,190149,0:0:0:0:
256,192,190705,12,0,190205,0:0:0:0:
256,192,190760,12,0,190260,0:0:0:0:
256,192,190816,12,0,190316,0:0:0:0:
256,192,190871,12,0,190371,0:0:0:0:
256,192,190927,12,0,190427,0:0:0:0:
256,192,190982,12,0,190482,0:0:0:0:
256,192,191038,12,0,190538,0:0:0:0:
256,192,191093,12,0,190593,0:0:0:0:
256,192,191149,12,0,190649,0:0:0:0:
256,192,191204,12,0,190704,0:0:0:0:
256,192,191260,12,0,190760,0:0:0:0:
256,192,191316,12,0,190816,0:0:0:0:
256,192,191372,12,0,190872,0:0:0:0:
256,192,191427,12,0,190927,0:0:0:0:
256,192,191483,12,0,190983,0:0:0:0:
256,192,191538,12,0,191038,0:0:0:0:
256,192,191594,12,0,191094,0:0:0:0:
256,192,191649,12,0,191149,0:0:0:0:
256,192,191705,12,0,191205,0:0:0:0:
256,192,191760,12,0,191260,0:0:0:0:
256,192,191816,12,0,191316,0:0:0:0:
256,192,191871,12,0,191371,0:0:0:0:
256,192,191927,12,0,191427,0:0:0:0:
256,192,191982,12,0,191482,0:0:0:0:
256,192,192038,12,0,191538,0:0:0:0:
256,192,192093,12,0,191593,0:0:0:0:
256,192,192149,12,0,191649,0:0:0:0:
256,192,192204,12,0,191704,0:0:0:0:
256,192,192260,12,0,191760,0:0:0:0:
256,192,192315,12,0,191815,0:0:0:0:
256,192,192371,12,0,191871,0:0:0:0:
256,192,192426,12,0,191926,0:0:0:0:
256,192,192482,12,0,191982,0:0:0:0:
256,192,192537,12,0,192037,0:0:0:0:
256,192,192593,12,0,192093,0:0:0:0:
256,192,192649,12,0,192149,0:0:0:0:
256,192,192705,12,0,192205,0:0:0:0:
256,192,192760,12,0,192260,0:0:0:0:
256,192,192816,12,0,192316,0:0:0:0:
256,192,192871,12,0,192371,0:0:0:0:
256,192,192927,12,0,192427,0:0:0:0:
256,192,192982,12,0,192482,0:0:0:0:
256,192,193038,12,0,192538,0:0:0:0:
256,192,193093,12,0,192593,0:0:0:0:
256,192,193149,12,0,192649,0:0:0:0:
256,192,193204,12,0,192704,0:0:0:0:
256,192,193260,12,0,192760,0:0:0:0:
256,192,193315,12,0,192815,0:0:0:0:
256,192,193371,12,0,192871,0:0:0:0:
256,192,193426,12,0,192926,0:0:0:0:
256,192,193482,12,0,192982,0:0:0:0:
256,192,193537,12,0,193037,0:0:0:0:
256,192,193593,12,0,193093,0:0:0:0:
256,192,193648,12,0,193148,0:0:0:0:
256,192,193704,12,0,193204,0:0:0:0:
256,192,193759,12,0,193259,0:0:0:0:
256,192,193815,12,0,193315,0:0:0:0:
256,192,193870,12,0,193370,0:0:0:0:
256,192,193926,12,0,193426,0:0:0:0:
256,192,193982,12,0,193482,0:0:0:0:
256,192,194038,12,0,193538,0:0:0:0:
256,192,194093,12,0,193593,0:0:0:0:
256,192,194149,12,0,193649,0:0:0:0:
256,192,194204,12,0,193704,0:0:0:0:
256,192,194260,12,0,193760,0:0:0:0:
256,192,194315,12,0,193815,0:0:0:0:
256,192,194371,12,0,193871,0:0:0:0:
256,192,194426,12,0,193926,0:0:0:0:
256,192,194482,12,0,193982,0:0:0:0:
256,192,194537,12,0,194037,0:0:0:0:
256,192,194593,12,0,194093,0:0:0:0:
256,192,194649,12,0,194149,0:0:0:0:
256,192,194705,12,0,194205,0:0:0:0:
256,192,194760,12,0,194260,0:0:0:0:
256,192,194816,12,0,194316,0:0:0:0:
256,192,194871,12,0,194371,0:0:0:0:
256,192,194927,12,0,194427,0:0:0:0:
256,192,194982,12,0,194482,0:0:0:0:
256,192,195038,12,0,194538,0:0:0:0:
256,192,195093,12,0,194593,0:0:0:0:
256,192,195149,12,0,194649,0:0:0:0:
256,192,195204,12,0,194704,0:0:0:0:
256,192,195260,12,0,194760,0:0:0:0:
256,192,195316,12,0,194816,0:0:0:0:
256,192,195372,12,0,194872,0:0:0:0:
256,192,195427,12,0,194927,0:0:0:0:
256,192,195483,12,0,194983,0:0:0:0:
256,192,195538,12,0,195038,0:0:0:0:
256,192,195594,12,0,195094,0:0:0:0:
256,192,195649,12,0,195149,0:0:0:0:
256,192,195705,12,0,195205,0:0:0:0:
256,192,195760,12,0,195260,0:0:0:0:
256,192,195816,12,0,195316,0:0:0:0:
256,192,195871,12,0,195371,0:0:0:0:
256,192,195927,12,0,195427,0:0:0:0:
256,192,195982,12,0,195482,0:0:0:0:
256,192,196038,12,0,195538,0:0:0:0:
256,192,196093,12,0,195593,0:0:0:0:
256,192,196149,12,0,195649,0:0:0:0:
256,192,196204,12,0,195704,0:0:0:0:
256,192,196260,12,0,195760,0:0:0:0:
256,192,196315,12,0,195815,0:0:0:0:
256,192,196371,12,0,195871,0:0:0:0:
256,192,196426,12,0,195926,0:0:0:0:
256,192,196482,12,0,195982,0:0:0:0:
256,192,196537,12,0,196037,0:0:0:0:
256,192,196593,12,0,196093,0:0:0:0:
256,192,196649,12,0,196149,0:0:0:0:
256,192,196705,12,0,196205,0:0:0:0:
256,192,196760,12,0,196260,0:0:0:0:
256,192,196816,12,0,196316,0:0:0:0:
256,192,196871,12,0,196371,0:0:0:0:
256,192,196927,12,0,196427,0:0:0:0:
256,192,196982,12,0,196482,0:0:0:0:
256,192,197038,12,0,196538,0:0:0:0:
256,192,197093,12,0,196593,0:0:0:0:
256,192,197149,12,0,196649,0:0:0:0:
256,192,197204,12,0,196704,0:0:0:0:
256,192,197260,12,0,196760,0:0:0:0:
256,192,197315,12,0,196815,0:0:0:0:
256,192,197371,12,0,196871,0:0:0:0:
256,192,197426,12,0,196926,0:0:0:0:
256,192,197482,12,0,196982,0:0:0:0:
256,192,197537,12,0,197037,0:0:0:0:
256,192,197593,12,0,197093,0:0:0:0:
256,192,197648,12,0,197148,0:0:0:0:
256,192,197704,12,0,197204,0:0:0:0:
256,192,197759,12,0,197259,0:0:0:0:
256,192,197815,12,0,197315,0:0:0:0:
256,192,197870,12,0,197370,0:0:0:0:
256,192,197926,12,0,197426,0:0:0:0:
256,192,197982,12,0,197482,0:0:0:0:
256,192,198038,12,0,197538,0:0:0:0:
256,192,198093,12,0,197593,0:0:0:0:
256,192,198149,12,0,197649,0:0:0:0:
256,192,198204,12,0,197704,0:0:0:0:
256,192,198260,12,0,197760,0:0:0:0:
256,192,198315,12,0,197815,0:0:0:0:
256,192,198371,12,0,197871,0:0:0:0:
256,192,198426,12,0,197926,0:0:0:0:
256,192,198482,12,0,197982,0:0:0:0:
256,192,198537,12,0,198037,0:0:0:0:
256,192,198593,12,0,198093,0:0:0:0:
256,192,198649,12,0,198149,0:0:0:0:
256,192,198705,12,0,198205,0:0:0:0:
256,192,198760,12,0,198260,0:0:0:0:
256,192,198816,12,0,198316,0:0:0:0:
256,192,198871,12,0,198371,0:0:0:0:
256,192,198927,12,0,198427,0:0:0:0:
256,192,198982,12,0,198482,0:0:0:0:
256,192,199038,12,0,198538,0:0:0:0:
256,192,199093,12,0,198593,0:0:0:0:
256,192,199149,12,0,198649,0:0:0:0:
256,192,199204,12,0,198704,0:0:0:0:
256,192,199260,12,0,198760,0:0:0:0:
256,192,199316,12,0,198816,0:0:0:0:
256,192,199372,12,0,198872,0:0:0:0:
256,192,199427,12,0,198927,0:0:0:0:
256,192,199483,12,0,198983,0:0:0:0:
256,192,199538,12,0,199038,0:0:0:0:
256,192,199594,12,0,199094,0:0:0:0:
256,192,199649,12,0,199149,0:0:0:0:
256,192,199705,12,0,199205,0:0:0:0:
256,192,199760,12,0,199260,0:0:0:0:
256,192,199816,12,0,199316,0:0:0:0:
256,192,199871,12,0,199371,0:0:0:0:
256,192,199927,12,0,199427,0:0:0:0:
256,192,199982,12,0,199482,0:0:0:0:
256,192,200038,12,0,199538,0:0:0:0:
256,192,200093,12,0,199593,0:0:0:0:
256,192,200149,12,0,199649,0:0:0:0:
256,192,200204,12,0,199704,0:0:0:0:
256,192,200260,12,0,199760,0:0:0:0:
256,192,200315,12,0,199815,0:0:0:0:
256,192,200371,12,0,199871,0:0:0:0:
256,192,200426,12,0,199926,0:0:0:0:
256,192,200482,12,0,199982,0:0:0:0:
256,192,200537,12,0,200037,0:0:0:0:
256,192,200593,12,0,200093,0:0:0:0:
256,192,200649,12,0,200149,0:0:0:0:
256,192,200705,12,0,200205,0:0:0:0:
256,192,200760,12,0,200260,0:0:0:0:
256,192,200816,12,0,200316,0:0:0:0:
256,192,200871,12,0,200371,0:0:0:0:
256,192,200927,12,0,200427,0:0:0:0:
256,192,200982,12,0,200482,0:0:0:0:
256,192,201038,12,0,200538,0:0:0:0:
256,192,201093,12,0,200593,0:0:0:0:
256,192,201149,12,0,200649,0:0:0:0:
256,192,201204,12,0,200704,0:0:0:0:
256,192,201260,12,0,200760,0:0:0:0:
256,192,201315,12,0,200815,0:0:0:0:
256,192,201371,12,0,200871,0:0:0:0:
256,192,201426,12,0,200926,0:0:0:0:
256,192,201482,12,0,200982,0:0:0:0:
256,192,201537,12,0,201037,0:0:0:0:
256,192,201593,12,0,201093,0:0:0:0:
256,192,201648,12,0,201148,0:0:0:0:
256,192,201704,12,0,201204,0:0:0:0:
256,192,201759,12,0,201259,0:0:0:0:
256,192,201815,12,0,201315,0:0:0:0:
256,192,201870,12,0,201370,0:0:0:0:
256,192,201926,12,0,201426,0:0:0:0:
256,192,201982,12,0,201482,0:0:0:0:
256,192,202038,12,0,201538,0:0:0:0:
256,192,202093,12,0,201593,0:0:0:0:
256,192,202149,12,0,201649,0:0:0:0:
256,192,202204,12,0,201704,0:0:0:0:
256,192,202260,12,0,201760,0:0:0:0:
256,192,202315,12,0,201815,0:0:0:0:
256,192,202371,12,0,201871,0:0:0:0:
256,192,202426,12,0,201926,0:0:0:0:
256,192,202482,12,0,201982,0:0:0:0:
256,192,202537,12,0,202037,0:0:0:0:
256,192,202593,12,0,202093,0:0:0:0:
256,192,202649,12,0,202149,0:0:0:0:
256,192,202705,12,0,202205,0:0:0:0:
256,192,202760,12,0,202260,0:0:0:0:
256,192,202816,12,0,202316,0:0:0:0:
256,192,202871,12,0,202371,0:0:0:0:
256,192,202927,12,0,202427,0:0:0:0:
256,192,202982,12,0,202482,0:0:0:0:
256,192,203038,12,0,202538,0:0:0:0:
256,192,203093,12,0,202593,0:0:0:0:
256,192,203149,12,0,202649,0:0:0:0:
256,192,203204,12,0,202704,0:0:0:0:
256,192,203260,12,0,202760,0:0:0:0:
256,192,203316,12,0,202816,0:0:0:0:
256,192,203372,12,0,202872,0:0:0:0:
256,192,203427,12,0,202927,0:0:0:0:
256,192,203483,12,0,202983,0:0:0:0:
256,192,203538,12,0,203038,0:0:0:0:
256,192,203594,12,0,203094,0:0:0:0:
256,192,203649,12,0,203149,0:0:0:0:
256,192,203705,12,0,203205,0:0:0:0:
256,192,203760,12,0,203260,0:0:0:0:
256,192,203816,12,0,203316,0:0:0:0:
256,192,203871,12,0,203371,0:0:0:0:
256,192,203927,12,0,203427,0:0:0:0:
256,192,203982,12,0,203482,0:0:0:0:
256,192,204038,12,0,203538,0:0:0:0:
256,192,204093,12,0,203593,0:0:0:0:
256,192,204149,12,0,203649,0:0:0:0:
256,192,204204,12,0,203704,0:0:0:0:
256,192,204260,12,0,203760,0:0:0:0:
256,192,204315,12,0,203815,0:0:0:0:
256,192,204371,12,0,203871,0:0:0:0:
256,192,204426,12,0,203926,0:0:0:0:
256,192,204482,12,0,203982,0:0:0:0:
256,192,204537,12,0,204037,0:0:0:0:
256,192,204593,12,0,204093,0:0:0:0:
256,192,204649,12,0,204149,0:0:0:0:
256,192,204705,12,0,204205,0:0:0:0:
256,192,204760,12,0,204260,0:0:0:0:
256,192,204816,12,0,204316,0:0:0:0:
256,192,204871,12,0,204371,0:0:0:0:
256,192,204927,12,0,204427,0:0:0:0:
256,192,204982,12,0,204482,0:0:0:0:
256,192,205038,12,0,204538,0:0:0:0:
256,192,205093,12,0,204593,0:0:0:0:
256,192,205149,12,0,204649,0:0:0:0:
256,192,205204,12,0,204704,0:0:0:0:
256,192,205260,12,0,204760,0:0:0:0:
256,192,205315,12,0,204815,0:0:0:0:
256,192,205371,12,0,204871,0:0:0:0:
256,192,205426,12,0,204926,0:0:0:0:
256,192,205482,12,0,204982,0:0:0:0:
256,192,205537,12,0,205037,0:0:0:0:
256,192,205593,12,0,205093,0:0:0:0:
256,192,205648,12,0,205148,0:0:0:0:
256,192,205704,12,0,205204,0:0:0:0:
256,192,205759,12,0,205259,0:0:0:0:
256,192,205815,12,0,205315,0:0:0:0:
256,192,205870,12,0,205370,0:0:0:0:
256,192,205926,12,0,205426,0:0:0:0:
256,192,205982,12,0,205482,0:0:0:0:
256,192,206038,12,0,205538,0:0:0:0:
256,192,206093,12,0,205593,0:0:0:0:
256,192,206149,12,0,205649,0:0:0:0:
256,192,206204,12,0,205704,0:0:0:0:
256,192,206260,12,0,205760,0:0:0:0:
256,192,206315,12,0,205815,0:0:0:0:
256,192,206371,12,0,205871,0:0:0:0:
256,192,206426,12,0,205926,0:0:0:0:
256,192,206482,12,0,205982,0:0:0:0:
256,192,206537,12,0,206037,0:0:0:0:
256,192,206593,12,0,206093,0:0:0:0:
256,192,206649,12,0,206149,0:0:0:0:
256,192,206705,12,0,206205,0:0:0:0:
256,192,206760,12,0,206260,0:0:0:0:
256,192,206816,12,0,206316,0:0:0:0:
256,192,206871,12,0,206371,0:0:0:0:
256,192,206927,12,0,206427,0:0:0:0:
256,192,206982,12,0,206482,0:0:0:0:
256,192,207038,12,0,206538,0:0:0:0:
256,192,207093,12,0,206593,0:0:0:0:
256,192,207149,12,0,206649,0:0:0:0:
256,192,207204,12,0,206704,0:0:0:0:
256,192,207260,12,0,206760,0:0:0:0:
256,192,207316,12,0,206816,0:0:0:0:
256,192,207372,12,0,206872,0:0:0:0:
256,192,207427,12,0,206927,0:0:0:0:
256,192,207483,12,0,206983,0:0:0:0:
256,192,207538,12,0,207038,0:0:0:0:
256,192,207594,12,0,207094,0:0:0:0:
256,192,207649,12,0,207149,0:0:0:0:
256,192,207705,12,0,207205,0:0:0:0:
256,192,207760,12,0,207260,0:0:0:0:
256,192,207816,12,0,207316,0:0:0:0:
256,192,207871,12,0,207371,0:0:0:0:
256,192,207927,12,0,207427,0:0:0:0:
256,192,207982,12,0,207482,0:0:0:0:
256,192,208038,12,0,207538,0:0:0:0:
256,192,208093,12,0,207593,0:0:0:0:
256,192,208149,12,0,207649,0:0:0:0:
256,192,208204,12,0,207704,0:0:0:0:
256,192,208260,12,0,207760,0:0:0:0:
256,192,208315,12,0,207815,0:0:0:0:
256,192,208371,12,0,207871,0:0:0:0:
256,192,208426,12,0,207926,0:0:0:0:
256,192,208482,12,0,207982,0:0:0:0:
256,192,208537,12,0,208037,0:0:0:0:
256,192,208593,12,0,208093,0:0:0:0:
256,192,208649,12,0,208149,0:0:0:0:
256,192,208705,12,0,208205,0:0:0:0:
256,192,208760,12,0,208260,0:0:0:0:
256,192,208816,12,0,208316,0:0:0:0:
256,192,208871,12,0,208371,0:0:0:0:
256,192,208927,12,0,208427,0:0:0:0:
256,192,208982,12,0,208482,0:0:0:0:
256,192,209038,12,0,208538,0:0:0:0:
256,192,209093,12,0,208593,0:0:0:0:
256,192,209149,12,0,208649,0:0:0:0:
256,192,209204,12,0,208704,0:0:0:0:
256,192,209260,12,0,208760,0:0:0:0:
256,192,209315,12,0,208815,0:0:0:0:
256,192,209371,12,0,208871,0:0:0:0:
256,192,209426,12,0,208926,0:0:0:0:
256,192,209482,12,0,208982,0:0:0:0:
256,192,209537,12,0,209037,0:0:0:0:
256,192,209593,12,0,209093,0:0:0:0:
256,192,209648,12,0,209148,0:0:0:0:
256,192,209704,12,0,209204,0:0:0:0:
256,192,209759,12,0,209259,0:0:0:0:
256,192,209815,12,0,209315,0:0:0:0:
256,192,209870,12,0,209370,0:0:0:0:
256,192,209926,12,0,209426,0:0:0:0:
256,192,209982,12,0,209482,0:0:0:0:
256,192,210038,12,0,209538,0:0:0:0:
256,192,210093,12,0,209593,0:0:0:0:
256,192,210149,12,0,209649,0:0:0:0:
256,192,210204,12,0,209704,0:0:0:0:
256,192,210260,12,0,209760,0:0:0:0:
256,192,210315,12,0,209815,0:0:0:0:
256,192,210371,12,0,209871,0:0:0:0:
256,192,210426,12,0,209926,0:0:0:0:
256,192,210482,12,0,209982,0:0:0:0:
256,192,210537,12,0,210037,0:0:0:0:
256,192,210593,12,0,210093,0:0:0:0:
256,192,210649,12,0,210149,0:0:0:0:
256,192,210705,12,0,210205,0:0:0:0:
256,192,210760,12,0,210260,0:0:0:0:
256,192,210816,12,0,210316,0:0:0:0:
256,192,210871,12,0,210371,0:0:0:0:
256,192,210927,12,0,210427,0:0:0:0:
256,192,210982,12,0,210482,0:0:0:0:
256,192,211038,12,0,210538,0:0:0:0:
256,192,211093,12,0,210593,0:0:0:0:
256,192,211149,12,0,210649,0:0:0:0:
256,192,211204,12,0,210704,0:0:0:0:
256,192,211260,12,0,210760,0:0:0:0:
256,192,211316,12,0,210816,0:0:0:0:
256,192,211372,12,0,210872,0:0:0:0:
256,192,211427,12,0,210927,0:0:0:0:
256,192,211483,12,0,210983,0:0:0:0:
256,192,211538,12,0,211038,0:0:0:0:
256,192,211594,12,0,211094,0:0:0:0:
256,192,211649,12,0,211149,0:0:0:0:
256,192,211705,12,0,211205,0:0:0:0:
256,192,211760,12,0,211260,0:0:0:0:
256,192,211816,12,0,211316,0:0:0:0:
256,192,211871,12,0,211371,0:0:0:0:
256,192,211927,12,0,211427,0:0:0:0:
256,192,211982,12,0,211482,0:0:0:0:
256,192,212038,12,0,211538,0:0:0:0:
256,192,212093,12,0,211593,0:0:0:0:
256,192,212149,12,0,211649,0:0:0:0:
256,192,212204,12,0,211704,0:0:0:0:
256,192,212260,12,0,211760,0:0:0:0:
256,192,212315,12,0,211815,0:0:0:0:
256,192,212371,12,0,211871,0:0:0:0:
256,192,212426,12,0,211926,0:0:0:0:
256,192,212482,12,0,211982,0:0:0:0:
256,192,212537,12,0,212037,0:0:0:0:
256,192,212593,12,0,212093,0:0:0:0:
256,192,212649,12,0,212149,0:0:0:0:
256,192,212705,12,0,212205,0:0:0:0:
256,192,212760,12,0,212260,0:0:0:0:
256,192,212816,12,0,212316,0:0:0:0:
256,192,212871,12,0,212371,0:0:0:0:
256,192,212927,12,0,212427,0:0:0:0:
256,192,212982,12,0,212482,0:0:0:0:
256,192,213038,12,0,212538,0:0:0:0:
256,192,213093,12,0,212593,0:0:0:0:
256,192,213149,12,0,212649,0:0:0:0:
256,192,213204,12,0,212704,0:0:0:0:
256,192,213260,12,0,212760,0:0:0:0:
256,192,213315,12,0,212815,0:0:0:0:
256,192,213371,12,0,212871,0:0:0:0:
256,192,213426,12,0,212926,0:0:0:0:
256,192,213482,12,0,212982,0:0:0:0:
256,192,213537,12,0,213037,0:0:0:0:
256,192,213593,12,0,213093,0:0:0:0:
256,192,213648,12,0,213148,0:0:0:0:
256,192,213704,12,0,213204,0:0:0:0:
256,192,213759,12,0,213259,0:0:0:0:
256,192,213815,12,0,213315,0:0:0:0:
256,192,213870,12,0,213370,0:0:0:0:
256,192,213926,12,0,213426,0:0:0:0:
256,192,213982,12,0,213482,0:0:0:0:
256,192,214038,12,0,213538,0:0:0:0:
256,192,214093,12,0,213593,0:0:0:0:
256,192,214149,12,0,213649,0:0:0:0:
256,192,214204,12,0,213704,0:0:0:0:
256,192,214260,12,0,213760,0:0:0:0:
256,192,214315,12,0,213815,0:0:0:0:
256,192,214371,12,0,213871,0:0:0:0:
256,192,214426,12,0,213926,0:0:0:0:
256,192,214482,12,0,213982,0:0:0:0:
256,192,214537,12,0,214037,0:0:0:0:
256,192,214593,12,0,214093,0:0:0:0:
256,192,214649,12,0,214149,0:0:0:0:
256,192,214705,12,0,214205,0:0:0:0:
256,192,214760,12,0,214260,0:0:0:0:
256,192,214816,12,0,214316,0:0:0:0:
256,192,214871,12,0,214371,0:0:0:0:
256,192,214927,12,0,214427,0:0:0:0:
256,192,214982,12,0,214482,0:0:0:0:
256,192,215038,12,0,214538,0:0:0:0:
256,192,215093,12,0,214593,0:0:0:0:
256,192,215149,12,0,214649,0:0:0:0:
256,192,215204,12,0,214704,0:0:0:0:
256,192,215260,12,0,214760,0:0:0:0:
256,192,215316,12,0,214816,0:0:0:0:
256,192,215372,12,0,214872,0:0:0:0:
256,192,215427,12,0,214927,0:0:0:0:
256,192,215483,12,0,214983,0:0:0:0:
256,192,215538,12,0,215038,0:0:0:0:
256,192,215594,12,0,215094,0:0:0:0:
256,192,215649,12,0,215149,0:0:0:0:
256,192,215705,12,0,215205,0:0:0:0:
256,192,215760,12,0,215260,0:0:0:0:
256,192,215816,12,0,215316,0:0:0:0:
256,192,215871,12,0,215371,0:0:0:0:
256,192,215927,12,0,215427,0:0:0:0:
256,192,215982,12,0,215482,0:0:0:0:
256,192,216038,12,0,215538,0:0:0:0:
256,192,216093,12,0,215593,0:0:0:0:
256,192,216149,12,0,215649,0:0:0:0:
256,192,216204,12,0,215704,0:0:0:0:
256,192,216260,12,0,215760,0:0:0:0:
256,192,216315,12,0,215815,0:0:0:0:
256,192,216371,12,0,215871,0:0:0:0:
256,192,216426,12,0,215926,0:0:0:0:
256,192,216482,12,0,215982,0:0:0:0:
256,192,216537,12,0,216037,0:0:0:0:
256,192,216593,12,0,216093,0:0:0:0:
256,192,216649,12,0,216149,0:0:0:0:
256,192,216705,12,0,216205,0:0:0:0:
256,192,216760,12,0,216260,0:0:0:0:
256,192,216816,12,0,216316,0:0:0:0:
256,192,216871,12,0,216371,0:0:0:0:
256,192,216927,12,0,216427,0:0:0:0:
256,192,216982,12,0,216482,0:0:0:0:
256,192,217038,12,0,216538,0:0:0:0:
256,192,217093,12,0,216593,0:0:0:0:
256,192,217149,12,0,216649,0:0:0:0:
256,192,217204,12,0,216704,0:0:0:0:
256,192,217260,12,0,216760,0:0:0:0:
256,192,217315,12,0,216815,0:0:0:0:
256,192,217371,12,0,216871,0:0:0:0:
256,192,217426,12,0,216926,0:0:0:0:
256,192,217482,12,0,216982,0:0:0:0:
256,192,217537,12,0,217037,0:0:0:0:
256,192,217593,12,0,217093,0:0:0:0:
256,192,217648,12,0,217148,0:0:0:0:
256,192,217704,12,0,217204,0:0:0:0:
256,192,217759,12,0,217259,0:0:0:0:
256,192,217815,12,0,217315,0:0:0:0:
256,192,217870,12,0,217370,0:0:0:0:
256,192,217926,12,0,217426,0:0:0:0:
256,192,217982,12,0,217482,0:0:0:0:
256,192,218038,12,0,217538,0:0:0:0:
256,192,218093,12,0,217593,0:0:0:0:
256,192,218149,12,0,217649,0:0:0:0:
256,192,218204,12,0,217704,0:0:0:0:
256,192,218260,12,0,217760,0:0:0:0:
256,192,218315,12,0,217815,0:0:0:0:
256,192,218371,12,0,217871,0:0:0:0:
256,192,218426,12,0,217926,0:0:0:0:
256,192,218482,12,0,217982,0:0:0:0:
256,192,218537,12,0,218037,0:0:0:0:
256,192,218593,12,0,218093,0:0:0:0:
256,192,218649,12,0,218149,0:0:0:0:
256,192,218705,12,0,218205,0:0:0:0:
256,192,218760,12,0,218260,0:0:0:0:
256,192,218816,12,0,218316,0:0:0:0:
256,192,218871,12,0,218371,0:0:0:0:
256,192,218927,12,0,218427,0:0:0:0:
256,192,218982,12,0,218482,0:0:0:0:
256,192,219038,12,0,218538,0:0:0:0:
256,192,219093,12,0,218593,0:0:0:0:
256,192,219149,12,0,218649,0:0:0:0:
256,192,219204,12,0,218704,0:0:0:0:
256,192,219260,12,0,218760,0:0:0:0:
256,192,219316,12,0,218816,0:0:0:0:
256,192,219372,12,0,218872,0:0:0:0:
256,192,219427,12,0,218927,0:0:0:0:
256,192,219483,12,0,218983,0:0:0:0:
256,192,219538,12,0,219038,0:0:0:0:
256,192,219594,12,0,219094,0:0:0:0:
256,192,219649,12,0,219149,0:0:0:0:
256,192,219705,12,0,219205,0:0:0:0:
256,192,219760,12,0,219260,0:0:0:0:
256,192,219816,12,0,219316,0:0:0:0:
256,192,219871,12,0,219371,0:0:0:0:
256,192,219927,12,0,219427,0:0:0:0:
256,192,219982,12,0,219482,0:0:0:0:
256,192,220038,12,0,219538,0:0:0:0:
256,192,220093,12,0,219593,0:0:0:0:
256,192,220149,12,0,219649,0:0:0:0:
256,192,220204,12,0,219704,0:0:0:0:
256,192,220260,12,0,219760,0:0:0:0:
256,192,220315,12,0,219815,0:0:0:0:
256,192,220371,12,0,219871,0:0:0:0:
256,192,220426,12,0,219926,0:0:0:0:
256,192,220482,12,0,219982,0:0:0:0:
256,192,220537,12,0,220037,0:0:0:0:
256,192,220593,12,0,220093,0:0:0:0:
256,192,220649,12,0,220149,0:0:0:0:
256,192,220705,12,0,220205,0:0:0:0:
256,192,220760,12,0,220260,0:0:0:0:
256,192,220816,12,0,220316,0:0:0:0:
256,192,220871,12,0,220371,0:0:0:0:
256,192,220927,12,0,220427,0:0:0:0:
256,192,220982,12,0,220482,0:0:0:0:
256,192,221038,12,0,220538,0:0:0:0:
256,192,221093,12,0,220593,0:0:0:0:
256,192,221149,12,0,220649,0:0:0:0:
256,192,221204,12,0,220704,0:0:0:0:
256,192,221260,12,0,220760,0:0:0:0:
256,192,221315,12,0,220815,0:0:0:0:
256,192,221371,12,0,220871,0:0:0:0:
256,192,221426,12,0,220926,0:0:0:0:
256,192,221482,12,0,220982,0:0:0:0:
256,192,221537,12,0,221037,0:0:0:0:
256,192,221593,12,0,221093,0:0:0:0:
256,192,221648,12,0,221148,0:0:0:0:
256,192,221704,12,0,221204,0:0:0:0:
256,192,221759,12,0,221259,0:0:0:0:
256,192,221815,12,0,221315,0:0:0:0:
256,192,221870,12,0,221370,0:0:0:0:
256,192,221926,12,0,221426,0:0:0:0:
256,192,221982,12,0,221482,0:0:0:0:
256,192,222038,12,0,221538,0:0:0:0:
256,192,222093,12,0,221593,0:0:0:0:
256,192,222149,12,0,221649,0:0:0:0:
256,192,222204,12,0,221704,0:0:0:0:
256,192,222260,12,0,221760,0:0:0:0:
256,192,222315,12,0,221815,0:0:0:0:
256,192,222371,12,0,221871,0:0:0:0:
256,192,222426,12,0,221926,0:0:0:0:
256,192,222482,12,0,221982,0:0:0:0:
256,192,222537,12,0,222037,0:0:0:0:
256,192,222593,12,0,222093,0:0:0:0:
256,192,222649,12,0,222149,0:0:0:0:
256,192,222705,12,0,222205,0:0:0:0:
256,192,222760,12,0,222260,0:0:0:0:
256,192,222816,12,0,222316,0:0:0:0:
256,192,222871,12,0,222371,0:0:0:0:
256,192,222927,12,0,222427,0:0:0:0:
256,192,222982,12,0,222482,0:0:0:0:
256,192,223038,12,0,222538,0:0:0:0:
256,192,223093,12,0,222593,0:0:0:0:
256,192,223149,12,0,222649,0:0:0:0:
256,192,223204,12,0,222704,0:0:0:0:
256,192,223260,12,0,222760,0:0:0:0:
256,192,223316,12,0,222816,0:0:0:0:
256,192,223372,12,0,222872,0:0:0:0:
256,192,223427,12,0,222927,0:0:0:0:
256,192,223483,12,0,222983,0:0:0:0:
256,192,223538,12,0,223038,0:0:0:0:
256,192,223594,12,0,223094,0:0:0:0:
256,192,223649,12,0,223149,0:0:0:0:
256,192,223705,12,0,223205,0:0:0:0:
256,192,223760,12,0,223260,0:0:0:0:
256,192,223816,12,0,223316,0:0:0:0:
256,192,223871,12,0,223371,0:0:0:0:
256,192,223927,12,0,223427,0:0:0:0:
256,192,223982,12,0,223482,0:0:0:0:
256,192,224038,12,0,223538,0:0:0:0:
256,192,224093,12,0,223593,0:0:0:0:
256,192,224149,12,0,223649,0:0:0:0:
256,192,224204,12,0,223704,0:0:0:0:
256,192,224260,12,0,223760,0:0:0:0:
256,192,224315,12,0,223815,0:0:0:0:
256,192,224371,12,0,223871,0:0:0:0:
256,192,224426,12,0,223926,0:0:0:0:
256,192,224482,12,0,223982,0:0:0:0:
256,192,224537,12,0,224037,0:0:0:0:
256,192,224593,12,0,224093,0:0:0:0:
256,192,224649,12,0,224149,0:0:0:0:
256,192,224705,12,0,224205,0:0:0:0:
256,192,224760,12,0,224260,0:0:0:0:
256,192,224816,12,0,224316,0:0:0:0:
256,192,224871,12,0,224371,0:0:0:0:
256,192,224927,12,0,224427,0:0:0:0:
256,192,224982,12,0,224482,0:0:0:0:
256,192,225038,12,0,224538,0:0:0:0:
256,192,225093,12,0,224593,0:0:0:0:
256,192,225149,12,0,224649,0:0:0:0:
256,192,225204,12,0,224704,0:0:0:0:
256,192,225260,12,0,224760,0:0:0:0:
256,192,225315,12,0,224815,0:0:0:0:
256,192,225371,12,0,224871,0:0:0:0:
256,192,225426,12,0,224926,0:0:0:0:
256,192,225482,12,0,224982,0:0:0:0:
256,192,225537,12,0,225037,0:0:0:0:
256,192,225593,12,0,225093,0:0:0:0:
256,192,225648,12,0,225148,0:0:0:0:
256,192,225704,12,0,225204,0:0:0:0:
256,192,225759,12,0,225259,0:0:0:0:
256,192,225815,12,0,225315,0:0:0:0:
256,192,225870,12,0,225370,0:0:0:0:
256,192,225926,12,0,225426,0:0:0:0:
256,192,225982,12,0,225482,0:0:0:0:
256,192,226038,12,0,225538,0:0:0:0:
256,192,226093,12,0,225593,0:0:0:0:
256,192,226149,12,0,225649,0:0:0:0:
256,192,226204,12,0,225704,0:0:0:0:
256,192,226260,12,0,225760,0:0:0:0:
256,192,226315,12,0,225815,0:0:0:0:
256,192,226371,12,0,225871,0:0:0:0:
256,192,226426,12,0,225926,0:0:0:0:
256,192,226482,12,0,225982,0:0:0:0:
256,192,226537,12,0,226037,0:0:0:0:
256,192,226593,12,0,226093,0:0:0:0:
256,192,226649,12,0,226149,0:0:0:0:
256,192,226705,12,0,226205,0:0:0:0:
256,192,226760,12,0,226260,0:0:0:0:
256,192,226816,12,0,226316,0:0:0:0:
256,192,226871,12,0,226371,0:0:0:0:
256,192,226927,12,0,226427,0:0:0:0:
256,192,226982,12,0,226482,0:0:0:0:
256,192,227038,12,0,226538,0:0:0:0:
256,192,227093,12,0,226593,0:0:0:0:
256,192,227149,12,0,226649,0:0:0:0:
256,192,227204,12,0,226704,0:0:0:0:
256,192,227260,12,0,226760,0:0:0:0:
256,192,227316,12,0,226816,0:0:0:0:
256,192,227372,12,0,226872,0:0:0:0:
256,192,227427,12,0,226927,0:0:0:0:
256,192,227483,12,0,226983,0:0:0:0:
256,192,227538,12,0,227038,0:0:0:0:
256,192,227594,12,0,227094,0:0:0:0:
256,192,227649,12,0,227149,0:0:0:0:
256,192,227705,12,0,227205,0:0:0:0:
256,192,227760,12,0,227260,0:0:0:0:
256,192,227816,12,0,227316,0:0:0:0:
256,192,227871,12,0,227371,0:0:0:0:
256,192,227927,12,0,227427,0:0:0:0:
256,192,227982,12,0,227482,0:0:0:0:
256,192,228038,12,0,227538,0:0:0:0:
256,192,228093,12,0,227593,0:0:0:0:
256,192,228149,12,0,227649,0:0:0:0:
256,192,228204,12,0,227704,0:0:0:0:
256,192,228260,12,0,227760,0:0:0:0:
256,192,228315,12,0,227815,0:0:0:0:
256,192,228371,12,0,227871,0:0:0:0:
256,192,228426,12,0,227926,0:0:0:0:
256,192,228482,12,0,227982,0:0:0:0:
256,192,228537,12,0,228037,0:0:0:0:
256,192,228593,12,0,228093,0:0:0:0:
256,192,228649,12,0,228149,0:0:0:0:
256,192,228705,12,0,228205,0:0:0:0:
256,192,228760,12,0,228260,0:0:0:0:
256,192,228816,12,0,228316,0:0:0:0:
256,192,228871,12,0,228371,0:0:0:0:
256,192,228927,12,0,228427,0:0:0:0:
256,192,228982,12,0,228482,0:0:0:0:
256,192,229038,12,0,228538,0:0:0:0:
256,192,229093,12,0,228593,0:0:0:0:
256,192,229149,12,0,228649,0:0:0:0:
256,192,229204,12,0,228704,0:0:0:0:
256,192,229260,12,0,228760,0:0:0:0:
256,192,229315,12,0,228815,0:0:0:0:
256,192,229371,12,0,228871,0:0:0:0:
256,192,229426,12,0,228926,0:0:0:0:
256,192,229482,12,0,228982,0:0:0:0:
256,192,229537,12,0,229037,0:0:0:0:
256,192,229593,12,0,229093,0:0:0:0:
256,192,229648,12,0,229148,0:0:0:0:
256,192,229704,12,0,229204,0:0:0:0:
256,192,229759,12,0,229259,0:0:0:0:
256,192,229815,12,0,229315,0:0:0:0:
256,192,229870,12,0,229370,0:0:0:0:
256,192,229926,12,0,229426,0:0:0:0:
256,192,229982,12,0,229482,0:0:0:0:
256,192,230038,12,0,229538,0:0:0:0:
256,192,230093,12,0,229593,0:0:0:0:
256,192,230149,12,0,229649,0:0:0:0:
256,192,230204,12,0,229704,0:0:0:0:
256,192,230260,12,0,229760,0:0:0:0:
256,192,230315,12,0,229815,0:0:0:0:
256,192,230371,12,0,229871,0:0:0:0:
256,192,230426,12,0,229926,0:0:0:0:
256,192,230482,12,0,229982,0:0:0:0:
256,192,230537,12,0,230037,0:0:0:0:
256,192,230593,12,0,230093,0:0:0:0:
256,192,230649,12,0,230149,0:0:0:0:
256,192,230705,12,0,230205,0:0:0:0:
256,192,230760,12,0,230260,0:0:0:0:
256,192,230816,12,0,230316,0:0:0:0:
256,192,230871,12,0,230371,0:0:0:0:
256,192,230927,12,0,230427,0:0:0:0:
256,192,230982,12,0,230482,0:0:0:0:
256,192,231038,12,0,230538,0:0:0:0:
256,192,231093,12,0,230593,0:0:0:0:
256,192,231149,12,0,230649,0:0:0:0:
256,192,231204,12,0,230704,0:0:0:0:
256,192,231260,12,0,230760,0:0:0:0:
256,192,231316,12,0,230816,0:0:0:0:
256,192,231372,12,0,230872,0:0:0:0:
256,192,231427,12,0,230927,0:0:0:0:
256,192,231483,12,0,230983,0:0:0:0:
256,192,231538,12,0,231038,0:0:0:0:
256,192,231594,12,0,231094,0:0:0:0:
256,192,231649,12,0,231149,0:0:0:0:
256,192,231705,12,0,231205,0:0:0:0:
256,192,231760,12,0,231260,0:0:0:0:
256,192,231816,12,0,231316,0:0:0:0:
256,192,231871,12,0,231371,0:0:0:0:
256,192,231927,12,0,231427,0:0:0:0:
256,192,231982,12,0,231482,0:0:0:0:
256,192,232038,12,0,231538,0:0:0:0:
256,192,232093,12,0,231593,0:0:0:0:
256,192,232149,12,0,231649,0:0:0:0:
256,192,232204,12,0,231704,0:0:0:0:
256,192,232260,12,0,231760,0:0:0:0:
256,192,232315,12,0,231815,0:0:0:0:
256,192,232371,12,0,231871,0:0:0:0:
256,192,232426,12,0,231926,0:0:0:0:
256,192,232482,12,0,231982,0:0:0:0:
256,192,232537,12,0,232037,0:0:0:0:
256,192,232593,12,0,232093,0:0:0:0:
256,192,232649,12,0,232149,0:0:0:0:
256,192,232705,12,0,232205,0:0:0:0:
256,192,232760,12,0,232260,0:0:0:0:
256,192,232816,12,0,232316,0:0:0:0:
256,192,232871,12,0,232371,0:0:0:0:
256,192,232927,12,0,232427,0:0:0:0:
256,192,232982,12,0,232482,0:0:0:0:
256,192,233038,12,0,232538,0:0:0:0:
256,192,233093,12,0,232593,0:0:0:0:
256,192,233149,12,0,232649,0:0:0:0:
256,192,233204,12,0,232704,0:0:0:0:
256,192,233260,12,0,232760,0:0:0:0:
256,192,233315,12,0,232815,0:0:0:0:
256,192,233371,12,0,232871,0:0:0:0:
256,192,233426,12,0,232926,0:0:0:0:
256,192,233482,12,0,232982,0:0:0:0:
256,192,233537,12,0,233037,0:0:0:0:
256,192,233593,12,0,233093,0:0:0:0:
256,192,233648,12,0,233148,0:0:0:0:
256,192,233704,12,0,233204,0:0:0:0:
256,192,233759,12,0,233259,0:0:0:0:
256,192,233815,12,0,233315,0:0:0:0:
256,192,233870,12,0,233370,0:0:0:0:
256,192,233926,12,0,233426,0:0:0:0:
256,192,233982,12,0,233482,0:0:0:0:
256,192,234038,12,0,233538,0:0:0:0:
256,192,234093,12,0,233593,0:0:0:0:
256,192,234149,12,0,233649,0:0:0:0:
256,192,234204,12,0,233704,0:0:0:0:
256,192,234260,12,0,233760,0:0:0:0:
256,192,234315,12,0,233815,0:0:0:0:
256,192,234371,12,0,233871,0:0:0:0:
256,192,234426,12,0,233926,0:0:0:0:
256,192,234482,12,0,233982,0:0:0:0:
256,192,234537,12,0,234037,0:0:0:0:
256,192,234593,12,0,234093,0:0:0:0:
256,192,234649,12,0,234149,0:0:0:0:
256,192,234705,12,0,234205,0:0:0:0:
256,192,234760,12,0,234260,0:0:0:0:
256,192,234816,12,0,234316,0:0:0:0:
256,192,234871,12,0,234371,0:0:0:0:
256,192,234927,12,0,234427,0:0:0:0:
256,192,234982,12,0,234482,0:0:0:0:
256,192,235038,12,0,234538,0:0:0:0:
256,192,235093,12,0,234593,0:0:0:0:
256,192,235149,12,0,234649,0:0:0:0:
256,192,235204,12,0,234704,0:0:0:0:
256,192,235260,12,0,234760,0:0:0:0:
256,192,235316,12,0,234816,0:0:0:0:
256,192,235372,12,0,234872,0:0:0:0:
256,192,235427,12,0,234927,0:0:0:0:
256,192,235483,12,0,234983,0:0:0:0:
256,192,235538,12,0,235038,0:0:0:0:
256,192,235594,12,0,235094,0:0:0:0:
256,192,235649,12,0,235149,0:0:0:0:
256,192,235705,12,0,235205,0:0:0:0:
256,192,235760,12,0,235260,0:0:0:0:
256,192,235816,12,0,235316,0:0:0:0:
256,192,235871,12,0,235371,0:0:0:0:
256,192,235927,12,0,235427,0:0:0:0:
256,192,235982,12,0,235482,0:0:0:0:
256,192,236038,12,0,235538,0:0:0:0:
256,192,236093,12,0,235593,0:0:0:0:
256,192,236149,12,0,235649,0:0:0:0:
256,192,236204,12,0,235704,0:0:0:0:
256,192,236260,12,0,235760,0:0:0:0:
256,192,236315,12,0,235815,0:0:0:0:
256,192,236371,12,0,235871,0:0:0:0:
256,192,236426,12,0,235926,0:0:0:0:
256,192,236482,12,0,235982,0:0:0:0:
256,192,236537,12,0,236037,0:0:0:0:
256,192,236593,12,0,236093,0:0:0:0:
256,192,236649,12,0,236149,0:0:0:0:
256,192,236705,12,0,236205,0:0:0:0:
256,192,236760,12,0,236260,0:0:0:0:
256,192,236816,12,0,236316,0:0:0:0:
256,192,236871,12,0,236371,0:0:0:0:
256,192,236927,12,0,236427,0:0:0:0:
256,192,236982,12,0,236482,0:0:0:0:
256,192,237038,12,0,236538,0:0:0:0:
256,192,237093,12,0,236593,0:0:0:0:
256,192,237149,12,0,236649,0:0:0:0:
256,192,237204,12,0,236704,0:0:0:0:
256,192,237260,12,0,236760,0:0:0:0:
256,192,237315,12,0,236815,0:0:0:0:
256,192,237371,12,0,236871,0:0:0:0:
256,192,237426,12,0,236926,0:0:0:0:
256,192,237482,12,0,236982,0:0:0:0:
256,192,237537,12,0,237037,0:0:0:0:
256,192,237593,12,0,237093,0:0:0:0:
256,192,237648,12,0,237148,0:0:0:0:
256,192,237704,12,0,237204,0:0:0:0:
256,192,237759,12,0,237259,0:0:0:0:
256,192,237815,12,0,237315,0:0:0:0:
256,192,237870,12,0,237370,0:0:0:0:
256,192,237926,12,0,237426,0:0:0:0:
256,192,237982,12,0,237482,0:0:0:0:
256,192,238038,12,0,237538,0:0:0:0:
256,192,238093,12,0,237593,0:0:0:0:
256,192,238149,12,0,237649,0:0:0:0:
256,192,238204,12,0,237704,0:0:0:0:
256,192,238260,12,0,237760,0:0:0:0:
256,192,238315,12,0,237815,0:0:0:0:
256,192,238371,12,0,237871,0:0:0:0:
256,192,238426,12,0,237926,0:0:0:0:
256,192,238482,12,0,237982,0:0:0:0:
256,192,238537,12,0,238037,0:0:0:0:
256,192,238593,12,0,238093,0:0:0:0:
256,192,238649,12,0,238149,0:0:0:0:
256,192,238705,12,0,238205,0:0:0:0:
256,192,238760,12,0,238260,0:0:0:0:
256,192,238816,12,0,238316,0:0:0:0:
256,192,238871,12,0,238371,0:0:0:0:
256,192,238927,12,0,238427,0:0:0:0:
256,192,238982,12,0,238482,0:0:0:0:
256,192,239038,12,0,238538,0:0:0:0:
256,192,239093,12,0,238593,0:0:0:0:
256,192,239149,12,0,238649,0:0:0:0:
256,192,239204,12,0,238704,0:0:0:0:
256,192,239260,12,0,238760,0:0:0:0:
256,192,239316,12,0,238816,0:0:0:0:
256,192,239372,12,0,238872,0:0:0:0:
256,192,239427,12,0,238927,0:0:0:0:
256,192,239483,12,0,238983,0:0:0:0:
256,192,239538,12,0,239038,0:0:0:0:
256,192,239594,12,0,239094,0:0:0:0:
256,192,239649,12,0,239149,0:0:0:0:
256,192,239705,12,0,239205,0:0:0:0:
256,192,239760,12,0,239260,0:0:0:0:
256,192,239816,12,0,239316,0:0:0:0:
256,192,239871,12,0,239371,0:0:0:0:
256,192,239927,12,0,239427,0:0:0:0:
256,192,239982,12,0,239482,0:0:0:0:
256,192,240038,12,0,239538,0:0:0:0:
256,192,240093,12,0,239593,0:0:0:0:
256,192,240149,12,0,239649,0:0:0:0:
256,192,240204,12,0,239704,0:0:0:0:
256,192,240260,12,0,239760,0:0:0:0:
256,192,240315,12,0,239815,0:0:0:0:
256,192,240371,12,0,239871,0:0:0:0:
256,192,240426,12,0,239926,0:0:0:0:
256,192,240482,12,0,239982,0:0:0:0:
256,192,240537,12,0,240037,0:0:0:0:
256,192,240593,12,0,240093,0:0:0:0:
256,192,240649,12,0,240149,0:0:0:0:
256,192,240705,12,0,240205,0:0:0:0:
256,192,240760,12,0,240260,0:0:0:0:
256,192,240816,12,0,240316,0:0:0:0:
256,192,240871,12,0,240371,0:0:0:0:
256,192,240927,12,0,240427,0:0:0:0:
256,192,240982,12,0,240482,0:0:0:0:
256,192,241038,12,0,240538,0:0:0:0:
256,192,241093,12,0,240593,0:0:0:0:
256,192,241149,12,0,240649,0:0:0:0:
256,192,241204,12,0,240704,0:0:0:0:
256,192,241260,12,0,240760,0:0:0:0:
256,192,241315,12,0,240815,0:0:0:0:
256,192,241371,12,0,240871,0:0:0:0:
256,192,241426,12,0,240926,0:0:0:0:
256,192,241482,12,0,240982,0:0:0:0:
256,192,241537,12,0,241037,0:0:0:0:
256,192,241593,12,0,241093,0:0:0:0:
256,192,241648,12,0,241148,0:0:0:0:
256,192,241704,12,0,241204,0:0:0:0:
256,192,241759,12,0,241259,0:0:0:0:
256,192,241815,12,0,241315,0:0:0:0:
256,192,241870,12,0,241370,0:0:0:0:
256,192,241926,12,0,241426,0:0:0:0:
256,192,241982,12,0,241482,0:0:0:0:
256,192,242038,12,0,241538,0:0:0:0:
256,192,242093,12,0,241593,0:0:0:0:
256,192,242149,12,0,241649,0:0:0:0:
256,192,242204,12,0,241704,0:0:0:0:
256,192,242260,12,0,241760,0:0:0:0:
256,192,242315,12,0,241815,0:0:0:0:
256,192,242371,12,0,241871,0:0:0:0:
256,192,242426,12,0,241926,0:0:0:0:
256,192,242482,12,0,241982,0:0:0:0:
256,192,242537,12,0,242037,0:0:0:0:
256,192,242593,12,0,242093,0:0:0:0:
256,192,242649,12,0,242149,0:0:0:0:
256,192,242705,12,0,242205,0:0:0:0:
256,192,242760,12,0,242260,0:0:0:0:
256,192,242816,12,0,242316,0:0:0:0:
256,192,242871,12,0,242371,0:0:0:0:
256,192,242927,12,0,242427,0:0:0:0:
256,192,242982,12,0,242482,0:0:0:0:
256,192,243038,12,0,242538,0:0:0:0:
256,192,243093,12,0,242593,0:0:0:0:
256,192,243149,12,0,242649,0:0:0:0:
256,192,243204,12,0,242704,0:0:0:0:
256,192,243260,12,0,242760,0:0:0:0:
256,192,243316,12,0,242816,0:0:0:0:
256,192,243372,12,0,242872,0:0:0:0:
256,192,243427,12,0,242927,0:0:0:0:
256,192,243483,12,0,242983,0:0:0:0:
256,192,243538,12,0,243038,0:0:0:0:
256,192,243594,12,0,243094,0:0:0:0:
256,192,243649,12,0,243149,0:0:0:0:
256,192,243705,12,0,243205,0:0:0:0:
256,192,243760,12,0,243260,0:0:0:0:
256,192,243816,12,0,243316,0:0:0:0:
256,192,243871,12,0,243371,0:0:0:0:
256,192,243927,12,0,243427,0:0:0:0:
256,192,243982,12,0,243482,0:0:0:0:
256,192,244038,12,0,243538,0:0:0:0:
256,192,244093,12,0,243593,0:0:0:0:
256,192,244149,12,0,243649,0:0:0:0:
256,192,244204,12,0,243704,0:0:0:0:
256,192,244260,12,0,243760,0:0:0:0:
256,192,244315,12,0,243815,0:0:0:0:
256,192,244371,12,0,243871,0:0:0:0:
256,192,244426,12,0,243926,0:0:0:0:
256,192,244482,12,0,243982,0:0:0:0:
256,192,244537,12,0,244037,0:0:0:0:
256,192,244593,12,0,244093,0:0:0:0:
256,192,244649,12,0,244149,0:0:0:0:
256,192,244705,12,0,244205,0:0:0:0:
256,192,244760,12,0,244260,0:0:0:0:
256,192,244816,12,0,244316,0:0:0:0:
256,192,244871,12,0,244371,0:0:0:0:
256,192,244927,12,0,244427,0:0:0:0:
256,192,244982,12,0,244482,0:0:0:0:
256,192,245038,12,0,244538,0:0:0:0:
256,192,245093,12,0,244593,0:0:0:0:
256,192,245149,12,0,244649,0:0:0:0:
256,192,245204,12,0,244704,0:0:0:0:
256,192,245260,12,0,244760,0:0:0:0:
256,192,245315,12,0,244815,0:0:0:0:
256,192,245371,12,0,244871,0:0:0:0:
256,192,245426,12,0,244926,0:0:0:0:
256,192,245482,12,0,244982,0:0:0:0:
256,192,245537,12,0,245037,0:0:0:0:
256,192,245593,12,0,245093,0:0:0:0:
256,192,245648,12,0,245148,0:0:0:0:
256,192,245704,12,0,245204,0:0:0:0:
256,192,245759,12,0,245259,0:0:0:0:
256,192,245815,12,0,245315,0:0:0:0:
256,192,245870,12,0,245370,0:0:0:0:
256,192,245926,12,0,245426,0:0:0:0:
256,192,245982,12,0,245482,0:0:0:0:
256,192,246038,12,0,245538,0:0:0:0:
256,192,246093,12,0,245593,0:0:0:0:
256,192,246149,12,0,245649,0:0:0:0:
256,192,246204,12,0,245704,0:0:0:0:
256,192,246260,12,0,245760,0:0:0:0:
256,192,246315,12,0,245815,0:0:0:0:
256,192,246371,12,0,245871,0:0:0:0:
256,192,246426,12,0,245926,0:0:0:0:
256,192,246482,12,0,245982,0:0:0:0:
256,192,246537,12,0,246037,0:0:0:0:
256,192,246593,12,0,246093,0:0:0:0:
256,192,246649,12,0,246149,0:0:0:0:
256,192,246705,12,0,246205,0:0:0:0:
256,192,246760,12,0,246260,0:0:0:0:
256,192,246816,12,0,246316,0:0:0:0:
256,192,246871,12,0,246371,0:0:0:0:
256,192,246927,12,0,246427,0:0:0:0:
256,192,246982,12,0,246482,0:0:0:0:
256,192,247038,12,0,246538,0:0:0:0:
256,192,247093,12,0,246593,0:0:0:0:
256,192,247149,12,0,246649,0:0:0:0:
256,192,247204,12,0,246704,0:0:0:0:
256,192,247260,12,0,246760,0:0:0:0:
256,192,247316,12,0,246816,0:0:0:0:
256,192,247372,12,0,246872,0:0:0:0:
256,192,247427,12,0,246927,0:0:0:0:
256,192,247483,12,0,246983,0:0:0:0:
256,192,247538,12,0,247038,0:0:0:0:
256,192,247594,12,0,247094,0:0:0:0:
256,192,247649,12,0,247149,0:0:0:0:
256,192,247705,12,0,247205,0:0:0:0:
256,192,247760,12,0,247260,0:0:0:0:
256,192,247816,12,0,247316,0:0:0:0:
256,192,247871,12,0,247371,0:0:0:0:
256,192,247927,12,0,247427,0:0:0:0:
256,192,247982,12,0,247482,0:0:0:0:
256,192,248037,12,0,247537,0:0:0:0:
256,192,248093,12,0,247593,0:0:0:0:
256,192,248148,12,0,247648,0:0:0:0:
256,192,248204,12,0,247704,0:0:0:0:
256,192,248259,12,0,247759,0:0:0:0:
256,192,248315,12,0,247815,0:0:0:0:
256,192,248370,12,0,247870,0:0:0:0:
256,192,248426,12,0,247926,0:0:0:0:
256,192,248481,12,0,247981,0:0:0:0:
256,192,248537,12,0,248037,0:0:0:0:
256,192,248592,12,0,248092,0:0:0:0:
256,192,248648,12,0,248148,0:0:0:0:
256,192,248703,12,0,248203,0:0:0:0:
256,192,248759,12,0,248259,0:0:0:0:
256,192,248815,12,0,248315,0:0:0:0:
256,192,248871,12,0,248371,0:0:0:0:
256,192,248926,12,0,248426,0:0:0:0:
256,192,248982,12,0,248482,0:0:0:0:
256,192,249037,12,0,248537,0:0:0:0:
256,192,249093,12,0,248593,0:0:0:0:
256,192,249148,12,0,248648,0:0:0:0:
256,192,249204,12,0,248704,0:0:0:0:
256,192,249259,12,0,248759,0:0:0:0:
256,192,249315,12,0,248815,0:0:0:0:
256,192,249370,12,0,248870,0:0:0:0:
256,192,249426,12,0,248926,0:0:0:0:
256,192,249481,12,0,248981,0:0:0:0:
256,192,249537,12,0,249037,0:0:0:0:
256,192,249592,12,0,249092,0:0:0:0:
256,192,249648,12,0,249148,0:0:0:0:
256,192,249703,12,0,249203,0:0:0:0:
256,192,249759,12,0,249259,0:0:0:0:
256,192,249814,12,0,249314,0:0:0:0:
256,192,249870,12,0,249370,0:0:0:0:
256,192,249925,12,0,249425,0:0:0:0:
256,192,249981,12,0,249481,0:0:0:0:
256,192,250036,12,0,249536,0:0:0:0:
256,192,250092,12,0,249592,0:0:0:0:
256,192,250148,12,0,249648,0:0:0:0:
256,192,250204,12,0,249704,0:0:0:0:
256,192,250259,12,0,249759,0:0:0:0:
256,192,250315,12,0,249815,0:0:0:0:
256,192,250370,12,0,249870,0:0:0:0:
256,192,250426,12,0,249926,0:0:0:0:
256,192,250481,12,0,249981,0:0:0:0:
256,192,250537,12,0,250037,0:0:0:0:
256,192,250592,12,0,250092,0:0:0:0:
256,192,250648,12,0,250148,0:0:0:0:
256,192,250703,12,0,250203,0:0:0:0:
256,192,250759,12,0,250259,0:0:0:0:
256,192,250815,12,0,250315,0:0:0:0:
256,192,250871,12,0,250371,0:0:0:0:
256,192,250926,12,0,250426,0:0:0:0:
256,192,250982,12,0,250482,0:0:0:0:
256,192,251037,12,0,250537,0:0:0:0:
256,192,251093,12,0,250593,0:0:0:0:
256,192,251148,12,0,250648,0:0:0:0:
256,192,251204,12,0,250704,0:0:0:0:
256,192,251259,12,0,250759,0:0:0:0:
256,192,251315,12,0,250815,0:0:0:0:
256,192,251370,12,0,250870,0:0:0:0:
256,192,251426,12,0,250926,0:0:0:0:
256,192,251482,12,0,250982,0:0:0:0:
256,192,251538,12,0,251038,0:0:0:0:
256,192,251593,12,0,251093,0:0:0:0:
256,192,251649,12,0,251149,0:0:0:0:
256,192,251704,12,0,251204,0:0:0:0:
256,192,251760,12,0,251260,0:0:0:0:
256,192,251815,12,0,251315,0:0:0:0:
256,192,251871,12,0,251371,0:0:0:0:
256,192,251926,12,0,251426,0:0:0:0:
256,192,251982,12,0,251482,0:0:0:0:
256,192,252037,12,0,251537,0:0:0:0:
256,192,252093,12,0,251593,0:0:0:0:
256,192,252148,12,0,251648,0:0:0:0:
256,192,252204,12,0,251704,0:0:0:0:
256,192,252259,12,0,251759,0:0:0:0:
256,192,252315,12,0,251815,0:0:0:0:
256,192,252370,12,0,251870,0:0:0:0:
256,192,252426,12,0,251926,0:0:0:0:
256,192,252481,12,0,251981,0:0:0:0:
256,192,252537,12,0,252037,0:0:0:0:
256,192,252592,12,0,252092,0:0:0:0:
256,192,252648,12,0,252148,0:0:0:0:
256,192,252703,12,0,252203,0:0:0:0:
256,192,252759,12,0,252259,0:0:0:0:
256,192,252815,12,0,252315,0:0:0:0:
256,192,252871,12,0,252371,0:0:0:0:
256,192,252926,12,0,252426,0:0:0:0:
256,192,252982,12,0,252482,0:0:0:0:
256,192,253037,12,0,252537,0:0:0:0:
256,192,253093,12,0,252593,0:0:0:0:
256,192,253148,12,0,252648,0:0:0:0:
256,192,253204,12,0,252704,0:0:0:0:
256,192,253259,12,0,252759,0:0:0:0:
256,192,253315,12,0,252815,0:0:0:0:
256,192,253370,12,0,252870,0:0:0:0:
256,192,253426,12,0,252926,0:0:0:0:
256,192,253481,12,0,252981,0:0:0:0:
256,192,253537,12,0,253037,0:0:0:0:
256,192,253592,12,0,253092,0:0:0:0:
256,192,253648,12,0,253148,0:0:0:0:
256,192,253703,12,0,253203,0:0:0:0:
256,192,253759,12,0,253259,0:0:0:0:
256,192,253814,12,0,253314,0:0:0:0:
256,192,253870,12,0,253370,0:0:0:0:
256,192,253925,12,0,253425,0:0:0:0:
256,192,253981,12,0,253481,0:0:0:0:
256,192,254036,12,0,253536,0:0:0:0:
256,192,254092,12,0,253592,0:0:0:0:
256,192,254148,12,0,253648,0:0:0:0:
256,192,254204,12,0,253704,0:0:0:0:
256,192,254259,12,0,253759,0:0:0:0:
256,192,254315,12,0,253815,0:0:0:0:
256,192,254370,12,0,253870,0:0:0:0:
256,192,254426,12,0,253926,0:0:0:0:
256,192,254481,12,0,253981,0:0:0:0:
256,192,254537,12,0,254037,0:0:0:0:
256,192,254592,12,0,254092,0:0:0:0:
256,192,254648,12,0,254148,0:0:0:0:
256,192,254703,12,0,254203,0:0:0:0:
256,192,254759,12,0,254259,0:0:0:0:
256,192,254815,12,0,254315,0:0:0:0:
256,192,254871,12,0,254371,0:0:0:0:
256,192,254926,12,0,254426,0:0:0:0:
256,192,254982,12,0,254482,0:0:0:0:
256,192,255037,12,0,254537,0:0:0:0:
256,192,255093,12,0,254593,0:0:0:0:
256,192,255148,12,0,254648,0:0:0:0:
256,192,255204,12,0,254704,0:0:0:0:
256,192,255259,12,0,254759,0:0:0:0:
256,192,255315,12,0,254815,0:0:0:0:
256,192,255370,12,0,254870,0:0:0:0:
256,192,255426,12,0,254926,0:0:0:0:
256,192,255482,12,0,254982,0:0:0:0:
256,192,255538,12,0,255038,0:0:0:0:
256,192,255593,12,0,255093,0:0:0:0:
256,192,255649,12,0,255149,0:0:0:0:
256,192,255704,12,0,255204,0:0:0:0:
256,192,255760,12,0,255260,0:0:0:0:
256,192,255815,12,0,255315,0:0:0:0:
256,192,255871,12,0,255371,0:0:0:0:
256,192,255926,12,0,255426,0:0:0:0:
256,192,255982,12,0,255482,0:0:0:0:
256,192,256037,12,0,255537,0:0:0:0:
256,192,256093,12,0,255593,0:0:0:0:
256,192,256148,12,0,255648,0:0:0:0:
256,192,256204,12,0,255704,0:0:0:0:
256,192,256259,12,0,255759,0:0:0:0:
256,192,256315,12,0,255815,0:0:0:0:
256,192,256370,12,0,255870,0:0:0:0:
256,192,256426,12,0,255926,0:0:0:0:
256,192,256481,12,0,255981,0:0:0:0:
256,192,256537,12,0,256037,0:0:0:0:
256,192,256592,12,0,256092,0:0:0:0:
256,192,256648,12,0,256148,0:0:0:0:
256,192,256703,12,0,256203,0:0:0:0:
256,192,256759,12,0,256259,0:0:0:0:
256,192,256815,12,0,256315,0:0:0:0:
256,192,256871,12,0,256371,0:0:0:0:
256,192,256926,12,0,256426,0:0:0:0:
256,192,256982,12,0,256482,0:0:0:0:
256,192,257037,12,0,256537,0:0:0:0:
256,192,257093,12,0,256593,0:0:0:0:
256,192,257148,12,0,256648,0:0:0:0:
256,192,257204,12,0,256704,0:0:0:0:
256,192,257259,12,0,256759,0:0:0:0:
256,192,257315,12,0,256815,0:0:0:0:
256,192,257370,12,0,256870,0:0:0:0:
256,192,257426,12,0,256926,0:0:0:0:
256,192,257481,12,0,256981,0:0:0:0:
256,192,257537,12,0,257037,0:0:0:0:
256,192,257592,12,0,257092,0:0:0:0:
256,192,257648,12,0,257148,0:0:0:0:
256,192,257703,12,0,257203,0:0:0:0:
256,192,257759,12,0,257259,0:0:0:0:
256,192,257814,12,0,257314,0:0:0:0:
256,192,257870,12,0,257370,0:0:0:0:
256,192,257925,12,0,257425,0:0:0:0:
256,192,257981,12,0,257481,0:0:0:0:
256,192,258036,12,0,257536,0:0:0:0:
256,192,258092,12,0,257592,0:0:0:0:
256,192,258148,12,0,257648,0:0:0:0:
256,192,258204,12,0,257704,0:0:0:0:
256,192,258259,12,0,257759,0:0:0:0:
256,192,258315,12,0,257815,0:0:0:0:
256,192,258370,12,0,257870,0:0:0:0:
256,192,258426,12,0,257926,0:0:0:0:
256,192,258481,12,0,257981,0:0:0:0:
256,192,258537,12,0,258037,0:0:0:0:
256,192,258592,12,0,258092,0:0:0:0:
256,192,258648,12,0,258148,0:0:0:0:
256,192,258703,12,0,258203,0:0:0:0:
256,192,258759,12,0,258259,0:0:0:0:
256,192,258815,12,0,258315,0:0:0:0:
256,192,258871,12,0,258371,0:0:0:0:
256,192,258926,12,0,258426,0:0:0:0:
256,192,258982,12,0,258482,0:0:0:0:
256,192,259037,12,0,258537,0:0:0:0:
256,192,259093,12,0,258593,0:0:0:0:
256,192,259148,12,0,258648,0:0:0:0:
256,192,259204,12,0,258704,0:0:0:0:
256,192,259259,12,0,258759,0:0:0:0:
256,192,259315,12,0,258815,0:0:0:0:
256,192,259370,12,0,258870,0:0:0:0:
256,192,259426,12,0,258926,0:0:0:0:
256,192,259482,12,0,258982,0:0:0:0:
256,192,259538,12,0,259038,0:0:0:0:
256,192,259593,12,0,259093,0:0:0:0:
256,192,259649,12,0,259149,0:0:0:0:
256,192,259704,12,0,259204,0:0:0:0:
256,192,259760,12,0,259260,0:0:0:0:
256,192,259815,12,0,259315,0:0:0:0:
256,192,259871,12,0,259371,0:0:0:0:
256,192,259926,12,0,259426,0:0:0:0:
256,192,259982,12,0,259482,0:0:0:0:
256,192,260037,12,0,259537,0:0:0:0:
256,192,260093,12,0,259593,0:0:0:0:
256,192,260149,12,0,259649,0:0:0:0:
256,192,260204,12,0,259704,0:0:0:0:
256,192,260260,12,0,259760,0:0:0:0:
256,192,260315,12,0,259815,0:0:0:0:
256,192,260371,12,0,259871,0:0:0:0:
256,192,260426,12,0,259926,0:0:0:0:
256,192,260482,12,0,259982,0:0:0:0:
256,192,260538,12,0,260038,0:0:0:0:
256,192,260594,12,0,260094,0:0:0:0:
256,192,260649,12,0,260149,0:0:0:0:
256,192,260705,12,0,260205,0:0:0:0:
256,192,260760,12,0,260260,0:0:0:0:
256,192,260816,12,0,260316,0:0:0:0:
256,192,260871,12,0,260371,0:0:0:0:
256,192,260927,12,0,260427,0:0:0:0:
256,192,260982,12,0,260482,0:0:0:0:
256,192,261038,12,0,260538,0:0:0:0:
256,192,261093,12,0,260593,0:0:0:0:
256,192,261149,12,0,260649,0:0:0:0:
256,192,261205,12,0,260705,0:0:0:0:
256,192,261261,12,0,260761,0:0:0:0:
256,192,261316,12,0,260816,0:0:0:0:
256,192,261372,12,0,260872,0:0:0:0:
256,192,261427,12,0,260927,0:0:0:0:
256,192,261483,12,0,260983,0:0:0:0:
256,192,261538,12,0,261038,0:0:0:0:
256,192,261594,12,0,261094,0:0:0:0:
256,192,261649,12,0,261149,0:0:0:0:
256,192,261705,12,0,261205,0:0:0:0:
256,192,261760,12,0,261260,0:0:0:0:
256,192,261816,12,0,261316,0:0:0:0:
256,192,261872,12,0,261372,0:0:0:0:
256,192,261928,12,0,261428,0:0:0:0:
256,192,261983,12,0,261483,0:0:0:0:
256,192,262039,12,0,261539,0:0:0:0:
256,192,262094,12,0,261594,0:0:0:0:
256,192,262150,12,0,261650,0:0:0:0:
256,192,262205,12,0,261705,0:0:0:0:
256,192,262261,12,0,261761,0:0:0:0:
256,192,262316,12,0,261816,0:0:0:0:
256,192,262372,12,0,261872,0:0:0:0:
256,192,262427,12,0,261927,0:0:0:0:
256,192,262483,12,0,261983,0:0:0:0:
256,192,262538,12,0,262038,0:0:0:0:
256,192,262593,12,0,262093,0:0:0:0:
256,192,262649,12,0,262149,0:0:0:0:
256,192,262704,12,0,262204,0:0:0:0:
256,192,262760,12,0,262260,0:0:0:0:
256,192,262815,12,0,262315,0:0:0:0:
256,192,262871,12,0,262371,0:0:0:0:
256,192,262927,12,0,262427,0:0:0:0:
256,192,262983,12,0,262483,0:0:0:0:
256,192,263038,12,0,262538,0:0:0:0:
256,192,263094,12,0,262594,0:0:0:0:
256,192,263149,12,0,262649,0:0:0:0:
256,192,263205,12,0,262705,0:0:0:0:
256,192,263260,12,0,262760,0:0:0:0:
256,192,263316,12,0,262816,0:0:0:0:
256,192,263371,12,0,262871,0:0:0:0:
256,192,263427,12,0,262927,0:0:0:0:
256,192,263482,12,0,262982,0:0:0:0:
256,192,263538,12,0,263038,0:0:0:0:
256,192,263594,12,0,263094,0:0:0:0:
256,192,263650,12,0,263150,0:0:0:0:
256,192,263705,12,0,263205,0:0:0:0:
256,192,263761,12,0,263261,0:0:0:0:
256,192,263816,12,0,263316,0:0:0:0:
256,192,263872,12,0,263372,0:0:0:0:
256,192,263927,12,0,263427,0:0:0:0:
256,192,263983,12,0,263483,0:0:0:0:
256,192,264038,12,0,263538,0:0:0:0:
256,192,264094,12,0,263594,0:0:0:0:
256,192,264149,12,0,263649,0:0:0:0:
256,192,264205,12,0,263705,0:0:0:0:
256,192,264261,12,0,263761,0:0:0:0:
256,192,264317,12,0,263817,0:0:0:0:
256,192,264372,12,0,263872,0:0:0:0:
256,192,264428,12,0,263928,0:0:0:0:
256,192,264483,12,0,263983,0:0:0:0:
256,192,264539,12,0,264039,0:0:0:0:
256,192,264594,12,0,264094,0:0:0:0:
256,192,264650,12,0,264150,0:0:0:0:
256,192,264705,12,0,264205,0:0:0:0:
256,192,264761,12,0,264261,0:0:0:0:
256,192,264816,12,0,264316,0:0:0:0:
256,192,264872,12,0,264372,0:0:0:0:
256,192,264927,12,0,264427,0:0:0:0:
256,192,264982,12,0,264482,0:0:0:0:
256,192,265038,12,0,264538,0:0:0:0:
256,192,265093,12,0,264593,0:0:0:0:
256,192,265149,12,0,264649,0:0:0:0:
256,192,265204,12,0,264704,0:0:0:0:
256,192,265260,12,0,264760,0:0:0:0:
256,192,265316,12,0,264816,0:0:0:0:
256,192,265372,12,0,264872,0:0:0:0:
256,192,265427,12,0,264927,0:0:0:0:
256,192,265483,12,0,264983,0:0:0:0:
256,192,265538,12,0,265038,0:0:0:0:
256,192,265594,12,0,265094,0:0:0:0:
256,192,265649,12,0,265149,0:0:0:0:
256,192,265705,12,0,265205,0:0:0:0:
256,192,265760,12,0,265260,0:0:0:0:
256,192,265816,12,0,265316,0:0:0:0:
256,192,265871,12,0,265371,0:0:0:0:
256,192,265927,12,0,265427,0:0:0:0:
256,192,265983,12,0,265483,0:0:0:0:
256,192,266039,12,0,265539,0:0:0:0:
256,192,266094,12,0,265594,0:0:0:0:
256,192,266150,12,0,265650,0:0:0:0:
256,192,266205,12,0,265705,0:0:0:0:
256,192,266261,12,0,265761,0:0:0:0:
256,192,266316,12,0,265816,0:0:0:0:
256,192,266372,12,0,265872,0:0:0:0:
256,192,266427,12,0,265927,0:0:0:0:
256,192,266483,12,0,265983,0:0:0:0:
256,192,266538,12,0,266038,0:0:0:0:
256,192,266594,12,0,266094,0:0:0:0:
256,192,266650,12,0,266150,0:0:0:0:
256,192,266706,12,0,266206,0:0:0:0:
256,192,266761,12,0,266261,0:0:0:0:
256,192,266817,12,0,266317,0:0:0:0:
256,192,266872,12,0,266372,0:0:0:0:
256,192,266928,12,0,266428,0:0:0:0:
256,192,266983,12,0,266483,0:0:0:0:
256,192,267039,12,0,266539,0:0:0:0:
256,192,267094,12,0,266594,0:0:0:0:
256,192,267150,12,0,266650,0:0:0:0:
256,192,267205,12,0,266705,0:0:0:0:
256,192,267261,12,0,266761,0:0:0:0:
256,192,267315,12,0,266815,0:0:0:0:
256,192,267370,12,0,266870,0:0:0:0:
256,192,267426,12,0,266926,0:0:0:0:
256,192,267481,12,0,266981,0:0:0:0:
256,192,267537,12,0,267037,0:0:0:0:
256,192,267592,12,0,267092,0:0:0:0:
256,192,267648,12,0,267148,0:0:0:0:
256,192,267704,12,0,267204,0:0:0:0:
256,192,267760,12,0,267260,0:0:0:0:
256,192,267815,12,0,267315,0:0:0:0:
256,192,267871,12,0,267371,0:0:0:0:
256,192,267926,12,0,267426,0:0:0:0:
256,192,267982,12,0,267482,0:0:0:0:
256,192,268037,12,0,267537,0:0:0:0:
256,192,268093,12,0,267593,0:0:0:0:
256,192,268148,12,0,267648,0:0:0:0:
256,192,268204,12,0,267704,0:0:0:0:
256,192,268259,12,0,267759,0:0:0:0:
256,192,268315,12,0,267815,0:0:0:0:
256,192,268371,12,0,267871,0:0:0:0:
256,192,268427,12,0,267927,0:0:0:0:
256,192,268482,12,0,267982,0:0:0:0:
256,192,268538,12,0,268038,0:0:0:0:
256,192,268593,12,0,268093,0:0:0:0:
256,192,268649,12,0,268149,0:0:0:0:
256,192,268704,12,0,268204,0:0:0:0:
256,192,268760,12,0,268260,0:0:0:0:
256,192,268815,12,0,268315,0:0:0:0:
256,192,268871,12,0,268371,0:0:0:0:
256,192,268926,12,0,268426,0:0:0:0:
256,192,268982,12,0,268482,0:0:0:0:
256,192,269038,12,0,268538,0:0:0:0:
256,192,269094,12,0,268594,0:0:0:0:
256,192,269149,12,0,268649,0:0:0:0:
256,192,269205,12,0,268705,0:0:0:0:
256,192,269260,12,0,268760,0:0:0:0:
256,192,269316,12,0,268816,0:0:0:0:
256,192,269371,12,0,268871,0:0:0:0:
256,192,269427,12,0,268927,0:0:0:0:
256,192,269482,12,0,268982,0:0:0:0:
256,192,269538,12,0,269038,0:0:0:0:
256,192,269593,12,0,269093,0:0:0:0:
256,192,269649,12,0,269149,0:0:0:0:
256,192,269704,12,0,269204,0:0:0:0:
256,192,269759,12,0,269259,0:0:0:0:
256,192,269815,12,0,269315,0:0:0:0:
256,192,269871,12,0,269371,0:0:0:0:
256,192,269927,12,0,269427,0:0:0:0:
256,192,269982,12,0,269482,0:0:0:0:
256,192,270038,12,0,269538,0:0:0:0:
256,192,270093,12,0,269593,0:0:0:0:
256,192,270149,12,0,269649,0:0:0:0:
256,192,270204,12,0,269704,0:0:0:0:
256,192,270260,12,0,269760,0:0:0:0:
256,192,270315,12,0,269815,0:0:0:0:
256,192,270371,12,0,269871,0:0:0:0:
256,192,270426,12,0,269926,0:0:0:0:
256,192,270482,12,0,269982,0:0:0:0:
256,192,270538,12,0,270038,0:0:0:0:
256,192,270593,12,0,270093,0:0:0:0:
256,192,270649,12,0,270149,0:0:0:0:
256,192,270704,12,0,270204,0:0:0:0:
256,192,270760,12,0,270260,0:0:0:0:
256,192,270815,12,0,270315,0:0:0:0:
256,192,270871,12,0,270371,0:0:0:0:
256,192,270927,12,0,270427,0:0:0:0:
256,192,270983,12,0,270483,0:0:0:0:
256,192,271038,12,0,270538,0:0:0:0:
256,192,271094,12,0,270594,0:0:0:0:
256,192,271149,12,0,270649,0:0:0:0:
256,192,271205,12,0,270705,0:0:0:0:
256,192,271260,12,0,270760,0:0:0:0:
256,192,271316,12,0,270816,0:0:0:0:
256,192,271371,12,0,270871,0:0:0:0:
256,192,271427,12,0,270927,0:0:0:0:
256,192,271482,12,0,270982,0:0:0:0:
256,192,271538,12,0,271038,0:0:0:0:
256,192,271594,12,0,271094,0:0:0:0:
256,192,271650,12,0,271150,0:0:0:0:
256,192,271705,12,0,271205,0:0:0:0:
256,192,271761,12,0,271261,0:0:0:0:
256,192,271816,12,0,271316,0:0:0:0:
256,192,271872,12,0,271372,0:0:0:0:
256,192,271927,12,0,271427,0:0:0:0:
256,192,271983,12,0,271483,0:0:0:0:
256,192,272038,12,0,271538,0:0:0:0:
256,192,272094,12,0,271594,0:0:0:0:
256,192,272149,12,0,271649,0:0:0:0:
256,192,272205,12,0,271705,0:0:0:0:
256,192,272261,12,0,271761,0:0:0:0:
256,192,272317,12,0,271817,0:0:0:0:
256,192,272372,12,0,271872,0:0:0:0:
256,192,272428,12,0,271928,0:0:0:0:
256,192,272483,12,0,271983,0:0:0:0:
256,192,272539,12,0,272039,0:0:0:0:
256,192,272594,12,0,272094,0:0:0:0:
256,192,272650,12,0,272150,0:0:0:0:
256,192,272705,12,0,272205,0:0:0:0:
256,192,272761,12,0,272261,0:0:0:0:
256,192,272816,12,0,272316,0:0:0:0:
256,192,272872,12,0,272372,0:0:0:0:
256,192,272927,12,0,272427,0:0:0:0:
256,192,272982,12,0,272482,0:0:0:0:
256,192,273038,12,0,272538,0:0:0:0:
256,192,273093,12,0,272593,0:0:0:0:
256,192,273149,12,0,272649,0:0:0:0:
256,192,273204,12,0,272704,0:0:0:0:
256,192,273260,12,0,272760,0:0:0:0:
256,192,273316,12,0,272816,0:0:0:0:
256,192,273372,12,0,272872,0:0:0:0:
256,192,273427,12,0,272927,0:0:0:0:
256,192,273483,12,0,272983,0:0:0:0:
256,192,273538,12,0,273038,0:0:0:0:
256,192,273594,12,0,273094,0:0:0:0:
256,192,273649,12,0,273149,0:0:0:0:
256,192,273705,12,0,273205,0:0:0:0:
256,192,273760,12,0,273260,0:0:0:0:
256,192,273816,12,0,273316,0:0:0:0:
256,192,273871,12,0,273371,0:0:0:0:
256,192,273927,12,0,273427,0:0:0:0:
256,192,273983,12,0,273483,0:0:0:0:
256,192,274039,12,0,273539,0:0:0:0:
256,192,274094,12,0,273594,0:0:0:0:
256,192,274150,12,0,273650,0:0:0:0:
256,192,274205,12,0,273705,0:0:0:0:
256,192,274261,12,0,273761,0:0:0:0:
256,192,274316,12,0,273816,0:0:0:0:
256,192,274372,12,0,273872,0:0:0:0:
256,192,274427,12,0,273927,0:0:0:0:
256,192,274483,12,0,273983,0:0:0:0:
256,192,274538,12,0,274038,0:0:0:0:
256,192,274594,12,0,274094,0:0:0:0:
256,192,274650,12,0,274150,0:0:0:0:
256,192,274706,12,0,274206,0:0:0:0:
256,192,274761,12,0,274261,0:0:0:0:
256,192,274817,12,0,274317,0:0:0:0:
256,192,274872,12,0,274372,0:0:0:0:
256,192,274928,12,0,274428,0:0:0:0:
256,192,274983,12,0,274483,0:0:0:0:
256,192,275039,12,0,274539,0:0:0:0:
256,192,275094,12,0,274594,0:0:0:0:
256,192,275150,12,0,274650,0:0:0:0:
256,192,275205,12,0,274705,0:0:0:0:
256,192,275261,12,0,274761,0:0:0:0:
256,192,275316,12,0,274816,0:0:0:0:
256,192,275371,12,0,274871,0:0:0:0:
256,192,275427,12,0,274927,0:0:0:0:
256,192,275482,12,0,274982,0:0:0:0:
256,192,275538,12,0,275038,0:0:0:0:
256,192,275593,12,0,275093,0:0:0:0:
256,192,275649,12,0,275149,0:0:0:0:
256,192,275705,12,0,275205,0:0:0:0:
256,192,275761,12,0,275261,0:0:0:0:
256,192,275816,12,0,275316,0:0:0:0:
256,192,275872,12,0,275372,0:0:0:0:
256,192,275927,12,0,275427,0:0:0:0:
256,192,275983,12,0,275483,0:0:0:0:
256,192,276038,12,0,275538,0:0:0:0:
256,192,276094,12,0,275594,0:0:0:0:
256,192,276149,12,0,275649,0:0:0:0:
256,192,276205,12,0,275705,0:0:0:0:
256,192,276260,12,0,275760,0:0:0:0:
256,192,276316,12,0,275816,0:0:0:0:
256,192,276372,12,0,275872,0:0:0:0:
256,192,276428,12,0,275928,0:0:0:0:
256,192,276483,12,0,275983,0:0:0:0:
256,192,276539,12,0,276039,0:0:0:0:
256,192,276594,12,0,276094,0:0:0:0:
256,192,276650,12,0,276150,0:0:0:0:
256,192,276705,12,0,276205,0:0:0:0:
256,192,276761,12,0,276261,0:0:0:0:
256,192,276816,12,0,276316,0:0:0:0:
256,192,276872,12,0,276372,0:0:0:0:
256,192,276927,12,0,276427,0:0:0:0:
256,192,276983,12,0,276483,0:0:0:0:
256,192,277039,12,0,276539,0:0:0:0:
256,192,277095,12,0,276595,0:0:0:0:
256,192,277150,12,0,276650,0:0:0:0:
256,192,277206,12,0,276706,0:0:0:0:
256,192,277261,12,0,276761,0:0:0:0:
256,192,277317,12,0,276817,0:0:0:0:
256,192,277372,12,0,276872,0:0:0:0:
256,192,277428,12,0,276928,0:0:0:0:
256,192,277483,12,0,276983,0:0:0:0:
256,192,277539,12,0,277039,0:0:0:0:
256,192,277594,12,0,277094,0:0:0:0:
256,192,277650,12,0,277150,0:0:0:0:
256,192,277704,12,0,277204,0:0:0:0:
256,192,277759,12,0,277259,0:0:0:0:
256,192,277815,12,0,277315,0:0:0:0:
256,192,277870,12,0,277370,0:0:0:0:
256,192,277926,12,0,277426,0:0:0:0:
256,192,277981,12,0,277481,0:0:0:0:
256,192,278037,12,0,277537,0:0:0:0:
256,192,278093,12,0,277593,0:0:0:0:
256,192,278149,12,0,277649,0:0:0:0:
256,192,278204,12,0,277704,0:0:0:0:
256,192,278260,12,0,277760,0:0:0:0:
256,192,278315,12,0,277815,0:0:0:0:
256,192,278371,12,0,277871,0:0:0:0:
256,192,278426,12,0,277926,0:0:0:0:
256,192,278482,12,0,277982,0:0:0:0:
256,192,278537,12,0,278037,0:0:0:0:
256,192,278593,12,0,278093,0:0:0:0:
256,192,278648,12,0,278148,0:0:0:0:
256,192,278704,12,0,278204,0:0:0:0:
256,192,278760,12,0,278260,0:0:0:0:
256,192,278816,12,0,278316,0:0:0:0:
256,192,278871,12,0,278371,0:0:0:0:
256,192,278927,12,0,278427,0:0:0:0:
256,192,278982,12,0,278482,0:0:0:0:
256,192,279038,12,0,278538,0:0:0:0:
256,192,279093,12,0,278593,0:0:0:0:
256,192,279149,12,0,278649,0:0:0:0:
256,192,279204,12,0,278704,0:0:0:0:
256,192,279260,12,0,278760,0:0:0:0:
256,192,279315,12,0,278815,0:0:0:0:
256,192,279371,12,0,278871,0:0:0:0:
256,192,279427,12,0,278927,0:0:0:0:
256,192,279483,12,0,278983,0:0:0:0:
256,192,279538,12,0,279038,0:0:0:0:
256,192,279594,12,0,279094,0:0:0:0:
256,192,279649,12,0,279149,0:0:0:0:
256,192,279705,12,0,279205,0:0:0:0:
256,192,279760,12,0,279260,0:0:0:0:
256,192,279816,12,0,279316,0:0:0:0:
256,192,279871,12,0,279371,0:0:0:0:
256,192,279927,12,0,279427,0:0:0:0:
256,192,279982,12,0,279482,0:0:0:0:
256,192,280038,12,0,279538,0:0:0:0:
256,192,280093,12,0,279593,0:0:0:0:
256,192,280148,12,0,279648,0:0:0:0:
256,192,280204,12,0,279704,0:0:0:0:
256,192,280259,12,0,279759,0:0:0:0:
256,192,280315,12,0,279815,0:0:0:0:
256,192,280371,12,0,279871,0:0:0:0:
256,192,280427,12,0,279927,0:0:0:0:
256,192,280482,12,0,279982,0:0:0:0:
256,192,280538,12,0,280038,0:0:0:0:
256,192,280593,12,0,280093,0:0:0:0:
256,192,280649,12,0,280149,0:0:0:0:
256,192,280704,12,0,280204,0:0:0:0:
256,192,280760,12,0,280260,0:0:0:0:
256,192,280815,12,0,280315,0:0:0:0:
256,192,280871,12,0,280371,0:0:0:0:
256,192,280926,12,0,280426,0:0:0:0:
256,192,280982,12,0,280482,0:0:0:0:
