osu file format v14

[General]
AudioFilename: 16bit.mp3
AudioLeadIn: 0
PreviewTime: 96543
Countdown: 0
SampleSet: Normal
StackLeniency: 0.7
Mode: 1
LetterboxInBreaks: 0
WidescreenStoryboard: 0

[Editor]
DistanceSpacing: 0.5
BeatDivisor: 4
GridSize: 32
TimelineZoom: 1.5

[Metadata]
Title:Our 16bit warz (Off Vocal)
TitleUnicode:ぼくらの16bit戦争 (Off Vocal)
Artist:sasakure.UK
ArtistUnicode:sasakure.UK
Creator:_none
Version:65535
Source:
Tags:
BeatmapID:746044
BeatmapSetID:337155

[Difficulty]
HPDrainRate:8
CircleSize:2
OverallDifficulty:8
ApproachRate:10
SliderMultiplier:1.6
SliderTickRate:1

[Events]
//Background and Video events
//Break Periods
//Storyboard Layer 0 (Background)
//Storyboard Layer 1 (Fail)
//Storyboard Layer 2 (Pass)
//Storyboard Layer 3 (Foreground)
//Storyboard Sound Samples

[TimingPoints]
3347,245.901639344262,4,1,0,40,1,0
9248,-100,4,1,0,55,0,0
27445,-100,4,1,0,40,0,0
34822,-100,4,1,0,55,0,0
41215,-100,4,1,0,40,0,0
48592,-100,4,1,0,55,0,0
55478,-100,4,1,0,40,0,0
66297,-100,4,1,0,55,0,0
80560,-100,4,1,0,40,0,0
88674,-100,4,1,0,55,0,0
94576,-100,4,1,0,65,0,0
96543,-86.9565217391304,4,1,0,45,0,1
128019,-100,4,1,0,55,0,0

[HitObjects]
256,192,3346,5,0,0:0:0:0:
256,192,3469,1,0,0:0:0:0:
256,192,3592,1,8,0:0:0:0:
256,192,3715,1,0,0:0:0:0:
256,192,3838,1,8,0:0:0:0:
256,192,3961,1,0,0:0:0:0:
256,192,4084,1,0,0:0:0:0:
256,192,4207,1,8,0:0:0:0:
256,192,4453,1,8,0:0:0:0:
256,192,4699,1,8,0:0:0:0:
256,192,4822,1,0,0:0:0:0:
256,192,4945,1,0,0:0:0:0:
256,192,5068,1,8,0:0:0:0:
256,192,5191,1,0,0:0:0:0:
256,192,5314,1,8,0:0:0:0:
256,192,5437,1,0,0:0:0:0:
256,192,5560,1,0,0:0:0:0:
256,192,5683,1,8,0:0:0:0:
256,192,5928,1,8,0:0:0:0:
256,192,6297,1,0,0:0:0:0:
256,192,6420,1,0,0:0:0:0:
256,192,6543,1,8,0:0:0:0:
256,192,6666,1,0,0:0:0:0:
256,192,6789,1,8,0:0:0:0:
256,192,6912,1,0,0:0:0:0:
256,192,7035,1,0,0:0:0:0:
256,192,7158,1,8,0:0:0:0:
256,192,7404,1,8,0:0:0:0:
256,192,7650,1,8,0:0:0:0:
256,192,7773,1,0,0:0:0:0:
256,192,7896,1,0,0:0:0:0:
256,192,8019,1,8,0:0:0:0:
256,192,8142,1,0,0:0:0:0:
256,192,8265,1,8,0:0:0:0:
256,192,8387,1,0,0:0:0:0:
256,192,8510,1,0,0:0:0:0:
256,192,8633,1,8,0:0:0:0:
256,192,8879,1,8,0:0:0:0:
256,192,9248,1,4,0:0:0:0:
256,192,9494,1,8,0:0:0:0:
256,192,9617,1,0,0:0:0:0:
256,192,9740,1,0,0:0:0:0:
256,192,9863,1,0,0:0:0:0:
256,192,9986,1,8,0:0:0:0:
256,192,10109,1,8,0:0:0:0:
256,192,10355,1,8,0:0:0:0:
256,192,10601,1,8,0:0:0:0:
256,192,10724,1,0,0:0:0:0:
256,192,10846,1,0,0:0:0:0:
256,192,10969,1,8,0:0:0:0:
256,192,11092,1,0,0:0:0:0:
256,192,11215,1,8,0:0:0:0:
256,192,11338,1,0,0:0:0:0:
256,192,11461,1,8,0:0:0:0:
256,192,11584,1,8,0:0:0:0:
256,192,11830,1,8,0:0:0:0:
256,192,12199,1,0,0:0:0:0:
256,192,12322,1,0,0:0:0:0:
256,192,12445,1,8,0:0:0:0:
256,192,12568,1,0,0:0:0:0:
256,192,12691,1,8,0:0:0:0:
256,192,12814,1,0,0:0:0:0:
256,192,12937,1,0,0:0:0:0:
256,192,13060,1,8,0:0:0:0:
256,192,13306,1,8,0:0:0:0:
256,192,13551,1,8,0:0:0:0:
256,192,13674,1,0,0:0:0:0:
256,192,13797,1,0,0:0:0:0:
256,192,13920,1,8,0:0:0:0:
256,192,14043,1,0,0:0:0:0:
256,192,14166,1,8,0:0:0:0:
256,192,14228,1,0,0:0:0:0:
256,192,14289,1,8,0:0:0:0:
256,192,14412,1,0,0:0:0:0:
256,192,14535,1,0,0:0:0:0:
256,192,14658,1,0,0:0:0:0:
256,192,14719,1,8,0:0:0:0:
256,192,14781,1,8,0:0:0:0:
256,192,14904,1,0,0:0:0:0:
256,192,15027,1,8,0:0:0:0:
256,192,15150,1,4,0:0:0:0:
256,192,15396,1,8,0:0:0:0:
256,192,15519,1,0,0:0:0:0:
256,192,15642,1,0,0:0:0:0:
256,192,15765,1,0,0:0:0:0:
256,192,15826,1,0,0:0:0:0:
256,192,15887,1,8,0:0:0:0:
256,192,16010,1,8,0:0:0:0:
256,192,16256,1,8,0:0:0:0:
256,192,16502,1,8,0:0:0:0:
256,192,16625,1,0,0:0:0:0:
256,192,16748,1,0,0:0:0:0:
256,192,16871,1,8,0:0:0:0:
256,192,16994,1,0,0:0:0:0:
256,192,17117,1,8,0:0:0:0:
256,192,17240,1,0,0:0:0:0:
256,192,17301,1,0,0:0:0:0:
256,192,17363,1,8,0:0:0:0:
256,192,17486,1,8,0:0:0:0:
256,192,17732,1,8,0:0:0:0:
256,192,18101,1,0,0:0:0:0:
256,192,18224,1,0,0:0:0:0:
256,192,18346,1,8,0:0:0:0:
256,192,18469,1,0,0:0:0:0:
256,192,18592,1,8,0:0:0:0:
256,192,18715,1,0,0:0:0:0:
256,192,18777,1,0,0:0:0:0:
256,192,18838,1,8,0:0:0:0:
256,192,18961,1,8,0:0:0:0:
256,192,19207,1,8,0:0:0:0:
256,192,19453,1,8,0:0:0:0:
256,192,19576,1,0,0:0:0:0:
256,192,19699,1,0,0:0:0:0:
256,192,19822,1,8,0:0:0:0:
256,192,19945,1,0,0:0:0:0:
256,192,20068,1,8,0:0:0:0:
256,192,20191,1,0,0:0:0:0:
256,192,20252,1,0,0:0:0:0:
256,192,20314,1,8,0:0:0:0:
256,192,20437,1,8,0:0:0:0:
256,192,20683,1,8,0:0:0:0:
256,192,20928,1,8,0:0:0:0:
256,192,20990,1,0,0:0:0:0:
256,192,21051,1,4,0:0:0:0:
256,192,21174,1,0,0:0:0:0:
256,192,21297,1,8,0:0:0:0:
256,192,21420,1,0,0:0:0:0:
256,192,21543,1,8,0:0:0:0:
256,192,21666,1,0,0:0:0:0:
256,192,21728,1,0,0:0:0:0:
256,192,21789,1,8,0:0:0:0:
256,192,21912,1,8,0:0:0:0:
256,192,22158,1,8,0:0:0:0:
256,192,22404,1,8,0:0:0:0:
256,192,22527,1,0,0:0:0:0:
256,192,22650,1,0,0:0:0:0:
256,192,22773,1,8,0:0:0:0:
256,192,22896,1,0,0:0:0:0:
256,192,23019,1,8,0:0:0:0:
256,192,23142,1,0,0:0:0:0:
256,192,23203,1,0,0:0:0:0:
256,192,23265,1,8,0:0:0:0:
256,192,23387,1,8,0:0:0:0:
256,192,23633,1,8,0:0:0:0:
256,192,24002,1,0,0:0:0:0:
256,192,24125,1,0,0:0:0:0:
256,192,24248,1,8,0:0:0:0:
256,192,24371,1,0,0:0:0:0:
256,192,24494,1,8,0:0:0:0:
256,192,24617,1,0,0:0:0:0:
256,192,24678,1,0,0:0:0:0:
256,192,24740,1,8,0:0:0:0:
256,192,24863,1,8,0:0:0:0:
256,192,25109,1,8,0:0:0:0:
256,192,25355,1,8,0:0:0:0:
256,192,25478,1,0,0:0:0:0:
256,192,25601,1,0,0:0:0:0:
256,192,25724,1,8,0:0:0:0:
256,192,25846,1,0,0:0:0:0:
256,192,25969,1,8,0:0:0:0:
256,192,26092,1,0,0:0:0:0:
256,192,26154,1,0,0:0:0:0:
256,192,26215,1,8,0:0:0:0:
256,192,26338,1,8,0:0:0:0:
256,192,26400,1,8,0:0:0:0:
256,192,26461,1,0,0:0:0:0:
256,192,26584,1,8,0:0:0:0:
256,192,26707,1,0,0:0:0:0:
256,192,26830,1,8,0:0:0:0:
256,192,26892,1,8,0:0:0:0:
256,192,26953,1,0,0:0:0:0:
256,192,27076,1,8,0:0:0:0:
256,192,27199,1,0,0:0:0:0:
256,192,27322,1,0,0:0:0:0:
256,192,27445,1,4,0:0:0:0:
256,192,27568,1,0,0:0:0:0:
256,192,27691,1,8,0:0:0:0:
256,192,27814,1,0,0:0:0:0:
256,192,27937,1,8,0:0:0:0:
256,192,28060,1,0,0:0:0:0:
256,192,28183,1,8,0:0:0:0:
256,192,28306,1,8,0:0:0:0:
256,192,28551,1,0,0:0:0:0:
256,192,28797,1,0,0:0:0:0:
256,192,29043,1,8,0:0:0:0:
256,192,29289,1,0,0:0:0:0:
256,192,29412,1,0,0:0:0:0:
256,192,29535,1,0,0:0:0:0:
256,192,29658,1,8,0:0:0:0:
256,192,29781,1,0,0:0:0:0:
256,192,29904,1,8,0:0:0:0:
256,192,30027,1,0,0:0:0:0:
256,192,30150,1,0,0:0:0:0:
256,192,30273,1,8,0:0:0:0:
256,192,30519,1,0,0:0:0:0:
256,192,30765,1,0,0:0:0:0:
256,192,31010,1,8,0:0:0:0:
256,192,31256,1,0,0:0:0:0:
256,192,31379,1,0,0:0:0:0:
256,192,31502,1,0,0:0:0:0:
256,192,31625,1,8,0:0:0:0:
256,192,31748,1,0,0:0:0:0:
256,192,31871,1,8,0:0:0:0:
256,192,31994,1,0,0:0:0:0:
256,192,32117,1,0,0:0:0:0:
256,192,32240,1,8,0:0:0:0:
256,192,32486,1,0,0:0:0:0:
256,192,32732,1,0,0:0:0:0:
256,192,32977,1,8,0:0:0:0:
256,192,33223,1,0,0:0:0:0:
256,192,33346,1,0,0:0:0:0:
256,192,33408,1,0,0:0:0:0:
256,192,33469,1,0,0:0:0:0:
256,192,33592,1,8,0:0:0:0:
256,192,33715,1,0,0:0:0:0:
256,192,33777,1,0,0:0:0:0:
256,192,33838,1,8,0:0:0:0:
256,192,33961,1,0,0:0:0:0:
256,192,34084,1,0,0:0:0:0:
256,192,34207,1,8,0:0:0:0:
256,192,34330,1,0,0:0:0:0:
256,192,34453,1,0,0:0:0:0:
256,192,34515,1,8,0:0:0:0:
256,192,34576,1,8,0:0:0:0:
256,192,34699,1,8,0:0:0:0:
256,192,34822,1,4,0:0:0:0:
256,192,35068,1,8,0:0:0:0:
256,192,35191,1,0,0:0:0:0:
256,192,35314,1,0,0:0:0:0:
256,192,35437,1,0,0:0:0:0:
256,192,35498,1,0,0:0:0:0:
256,192,35560,1,8,0:0:0:0:
256,192,35683,1,8,0:0:0:0:
256,192,35928,1,8,0:0:0:0:
256,192,36174,1,8,0:0:0:0:
256,192,36297,1,0,0:0:0:0:
256,192,36420,1,0,0:0:0:0:
256,192,36543,1,8,0:0:0:0:
256,192,36605,1,0,0:0:0:0:
256,192,36666,1,0,0:0:0:0:
256,192,36789,1,8,0:0:0:0:
256,192,36912,1,0,0:0:0:0:
256,192,37035,1,0,0:0:0:0:
256,192,37158,1,8,0:0:0:0:
256,192,37404,1,8,0:0:0:0:
256,192,37773,1,0,0:0:0:0:
256,192,37896,1,0,0:0:0:0:
256,192,38019,1,8,0:0:0:0:
256,192,38142,1,0,0:0:0:0:
256,192,38265,1,8,0:0:0:0:
256,192,38387,1,0,0:0:0:0:
256,192,38449,1,0,0:0:0:0:
256,192,38510,1,8,0:0:0:0:
256,192,38633,1,8,0:0:0:0:
256,192,38879,1,8,0:0:0:0:
256,192,39125,1,8,0:0:0:0:
256,192,39248,1,0,0:0:0:0:
256,192,39371,1,0,0:0:0:0:
256,192,39494,1,8,0:0:0:0:
256,192,39617,1,0,0:0:0:0:
256,192,39740,1,8,0:0:0:0:
256,192,39863,1,0,0:0:0:0:
256,192,39924,1,0,0:0:0:0:
256,192,39986,1,8,0:0:0:0:
256,192,40109,1,8,0:0:0:0:
256,192,40355,1,8,0:0:0:0:
256,192,40601,1,8,0:0:0:0:
256,192,40662,1,0,0:0:0:0:
256,192,40724,1,0,0:0:0:0:
256,192,40846,1,8,0:0:0:0:
256,192,40969,1,0,0:0:0:0:
256,192,41092,1,0,0:0:0:0:
256,192,41215,1,4,0:0:0:0:
256,192,41338,1,0,0:0:0:0:
256,192,41461,1,8,0:0:0:0:
256,192,41584,1,0,0:0:0:0:
256,192,41707,1,8,0:0:0:0:
256,192,41830,1,0,0:0:0:0:
256,192,41892,1,0,0:0:0:0:
256,192,41953,1,8,0:0:0:0:
256,192,42076,1,0,0:0:0:0:
256,192,42322,1,0,0:0:0:0:
256,192,42568,1,0,0:0:0:0:
256,192,42691,1,8,0:0:0:0:
256,192,42814,1,0,0:0:0:0:
256,192,42937,1,0,0:0:0:0:
256,192,42998,1,0,0:0:0:0:
256,192,43060,1,8,0:0:0:0:
256,192,43183,1,0,0:0:0:0:
256,192,43306,1,0,0:0:0:0:
256,192,43428,1,8,0:0:0:0:
256,192,43551,1,0,0:0:0:0:
256,192,43674,1,8,0:0:0:0:
256,192,43797,1,0,0:0:0:0:
256,192,43859,1,0,0:0:0:0:
256,192,43920,1,8,0:0:0:0:
256,192,44043,1,0,0:0:0:0:
256,192,44289,1,0,0:0:0:0:
256,192,44535,1,0,0:0:0:0:
256,192,44658,1,8,0:0:0:0:
256,192,44781,1,0,0:0:0:0:
256,192,44904,1,0,0:0:0:0:
256,192,44965,1,0,0:0:0:0:
256,192,45027,1,8,0:0:0:0:
256,192,45150,1,0,0:0:0:0:
256,192,45273,1,0,0:0:0:0:
256,192,45396,1,8,0:0:0:0:
256,192,45519,1,0,0:0:0:0:
256,192,45642,1,8,0:0:0:0:
256,192,45765,1,0,0:0:0:0:
256,192,45826,1,0,0:0:0:0:
256,192,45887,1,8,0:0:0:0:
256,192,46010,1,0,0:0:0:0:
256,192,46256,1,0,0:0:0:0:
256,192,46502,1,0,0:0:0:0:
256,192,46625,1,8,0:0:0:0:
256,192,46748,1,0,0:0:0:0:
256,192,46871,1,0,0:0:0:0:
256,192,46933,1,0,0:0:0:0:
256,192,46994,1,8,0:0:0:0:
256,192,47117,1,0,0:0:0:0:
256,192,47240,1,0,0:0:0:0:
256,192,47363,1,8,0:0:0:0:
256,192,47424,1,0,0:0:0:0:
256,192,47486,1,8,0:0:0:0:
256,192,47609,1,0,0:0:0:0:
256,192,47670,1,0,0:0:0:0:
256,192,47732,1,8,0:0:0:0:
256,192,47855,1,0,0:0:0:0:
256,192,47978,1,8,0:0:0:0:
256,192,48101,1,0,0:0:0:0:
256,192,48224,1,8,0:0:0:0:
256,192,48285,1,8,0:0:0:0:
256,192,48346,1,0,0:0:0:0:
256,192,48469,1,8,0:0:0:0:
256,192,48592,1,4,0:0:0:0:
256,192,48838,1,8,0:0:0:0:
256,192,48961,1,0,0:0:0:0:
256,192,49084,1,0,0:0:0:0:
256,192,49207,1,0,0:0:0:0:
256,192,49269,1,0,0:0:0:0:
256,192,49330,1,8,0:0:0:0:
256,192,49453,1,8,0:0:0:0:
256,192,49699,1,8,0:0:0:0:
256,192,49945,1,8,0:0:0:0:
256,192,50068,1,0,0:0:0:0:
256,192,50191,1,0,0:0:0:0:
256,192,50314,1,8,0:0:0:0:
256,192,50375,1,0,0:0:0:0:
256,192,50437,1,0,0:0:0:0:
256,192,50560,1,8,0:0:0:0:
256,192,50683,1,0,0:0:0:0:
256,192,50806,1,8,0:0:0:0:
256,192,50928,1,8,0:0:0:0:
256,192,51174,1,8,0:0:0:0:
256,192,51543,1,0,0:0:0:0:
256,192,51666,1,0,0:0:0:0:
256,192,51789,1,8,0:0:0:0:
256,192,51912,1,0,0:0:0:0:
256,192,52035,1,8,0:0:0:0:
256,192,52158,1,0,0:0:0:0:
256,192,52219,1,0,0:0:0:0:
256,192,52281,1,8,0:0:0:0:
256,192,52404,1,8,0:0:0:0:
256,192,52650,1,8,0:0:0:0:
256,192,52896,1,8,0:0:0:0:
256,192,53019,1,0,0:0:0:0:
256,192,53142,1,0,0:0:0:0:
256,192,53265,1,8,0:0:0:0:
256,192,53387,1,0,0:0:0:0:
256,192,53510,1,8,0:0:0:0:
256,192,53633,1,0,0:0:0:0:
256,192,53695,1,0,0:0:0:0:
256,192,53756,1,8,0:0:0:0:
256,192,53879,1,12,0:0:0:0:
256,192,54125,1,12,0:0:0:0:
256,192,54371,1,12,0:0:0:0:
256,192,54617,1,12,0:0:0:0:
256,192,54863,1,12,0:0:0:0:
256,192,55109,1,0,0:0:0:0:
256,192,55170,1,0,0:0:0:0:
256,192,55232,1,8,0:0:0:0:
256,192,55355,1,8,0:0:0:0:
256,192,55478,1,4,0:0:0:0:
256,192,55601,1,0,0:0:0:0:
256,192,55724,1,8,0:0:0:0:
256,192,55846,1,0,0:0:0:0:
256,192,55969,1,0,0:0:0:0:
256,192,56031,1,0,0:0:0:0:
256,192,56092,1,8,0:0:0:0:
256,192,56215,1,8,0:0:0:0:
256,192,56338,1,0,0:0:0:0:
256,192,56461,1,8,0:0:0:0:
256,192,56523,1,0,0:0:0:0:
256,192,56584,1,0,0:0:0:0:
256,192,56707,1,8,0:0:0:0:
256,192,56830,1,0,0:0:0:0:
256,192,56953,1,8,0:0:0:0:
256,192,57076,1,8,0:0:0:0:
256,192,57199,1,0,0:0:0:0:
256,192,57260,1,0,0:0:0:0:
256,192,57322,1,8,0:0:0:0:
256,192,57445,1,8,0:0:0:0:
256,192,57568,1,0,0:0:0:0:
256,192,57691,1,8,0:0:0:0:
256,192,57752,1,0,0:0:0:0:
256,192,57814,1,0,0:0:0:0:
256,192,57937,1,0,0:0:0:0:
256,192,58060,1,8,0:0:0:0:
256,192,58183,1,8,0:0:0:0:
256,192,58306,1,0,0:0:0:0:
256,192,58428,1,0,0:0:0:0:
256,192,58551,1,8,0:0:0:0:
256,192,58674,1,0,0:0:0:0:
256,192,58736,1,0,0:0:0:0:
256,192,58797,1,8,0:0:0:0:
256,192,58920,1,8,0:0:0:0:
256,192,59043,1,0,0:0:0:0:
256,192,59166,1,8,0:0:0:0:
256,192,59228,1,0,0:0:0:0:
256,192,59289,1,8,0:0:0:0:
256,192,59412,1,0,0:0:0:0:
256,192,59535,1,0,0:0:0:0:
256,192,59658,1,8,0:0:0:0:
256,192,59781,1,0,0:0:0:0:
256,192,59904,1,8,0:0:0:0:
256,192,59965,1,0,0:0:0:0:
256,192,60027,1,0,0:0:0:0:
256,192,60150,1,8,0:0:0:0:
256,192,60273,1,0,0:0:0:0:
256,192,60396,1,8,0:0:0:0:
256,192,60519,1,8,0:0:0:0:
256,192,60642,1,0,0:0:0:0:
256,192,60703,1,0,0:0:0:0:
256,192,60765,1,8,0:0:0:0:
256,192,60887,1,0,0:0:0:0:
256,192,61010,1,0,0:0:0:0:
256,192,61133,1,8,0:0:0:0:
256,192,61256,1,0,0:0:0:0:
256,192,61379,1,8,0:0:0:0:
256,192,61502,1,0,0:0:0:0:
256,192,61564,1,0,0:0:0:0:
256,192,61625,1,8,0:0:0:0:
256,192,61748,1,0,0:0:0:0:
256,192,61871,1,8,0:0:0:0:
256,192,61994,1,8,0:0:0:0:
256,192,62117,1,0,0:0:0:0:
256,192,62240,1,0,0:0:0:0:
256,192,62301,1,0,0:0:0:0:
256,192,62363,1,8,0:0:0:0:
256,192,62486,1,0,0:0:0:0:
256,192,62609,1,8,0:0:0:0:
256,192,62732,1,0,0:0:0:0:
256,192,62855,1,8,0:0:0:0:
256,192,62916,1,0,0:0:0:0:
256,192,62978,1,8,0:0:0:0:
256,192,63101,1,0,0:0:0:0:
256,192,63224,1,8,0:0:0:0:
256,192,63285,1,0,0:0:0:0:
256,192,63346,1,8,0:0:0:0:
256,192,63469,1,8,0:0:0:0:
256,192,63592,1,4,0:0:0:0:
256,192,63838,1,8,0:0:0:0:
256,192,63900,1,0,0:0:0:0:
256,192,63961,1,8,0:0:0:0:
256,192,64084,1,0,0:0:0:0:
256,192,64207,1,0,0:0:0:0:
256,192,64330,1,8,0:0:0:0:
256,192,64453,1,8,0:0:0:0:
256,192,64576,1,0,0:0:0:0:
256,192,64637,1,0,0:0:0:0:
256,192,64699,1,8,0:0:0:0:
256,192,64822,1,8,0:0:0:0:
256,192,64945,1,8,0:0:0:0:
256,192,65068,1,0,0:0:0:0:
256,192,65191,1,0,0:0:0:0:
256,192,65314,1,8,0:0:0:0:
256,192,65375,1,0,0:0:0:0:
256,192,65437,1,8,0:0:0:0:
256,192,65560,1,0,0:0:0:0:
256,192,65683,1,0,0:0:0:0:
256,192,65806,1,8,0:0:0:0:
256,192,65928,1,0,0:0:0:0:
256,192,66051,1,8,0:0:0:0:
256,192,66113,1,0,0:0:0:0:
256,192,66174,1,8,0:0:0:0:
256,192,66297,1,4,0:0:0:0:
256,192,66543,1,8,0:0:0:0:
256,192,66666,1,0,0:0:0:0:
256,192,66789,1,8,0:0:0:0:
256,192,66851,1,0,0:0:0:0:
256,192,66912,1,8,0:0:0:0:
256,192,66974,1,0,0:0:0:0:
256,192,67035,1,8,0:0:0:0:
256,192,67158,1,8,0:0:0:0:
256,192,67281,1,0,0:0:0:0:
256,192,67404,1,8,0:0:0:0:
256,192,67527,1,0,0:0:0:0:
256,192,67650,1,8,0:0:0:0:
256,192,67711,1,0,0:0:0:0:
256,192,67773,1,0,0:0:0:0:
256,192,67896,1,0,0:0:0:0:
256,192,68019,1,8,0:0:0:0:
256,192,68142,1,0,0:0:0:0:
256,192,68265,1,8,0:0:0:0:
256,192,68387,1,0,0:0:0:0:
256,192,68449,1,0,0:0:0:0:
256,192,68510,1,8,0:0:0:0:
256,192,68633,1,8,0:0:0:0:
256,192,68756,1,0,0:0:0:0:
256,192,68879,1,8,0:0:0:0:
256,192,69002,1,0,0:0:0:0:
256,192,69125,1,8,0:0:0:0:
256,192,69248,1,0,0:0:0:0:
256,192,69371,1,0,0:0:0:0:
256,192,69494,1,8,0:0:0:0:
256,192,69617,1,0,0:0:0:0:
256,192,69740,1,8,0:0:0:0:
256,192,69801,1,0,0:0:0:0:
256,192,69863,1,0,0:0:0:0:
256,192,69924,1,0,0:0:0:0:
256,192,69986,1,8,0:0:0:0:
256,192,70109,1,8,0:0:0:0:
256,192,70232,1,0,0:0:0:0:
256,192,70355,1,8,0:0:0:0:
256,192,70478,1,0,0:0:0:0:
256,192,70601,1,8,0:0:0:0:
256,192,70662,1,0,0:0:0:0:
256,192,70724,1,0,0:0:0:0:
256,192,70846,1,0,0:0:0:0:
256,192,70969,1,8,0:0:0:0:
256,192,71092,1,0,0:0:0:0:
256,192,71215,1,8,0:0:0:0:
256,192,71338,1,0,0:0:0:0:
256,192,71400,1,0,0:0:0:0:
256,192,71461,1,8,0:0:0:0:
256,192,71584,1,8,0:0:0:0:
256,192,71707,1,0,0:0:0:0:
256,192,71830,1,8,0:0:0:0:
256,192,71892,1,0,0:0:0:0:
256,192,71953,1,0,0:0:0:0:
256,192,72076,1,8,0:0:0:0:
256,192,72199,1,0,0:0:0:0:
256,192,72260,1,0,0:0:0:0:
256,192,72322,1,8,0:0:0:0:
256,192,72445,1,0,0:0:0:0:
256,192,72568,1,8,0:0:0:0:
256,192,72691,1,4,0:0:0:0:
256,192,72937,1,8,0:0:0:0:
256,192,73060,1,0,0:0:0:0:
256,192,73183,1,8,0:0:0:0:
256,192,73244,1,0,0:0:0:0:
256,192,73306,1,8,0:0:0:0:
256,192,73367,1,0,0:0:0:0:
256,192,73428,1,8,0:0:0:0:
256,192,73551,1,8,0:0:0:0:
256,192,73674,1,0,0:0:0:0:
256,192,73797,1,8,0:0:0:0:
256,192,73920,1,0,0:0:0:0:
256,192,74043,1,8,0:0:0:0:
256,192,74105,1,0,0:0:0:0:
256,192,74166,1,0,0:0:0:0:
256,192,74289,1,0,0:0:0:0:
256,192,74412,1,8,0:0:0:0:
256,192,74535,1,0,0:0:0:0:
256,192,74658,1,8,0:0:0:0:
256,192,74781,1,0,0:0:0:0:
256,192,74842,1,0,0:0:0:0:
256,192,74904,1,8,0:0:0:0:
256,192,75027,1,8,0:0:0:0:
256,192,75150,1,0,0:0:0:0:
256,192,75273,1,8,0:0:0:0:
256,192,75396,1,0,0:0:0:0:
256,192,75519,1,8,0:0:0:0:
256,192,75642,1,4,0:0:0:0:
256,192,75765,1,4,0:0:0:0:
256,192,75887,1,12,0:0:0:0:
256,192,76010,1,12,0:0:0:0:
256,192,76379,1,4,0:0:0:0:
256,192,76502,1,4,0:0:0:0:
256,192,76625,1,12,0:0:0:0:
256,192,76748,1,12,0:0:0:0:
256,192,77117,1,4,0:0:0:0:
256,192,77240,1,4,0:0:0:0:
256,192,77363,1,12,0:0:0:0:
256,192,77486,1,12,0:0:0:0:
256,192,77732,1,4,0:0:0:0:
256,192,77978,1,12,0:0:0:0:
256,192,78224,1,4,0:0:0:0:
256,192,78469,1,12,0:0:0:0:
256,192,78715,1,4,0:0:0:0:
256,192,78961,1,12,0:0:0:0:
256,192,79207,1,4,0:0:0:0:
256,192,79392,1,12,0:0:0:0:
256,192,79699,1,12,0:0:0:0:
256,192,79822,1,0,0:0:0:0:
256,192,79883,1,0,0:0:0:0:
256,192,79945,1,8,0:0:0:0:
256,192,80068,1,8,0:0:0:0:
256,192,80191,1,0,0:0:0:0:
256,192,80252,1,0,0:0:0:0:
256,192,80314,1,8,0:0:0:0:
256,192,80437,1,8,0:0:0:0:
256,192,80498,1,0,0:0:0:0:
256,192,80560,1,4,0:0:0:0:
256,192,80683,1,0,0:0:0:0:
256,192,80806,1,8,0:0:0:0:
256,192,80928,1,0,0:0:0:0:
256,192,81051,1,0,0:0:0:0:
256,192,81174,1,8,0:0:0:0:
256,192,81297,1,8,0:0:0:0:
256,192,81420,1,0,0:0:0:0:
256,192,81482,1,0,0:0:0:0:
256,192,81543,1,8,0:0:0:0:
256,192,81666,1,0,0:0:0:0:
256,192,81789,1,12,0:0:0:0:
256,192,81912,1,0,0:0:0:0:
256,192,82035,1,8,0:0:0:0:
256,192,82158,1,0,0:0:0:0:
256,192,82281,1,8,0:0:0:0:
256,192,82404,1,0,0:0:0:0:
256,192,82465,1,0,0:0:0:0:
256,192,82527,1,8,0:0:0:0:
256,192,82650,1,8,0:0:0:0:
256,192,82773,1,8,0:0:0:0:
256,192,82896,1,0,0:0:0:0:
256,192,82957,1,0,0:0:0:0:
256,192,83019,1,8,0:0:0:0:
256,192,83142,1,8,0:0:0:0:
256,192,83265,1,4,0:0:0:0:
256,192,83387,1,0,0:0:0:0:
256,192,83510,1,8,0:0:0:0:
256,192,83633,1,0,0:0:0:0:
256,192,83756,1,0,0:0:0:0:
256,192,83879,1,8,0:0:0:0:
256,192,83941,1,0,0:0:0:0:
256,192,84002,1,8,0:0:0:0:
256,192,84125,1,8,0:0:0:0:
256,192,84248,1,0,0:0:0:0:
256,192,84371,1,8,0:0:0:0:
256,192,84494,1,12,0:0:0:0:
256,192,84617,1,0,0:0:0:0:
256,192,84740,1,0,0:0:0:0:
256,192,84863,1,8,0:0:0:0:
256,192,84986,1,8,0:0:0:0:
256,192,85047,1,0,0:0:0:0:
256,192,85109,1,8,0:0:0:0:
256,192,85232,1,0,0:0:0:0:
256,192,85355,1,8,0:0:0:0:
256,192,85478,1,8,0:0:0:0:
256,192,85601,1,0,0:0:0:0:
256,192,85724,1,8,0:0:0:0:
256,192,85785,1,0,0:0:0:0:
256,192,85846,1,8,0:0:0:0:
256,192,85969,1,4,0:0:0:0:
256,192,86092,1,0,0:0:0:0:
256,192,86215,1,8,0:0:0:0:
256,192,86338,1,0,0:0:0:0:
256,192,86461,1,8,0:0:0:0:
256,192,86584,1,0,0:0:0:0:
256,192,86646,1,0,0:0:0:0:
256,192,86707,1,8,0:0:0:0:
256,192,86830,1,8,0:0:0:0:
256,192,86953,1,0,0:0:0:0:
256,192,87076,1,8,0:0:0:0:
256,192,87137,1,0,0:0:0:0:
256,192,87199,1,8,0:0:0:0:
256,192,87322,1,0,0:0:0:0:
256,192,87445,1,12,0:0:0:0:
256,192,87568,1,0,0:0:0:0:
256,192,87691,1,8,0:0:0:0:
256,192,87752,1,0,0:0:0:0:
256,192,87814,1,8,0:0:0:0:
256,192,87937,1,0,0:0:0:0:
256,192,87998,1,0,0:0:0:0:
256,192,88060,1,8,0:0:0:0:
256,192,88183,1,8,0:0:0:0:
256,192,88306,1,0,0:0:0:0:
256,192,88367,1,0,0:0:0:0:
256,192,88428,1,8,0:0:0:0:
256,192,88551,1,8,0:0:0:0:
256,192,88674,1,4,0:0:0:0:
256,192,88797,1,0,0:0:0:0:
256,192,88920,1,8,0:0:0:0:
256,192,88982,1,0,0:0:0:0:
256,192,89043,1,8,0:0:0:0:
256,192,89166,1,8,0:0:0:0:
256,192,89228,1,0,0:0:0:0:
256,192,89289,1,8,0:0:0:0:
256,192,89351,1,0,0:0:0:0:
256,192,89412,1,8,0:0:0:0:
256,192,89535,1,8,0:0:0:0:
256,192,89658,1,0,0:0:0:0:
256,192,89719,1,0,0:0:0:0:
256,192,89781,1,8,0:0:0:0:
256,192,89904,1,8,0:0:0:0:
256,192,90027,1,8,0:0:0:0:
256,192,90150,1,4,0:0:0:0:
256,192,90273,1,0,0:0:0:0:
256,192,90396,1,8,0:0:0:0:
256,192,90457,1,0,0:0:0:0:
256,192,90519,1,8,0:0:0:0:
256,192,90642,1,0,0:0:0:0:
256,192,90703,1,0,0:0:0:0:
256,192,90765,1,0,0:0:0:0:
256,192,90826,1,0,0:0:0:0:
256,192,90887,1,8,0:0:0:0:
256,192,91010,1,8,0:0:0:0:
256,192,91133,1,8,0:0:0:0:
256,192,91195,1,0,0:0:0:0:
256,192,91256,1,8,0:0:0:0:
256,192,91379,1,0,0:0:0:0:
256,192,91502,1,8,0:0:0:0:
256,192,91625,1,4,0:0:0:0:
256,192,91748,1,0,0:0:0:0:
256,192,91871,1,8,0:0:0:0:
256,192,91933,1,0,0:0:0:0:
256,192,91994,1,8,0:0:0:0:
256,192,92117,1,8,0:0:0:0:
256,192,92178,1,0,0:0:0:0:
256,192,92240,1,8,0:0:0:0:
256,192,92301,1,0,0:0:0:0:
256,192,92363,1,8,0:0:0:0:
256,192,92486,1,8,0:0:0:0:
256,192,92609,1,0,0:0:0:0:
256,192,92670,1,0,0:0:0:0:
256,192,92732,1,8,0:0:0:0:
256,192,92855,1,0,0:0:0:0:
256,192,92978,1,8,0:0:0:0:
256,192,93101,1,4,0:0:0:0:
256,192,93224,1,0,0:0:0:0:
256,192,93346,1,8,0:0:0:0:
256,192,93408,1,0,0:0:0:0:
256,192,93469,1,8,0:0:0:0:
256,192,93592,1,0,0:0:0:0:
256,192,93654,1,0,0:0:0:0:
256,192,93715,1,0,0:0:0:0:
256,192,93777,1,0,0:0:0:0:
256,192,93838,1,8,0:0:0:0:
256,192,93961,1,8,0:0:0:0:
256,192,94084,1,0,0:0:0:0:
256,192,94146,1,0,0:0:0:0:
256,192,94207,1,8,0:0:0:0:
256,192,94330,1,8,0:0:0:0:
256,192,94453,1,8,0:0:0:0:
256,192,94576,1,4,0:0:0:0:
256,192,94699,1,4,0:0:0:0:
256,192,94822,1,12,0:0:0:0:
256,192,94945,1,12,0:0:0:0:
256,192,95314,1,4,0:0:0:0:
256,192,95437,1,4,0:0:0:0:
256,192,95560,1,12,0:0:0:0:
256,192,95683,1,12,0:0:0:0:
256,192,96051,1,0,0:0:0:0:
256,192,96113,1,0,0:0:0:0:
256,192,96174,1,8,0:0:0:0:
256,192,96297,1,8,0:0:0:0:
256,192,96359,1,0,0:0:0:0:
256,192,96420,1,8,0:0:0:0:
256,192,96543,1,4,0:0:0:0:
256,192,96789,1,8,0:0:0:0:
256,192,96851,1,0,0:0:0:0:
256,192,96912,1,8,0:0:0:0:
256,192,97035,1,0,0:0:0:0:
256,192,97096,1,0,0:0:0:0:
256,192,97158,1,8,0:0:0:0:
256,192,97281,1,0,0:0:0:0:
256,192,97404,1,8,0:0:0:0:
256,192,97527,1,0,0:0:0:0:
256,192,97650,1,0,0:0:0:0:
256,192,97711,1,0,0:0:0:0:
256,192,97773,1,8,0:0:0:0:
256,192,97896,1,8,0:0:0:0:
256,192,98019,1,8,0:0:0:0:
256,192,98080,1,0,0:0:0:0:
256,192,98142,1,8,0:0:0:0:
256,192,98265,1,0,0:0:0:0:
256,192,98387,1,8,0:0:0:0:
256,192,98510,1,0,0:0:0:0:
256,192,98572,1,0,0:0:0:0:
256,192,98633,1,8,0:0:0:0:
256,192,98756,1,8,0:0:0:0:
256,192,98818,1,0,0:0:0:0:
256,192,98879,1,8,0:0:0:0:
256,192,99002,1,0,0:0:0:0:
256,192,99125,1,0,0:0:0:0:
256,192,99187,1,0,0:0:0:0:
256,192,99248,1,8,0:0:0:0:
256,192,99371,1,8,0:0:0:0:
256,192,99494,1,0,0:0:0:0:
256,192,99556,1,0,0:0:0:0:
256,192,99617,1,8,0:0:0:0:
256,192,99740,1,8,0:0:0:0:
256,192,99801,1,0,0:0:0:0:
256,192,99863,1,8,0:0:0:0:
256,192,99986,1,8,0:0:0:0:
256,192,100047,1,0,0:0:0:0:
256,192,100109,1,0,0:0:0:0:
256,192,100170,1,0,0:0:0:0:
256,192,100232,1,0,0:0:0:0:
256,192,100355,1,8,0:0:0:0:
256,192,100478,1,0,0:0:0:0:
256,192,100601,1,0,0:0:0:0:
256,192,100662,1,0,0:0:0:0:
256,192,100724,1,8,0:0:0:0:
256,192,100846,1,8,0:0:0:0:
256,192,100969,1,8,0:0:0:0:
256,192,101031,1,0,0:0:0:0:
256,192,101092,1,8,0:0:0:0:
256,192,101215,1,0,0:0:0:0:
256,192,101338,1,8,0:0:0:0:
256,192,101461,1,0,0:0:0:0:
256,192,101523,1,0,0:0:0:0:
256,192,101584,1,8,0:0:0:0:
256,192,101707,1,8,0:0:0:0:
256,192,101769,1,0,0:0:0:0:
256,192,101830,1,8,0:0:0:0:
256,192,101953,1,0,0:0:0:0:
256,192,102015,1,0,0:0:0:0:
256,192,102076,1,8,0:0:0:0:
256,192,102199,1,0,0:0:0:0:
256,192,102322,1,8,0:0:0:0:
256,192,102445,1,0,0:0:0:0:
256,192,102568,1,8,0:0:0:0:
256,192,102629,1,0,0:0:0:0:
256,192,102691,1,0,0:0:0:0:
256,192,102814,1,8,0:0:0:0:
256,192,102937,1,8,0:0:0:0:
256,192,102998,1,0,0:0:0:0:
256,192,103060,1,8,0:0:0:0:
256,192,103183,1,0,0:0:0:0:
256,192,103244,1,0,0:0:0:0:
256,192,103306,1,8,0:0:0:0:
256,192,103428,1,0,0:0:0:0:
256,192,103551,1,8,0:0:0:0:
256,192,103613,1,0,0:0:0:0:
256,192,103674,1,0,0:0:0:0:
256,192,103797,1,8,0:0:0:0:
256,192,103920,1,0,0:0:0:0:
256,192,103982,1,0,0:0:0:0:
256,192,104043,1,8,0:0:0:0:
256,192,104166,1,0,0:0:0:0:
256,192,104289,1,8,0:0:0:0:
256,192,104412,1,0,0:0:0:0:
256,192,104535,1,0,0:0:0:0:
256,192,104596,1,0,0:0:0:0:
256,192,104658,1,8,0:0:0:0:
256,192,104781,1,8,0:0:0:0:
256,192,104904,1,8,0:0:0:0:
256,192,104965,1,0,0:0:0:0:
256,192,105027,1,8,0:0:0:0:
256,192,105150,1,0,0:0:0:0:
256,192,105211,1,0,0:0:0:0:
256,192,105273,1,8,0:0:0:0:
256,192,105396,1,0,0:0:0:0:
256,192,105519,1,0,0:0:0:0:
256,192,105580,1,0,0:0:0:0:
256,192,105642,1,8,0:0:0:0:
256,192,105765,1,8,0:0:0:0:
256,192,105887,1,8,0:0:0:0:
256,192,105949,1,0,0:0:0:0:
256,192,106010,1,8,0:0:0:0:
256,192,106133,1,0,0:0:0:0:
256,192,106256,1,8,0:0:0:0:
256,192,106379,1,0,0:0:0:0:
256,192,106441,1,0,0:0:0:0:
256,192,106502,1,8,0:0:0:0:
256,192,106625,1,8,0:0:0:0:
256,192,106687,1,0,0:0:0:0:
256,192,106748,1,8,0:0:0:0:
256,192,106871,1,8,0:0:0:0:
256,192,106933,1,0,0:0:0:0:
256,192,106994,1,0,0:0:0:0:
256,192,107117,1,0,0:0:0:0:
256,192,107240,1,8,0:0:0:0:
256,192,107363,1,0,0:0:0:0:
256,192,107486,1,0,0:0:0:0:
256,192,107547,1,0,0:0:0:0:
256,192,107609,1,8,0:0:0:0:
256,192,107732,1,8,0:0:0:0:
256,192,107855,1,8,0:0:0:0:
256,192,107916,1,0,0:0:0:0:
256,192,107978,1,8,0:0:0:0:
256,192,108101,1,0,0:0:0:0:
256,192,108162,1,0,0:0:0:0:
256,192,108224,1,8,0:0:0:0:
256,192,108346,1,0,0:0:0:0:
256,192,108469,1,0,0:0:0:0:
256,192,108531,1,0,0:0:0:0:
256,192,108592,1,8,0:0:0:0:
256,192,108715,1,8,0:0:0:0:
256,192,108838,1,8,0:0:0:0:
256,192,108900,1,0,0:0:0:0:
256,192,108961,1,8,0:0:0:0:
256,192,109084,1,0,0:0:0:0:
256,192,109146,1,0,0:0:0:0:
256,192,109207,1,8,0:0:0:0:
256,192,109330,1,0,0:0:0:0:
256,192,109453,1,0,0:0:0:0:
256,192,109515,1,0,0:0:0:0:
256,192,109576,1,8,0:0:0:0:
256,192,109699,1,8,0:0:0:0:
256,192,109822,1,8,0:0:0:0:
256,192,109883,1,0,0:0:0:0:
256,192,109945,1,8,0:0:0:0:
256,192,110068,1,0,0:0:0:0:
256,192,110191,1,8,0:0:0:0:
256,192,110314,1,0,0:0:0:0:
256,192,110437,1,0,0:0:0:0:
256,192,110498,1,0,0:0:0:0:
256,192,110560,1,8,0:0:0:0:
256,192,110683,1,8,0:0:0:0:
256,192,110806,1,8,0:0:0:0:
256,192,110867,1,0,0:0:0:0:
256,192,110928,1,8,0:0:0:0:
256,192,111051,1,0,0:0:0:0:
256,192,111113,1,0,0:0:0:0:
256,192,111174,1,8,0:0:0:0:
256,192,111297,1,0,0:0:0:0:
256,192,111359,1,0,0:0:0:0:
256,192,111420,1,8,0:0:0:0:
256,192,111543,1,8,0:0:0:0:
256,192,111605,1,0,0:0:0:0:
256,192,111666,1,8,0:0:0:0:
256,192,111789,1,8,0:0:0:0:
256,192,111851,1,0,0:0:0:0:
256,192,111912,1,0,0:0:0:0:
256,192,111974,1,0,0:0:0:0:
256,192,112035,1,8,0:0:0:0:
256,192,112096,1,0,0:0:0:0:
256,192,112158,1,8,0:0:0:0:
256,192,112281,1,4,0:0:0:0:
256,192,112404,1,0,0:0:0:0:
256,192,112465,1,0,0:0:0:0:
256,192,112527,1,8,0:0:0:0:
256,192,112650,1,8,0:0:0:0:
256,192,112773,1,8,0:0:0:0:
256,192,112834,1,0,0:0:0:0:
256,192,112896,1,8,0:0:0:0:
256,192,113019,1,0,0:0:0:0:
256,192,113080,1,0,0:0:0:0:
256,192,113142,1,8,0:0:0:0:
256,192,113265,1,0,0:0:0:0:
256,192,113387,1,0,0:0:0:0:
256,192,113449,1,0,0:0:0:0:
256,192,113510,1,8,0:0:0:0:
256,192,113633,1,8,0:0:0:0:
256,192,113756,1,0,0:0:0:0:
256,192,113818,1,0,0:0:0:0:
256,192,113879,1,8,0:0:0:0:
256,192,114002,1,8,0:0:0:0:
256,192,114064,1,0,0:0:0:0:
256,192,114125,1,8,0:0:0:0:
256,192,114248,1,0,0:0:0:0:
256,192,114371,1,0,0:0:0:0:
256,192,114433,1,0,0:0:0:0:
256,192,114494,1,8,0:0:0:0:
256,192,114617,1,8,0:0:0:0:
256,192,114740,1,8,0:0:0:0:
256,192,114801,1,0,0:0:0:0:
256,192,114863,1,8,0:0:0:0:
256,192,114986,1,0,0:0:0:0:
256,192,115047,1,0,0:0:0:0:
256,192,115109,1,8,0:0:0:0:
256,192,115232,1,0,0:0:0:0:
256,192,115293,1,0,0:0:0:0:
256,192,115355,1,8,0:0:0:0:
256,192,115478,1,0,0:0:0:0:
256,192,115601,1,8,0:0:0:0:
256,192,115724,1,8,0:0:0:0:
256,192,115785,1,0,0:0:0:0:
256,192,115846,1,8,0:0:0:0:
256,192,115969,1,0,0:0:0:0:
256,192,116031,1,0,0:0:0:0:
256,192,116092,1,8,0:0:0:0:
256,192,116215,1,0,0:0:0:0:
256,192,116338,1,0,0:0:0:0:
256,192,116400,1,0,0:0:0:0:
256,192,116461,1,8,0:0:0:0:
256,192,116584,1,8,0:0:0:0:
256,192,116707,1,8,0:0:0:0:
256,192,116769,1,0,0:0:0:0:
256,192,116830,1,8,0:0:0:0:
256,192,116953,1,0,0:0:0:0:
256,192,117015,1,0,0:0:0:0:
256,192,117076,1,8,0:0:0:0:
256,192,117199,1,0,0:0:0:0:
256,192,117322,1,0,0:0:0:0:
256,192,117383,1,0,0:0:0:0:
256,192,117445,1,8,0:0:0:0:
256,192,117568,1,8,0:0:0:0:
256,192,117691,1,8,0:0:0:0:
256,192,117752,1,0,0:0:0:0:
256,192,117814,1,8,0:0:0:0:
256,192,117937,1,0,0:0:0:0:
256,192,117998,1,0,0:0:0:0:
256,192,118060,1,8,0:0:0:0:
256,192,118183,1,0,0:0:0:0:
256,192,118244,1,0,0:0:0:0:
256,192,118306,1,8,0:0:0:0:
256,192,118428,1,0,0:0:0:0:
256,192,118551,1,8,0:0:0:0:
256,192,118674,1,8,0:0:0:0:
256,192,118736,1,0,0:0:0:0:
256,192,118797,1,8,0:0:0:0:
256,192,118920,1,0,0:0:0:0:
256,192,118982,1,0,0:0:0:0:
256,192,119043,1,8,0:0:0:0:
256,192,119166,1,0,0:0:0:0:
256,192,119289,1,0,0:0:0:0:
256,192,119351,1,0,0:0:0:0:
256,192,119412,1,8,0:0:0:0:
256,192,119535,1,8,0:0:0:0:
256,192,119658,1,8,0:0:0:0:
256,192,119719,1,0,0:0:0:0:
256,192,119781,1,8,0:0:0:0:
256,192,119904,1,0,0:0:0:0:
256,192,119965,1,0,0:0:0:0:
256,192,120027,1,8,0:0:0:0:
256,192,120150,1,4,0:0:0:0:
256,192,120273,1,0,0:0:0:0:
256,192,120334,1,0,0:0:0:0:
256,192,120396,1,8,0:0:0:0:
256,192,120519,1,8,0:0:0:0:
256,192,120642,1,8,0:0:0:0:
256,192,120703,1,0,0:0:0:0:
256,192,120765,1,8,0:0:0:0:
256,192,120887,1,0,0:0:0:0:
256,192,120949,1,0,0:0:0:0:
256,192,121010,1,8,0:0:0:0:
256,192,121133,1,0,0:0:0:0:
256,192,121256,1,0,0:0:0:0:
256,192,121318,1,0,0:0:0:0:
256,192,121379,1,8,0:0:0:0:
256,192,121502,1,8,0:0:0:0:
256,192,121625,1,8,0:0:0:0:
256,192,121687,1,0,0:0:0:0:
256,192,121748,1,8,0:0:0:0:
256,192,121871,1,0,0:0:0:0:
256,192,121933,1,0,0:0:0:0:
256,192,121994,1,8,0:0:0:0:
256,192,122117,1,0,0:0:0:0:
256,192,122178,1,0,0:0:0:0:
256,192,122240,1,8,0:0:0:0:
256,192,122363,1,0,0:0:0:0:
256,192,122486,1,8,0:0:0:0:
256,192,122609,1,8,0:0:0:0:
256,192,122670,1,0,0:0:0:0:
256,192,122732,1,8,0:0:0:0:
256,192,122855,1,0,0:0:0:0:
256,192,122916,1,0,0:0:0:0:
256,192,122978,1,8,0:0:0:0:
256,192,123101,1,0,0:0:0:0:
256,192,123224,1,0,0:0:0:0:
256,192,123285,1,0,0:0:0:0:
256,192,123346,1,8,0:0:0:0:
256,192,123469,1,8,0:0:0:0:
256,192,123592,1,8,0:0:0:0:
256,192,123654,1,0,0:0:0:0:
256,192,123715,1,8,0:0:0:0:
256,192,123838,1,0,0:0:0:0:
256,192,123900,1,0,0:0:0:0:
256,192,123961,1,8,0:0:0:0:
256,192,124084,1,0,0:0:0:0:
256,192,124207,1,0,0:0:0:0:
256,192,124269,1,0,0:0:0:0:
256,192,124330,1,8,0:0:0:0:
256,192,124453,1,8,0:0:0:0:
256,192,124576,1,8,0:0:0:0:
256,192,124637,1,0,0:0:0:0:
256,192,124699,1,8,0:0:0:0:
256,192,124822,1,0,0:0:0:0:
256,192,124883,1,0,0:0:0:0:
256,192,124945,1,8,0:0:0:0:
256,192,125068,1,0,0:0:0:0:
256,192,125129,1,0,0:0:0:0:
256,192,125191,1,8,0:0:0:0:
256,192,125314,1,0,0:0:0:0:
256,192,125437,1,8,0:0:0:0:
256,192,125560,1,8,0:0:0:0:
256,192,125621,1,0,0:0:0:0:
256,192,125683,1,8,0:0:0:0:
256,192,125806,1,0,0:0:0:0:
256,192,125867,1,0,0:0:0:0:
256,192,125928,1,8,0:0:0:0:
256,192,126051,1,0,0:0:0:0:
256,192,126113,1,0,0:0:0:0:
256,192,126174,1,8,0:0:0:0:
256,192,126297,1,0,0:0:0:0:
256,192,126420,1,8,0:0:0:0:
256,192,126543,1,8,0:0:0:0:
256,192,126605,1,0,0:0:0:0:
256,192,126666,1,8,0:0:0:0:
256,192,126789,1,0,0:0:0:0:
256,192,126851,1,0,0:0:0:0:
256,192,126912,1,8,0:0:0:0:
256,192,127035,1,0,0:0:0:0:
256,192,127096,1,0,0:0:0:0:
256,192,127158,1,8,0:0:0:0:
256,192,127281,1,0,0:0:0:0:
256,192,127404,1,8,0:0:0:0:
256,192,127527,1,0,0:0:0:0:
256,192,127588,1,0,0:0:0:0:
256,192,127650,1,8,0:0:0:0:
256,192,127773,1,8,0:0:0:0:
256,192,127834,1,0,0:0:0:0:
256,192,127896,1,8,0:0:0:0:
256,192,128019,1,4,0:0:0:0:
