osu file format v12

[General]
AudioFilename: Shinkai no Ib.mp3
AudioLeadIn: 0
PreviewTime: 177259
Countdown: 0
SampleSet: Soft
StackLeniency: 0.7
Mode: 0
LetterboxInBreaks: 0
WidescreenStoryboard: 0

[Editor]
DistanceSpacing: 0.6
BeatDivisor: 2
GridSize: 4
TimelineZoom: 0.6199868

[Metadata]
Title:Little Cry of The Abyss feat. Asako Toki
TitleUnicode:深海のリトルクライ feat. 土岐麻子
Artist:sasakure.UK
ArtistUnicode:sasakure.UK
Creator:Gexigamma
Version:Easy
Source:Genjitsu Aesop Album
Tags:garry mary kouri shinkai no ib game
BeatmapID:388970
BeatmapSetID:159123

[Difficulty]
HPDrainRate:2
CircleSize:3
OverallDifficulty:2
ApproachRate:3
SliderMultiplier:0.8
SliderTickRate:1

[Events]
//Background and Video events
Video,322,"abyss subbed.avi"
0,0,"BG.jpg",0,0
//Break Periods
2,26059,27496
2,29136,30573
2,70675,81343
2,95290,99804
2,139906,149035
2,161442,176877
//Storyboard Layer 0 (Background)
//Storyboard Layer 1 (Fail)
//Storyboard Layer 2 (Pass)
//Storyboard Layer 3 (Foreground)
//Storyboard Sound Samples
//Background Colour Transformations
3,100,163,162,255

[TimingPoints]
1245,384.615384615385,4,2,0,40,1,0
38168,-133.333333333333,4,2,0,40,0,0
43552,-100,4,2,0,40,0,0
59706,-100,4,2,0,40,0,1
70475,-100,4,2,0,40,0,0
116629,-100,4,2,0,40,0,1
130475,-100,4,2,0,40,0,0
150475,384.615384615385,3,2,0,40,1,0
154705,384.615384615385,3,2,0,40,1,0
156628,384.615384615385,3,2,0,40,1,0
158935,769.230769230769,4,2,0,40,1,0
158935,-50,4,2,0,20,0,0
162933,384.615384615385,4,2,0,40,1,0
178317,-100,4,2,0,40,0,1
190625,-133.333333333333,4,2,0,40,0,0
202548,-100,4,2,0,40,0,0
208894,-100,4,2,0,40,0,0
241394,-80,4,2,0,40,0,0

[Colours]
Combo1 : 255,226,128
Combo2 : 255,85,85
Combo3 : 255,85,125
Combo4 : 0,128,192
Combo5 : 85,200,255
Combo6 : 255,200,0

[HitObjects]
184,192,1244,6,0,P|256:192|256:116,2,160,2|2|2,0:0|0:0|0:0,0:0:0:0:
116,124,3552,1,2,0:0:0:0:
100,220,4321,2,0,P|136:276|232:300,1,160,2|2,0:0|0:0,0:0:0:0:
292,236,5860,2,0,P|344:176|436:179,1,160,2|2,0:0|0:0,0:0:0:0:
388,268,7398,21,2,0:0:0:0:
320,200,8167,1,2,0:0:0:0:
387,132,8936,1,2,0:0:0:0:
319,64,9706,1,2,0:0:0:0:
252,132,10475,6,0,L|112:216,1,160
204,256,12013,2,0,L|40:352,1,160,2|2,0:0|0:0,0:0:0:0:
48,244,13552,5,2,0:0:0:0:
48,244,14321,2,0,P|132:260|196:212,1,160,0|2,0:0|0:0,0:0:0:0:
108,172,15860,2,0,P|174:131|250:148,1,160,0|2,0:0|0:0,0:0:0:0:
192,220,17398,2,0,P|276:236|340:188,1,160,0|2,0:0|0:0,0:0:0:0:
252,144,18936,6,0,L|292:72,2,80,0|0|2,0:0|0:0|0:0,0:0:0:0:
172,92,20475,2,0,L|128:168,2,80,0|0|2,0:0|0:0|0:0,0:0:0:0:
92,48,22013,1,0,0:0:0:0:
24,115,22783,1,2,0:0:0:0:
91,182,23552,1,0,0:0:0:0:
100,276,24321,2,0,B|204:324|308:224|412:276,1,320,2|2,0:0|0:0,0:0:0:0:
424,56,28936,5,0,0:0:0:0:
424,56,32013,6,0,L|376:144,1,80,2|0,0:0|0:0,0:0:0:0:
433,126,32783,2,0,L|481:214,1,80,2|0,0:0|0:0,0:0:0:0:
423,196,33552,2,0,L|375:284,1,80,2|0,0:0|0:0,0:0:0:0:
432,266,34321,2,0,L|480:354,1,80,2|0,0:0|0:0,0:0:0:0:
424,356,35090,5,2,0:0:0:0:
344,300,35860,1,2,0:0:0:0:
264,356,36629,1,2,0:0:0:0:
184,300,37398,1,2,0:0:0:0:
88,300,38168,6,0,P|124:225|212:209,1,180.000006866455,2|0,0:0|0:0,0:0:0:0:
248,208,39706,2,0,P|323:172|344:80,1,180.000006866455,2|0,0:0|0:0,0:0:0:0:
372,60,41244,2,0,P|447:96|463:184,1,180.000006866455,2|0,0:0|0:0,0:0:0:0:
428,200,42783,1,2,0:0:0:0:
444,296,43552,38,0,L|260:296,1,160
216,228,45090,1,0,0:0:0:0:
283,160,45860,1,0,0:0:0:0:
350,227,46629,1,0,0:0:0:0:
256,192,47398,12,2,50475,0:0:0:0:
256,112,52013,21,2,0:0:0:0:
256,112,53552,2,0,B|224:168|284:168|256:272,1,160,2|2,0:0|0:0,0:0:0:0:
176,220,55090,1,2,0:0:0:0:
108,152,55860,1,0,0:0:0:0:
84,244,56629,1,2,0:0:0:0:
424,44,58167,6,0,B|472:108|472:108|424:172|424:172|472:236|472:236|424:316,1,320,0|4,0:0|0:0,0:0:0:0:
348,256,60475,1,0,0:0:0:0:
284,328,61244,1,0,0:0:0:0:
220,256,62013,2,0,L|220:173,2,80
156,328,63552,1,0,0:0:0:0:
92,256,64321,1,0,0:0:0:0:
128,168,65090,38,0,L|212:168,1,80,2|0,0:0|0:0,0:0:0:0:
256,168,65860,1,0,0:0:0:0:
324,100,66629,1,0,0:0:0:0:
256,32,67398,1,0,0:0:0:0:
188,100,68167,1,0,0:0:0:0:
256,168,68936,1,0,0:0:0:0:
327,232,69706,2,0,P|332:118|250:66,1,160,0|4,0:0|0:0,0:0:0:0:
424,320,82783,5,0,0:0:0:0:
64,92,85860,37,0,0:0:0:0:
64,92,88936,5,2,0:0:0:0:
56,188,89706,2,0,P|132:164|160:88,1,160,0|2,0:0|0:0,0:0:0:0:
236,152,91244,2,0,P|260:76|336:48,1,160,0|2,0:0|0:0,0:0:0:0:
336,144,92783,1,0,0:0:0:0:
403,76,93552,1,2,0:0:0:0:
470,143,94321,2,0,L|408:204,2,80,0|0|2,0:0|0:0|0:0,0:0:0:0:
452,320,101244,5,2,0:0:0:0:
452,320,102013,2,0,L|304:192,1,160,0|2,0:0|0:0,0:0:0:0:
330,119,103552,2,0,L|240:120,2,80,0|0|2,0:0|0:0|0:0,0:0:0:0:
276,40,105090,2,0,L|186:41,2,80,0|0|2,0:0|0:0|0:0,0:0:0:0:
372,40,106629,2,0,L|462:41,2,80,2|2|0,0:0|0:0|0:0,0:0:0:0:
192,108,108936,37,0,0:0:0:0:
376,160,110475,1,0,0:0:0:0:
224,280,112013,1,0,0:0:0:0:
48,204,113552,70,0,L|48:36,1,160
132,88,115090,2,0,B|196:40|196:40|260:88|260:88|324:40|324:40|404:88,1,320,0|4,0:0|0:0,0:0:0:0:
328,152,117398,37,0,0:0:0:0:
256,216,118167,1,0,0:0:0:0:
188,152,118936,1,0,0:0:0:0:
256,216,119706,1,0,0:0:0:0:
328,152,120475,2,0,P|388:108|448:152,1,160
448,248,122013,53,2,0:0:0:0:
380,315,122783,1,0,0:0:0:0:
312,247,123552,1,0,0:0:0:0:
244,314,124321,1,0,0:0:0:0:
176,248,125090,2,0,L|176:150,1,80
176,120,125860,1,0,0:0:0:0:
272,112,126629,1,0,0:0:0:0:
368,104,127398,1,0,0:0:0:0:
324,188,128167,22,0,L|188:280,1,160
188,188,129706,2,0,L|324:280,1,160
412,300,131244,1,2,0:0:0:0:
413,206,132013,1,2,0:0:0:0:
412,300,132783,1,2,0:0:0:0:
316,300,133552,1,2,0:0:0:0:
313,206,134321,70,0,L|185:94,1,160,0|2,0:0|0:0,0:0:0:0:
273,50,135860,1,0,0:0:0:0:
368,50,136629,1,2,0:0:0:0:
435,117,137398,1,0,0:0:0:0:
367,184,138167,1,2,0:0:0:0:
299,116,138936,1,0,0:0:0:0:
197,194,139706,5,0,0:0:0:0:
100,32,150475,54,0,P|76:120|100:184,1,160
164,112,151628,2,0,P|188:192|156:272,1,160
72,236,152782,2,0,P|112:344|252:296,1,240
288,268,154321,1,0,0:0:0:0:
355,200,154705,2,0,P|427:164|451:88,1,160
356,104,155858,2,0,P|284:128|256:208,2,160
292,32,157781,1,0,0:0:0:0:
192,196,158551,53,0,0:0:0:0:
192,196,158935,2,0,P|408:244|444:36,1,480
468,332,178317,6,0,L|468:252,1,80,2|0,0:0|0:0,0:0:0:0:
468,204,179086,2,0,L|468:124,1,80,2|0,0:0|0:0,0:0:0:0:
433,89,179856,1,0,0:0:0:0:
384,172,180625,1,0,0:0:0:0:
332,252,181394,2,0,P|291:324|205:350,2,160,2|0|2,0:0|0:0|0:0,0:0:0:0:
236,252,183702,5,0,0:0:0:0:
148,292,184471,2,0,P|88:228|76:156,1,160
172,176,186009,2,0,L|168:92,1,80
192,52,186779,2,0,P|272:56|348:96,1,160
416,152,188317,1,0,0:0:0:0:
468,232,189086,1,2,0:0:0:0:
368,336,190625,38,0,P|416:296|420:180,1,180.000006866455
388,168,192163,2,0,P|332:96|240:76,1,180.000006866455
232,108,193702,2,0,P|144:120|80:192,1,180.000006866455
68,216,195240,1,2,0:0:0:0:
112,80,196779,6,0,P|180:148|288:148,1,180.000006866455
276,124,198317,2,0,P|372:132|456:212,1,180.000006866455
456,212,199856,1,0,0:0:0:0:
468,284,200625,1,0,0:0:0:0:
444,352,201394,1,2,0:0:0:0:
252,332,202933,6,0,P|168:348|108:304,1,160
100,260,204086,1,0,0:0:0:0:
112,212,204471,2,0,P|188:204|244:144,1,160
244,96,205625,1,0,0:0:0:0:
240,48,206009,2,0,P|168:48|136:124,2,160
424,96,209086,5,0,0:0:0:0:
428,192,209856,1,0,0:0:0:0:
380,276,210625,1,0,0:0:0:0:
288,300,211394,1,0,0:0:0:0:
196,280,212163,2,0,P|169:207|221:120,1,160,0|0,0:0|0:0,3:0:0:0:
265,206,213702,2,0,P|296:134|270:61,1,160,0|0,0:0|0:0,3:0:0:0:
176,60,215240,37,2,0:0:0:0:
176,252,216779,1,2,0:0:0:0:
360,308,218317,1,2,0:0:0:0:
360,116,219856,1,2,0:0:0:0:
472,192,222548,6,0,L|396:260,1,80,0|2,0:0|0:0,0:0:0:0:
356,245,225625,2,0,L|280:313,1,80,0|2,0:0|0:0,0:0:0:0:
240,298,228702,2,0,L|164:366,1,80,0|2,0:0|0:0,0:0:0:0:
100,108,232163,5,2,0:0:0:0:
88,236,235240,5,2,0:0:0:0:
156,344,238317,69,2,0:0:0:0:
256,256,241394,54,0,B|296:160|392:224|416:160|440:64|336:32|288:64|288:64|280:80|256:88|232:80|224:64|224:64|176:32|104:56|88:152|128:224|208:136|216:208,1,700
