osu file format v14

[General]
AudioFilename: kirin.mp3
AudioLeadIn: 0
PreviewTime: 157217
Countdown: 0
SampleSet: Normal
StackLeniency: 0.7
Mode: 1
LetterboxInBreaks: 0
WidescreenStoryboard: 0

[Editor]
DistanceSpacing: 0.9
BeatDivisor: 4
GridSize: 32
TimelineZoom: 2.1

[Metadata]
Title:Kirin
TitleUnicode:麒麟
Artist:sasakure.UK
ArtistUnicode:sasakure.UK
Creator:Kunieda
Version:Inner Oni
Source:
Tags:
BeatmapID:763174
BeatmapSetID:345618

[Difficulty]
HPDrainRate:5
CircleSize:5
OverallDifficulty:5
ApproachRate:5
SliderMultiplier:1.4
SliderTickRate:1

[Events]
//Background and Video events
0,0,"bg.png",0,0
//Break Periods
2,104910,136918
//Storyboard Layer 0 (Background)
//Storyboard Layer 1 (Fail)
//Storyboard Layer 2 (Pass)
//Storyboard Layer 3 (Foreground)
//Storyboard Sound Samples

[TimingPoints]
8846,272.727272727273,4,1,0,70,1,0
52482,-100,4,2,0,50,0,0
61217,-100,4,2,0,65,0,0
69936,-100,4,1,0,70,0,0
104846,-100,4,2,0,20,0,0
138118,-100,4,2,0,20,0,0
138186,-100,4,2,0,25,0,0
138255,-100,4,2,0,30,0,0
138323,-100,4,2,0,35,0,0
138391,-100,4,2,0,40,0,0
138459,-100,4,2,0,50,0,0
138527,-100,4,2,0,55,0,0
138596,-100,4,2,0,60,0,0
138664,-100,4,2,0,65,0,0
139763,-100,4,2,0,65,0,0
157209,-100,4,1,0,70,0,1
192118,-100,4,1,0,70,0,0
209573,-100,4,2,0,60,0,0
218300,-100,4,1,0,70,0,1
227027,-100,4,1,0,70,0,0

[HitObjects]
256,192,35027,5,4,0:0:0:0:
256,192,35164,1,0,0:0:0:0:
256,192,35232,1,0,0:0:0:0:
256,192,35300,1,8,0:0:0:0:
256,192,35368,1,8,0:0:0:0:
256,192,35437,1,0,0:0:0:0:
256,192,35709,1,8,0:0:0:0:
256,192,35846,1,0,0:0:0:0:
256,192,36118,1,0,0:0:0:0:
256,192,36255,1,0,0:0:0:0:
256,192,36323,1,0,0:0:0:0:
256,192,36391,1,8,0:0:0:0:
256,192,36459,1,0,0:0:0:0:
256,192,36528,1,0,0:0:0:0:
256,192,36664,1,0,0:0:0:0:
256,192,36800,1,0,0:0:0:0:
256,192,36868,1,0,0:0:0:0:
256,192,36937,1,8,0:0:0:0:
256,192,37073,1,0,0:0:0:0:
256,192,37209,1,0,0:0:0:0:
256,192,37278,1,0,0:0:0:0:
256,192,37346,1,0,0:0:0:0:
256,192,37482,1,8,0:0:0:0:
256,192,37618,1,0,0:0:0:0:
256,192,37891,1,0,0:0:0:0:
256,192,38028,1,8,0:0:0:0:
256,192,38300,1,0,0:0:0:0:
256,192,38437,1,0,0:0:0:0:
256,192,38505,1,0,0:0:0:0:
256,192,38573,1,8,0:0:0:0:
256,192,38641,1,8,0:0:0:0:
256,192,38709,1,0,0:0:0:0:
256,192,38846,1,0,0:0:0:0:
256,192,38914,1,0,0:0:0:0:
256,192,38982,1,8,0:0:0:0:
256,192,39050,1,0,0:0:0:0:
256,192,39118,1,0,0:0:0:0:
256,192,39255,1,0,0:0:0:0:
256,192,39391,1,8,0:0:0:0:
256,192,39459,1,8,0:0:0:0:
256,192,39528,1,0,0:0:0:0:
256,192,39664,1,0,0:0:0:0:
256,192,39800,1,0,0:0:0:0:
256,192,39937,1,8,0:0:0:0:
256,192,40005,1,8,0:0:0:0:
256,192,40073,1,0,0:0:0:0:
256,192,40209,1,0,0:0:0:0:
256,192,40346,1,0,0:0:0:0:
256,192,40482,1,8,0:0:0:0:
256,192,40550,1,8,0:0:0:0:
256,192,40618,1,0,0:0:0:0:
256,192,40755,1,0,0:0:0:0:
256,192,40891,1,0,0:0:0:0:
256,192,41028,1,8,0:0:0:0:
256,192,41096,1,8,0:0:0:0:
256,192,41164,1,0,0:0:0:0:
256,192,41300,1,0,0:0:0:0:
256,192,41437,1,8,0:0:0:0:
256,192,41573,1,0,0:0:0:0:
256,192,41641,1,0,0:0:0:0:
256,192,41709,1,8,0:0:0:0:
256,192,41846,1,0,0:0:0:0:
256,192,41982,1,8,0:0:0:0:
256,192,42118,1,0,0:0:0:0:
256,192,42187,1,0,0:0:0:0:
256,192,42255,1,8,0:0:0:0:
256,192,42323,1,8,0:0:0:0:
256,192,42391,1,0,0:0:0:0:
256,192,42528,1,8,0:0:0:0:
256,192,42664,1,0,0:0:0:0:
256,192,42800,1,0,0:0:0:0:
256,192,42868,1,0,0:0:0:0:
256,192,42937,1,0,0:0:0:0:
256,192,43073,1,0,0:0:0:0:
256,192,43209,1,0,0:0:0:0:
256,192,43278,1,0,0:0:0:0:
256,192,43346,1,8,0:0:0:0:
256,192,43414,1,0,0:0:0:0:
256,192,43482,1,8,0:0:0:0:
256,192,43618,1,8,0:0:0:0:
256,192,43755,5,4,0:0:0:0:
256,192,43891,1,0,0:0:0:0:
256,192,43959,1,0,0:0:0:0:
256,192,44027,1,8,0:0:0:0:
256,192,44095,1,8,0:0:0:0:
256,192,44164,1,0,0:0:0:0:
256,192,44436,1,8,0:0:0:0:
256,192,44573,1,0,0:0:0:0:
256,192,44845,1,0,0:0:0:0:
256,192,44982,1,0,0:0:0:0:
256,192,45050,1,0,0:0:0:0:
256,192,45118,1,8,0:0:0:0:
256,192,45186,1,0,0:0:0:0:
256,192,45255,1,0,0:0:0:0:
256,192,45391,1,0,0:0:0:0:
256,192,45527,1,0,0:0:0:0:
256,192,45595,1,0,0:0:0:0:
256,192,45664,1,8,0:0:0:0:
256,192,45800,1,0,0:0:0:0:
256,192,45936,1,0,0:0:0:0:
256,192,46005,1,0,0:0:0:0:
256,192,46073,1,0,0:0:0:0:
256,192,46209,1,8,0:0:0:0:
256,192,46345,1,0,0:0:0:0:
256,192,46618,1,0,0:0:0:0:
256,192,46755,1,8,0:0:0:0:
256,192,47027,1,0,0:0:0:0:
256,192,47164,1,0,0:0:0:0:
256,192,47232,1,0,0:0:0:0:
256,192,47300,1,8,0:0:0:0:
256,192,47368,1,8,0:0:0:0:
256,192,47436,1,0,0:0:0:0:
256,192,47573,1,0,0:0:0:0:
256,192,47641,1,0,0:0:0:0:
256,192,47709,1,8,0:0:0:0:
256,192,47777,1,0,0:0:0:0:
256,192,47846,1,0,0:0:0:0:
256,192,47982,1,0,0:0:0:0:
256,192,48118,1,8,0:0:0:0:
256,192,48255,1,0,0:0:0:0:
256,192,48323,1,8,0:0:0:0:
256,192,48391,1,0,0:0:0:0:
256,192,48527,1,8,0:0:0:0:
256,192,48664,1,0,0:0:0:0:
256,192,48732,1,0,0:0:0:0:
256,192,48800,1,8,0:0:0:0:
256,192,48936,1,0,0:0:0:0:
256,192,49073,1,0,0:0:0:0:
256,192,49209,1,8,0:0:0:0:
256,192,49277,1,8,0:0:0:0:
256,192,49345,1,8,0:0:0:0:
256,192,49414,1,0,0:0:0:0:
256,192,49482,1,0,0:0:0:0:
256,192,49550,1,8,0:0:0:0:
256,192,49618,1,0,0:0:0:0:
256,192,49890,1,8,0:0:0:0:
256,192,50027,1,0,0:0:0:0:
256,192,50163,1,8,0:0:0:0:
256,192,50300,1,0,0:0:0:0:
256,192,50368,1,8,0:0:0:0:
256,192,50436,1,0,0:0:0:0:
256,192,50572,1,8,0:0:0:0:
256,192,50709,1,0,0:0:0:0:
256,192,50777,1,0,0:0:0:0:
256,192,50845,1,8,0:0:0:0:
256,192,50981,1,8,0:0:0:0:
256,192,51118,1,0,0:0:0:0:
256,192,51186,1,8,0:0:0:0:
256,192,51255,1,8,0:0:0:0:
256,192,51391,1,8,0:0:0:0:
256,192,51459,1,0,0:0:0:0:
256,192,51527,1,0,0:0:0:0:
256,192,51596,1,0,0:0:0:0:
256,192,51664,1,8,0:0:0:0:
256,192,51732,1,8,0:0:0:0:
256,192,51800,1,0,0:0:0:0:
256,192,51868,1,0,0:0:0:0:
256,192,51937,1,0,0:0:0:0:
256,192,52005,1,0,0:0:0:0:
256,192,52073,1,8,0:0:0:0:
256,192,52141,1,0,0:0:0:0:
256,192,52209,1,8,0:0:0:0:
256,192,52278,1,8,0:0:0:0:
256,192,52346,1,0,0:0:0:0:
256,192,52482,1,0,0:0:0:0:
256,192,52618,1,0,0:0:0:0:
256,192,52891,1,8,0:0:0:0:
256,192,53164,1,0,0:0:0:0:
256,192,53300,1,0,0:0:0:0:
256,192,53437,1,0,0:0:0:0:
256,192,53709,1,8,0:0:0:0:
256,192,53982,1,8,0:0:0:0:
256,192,54664,1,0,0:0:0:0:
256,192,54800,1,0,0:0:0:0:
256,192,54937,1,8,0:0:0:0:
256,192,55073,1,0,0:0:0:0:
256,192,55346,1,0,0:0:0:0:
256,192,55482,1,0,0:0:0:0:
256,192,55618,1,0,0:0:0:0:
256,192,55891,1,8,0:0:0:0:
256,192,56164,1,8,0:0:0:0:
256,192,56846,1,0,0:0:0:0:
256,192,56982,1,0,0:0:0:0:
256,192,57255,1,8,0:0:0:0:
256,192,57528,1,0,0:0:0:0:
256,192,57664,1,0,0:0:0:0:
256,192,57801,1,0,0:0:0:0:
256,192,58073,1,8,0:0:0:0:
256,192,58346,1,8,0:0:0:0:
256,192,59028,1,0,0:0:0:0:
256,192,59436,1,8,0:0:0:0:
256,192,59573,1,0,0:0:0:0:
256,192,59641,1,8,0:0:0:0:
256,192,59709,1,0,0:0:0:0:
256,192,59777,1,8,0:0:0:0:
256,192,59846,1,8,0:0:0:0:
256,192,59914,1,8,0:0:0:0:
256,192,59982,1,8,0:0:0:0:
256,192,60118,1,0,0:0:0:0:
256,192,60255,1,8,0:0:0:0:
256,192,60391,1,0,0:0:0:0:
256,192,60527,1,8,0:0:0:0:
256,192,60800,1,8,0:0:0:0:
256,192,61209,1,0,0:0:0:0:
256,192,61345,1,0,0:0:0:0:
256,192,61618,1,8,0:0:0:0:
256,192,61891,1,0,0:0:0:0:
256,192,62027,1,0,0:0:0:0:
256,192,62164,1,0,0:0:0:0:
256,192,62436,1,8,0:0:0:0:
256,192,62709,1,8,0:0:0:0:
256,192,63391,1,0,0:0:0:0:
256,192,63527,1,0,0:0:0:0:
256,192,63664,1,8,0:0:0:0:
256,192,63800,1,0,0:0:0:0:
256,192,64073,1,0,0:0:0:0:
256,192,64209,1,0,0:0:0:0:
256,192,64345,1,0,0:0:0:0:
256,192,64618,1,8,0:0:0:0:
256,192,64891,1,8,0:0:0:0:
256,192,65573,1,0,0:0:0:0:
256,192,65709,1,0,0:0:0:0:
256,192,65982,1,8,0:0:0:0:
256,192,66255,1,0,0:0:0:0:
256,192,66391,1,0,0:0:0:0:
256,192,66528,1,0,0:0:0:0:
256,192,66800,1,8,0:0:0:0:
256,192,67073,1,8,0:0:0:0:
256,192,67755,1,0,0:0:0:0:
256,192,68163,1,8,0:0:0:0:
256,192,68300,1,0,0:0:0:0:
256,192,68368,1,8,0:0:0:0:
256,192,68436,1,0,0:0:0:0:
256,192,68504,1,8,0:0:0:0:
256,192,68573,1,8,0:0:0:0:
256,192,68641,1,8,0:0:0:0:
256,192,68709,1,8,0:0:0:0:
256,192,68845,1,0,0:0:0:0:
256,192,68982,1,8,0:0:0:0:
256,192,69118,1,0,0:0:0:0:
256,192,69254,1,8,0:0:0:0:
256,192,69527,1,8,0:0:0:0:
256,192,69936,1,4,0:0:0:0:
256,192,70073,1,0,0:0:0:0:
256,192,70141,1,0,0:0:0:0:
256,192,70209,1,8,0:0:0:0:
256,192,70346,1,0,0:0:0:0:
256,192,70482,1,0,0:0:0:0:
256,192,70618,1,0,0:0:0:0:
256,192,70686,1,0,0:0:0:0:
256,192,70755,1,8,0:0:0:0:
256,192,70823,1,8,0:0:0:0:
256,192,70891,1,0,0:0:0:0:
256,192,71027,1,0,0:0:0:0:
256,192,71164,1,0,0:0:0:0:
256,192,71232,1,0,0:0:0:0:
256,192,71300,1,8,0:0:0:0:
256,192,71436,1,8,0:0:0:0:
256,192,71573,1,0,0:0:0:0:
256,192,71709,1,0,0:0:0:0:
256,192,71846,1,8,0:0:0:0:
256,192,72118,1,0,0:0:0:0:
256,192,72255,1,0,0:0:0:0:
256,192,72323,1,0,0:0:0:0:
256,192,72391,1,8,0:0:0:0:
256,192,72459,1,0,0:0:0:0:
256,192,72527,1,8,0:0:0:0:
256,192,72664,1,0,0:0:0:0:
256,192,72800,1,8,0:0:0:0:
256,192,72936,1,0,0:0:0:0:
256,192,73005,1,0,0:0:0:0:
256,192,73073,1,0,0:0:0:0:
256,192,73209,1,0,0:0:0:0:
256,192,73346,1,8,0:0:0:0:
256,192,73482,1,0,0:0:0:0:
256,192,73618,1,8,0:0:0:0:
256,192,73891,1,0,0:0:0:0:
256,192,74027,1,8,0:0:0:0:
256,192,74164,1,0,0:0:0:0:
256,192,74300,1,0,0:0:0:0:
256,192,74368,1,8,0:0:0:0:
256,192,74436,1,0,0:0:0:0:
256,192,74505,1,0,0:0:0:0:
256,192,74573,1,8,0:0:0:0:
256,192,74709,1,8,0:0:0:0:
256,192,74846,1,0,0:0:0:0:
256,192,74982,1,0,0:0:0:0:
256,192,75050,1,0,0:0:0:0:
256,192,75118,1,0,0:0:0:0:
256,192,75255,1,0,0:0:0:0:
256,192,75391,1,8,0:0:0:0:
256,192,75527,1,0,0:0:0:0:
256,192,75596,1,0,0:0:0:0:
256,192,75664,1,8,0:0:0:0:
256,192,75800,1,0,0:0:0:0:
256,192,76073,1,0,0:0:0:0:
256,192,76209,1,8,0:0:0:0:
256,192,76482,1,12,0:0:0:0:
256,192,76618,1,0,0:0:0:0:
256,192,76686,1,0,0:0:0:0:
256,192,76755,1,0,0:0:0:0:
256,192,76891,1,12,0:0:0:0:
256,192,77027,1,0,0:0:0:0:
256,192,77096,1,8,0:0:0:0:
256,192,77164,1,0,0:0:0:0:
256,192,77232,1,8,0:0:0:0:
256,192,77300,1,8,0:0:0:0:
256,192,77368,1,8,0:0:0:0:
256,192,77436,1,8,0:0:0:0:
256,192,77573,1,0,0:0:0:0:
256,192,77709,1,0,0:0:0:0:
256,192,77777,1,0,0:0:0:0:
256,192,77846,1,8,0:0:0:0:
256,192,77982,1,8,0:0:0:0:
256,192,78050,1,8,0:0:0:0:
256,192,78118,1,0,0:0:0:0:
256,192,78255,1,0,0:0:0:0:
256,192,78391,1,8,0:0:0:0:
256,192,78527,1,8,0:0:0:0:
256,192,78664,1,4,0:0:0:0:
256,192,78800,1,0,0:0:0:0:
256,192,78868,1,0,0:0:0:0:
256,192,78936,1,8,0:0:0:0:
256,192,79073,1,0,0:0:0:0:
256,192,79209,1,0,0:0:0:0:
256,192,79345,1,0,0:0:0:0:
256,192,79413,1,0,0:0:0:0:
256,192,79482,1,8,0:0:0:0:
256,192,79550,1,0,0:0:0:0:
256,192,79618,1,8,0:0:0:0:
256,192,79754,1,0,0:0:0:0:
256,192,79891,1,0,0:0:0:0:
256,192,79959,1,0,0:0:0:0:
256,192,80027,1,8,0:0:0:0:
256,192,80163,1,8,0:0:0:0:
256,192,80300,1,0,0:0:0:0:
256,192,80436,1,0,0:0:0:0:
256,192,80573,1,8,0:0:0:0:
256,192,80845,1,0,0:0:0:0:
256,192,80982,1,0,0:0:0:0:
256,192,81050,1,0,0:0:0:0:
256,192,81118,1,8,0:0:0:0:
256,192,81186,1,0,0:0:0:0:
256,192,81255,1,8,0:0:0:0:
256,192,81391,1,0,0:0:0:0:
256,192,81527,1,8,0:0:0:0:
256,192,81663,1,0,0:0:0:0:
256,192,81732,1,0,0:0:0:0:
256,192,81800,1,0,0:0:0:0:
256,192,81936,1,0,0:0:0:0:
256,192,82073,1,8,0:0:0:0:
256,192,82209,1,0,0:0:0:0:
256,192,82345,1,8,0:0:0:0:
256,192,82618,1,0,0:0:0:0:
256,192,82754,1,8,0:0:0:0:
256,192,82891,1,0,0:0:0:0:
256,192,83027,1,0,0:0:0:0:
256,192,83095,1,8,0:0:0:0:
256,192,83163,1,0,0:0:0:0:
256,192,83232,1,0,0:0:0:0:
256,192,83300,1,8,0:0:0:0:
256,192,83436,1,8,0:0:0:0:
256,192,83573,1,0,0:0:0:0:
256,192,83709,1,0,0:0:0:0:
256,192,83777,1,0,0:0:0:0:
256,192,83845,1,0,0:0:0:0:
256,192,83982,1,0,0:0:0:0:
256,192,84118,1,8,0:0:0:0:
256,192,84254,1,0,0:0:0:0:
256,192,84323,1,0,0:0:0:0:
256,192,84391,1,8,0:0:0:0:
256,192,84527,1,0,0:0:0:0:
256,192,84800,1,0,0:0:0:0:
256,192,84936,1,8,0:0:0:0:
256,192,85209,1,12,0:0:0:0:
256,192,85345,1,0,0:0:0:0:
256,192,85413,1,0,0:0:0:0:
256,192,85482,1,0,0:0:0:0:
256,192,85618,1,12,0:0:0:0:
256,192,85754,1,0,0:0:0:0:
256,192,85823,1,8,0:0:0:0:
256,192,85891,1,0,0:0:0:0:
256,192,85959,1,8,0:0:0:0:
256,192,86027,1,8,0:0:0:0:
256,192,86095,1,8,0:0:0:0:
256,192,86163,1,8,0:0:0:0:
256,192,86300,1,0,0:0:0:0:
256,192,86368,1,0,0:0:0:0:
256,192,86436,1,8,0:0:0:0:
256,192,86505,1,8,0:0:0:0:
256,192,86573,1,0,0:0:0:0:
256,192,86641,1,0,0:0:0:0:
256,192,86709,1,8,0:0:0:0:
256,192,86777,1,0,0:0:0:0:
256,192,86846,1,8,0:0:0:0:
256,192,86914,1,0,0:0:0:0:
256,192,86982,1,0,0:0:0:0:
256,192,87050,1,8,0:0:0:0:
256,192,87118,1,8,0:0:0:0:
256,192,87186,1,0,0:0:0:0:
256,192,87255,1,0,0:0:0:0:
256,192,87391,1,4,0:0:0:0:
256,192,87527,1,0,0:0:0:0:
256,192,87595,1,0,0:0:0:0:
256,192,87663,1,8,0:0:0:0:
256,192,87731,1,8,0:0:0:0:
256,192,87800,1,0,0:0:0:0:
256,192,88072,1,8,0:0:0:0:
256,192,88209,1,0,0:0:0:0:
256,192,88481,1,0,0:0:0:0:
256,192,88618,1,0,0:0:0:0:
256,192,88686,1,0,0:0:0:0:
256,192,88754,1,8,0:0:0:0:
256,192,88822,1,0,0:0:0:0:
256,192,88891,1,0,0:0:0:0:
256,192,89027,1,0,0:0:0:0:
256,192,89163,1,0,0:0:0:0:
256,192,89231,1,0,0:0:0:0:
256,192,89300,1,8,0:0:0:0:
256,192,89436,1,0,0:0:0:0:
256,192,89572,1,0,0:0:0:0:
256,192,89641,1,0,0:0:0:0:
256,192,89709,1,0,0:0:0:0:
256,192,89845,1,8,0:0:0:0:
256,192,89981,1,0,0:0:0:0:
256,192,90254,1,0,0:0:0:0:
256,192,90391,1,8,0:0:0:0:
256,192,90663,1,0,0:0:0:0:
256,192,90800,1,0,0:0:0:0:
256,192,90868,1,0,0:0:0:0:
256,192,90936,1,8,0:0:0:0:
256,192,91004,1,8,0:0:0:0:
256,192,91072,1,0,0:0:0:0:
256,192,91209,1,0,0:0:0:0:
256,192,91277,1,0,0:0:0:0:
256,192,91345,1,8,0:0:0:0:
256,192,91413,1,0,0:0:0:0:
256,192,91481,1,0,0:0:0:0:
256,192,91618,1,0,0:0:0:0:
256,192,91754,1,8,0:0:0:0:
256,192,91822,1,8,0:0:0:0:
256,192,91891,1,0,0:0:0:0:
256,192,92027,1,0,0:0:0:0:
256,192,92163,1,0,0:0:0:0:
256,192,92300,1,8,0:0:0:0:
256,192,92368,1,8,0:0:0:0:
256,192,92436,1,0,0:0:0:0:
256,192,92572,1,0,0:0:0:0:
256,192,92709,1,0,0:0:0:0:
256,192,92845,1,8,0:0:0:0:
256,192,92913,1,8,0:0:0:0:
256,192,92981,1,0,0:0:0:0:
256,192,93118,1,0,0:0:0:0:
256,192,93254,1,0,0:0:0:0:
256,192,93391,1,8,0:0:0:0:
256,192,93459,1,8,0:0:0:0:
256,192,93527,1,0,0:0:0:0:
256,192,93663,1,0,0:0:0:0:
256,192,93800,1,8,0:0:0:0:
256,192,93936,1,0,0:0:0:0:
256,192,94004,1,0,0:0:0:0:
256,192,94072,1,8,0:0:0:0:
256,192,94209,1,0,0:0:0:0:
256,192,94345,1,8,0:0:0:0:
256,192,94481,1,0,0:0:0:0:
256,192,94550,1,0,0:0:0:0:
256,192,94618,1,8,0:0:0:0:
256,192,94686,1,8,0:0:0:0:
256,192,94754,1,0,0:0:0:0:
256,192,94891,1,8,0:0:0:0:
256,192,95027,1,0,0:0:0:0:
256,192,95163,1,0,0:0:0:0:
256,192,95231,1,0,0:0:0:0:
256,192,95300,1,0,0:0:0:0:
256,192,95436,1,0,0:0:0:0:
256,192,95572,1,0,0:0:0:0:
256,192,95641,1,0,0:0:0:0:
256,192,95709,1,8,0:0:0:0:
256,192,95777,1,0,0:0:0:0:
256,192,95845,1,8,0:0:0:0:
256,192,95981,1,8,0:0:0:0:
256,192,96118,5,4,0:0:0:0:
256,192,96254,1,0,0:0:0:0:
256,192,96322,1,0,0:0:0:0:
256,192,96390,1,8,0:0:0:0:
256,192,96458,1,8,0:0:0:0:
256,192,96527,1,0,0:0:0:0:
256,192,96799,1,8,0:0:0:0:
256,192,96936,1,0,0:0:0:0:
256,192,97208,1,0,0:0:0:0:
256,192,97345,1,0,0:0:0:0:
256,192,97413,1,0,0:0:0:0:
256,192,97481,1,8,0:0:0:0:
256,192,97549,1,0,0:0:0:0:
256,192,97618,1,0,0:0:0:0:
256,192,97754,1,0,0:0:0:0:
256,192,97890,1,0,0:0:0:0:
256,192,97958,1,0,0:0:0:0:
256,192,98027,1,8,0:0:0:0:
256,192,98163,1,0,0:0:0:0:
256,192,98299,1,0,0:0:0:0:
256,192,98368,1,0,0:0:0:0:
256,192,98436,1,0,0:0:0:0:
256,192,98572,1,8,0:0:0:0:
256,192,98708,1,0,0:0:0:0:
256,192,98981,1,0,0:0:0:0:
256,192,99118,1,8,0:0:0:0:
256,192,99390,1,0,0:0:0:0:
256,192,99527,1,0,0:0:0:0:
256,192,99595,1,0,0:0:0:0:
256,192,99663,1,8,0:0:0:0:
256,192,99731,1,8,0:0:0:0:
256,192,99799,1,0,0:0:0:0:
256,192,99936,1,0,0:0:0:0:
256,192,100004,1,0,0:0:0:0:
256,192,100072,1,8,0:0:0:0:
256,192,100140,1,0,0:0:0:0:
256,192,100209,1,0,0:0:0:0:
256,192,100345,1,0,0:0:0:0:
256,192,100482,1,8,0:0:0:0:
256,192,100619,1,0,0:0:0:0:
256,192,100687,1,8,0:0:0:0:
256,192,100755,1,0,0:0:0:0:
256,192,100891,1,8,0:0:0:0:
256,192,101028,1,0,0:0:0:0:
256,192,101096,1,0,0:0:0:0:
256,192,101164,1,8,0:0:0:0:
256,192,101300,1,0,0:0:0:0:
256,192,101437,1,0,0:0:0:0:
256,192,101573,1,8,0:0:0:0:
256,192,101641,1,8,0:0:0:0:
256,192,101709,1,8,0:0:0:0:
256,192,101778,1,0,0:0:0:0:
256,192,101846,1,0,0:0:0:0:
256,192,101914,1,8,0:0:0:0:
256,192,101982,1,0,0:0:0:0:
256,192,102254,1,8,0:0:0:0:
256,192,102391,1,0,0:0:0:0:
256,192,102527,1,8,0:0:0:0:
256,192,102664,1,0,0:0:0:0:
256,192,102732,1,8,0:0:0:0:
256,192,102800,1,0,0:0:0:0:
256,192,102936,1,8,0:0:0:0:
256,192,103073,1,0,0:0:0:0:
256,192,103141,1,0,0:0:0:0:
256,192,103209,1,8,0:0:0:0:
256,192,103345,1,8,0:0:0:0:
256,192,103482,1,0,0:0:0:0:
256,192,103550,1,8,0:0:0:0:
256,192,103619,1,8,0:0:0:0:
256,192,103755,1,8,0:0:0:0:
256,192,103823,1,0,0:0:0:0:
256,192,103891,1,0,0:0:0:0:
256,192,103960,1,0,0:0:0:0:
256,192,104028,1,8,0:0:0:0:
256,192,104096,1,8,0:0:0:0:
256,192,104164,1,0,0:0:0:0:
256,192,104232,1,0,0:0:0:0:
256,192,104301,1,0,0:0:0:0:
256,192,104369,1,0,0:0:0:0:
256,192,104437,1,8,0:0:0:0:
256,192,104505,1,0,0:0:0:0:
256,192,104573,1,8,0:0:0:0:
256,192,104642,1,8,0:0:0:0:
256,192,104710,1,0,0:0:0:0:
256,192,138118,12,0,139482,0:0:0:0:
256,192,139755,5,0,0:0:0:0:
256,192,139891,1,0,0:0:0:0:
256,192,140027,1,8,0:0:0:0:
256,192,140164,1,0,0:0:0:0:
256,192,140436,1,8,0:0:0:0:
256,192,140573,1,8,0:0:0:0:
256,192,140709,1,0,0:0:0:0:
256,192,140982,1,8,0:0:0:0:
256,192,141118,1,0,0:0:0:0:
256,192,141255,1,8,0:0:0:0:
256,192,141527,1,8,0:0:0:0:
256,192,141800,1,0,0:0:0:0:
256,192,141936,1,0,0:0:0:0:
256,192,142073,1,8,0:0:0:0:
256,192,142209,1,0,0:0:0:0:
256,192,142346,1,8,0:0:0:0:
256,192,142618,1,0,0:0:0:0:
256,192,142891,1,8,0:0:0:0:
256,192,143300,1,8,0:0:0:0:
256,192,143709,5,0,0:0:0:0:
256,192,143845,1,0,0:0:0:0:
256,192,143981,1,8,0:0:0:0:
256,192,144118,1,0,0:0:0:0:
256,192,144255,1,0,0:0:0:0:
256,192,144390,1,8,0:0:0:0:
256,192,144527,1,0,0:0:0:0:
256,192,144800,1,8,0:0:0:0:
256,192,144936,1,0,0:0:0:0:
256,192,145073,1,8,0:0:0:0:
256,192,145346,1,0,0:0:0:0:
256,192,145482,1,0,0:0:0:0:
256,192,145618,1,8,0:0:0:0:
256,192,145891,1,8,0:0:0:0:
256,192,146164,1,8,0:0:0:0:
256,192,146300,1,0,0:0:0:0:
256,192,146436,1,0,0:0:0:0:
256,192,146573,1,8,0:0:0:0:
256,192,146709,1,0,0:0:0:0:
256,192,146846,1,8,0:0:0:0:
256,192,146982,1,8,0:0:0:0:
256,192,147118,1,8,0:0:0:0:
256,192,147800,1,8,0:0:0:0:
256,192,148073,5,0,0:0:0:0:
256,192,148209,1,0,0:0:0:0:
256,192,148345,1,8,0:0:0:0:
256,192,148482,1,0,0:0:0:0:
256,192,148619,1,0,0:0:0:0:
256,192,148754,1,8,0:0:0:0:
256,192,148891,1,0,0:0:0:0:
256,192,149164,1,8,0:0:0:0:
256,192,149300,1,0,0:0:0:0:
256,192,149437,1,8,0:0:0:0:
256,192,149710,1,0,0:0:0:0:
256,192,149846,1,0,0:0:0:0:
256,192,149982,1,8,0:0:0:0:
256,192,150255,1,8,0:0:0:0:
256,192,150528,1,8,0:0:0:0:
256,192,150664,1,0,0:0:0:0:
256,192,150800,1,0,0:0:0:0:
256,192,150937,1,8,0:0:0:0:
256,192,151073,1,0,0:0:0:0:
256,192,151346,1,8,0:0:0:0:
256,192,151618,1,8,0:0:0:0:
256,192,152027,1,8,0:0:0:0:
256,192,152436,5,0,0:0:0:0:
256,192,152572,1,0,0:0:0:0:
256,192,152708,1,8,0:0:0:0:
256,192,152845,1,0,0:0:0:0:
256,192,152982,1,0,0:0:0:0:
256,192,153117,1,8,0:0:0:0:
256,192,153254,1,0,0:0:0:0:
256,192,153527,1,8,0:0:0:0:
256,192,153663,1,0,0:0:0:0:
256,192,153800,1,8,0:0:0:0:
256,192,154073,1,0,0:0:0:0:
256,192,154209,1,0,0:0:0:0:
256,192,154345,1,8,0:0:0:0:
256,192,154618,1,8,0:0:0:0:
256,192,154891,1,8,0:0:0:0:
256,192,155027,1,0,0:0:0:0:
256,192,155163,1,0,0:0:0:0:
256,192,155300,1,8,0:0:0:0:
256,192,155436,1,0,0:0:0:0:
256,192,155573,1,8,0:0:0:0:
256,192,155709,1,8,0:0:0:0:
256,192,155845,1,8,0:0:0:0:
256,192,156527,1,8,0:0:0:0:
256,192,156800,1,8,0:0:0:0:
256,192,156868,1,0,0:0:0:0:
256,192,156936,1,8,0:0:0:0:
256,192,157005,1,8,0:0:0:0:
256,192,157073,1,0,0:0:0:0:
256,192,157141,1,0,0:0:0:0:
256,192,157209,1,0,0:0:0:0:
256,192,157346,1,0,0:0:0:0:
256,192,157414,1,0,0:0:0:0:
256,192,157482,1,8,0:0:0:0:
256,192,157618,1,0,0:0:0:0:
256,192,157686,1,0,0:0:0:0:
256,192,157755,1,0,0:0:0:0:
256,192,157891,1,8,0:0:0:0:
256,192,158027,1,0,0:0:0:0:
256,192,158164,1,0,0:0:0:0:
256,192,158232,1,0,0:0:0:0:
256,192,158300,1,8,0:0:0:0:
256,192,158436,1,0,0:0:0:0:
256,192,158504,1,0,0:0:0:0:
256,192,158573,1,0,0:0:0:0:
256,192,158709,1,8,0:0:0:0:
256,192,158777,1,8,0:0:0:0:
256,192,158846,1,0,0:0:0:0:
256,192,158982,1,8,0:0:0:0:
256,192,159118,1,0,0:0:0:0:
256,192,159255,1,8,0:0:0:0:
256,192,159391,1,0,0:0:0:0:
256,192,159459,1,0,0:0:0:0:
256,192,159527,1,8,0:0:0:0:
256,192,159664,1,8,0:0:0:0:
256,192,159800,1,8,0:0:0:0:
256,192,159868,1,0,0:0:0:0:
256,192,159936,1,0,0:0:0:0:
256,192,160073,1,0,0:0:0:0:
256,192,160141,1,0,0:0:0:0:
256,192,160209,1,8,0:0:0:0:
256,192,160346,1,8,0:0:0:0:
256,192,160414,1,8,0:0:0:0:
256,192,160482,1,0,0:0:0:0:
256,192,160618,1,0,0:0:0:0:
256,192,160755,1,8,0:0:0:0:
256,192,161164,1,0,0:0:0:0:
256,192,161300,1,0,0:0:0:0:
256,192,161436,1,8,0:0:0:0:
256,192,161573,1,0,0:0:0:0:
256,192,161709,1,0,0:0:0:0:
256,192,161777,1,0,0:0:0:0:
256,192,161845,1,8,0:0:0:0:
256,192,161981,1,0,0:0:0:0:
256,192,162049,1,0,0:0:0:0:
256,192,162118,1,0,0:0:0:0:
256,192,162254,1,8,0:0:0:0:
256,192,162390,1,0,0:0:0:0:
256,192,162527,1,0,0:0:0:0:
256,192,162595,1,0,0:0:0:0:
256,192,162663,1,8,0:0:0:0:
256,192,162799,1,0,0:0:0:0:
256,192,162867,1,0,0:0:0:0:
256,192,162936,1,0,0:0:0:0:
256,192,163072,1,8,0:0:0:0:
256,192,163140,1,8,0:0:0:0:
256,192,163209,1,0,0:0:0:0:
256,192,163345,1,8,0:0:0:0:
256,192,163481,1,0,0:0:0:0:
256,192,163618,1,8,0:0:0:0:
256,192,163754,1,0,0:0:0:0:
256,192,163822,1,0,0:0:0:0:
256,192,163891,1,0,0:0:0:0:
256,192,164027,1,0,0:0:0:0:
256,192,164163,1,8,0:0:0:0:
256,192,164231,1,8,0:0:0:0:
256,192,164300,1,8,0:0:0:0:
256,192,164368,1,0,0:0:0:0:
256,192,164436,1,8,0:0:0:0:
256,192,164572,1,8,0:0:0:0:
256,192,164709,1,0,0:0:0:0:
256,192,164845,1,0,0:0:0:0:
256,192,164981,1,0,0:0:0:0:
256,192,165118,1,8,0:0:0:0:
256,192,165255,1,0,0:0:0:0:
256,192,165323,1,0,0:0:0:0:
256,192,165391,1,0,0:0:0:0:
256,192,165527,1,0,0:0:0:0:
256,192,165664,1,0,0:0:0:0:
256,192,165732,1,0,0:0:0:0:
256,192,165800,1,8,0:0:0:0:
256,192,165936,1,4,0:0:0:0:
256,192,166073,1,0,0:0:0:0:
256,192,166141,1,0,0:0:0:0:
256,192,166209,1,8,0:0:0:0:
256,192,166345,1,0,0:0:0:0:
256,192,166413,1,0,0:0:0:0:
256,192,166482,1,0,0:0:0:0:
256,192,166618,1,8,0:0:0:0:
256,192,166754,1,0,0:0:0:0:
256,192,166891,1,0,0:0:0:0:
256,192,166959,1,0,0:0:0:0:
256,192,167027,1,8,0:0:0:0:
256,192,167163,1,0,0:0:0:0:
256,192,167231,1,0,0:0:0:0:
256,192,167300,1,0,0:0:0:0:
256,192,167436,1,8,0:0:0:0:
256,192,167504,1,8,0:0:0:0:
256,192,167573,1,0,0:0:0:0:
256,192,167709,1,8,0:0:0:0:
256,192,167845,1,0,0:0:0:0:
256,192,167982,1,8,0:0:0:0:
256,192,168118,1,0,0:0:0:0:
256,192,168186,1,0,0:0:0:0:
256,192,168254,1,8,0:0:0:0:
256,192,168391,1,8,0:0:0:0:
256,192,168527,1,8,0:0:0:0:
256,192,168595,1,0,0:0:0:0:
256,192,168663,1,0,0:0:0:0:
256,192,168800,1,0,0:0:0:0:
256,192,168868,1,0,0:0:0:0:
256,192,168936,1,8,0:0:0:0:
256,192,169073,1,8,0:0:0:0:
256,192,169141,1,8,0:0:0:0:
256,192,169209,1,0,0:0:0:0:
256,192,169345,1,0,0:0:0:0:
256,192,169482,1,8,0:0:0:0:
256,192,169891,1,0,0:0:0:0:
256,192,170027,1,0,0:0:0:0:
256,192,170163,1,8,0:0:0:0:
256,192,170300,1,0,0:0:0:0:
256,192,170368,1,0,0:0:0:0:
256,192,170436,1,8,0:0:0:0:
256,192,170573,1,0,0:0:0:0:
256,192,170708,1,8,0:0:0:0:
256,192,170776,1,8,0:0:0:0:
256,192,170845,1,0,0:0:0:0:
256,192,170981,1,8,0:0:0:0:
256,192,171117,1,0,0:0:0:0:
256,192,171254,1,0,0:0:0:0:
256,192,171322,1,0,0:0:0:0:
256,192,171390,1,8,0:0:0:0:
256,192,171526,1,0,0:0:0:0:
256,192,171596,1,0,0:0:0:0:
256,192,171663,1,0,0:0:0:0:
256,192,171799,1,8,0:0:0:0:
256,192,171867,1,8,0:0:0:0:
256,192,171936,1,0,0:0:0:0:
256,192,172072,1,8,0:0:0:0:
256,192,172208,1,0,0:0:0:0:
256,192,172345,1,8,0:0:0:0:
256,192,172481,1,0,0:0:0:0:
256,192,172549,1,0,0:0:0:0:
256,192,172618,1,0,0:0:0:0:
256,192,172754,1,0,0:0:0:0:
256,192,172890,1,8,0:0:0:0:
256,192,172958,1,8,0:0:0:0:
256,192,173027,1,8,0:0:0:0:
256,192,173096,1,0,0:0:0:0:
256,192,173163,1,8,0:0:0:0:
256,192,173299,1,8,0:0:0:0:
256,192,173436,1,0,0:0:0:0:
256,192,173573,1,6,0:0:0:0:
256,192,173709,1,0,0:0:0:0:
256,192,173777,1,0,0:0:0:0:
256,192,173845,1,0,0:0:0:0:
256,192,173982,1,0,0:0:0:0:
256,192,174118,1,0,0:0:0:0:
256,192,174186,1,0,0:0:0:0:
256,192,174254,1,8,0:0:0:0:
256,192,174323,1,0,0:0:0:0:
256,192,174391,1,8,0:0:0:0:
256,192,174459,1,8,0:0:0:0:
256,192,174527,1,0,0:0:0:0:
256,192,174663,1,4,0:0:0:0:
256,192,174800,1,0,0:0:0:0:
256,192,174868,1,0,0:0:0:0:
256,192,174936,1,8,0:0:0:0:
256,192,175073,1,0,0:0:0:0:
256,192,175346,1,8,0:0:0:0:
256,192,175482,1,0,0:0:0:0:
256,192,175618,1,0,0:0:0:0:
256,192,175687,1,0,0:0:0:0:
256,192,175755,1,8,0:0:0:0:
256,192,175823,1,0,0:0:0:0:
256,192,175891,1,8,0:0:0:0:
256,192,176027,1,0,0:0:0:0:
256,192,176096,1,0,0:0:0:0:
256,192,176164,1,8,0:0:0:0:
256,192,176232,1,0,0:0:0:0:
256,192,176300,1,8,0:0:0:0:
256,192,176368,1,0,0:0:0:0:
256,192,176436,1,0,0:0:0:0:
256,192,176505,1,8,0:0:0:0:
256,192,176573,1,8,0:0:0:0:
256,192,176641,1,0,0:0:0:0:
256,192,176709,1,0,0:0:0:0:
256,192,176846,1,0,0:0:0:0:
256,192,176982,1,0,0:0:0:0:
256,192,177050,1,0,0:0:0:0:
256,192,177118,1,8,0:0:0:0:
256,192,177255,1,0,0:0:0:0:
256,192,177527,1,0,0:0:0:0:
256,192,177596,1,8,0:0:0:0:
256,192,177664,1,0,0:0:0:0:
256,192,177732,1,8,0:0:0:0:
256,192,177800,1,8,0:0:0:0:
256,192,177868,1,8,0:0:0:0:
256,192,177936,1,0,0:0:0:0:
256,192,178005,1,0,0:0:0:0:
256,192,178073,1,0,0:0:0:0:
256,192,178141,1,0,0:0:0:0:
256,192,178209,1,8,0:0:0:0:
256,192,178277,1,0,0:0:0:0:
256,192,178346,1,0,0:0:0:0:
256,192,178482,1,0,0:0:0:0:
256,192,178550,1,0,0:0:0:0:
256,192,178618,1,8,0:0:0:0:
256,192,178686,1,8,0:0:0:0:
256,192,178755,1,0,0:0:0:0:
256,192,178891,1,8,0:0:0:0:
256,192,179300,1,8,0:0:0:0:
256,192,179436,1,0,0:0:0:0:
256,192,179505,1,8,0:0:0:0:
256,192,179573,1,8,0:0:0:0:
256,192,179709,1,8,0:0:0:0:
256,192,179846,1,0,0:0:0:0:
256,192,179982,1,8,0:0:0:0:
256,192,180255,1,8,0:0:0:0:
256,192,180323,1,0,0:0:0:0:
256,192,180391,1,8,0:0:0:0:
256,192,180459,1,8,0:0:0:0:
256,192,180527,1,0,0:0:0:0:
256,192,180596,1,0,0:0:0:0:
256,192,180664,1,8,0:0:0:0:
256,192,180732,1,8,0:0:0:0:
256,192,180800,1,0,0:0:0:0:
256,192,180868,1,8,0:0:0:0:
256,192,180936,1,8,0:0:0:0:
256,192,181005,1,8,0:0:0:0:
256,192,181073,1,8,0:0:0:0:
256,192,181141,1,8,0:0:0:0:
256,192,181209,1,0,0:0:0:0:
256,192,181346,1,0,0:0:0:0:
256,192,181482,1,8,0:0:0:0:
256,192,181618,1,0,0:0:0:0:
256,192,181891,1,0,0:0:0:0:
256,192,181959,1,0,0:0:0:0:
256,192,182027,1,8,0:0:0:0:
256,192,182164,1,0,0:0:0:0:
256,192,182300,1,0,0:0:0:0:
256,192,182436,1,8,0:0:0:0:
256,192,182505,1,8,0:0:0:0:
256,192,182573,1,8,0:0:0:0:
256,192,182641,1,0,0:0:0:0:
256,192,182709,1,8,0:0:0:0:
256,192,182777,1,8,0:0:0:0:
256,192,182846,1,0,0:0:0:0:
256,192,182914,1,0,0:0:0:0:
256,192,182982,1,0,0:0:0:0:
256,192,183050,1,8,0:0:0:0:
256,192,183118,1,0,0:0:0:0:
256,192,183186,1,0,0:0:0:0:
256,192,183255,1,0,0:0:0:0:
256,192,183391,1,12,0:0:0:0:
256,192,183527,1,0,0:0:0:0:
256,192,183596,1,0,0:0:0:0:
256,192,183664,1,8,0:0:0:0:
256,192,183732,1,8,0:0:0:0:
256,192,183800,1,0,0:0:0:0:
256,192,183936,1,0,0:0:0:0:
256,192,184005,1,0,0:0:0:0:
256,192,184073,1,0,0:0:0:0:
256,192,184209,1,8,0:0:0:0:
256,192,184346,1,0,0:0:0:0:
256,192,184482,1,0,0:0:0:0:
256,192,184550,1,8,0:0:0:0:
256,192,184618,1,0,0:0:0:0:
256,192,184686,1,0,0:0:0:0:
256,192,184755,1,8,0:0:0:0:
256,192,184823,1,8,0:0:0:0:
256,192,184891,1,0,0:0:0:0:
256,192,185027,1,8,0:0:0:0:
256,192,185095,1,8,0:0:0:0:
256,192,185163,1,0,0:0:0:0:
256,192,185299,1,8,0:0:0:0:
256,192,185368,1,8,0:0:0:0:
256,192,185436,1,0,0:0:0:0:
256,192,185505,1,0,0:0:0:0:
256,192,185573,1,8,0:0:0:0:
256,192,185709,1,0,0:0:0:0:
256,192,185846,1,0,0:0:0:0:
256,192,185914,1,8,0:0:0:0:
256,192,185982,1,0,0:0:0:0:
256,192,186050,1,0,0:0:0:0:
256,192,186118,1,8,0:0:0:0:
256,192,186255,1,0,0:0:0:0:
256,192,186391,1,0,0:0:0:0:
256,192,186459,1,0,0:0:0:0:
256,192,186527,1,8,0:0:0:0:
256,192,186800,1,0,0:0:0:0:
256,192,186868,1,0,0:0:0:0:
256,192,186936,1,0,0:0:0:0:
256,192,187073,1,8,0:0:0:0:
256,192,187209,1,0,0:0:0:0:
256,192,187346,1,8,0:0:0:0:
256,192,187755,1,8,0:0:0:0:
256,192,187891,1,0,0:0:0:0:
256,192,187959,1,0,0:0:0:0:
256,192,188027,1,0,0:0:0:0:
256,192,188164,1,8,0:0:0:0:
256,192,188300,1,0,0:0:0:0:
256,192,188436,1,0,0:0:0:0:
256,192,188505,1,0,0:0:0:0:
256,192,188573,1,0,0:0:0:0:
256,192,188709,1,8,0:0:0:0:
256,192,188846,1,0,0:0:0:0:
256,192,188914,1,0,0:0:0:0:
256,192,188982,1,0,0:0:0:0:
256,192,189050,1,0,0:0:0:0:
256,192,189118,1,8,0:0:0:0:
256,192,189255,1,0,0:0:0:0:
256,192,189391,1,8,0:0:0:0:
256,192,189527,1,0,0:0:0:0:
256,192,189596,1,0,0:0:0:0:
256,192,189664,1,8,0:0:0:0:
256,192,189800,1,0,0:0:0:0:
256,192,189936,1,0,0:0:0:0:
256,192,190073,1,0,0:0:0:0:
256,192,190141,1,0,0:0:0:0:
256,192,190209,1,8,0:0:0:0:
256,192,190277,1,0,0:0:0:0:
256,192,190346,1,8,0:0:0:0:
256,192,190482,1,0,0:0:0:0:
256,192,190618,1,8,0:0:0:0:
256,192,190755,1,0,0:0:0:0:
256,192,190823,1,0,0:0:0:0:
256,192,190891,1,8,0:0:0:0:
256,192,191027,1,8,0:0:0:0:
256,192,191096,1,0,0:0:0:0:
256,192,191164,1,0,0:0:0:0:
256,192,191232,1,8,0:0:0:0:
256,192,191300,1,0,0:0:0:0:
256,192,191436,1,8,0:0:0:0:
256,192,191505,1,0,0:0:0:0:
256,192,191573,1,8,0:0:0:0:
256,192,191641,1,8,0:0:0:0:
256,192,191709,1,8,0:0:0:0:
256,192,191777,1,0,0:0:0:0:
256,192,191846,1,0,0:0:0:0:
256,192,191914,1,8,0:0:0:0:
256,192,191982,1,0,0:0:0:0:
256,192,192118,5,12,0:0:0:0:
256,192,192255,1,0,0:0:0:0:
256,192,192323,1,8,0:0:0:0:
256,192,192391,1,0,0:0:0:0:
256,192,192527,1,8,0:0:0:0:
256,192,192664,1,0,0:0:0:0:
256,192,192732,1,0,0:0:0:0:
256,192,192800,1,8,0:0:0:0:
256,192,192936,1,0,0:0:0:0:
256,192,193073,1,0,0:0:0:0:
256,192,193209,1,8,0:0:0:0:
256,192,193277,1,8,0:0:0:0:
256,192,193345,1,0,0:0:0:0:
256,192,193414,1,0,0:0:0:0:
256,192,193482,1,0,0:0:0:0:
256,192,193550,1,8,0:0:0:0:
256,192,193618,1,0,0:0:0:0:
256,192,193891,1,0,0:0:0:0:
256,192,194027,1,8,0:0:0:0:
256,192,194164,1,0,0:0:0:0:
256,192,194300,1,8,0:0:0:0:
256,192,194436,1,0,0:0:0:0:
256,192,194505,1,0,0:0:0:0:
256,192,194573,1,0,0:0:0:0:
256,192,194709,1,8,0:0:0:0:
256,192,194845,1,0,0:0:0:0:
256,192,194914,1,0,0:0:0:0:
256,192,194982,1,8,0:0:0:0:
256,192,195118,1,0,0:0:0:0:
256,192,195255,1,8,0:0:0:0:
256,192,195391,1,0,0:0:0:0:
256,192,195527,1,0,0:0:0:0:
256,192,195595,1,8,0:0:0:0:
256,192,195663,1,0,0:0:0:0:
256,192,195799,1,8,0:0:0:0:
256,192,195937,1,8,0:0:0:0:
256,192,196005,1,8,0:0:0:0:
256,192,196073,1,0,0:0:0:0:
256,192,196142,1,0,0:0:0:0:
256,192,196210,1,0,0:0:0:0:
256,192,196482,5,8,0:0:0:0:
256,192,196619,1,0,0:0:0:0:
256,192,196687,1,8,0:0:0:0:
256,192,196755,1,0,0:0:0:0:
256,192,196891,1,8,0:0:0:0:
256,192,197028,1,0,0:0:0:0:
256,192,197096,1,0,0:0:0:0:
256,192,197164,1,8,0:0:0:0:
256,192,197300,1,0,0:0:0:0:
256,192,197437,1,0,0:0:0:0:
256,192,197573,1,8,0:0:0:0:
256,192,197641,1,8,0:0:0:0:
256,192,197709,1,0,0:0:0:0:
256,192,197778,1,0,0:0:0:0:
256,192,197846,1,0,0:0:0:0:
256,192,197914,1,8,0:0:0:0:
256,192,197982,1,0,0:0:0:0:
256,192,198255,1,0,0:0:0:0:
256,192,198391,1,8,0:0:0:0:
256,192,198528,1,0,0:0:0:0:
256,192,198664,1,8,0:0:0:0:
256,192,198800,1,0,0:0:0:0:
256,192,198869,1,0,0:0:0:0:
256,192,198937,1,0,0:0:0:0:
256,192,199073,1,8,0:0:0:0:
256,192,199209,1,0,0:0:0:0:
256,192,199278,1,0,0:0:0:0:
256,192,199346,1,8,0:0:0:0:
256,192,199482,1,0,0:0:0:0:
256,192,199619,1,8,0:0:0:0:
256,192,199755,1,0,0:0:0:0:
256,192,199891,1,0,0:0:0:0:
256,192,199959,1,8,0:0:0:0:
256,192,200027,1,0,0:0:0:0:
256,192,200163,1,8,0:0:0:0:
256,192,200301,1,8,0:0:0:0:
256,192,200369,1,8,0:0:0:0:
256,192,200437,1,0,0:0:0:0:
256,192,200506,1,0,0:0:0:0:
256,192,200574,1,0,0:0:0:0:
256,192,200846,5,4,0:0:0:0:
256,192,200983,1,0,0:0:0:0:
256,192,201051,1,8,0:0:0:0:
256,192,201119,1,0,0:0:0:0:
256,192,201255,1,8,0:0:0:0:
256,192,201392,1,0,0:0:0:0:
256,192,201460,1,0,0:0:0:0:
256,192,201528,1,8,0:0:0:0:
256,192,201664,1,0,0:0:0:0:
256,192,201801,1,0,0:0:0:0:
256,192,201937,1,8,0:0:0:0:
256,192,202005,1,8,0:0:0:0:
256,192,202073,1,0,0:0:0:0:
256,192,202142,1,0,0:0:0:0:
256,192,202210,1,0,0:0:0:0:
256,192,202278,1,8,0:0:0:0:
256,192,202346,1,0,0:0:0:0:
256,192,202619,1,0,0:0:0:0:
256,192,202755,1,8,0:0:0:0:
256,192,202892,1,0,0:0:0:0:
256,192,203028,1,8,0:0:0:0:
256,192,203164,1,0,0:0:0:0:
256,192,203233,1,0,0:0:0:0:
256,192,203301,1,0,0:0:0:0:
256,192,203437,1,8,0:0:0:0:
256,192,203573,1,0,0:0:0:0:
256,192,203642,1,0,0:0:0:0:
256,192,203710,1,8,0:0:0:0:
256,192,203846,1,0,0:0:0:0:
256,192,203983,1,8,0:0:0:0:
256,192,204119,1,0,0:0:0:0:
256,192,204255,1,0,0:0:0:0:
256,192,204323,1,8,0:0:0:0:
256,192,204391,1,0,0:0:0:0:
256,192,204527,1,8,0:0:0:0:
256,192,204665,1,8,0:0:0:0:
256,192,204733,1,8,0:0:0:0:
256,192,204801,1,0,0:0:0:0:
256,192,204868,1,0,0:0:0:0:
256,192,204936,1,0,0:0:0:0:
256,192,205209,5,8,0:0:0:0:
256,192,205346,1,0,0:0:0:0:
256,192,205414,1,8,0:0:0:0:
256,192,205482,1,0,0:0:0:0:
256,192,205618,1,8,0:0:0:0:
256,192,205755,1,0,0:0:0:0:
256,192,205823,1,0,0:0:0:0:
256,192,205891,1,8,0:0:0:0:
256,192,206027,1,0,0:0:0:0:
256,192,206164,1,0,0:0:0:0:
256,192,206300,1,8,0:0:0:0:
256,192,206368,1,8,0:0:0:0:
256,192,206436,1,0,0:0:0:0:
256,192,206505,1,0,0:0:0:0:
256,192,206573,1,0,0:0:0:0:
256,192,206641,1,8,0:0:0:0:
256,192,206709,1,0,0:0:0:0:
256,192,206982,1,0,0:0:0:0:
256,192,207118,1,8,0:0:0:0:
256,192,207255,1,0,0:0:0:0:
256,192,207391,1,8,0:0:0:0:
256,192,207527,1,0,0:0:0:0:
256,192,207596,1,0,0:0:0:0:
256,192,207664,1,0,0:0:0:0:
256,192,207800,1,8,0:0:0:0:
256,192,207936,1,0,0:0:0:0:
256,192,208005,1,0,0:0:0:0:
256,192,208073,1,8,0:0:0:0:
256,192,208209,1,0,0:0:0:0:
256,192,208346,1,8,0:0:0:0:
256,192,208482,1,0,0:0:0:0:
256,192,208618,1,0,0:0:0:0:
256,192,208686,1,8,0:0:0:0:
256,192,208754,1,0,0:0:0:0:
256,192,208890,1,8,0:0:0:0:
256,192,209028,1,8,0:0:0:0:
256,192,209096,1,8,0:0:0:0:
256,192,209164,1,0,0:0:0:0:
256,192,209233,1,0,0:0:0:0:
256,192,209301,1,0,0:0:0:0:
256,192,209573,5,0,0:0:0:0:
256,192,209709,1,0,0:0:0:0:
256,192,209982,1,8,0:0:0:0:
256,192,210255,1,0,0:0:0:0:
256,192,210391,1,0,0:0:0:0:
256,192,210528,1,0,0:0:0:0:
256,192,210800,1,8,0:0:0:0:
256,192,211073,1,8,0:0:0:0:
256,192,211755,1,0,0:0:0:0:
256,192,211891,1,0,0:0:0:0:
256,192,212028,1,8,0:0:0:0:
256,192,212164,1,0,0:0:0:0:
256,192,212437,1,0,0:0:0:0:
256,192,212573,1,0,0:0:0:0:
256,192,212709,1,0,0:0:0:0:
256,192,212982,1,8,0:0:0:0:
256,192,213255,1,8,0:0:0:0:
256,192,213937,1,0,0:0:0:0:
256,192,214073,1,0,0:0:0:0:
256,192,214346,1,8,0:0:0:0:
256,192,214619,1,0,0:0:0:0:
256,192,214755,1,0,0:0:0:0:
256,192,214892,1,0,0:0:0:0:
256,192,215164,1,8,0:0:0:0:
256,192,215437,1,8,0:0:0:0:
256,192,216119,1,0,0:0:0:0:
256,192,216527,1,8,0:0:0:0:
256,192,216664,1,0,0:0:0:0:
256,192,216732,1,8,0:0:0:0:
256,192,216800,1,0,0:0:0:0:
256,192,216868,1,8,0:0:0:0:
256,192,216937,1,8,0:0:0:0:
256,192,217005,1,8,0:0:0:0:
256,192,217073,1,8,0:0:0:0:
256,192,217209,5,0,0:0:0:0:
256,192,217346,1,8,0:0:0:0:
256,192,217482,1,0,0:0:0:0:
256,192,217618,1,8,0:0:0:0:
256,192,217891,1,8,0:0:0:0:
256,192,218300,5,4,0:0:0:0:
256,192,218437,1,0,0:0:0:0:
256,192,218505,1,0,0:0:0:0:
256,192,218573,1,8,0:0:0:0:
256,192,218710,1,0,0:0:0:0:
256,192,218846,1,0,0:0:0:0:
256,192,218982,1,0,0:0:0:0:
256,192,219050,1,0,0:0:0:0:
256,192,219119,1,8,0:0:0:0:
256,192,219187,1,8,0:0:0:0:
256,192,219255,1,0,0:0:0:0:
256,192,219391,1,0,0:0:0:0:
256,192,219528,1,0,0:0:0:0:
256,192,219596,1,0,0:0:0:0:
256,192,219664,1,8,0:0:0:0:
256,192,219800,1,8,0:0:0:0:
256,192,219937,1,0,0:0:0:0:
256,192,220073,1,0,0:0:0:0:
256,192,220210,1,8,0:0:0:0:
256,192,220482,1,0,0:0:0:0:
256,192,220619,1,0,0:0:0:0:
256,192,220687,1,0,0:0:0:0:
256,192,220755,1,8,0:0:0:0:
256,192,220823,1,0,0:0:0:0:
256,192,220891,1,8,0:0:0:0:
256,192,221028,1,0,0:0:0:0:
256,192,221164,1,8,0:0:0:0:
256,192,221300,1,0,0:0:0:0:
256,192,221369,1,0,0:0:0:0:
256,192,221437,1,0,0:0:0:0:
256,192,221573,1,0,0:0:0:0:
256,192,221710,1,8,0:0:0:0:
256,192,221846,1,0,0:0:0:0:
256,192,221982,1,8,0:0:0:0:
256,192,222255,1,0,0:0:0:0:
256,192,222391,1,8,0:0:0:0:
256,192,222528,1,0,0:0:0:0:
256,192,222664,1,0,0:0:0:0:
256,192,222732,1,8,0:0:0:0:
256,192,222800,1,0,0:0:0:0:
256,192,222869,1,0,0:0:0:0:
256,192,222937,1,8,0:0:0:0:
256,192,223073,1,8,0:0:0:0:
256,192,223210,1,0,0:0:0:0:
256,192,223346,1,0,0:0:0:0:
256,192,223414,1,0,0:0:0:0:
256,192,223482,1,0,0:0:0:0:
256,192,223619,1,0,0:0:0:0:
256,192,223755,1,8,0:0:0:0:
256,192,223891,1,0,0:0:0:0:
256,192,223960,1,0,0:0:0:0:
256,192,224028,1,8,0:0:0:0:
256,192,224164,1,0,0:0:0:0:
256,192,224437,1,0,0:0:0:0:
256,192,224573,1,8,0:0:0:0:
256,192,224846,1,12,0:0:0:0:
256,192,224982,1,0,0:0:0:0:
256,192,225050,1,0,0:0:0:0:
256,192,225119,1,0,0:0:0:0:
256,192,225255,1,12,0:0:0:0:
256,192,225391,1,0,0:0:0:0:
256,192,225460,1,8,0:0:0:0:
256,192,225528,1,0,0:0:0:0:
256,192,225596,1,8,0:0:0:0:
256,192,225664,1,8,0:0:0:0:
256,192,225732,1,8,0:0:0:0:
256,192,225800,1,8,0:0:0:0:
256,192,225937,1,0,0:0:0:0:
256,192,226005,1,8,0:0:0:0:
256,192,226073,1,0,0:0:0:0:
256,192,226141,1,0,0:0:0:0:
256,192,226210,1,8,0:0:0:0:
256,192,226346,1,8,0:0:0:0:
256,192,226414,1,8,0:0:0:0:
256,192,226482,1,0,0:0:0:0:
256,192,226550,1,0,0:0:0:0:
256,192,226619,1,0,0:0:0:0:
256,192,226686,1,8,0:0:0:0:
256,192,226755,1,0,0:0:0:0:
256,192,226823,1,8,0:0:0:0:
256,192,226891,1,0,0:0:0:0:
256,192,227028,1,4,0:0:0:0:
256,192,227164,1,0,0:0:0:0:
256,192,227232,1,0,0:0:0:0:
256,192,227300,1,8,0:0:0:0:
256,192,227368,1,8,0:0:0:0:
256,192,227437,1,0,0:0:0:0:
256,192,227709,1,8,0:0:0:0:
256,192,227846,1,0,0:0:0:0:
256,192,228118,1,0,0:0:0:0:
256,192,228255,1,0,0:0:0:0:
256,192,228323,1,0,0:0:0:0:
256,192,228391,1,8,0:0:0:0:
256,192,228459,1,0,0:0:0:0:
256,192,228528,1,0,0:0:0:0:
256,192,228664,1,0,0:0:0:0:
256,192,228800,1,0,0:0:0:0:
256,192,228868,1,0,0:0:0:0:
256,192,228937,1,8,0:0:0:0:
256,192,229073,1,0,0:0:0:0:
256,192,229209,1,0,0:0:0:0:
256,192,229278,1,0,0:0:0:0:
256,192,229346,1,0,0:0:0:0:
256,192,229482,1,8,0:0:0:0:
256,192,229618,1,0,0:0:0:0:
256,192,229891,1,0,0:0:0:0:
256,192,230028,1,8,0:0:0:0:
256,192,230300,1,0,0:0:0:0:
256,192,230437,1,0,0:0:0:0:
256,192,230505,1,0,0:0:0:0:
256,192,230573,1,8,0:0:0:0:
256,192,230641,1,8,0:0:0:0:
256,192,230709,1,0,0:0:0:0:
256,192,230846,1,0,0:0:0:0:
256,192,230914,1,0,0:0:0:0:
256,192,230982,1,8,0:0:0:0:
256,192,231050,1,0,0:0:0:0:
256,192,231118,1,0,0:0:0:0:
256,192,231255,1,0,0:0:0:0:
256,192,231391,1,8,0:0:0:0:
256,192,231459,1,8,0:0:0:0:
256,192,231528,1,0,0:0:0:0:
256,192,231664,1,0,0:0:0:0:
256,192,231800,1,0,0:0:0:0:
256,192,231937,1,8,0:0:0:0:
256,192,232005,1,8,0:0:0:0:
256,192,232073,1,0,0:0:0:0:
256,192,232209,1,0,0:0:0:0:
256,192,232346,1,0,0:0:0:0:
256,192,232482,1,8,0:0:0:0:
256,192,232550,1,8,0:0:0:0:
256,192,232618,1,0,0:0:0:0:
256,192,232755,1,0,0:0:0:0:
256,192,232891,1,0,0:0:0:0:
256,192,233028,1,8,0:0:0:0:
256,192,233096,1,8,0:0:0:0:
256,192,233164,1,0,0:0:0:0:
256,192,233300,1,0,0:0:0:0:
256,192,233437,1,8,0:0:0:0:
256,192,233573,1,0,0:0:0:0:
256,192,233641,1,0,0:0:0:0:
256,192,233709,1,8,0:0:0:0:
256,192,233846,1,0,0:0:0:0:
256,192,233982,1,8,0:0:0:0:
256,192,234118,1,0,0:0:0:0:
256,192,234187,1,0,0:0:0:0:
256,192,234255,1,8,0:0:0:0:
256,192,234323,1,8,0:0:0:0:
256,192,234391,1,0,0:0:0:0:
256,192,234528,1,8,0:0:0:0:
256,192,234664,1,0,0:0:0:0:
256,192,234800,1,0,0:0:0:0:
256,192,234868,1,0,0:0:0:0:
256,192,234937,1,0,0:0:0:0:
256,192,235073,1,0,0:0:0:0:
256,192,235209,1,0,0:0:0:0:
256,192,235278,1,0,0:0:0:0:
256,192,235346,1,8,0:0:0:0:
256,192,235414,1,0,0:0:0:0:
256,192,235482,1,8,0:0:0:0:
256,192,235618,1,8,0:0:0:0:
256,192,235755,5,0,0:0:0:0:
256,192,235891,1,0,0:0:0:0:
256,192,235959,1,0,0:0:0:0:
256,192,236027,1,8,0:0:0:0:
256,192,236095,1,8,0:0:0:0:
256,192,236164,1,0,0:0:0:0:
256,192,236436,1,8,0:0:0:0:
256,192,236573,1,0,0:0:0:0:
256,192,236845,1,0,0:0:0:0:
256,192,236982,1,0,0:0:0:0:
256,192,237050,1,0,0:0:0:0:
256,192,237118,1,8,0:0:0:0:
256,192,237186,1,0,0:0:0:0:
256,192,237255,1,0,0:0:0:0:
256,192,237391,1,0,0:0:0:0:
256,192,237527,1,0,0:0:0:0:
256,192,237595,1,0,0:0:0:0:
256,192,237664,1,8,0:0:0:0:
256,192,237800,1,0,0:0:0:0:
256,192,237936,1,0,0:0:0:0:
256,192,238005,1,0,0:0:0:0:
256,192,238073,1,0,0:0:0:0:
256,192,238209,1,8,0:0:0:0:
256,192,238345,1,0,0:0:0:0:
256,192,238618,1,0,0:0:0:0:
256,192,238755,1,8,0:0:0:0:
256,192,239027,1,0,0:0:0:0:
256,192,239164,1,0,0:0:0:0:
256,192,239232,1,0,0:0:0:0:
256,192,239300,1,8,0:0:0:0:
256,192,239368,1,8,0:0:0:0:
256,192,239436,1,0,0:0:0:0:
256,192,239573,1,0,0:0:0:0:
256,192,239641,1,0,0:0:0:0:
256,192,239709,1,8,0:0:0:0:
256,192,239777,1,0,0:0:0:0:
256,192,239846,1,0,0:0:0:0:
256,192,239982,1,0,0:0:0:0:
256,192,240118,1,8,0:0:0:0:
256,192,240255,1,0,0:0:0:0:
256,192,240323,1,8,0:0:0:0:
256,192,240391,1,0,0:0:0:0:
256,192,240527,1,8,0:0:0:0:
256,192,240664,1,0,0:0:0:0:
256,192,240732,1,0,0:0:0:0:
256,192,240800,1,8,0:0:0:0:
256,192,240936,1,0,0:0:0:0:
256,192,241073,1,0,0:0:0:0:
256,192,241209,1,8,0:0:0:0:
256,192,241277,1,8,0:0:0:0:
256,192,241345,1,8,0:0:0:0:
256,192,241414,1,0,0:0:0:0:
256,192,241482,1,0,0:0:0:0:
256,192,241550,1,8,0:0:0:0:
256,192,241618,1,0,0:0:0:0:
256,192,241890,1,8,0:0:0:0:
256,192,242027,1,0,0:0:0:0:
256,192,242163,1,8,0:0:0:0:
256,192,242300,1,0,0:0:0:0:
256,192,242368,1,8,0:0:0:0:
256,192,242436,1,0,0:0:0:0:
256,192,242572,1,8,0:0:0:0:
256,192,242709,1,0,0:0:0:0:
256,192,242777,1,0,0:0:0:0:
256,192,242845,1,8,0:0:0:0:
256,192,242981,1,8,0:0:0:0:
256,192,243118,1,0,0:0:0:0:
256,192,243186,1,8,0:0:0:0:
256,192,243255,1,8,0:0:0:0:
256,192,243391,1,8,0:0:0:0:
256,192,243459,1,0,0:0:0:0:
256,192,243527,1,0,0:0:0:0:
256,192,243596,1,0,0:0:0:0:
256,192,243664,1,8,0:0:0:0:
256,192,243732,1,8,0:0:0:0:
256,192,243800,1,0,0:0:0:0:
256,192,243868,1,0,0:0:0:0:
256,192,243937,1,0,0:0:0:0:
256,192,244005,1,0,0:0:0:0:
256,192,244073,1,8,0:0:0:0:
256,192,244141,1,0,0:0:0:0:
256,192,244209,1,8,0:0:0:0:
256,192,244278,1,8,0:0:0:0:
256,192,244346,1,0,0:0:0:0:
