osu file format v9

[General]
AudioFilename: [BMS]Jack-the-Ripper sasakure.UK sta.mp3
AudioLeadIn: 0
PreviewTime: 31002
Countdown: 0
SampleSet: Soft
StackLeniency: 0.7
Mode: 0
LetterboxInBreaks: 1

[Editor]
Bookmarks: 52860
DistanceSpacing: 0.6
BeatDivisor: 4
GridSize: 8

[Metadata]
Title:Jack-the-Ripper
Artist:sasakure.UK
Creator:Sprosive
Version:ReMiX
Source:BMS
Tags:BOF2009 THE BMS OF FIGHTERS Black Jacks tsuka

[Difficulty]
HPDrainRate:4
CircleSize:5
OverallDifficulty:8
ApproachRate:8
SliderMultiplier:1.4
SliderTickRate:0.5

[Events]
//Background and Video events
Video,1145,"master.flv"
0,0,"10819679_m.jpg"
//Break Periods
//Storyboard Layer 0 (Background)
//Storyboard Layer 1 (Fail)
//Storyboard Layer 2 (Pass)
//Storyboard Layer 3 (Foreground)
//Storyboard Sound Samples
//Background Colour Transformations
3,100,163,162,255

[TimingPoints]
288,285.714285714286,5,2,0,21,1,0
1530,-200,5,2,0,40,0,0
17288,-100,5,2,0,40,0,0
29288,-100,5,2,0,40,0,1
31002,-100,5,2,0,40,0,0
32574,-200,5,2,0,40,0,0
33146,-100,5,2,0,40,0,0
39431,-200,5,2,0,40,0,0
40003,-100,5,2,0,40,0,0
44716,-200,5,2,0,49,0,0
48145,-100,5,2,0,62,0,0
50216,-100,5,1,0,62,0,0
50431,-200,5,2,0,62,0,0
50859,-200,5,2,0,0,0,0
52573,-100,5,2,0,62,0,0
56288,-100,5,2,0,62,0,1
59252,-100,5,2,0,62,0,0
59288,263.157894736842,5,1,0,60,1,1
69815,-100,5,2,0,60,0,0
76524,250,4,2,0,60,1,0
82461,-133.333333333333,4,2,0,60,0,0
83274,-200,4,2,0,60,0,0
84399,-133.333333333333,4,2,0,60,0,0
88399,-200,4,2,0,60,0,0
90399,-133.333333333333,4,2,0,60,0,0
91336,-200,4,2,0,50,0,0
95024,-100,4,1,0,60,0,0
96774,-100,4,1,0,60,0,1
98211,-133.333333333333,4,1,0,60,0,1
98586,-100,4,1,0,60,0,1
101399,-100,4,2,0,60,0,1
102711,-100,4,1,0,60,0,1
104211,-133.333333333333,4,1,0,60,0,1
104586,-100,4,1,0,60,0,1
107274,-100,4,1,0,60,0,0
108774,-100,4,1,0,60,0,1
113399,-100,4,2,0,60,0,1
114711,-100,4,1,0,60,0,1
122211,-100,4,2,0,60,0,0
123631,285.714285714286,4,2,0,60,1,0
123773,-200,4,2,1,60,0,0
126774,-100,4,1,0,39,0,1
131059,-100,4,1,0,60,0,0
132774,-100,4,1,0,76,0,1
135345,-100,4,1,0,54,0,0
136416,-100,4,1,0,40,0,0
137202,-100,4,2,0,30,0,0

[HitObjects]
40,64,1716,6,0,B|64:96|64:96|48:128|48:128|80:160|80:160|64:192|64:192|96:232|96:232,1,210
200,360,3145,2,0,B|224:328|224:328|208:296|208:296|240:264|240:264|224:232|224:232|256:192|256:192,1,210
384,56,4573,2,0,B|408:88|408:88|392:120|392:120|424:152|424:152|408:184|408:184|440:224|440:224,1,210
256,352,6002,5,0
200,264,6430,1,0
288,208,6859,1,0
344,296,7287,1,0
200,264,7716,1,0
200,264,7859,1,0
48,336,8002,6,0,B|256:304,1,210
208,32,9430,2,0,B|248:248,1,209.999993741512
464,48,10859,2,0,B|256:80,1,210
200,96,12288,6,0,B|272:120,1,70
280,152,12716,2,0,B|256:224,1,70
232,240,13145,2,0,B|160:216,1,70
152,184,13573,2,0,B|176:112,1,70
280,152,14002,1,2
280,152,14145,1,2
304,224,14288,6,0,B|376:264|328:360,1,140,4|0
240,368,15145,2,0,B|168:328|216:232,1,140,2|0
88,96,16002,2,0,B|160:136|112:232,1,140,2|0
32,192,16859,5,10
480,192,17145,1,10
240,48,17430,6,0,B|168:80,1,70,0|0
184,148,17716,2,0,B|248:120,1,70
256,192,18002,2,0,B|184:224,2,70
256,272,18430,1,0
256,272,18573,2,0,B|184:304,1,70,0|4
480,288,18859,6,0,B|448:360,1,70,0|0
379,344,19145,2,0,B|407:280,1,70
336,272,19430,2,0,B|304:344,2,70
256,272,19859,1,0
256,272,20002,2,0,B|224:344,1,70,0|4
48,352,20288,6,0,B|120:320,1,70,0|0
103,251,20573,2,0,B|39:279,1,70
32,208,20859,2,0,B|104:176,2,70
32,128,21288,1,0
32,128,21430,1,0
176,56,21573,5,2
248,40,21716,1,0
304,80,21859,1,2
328,264,22002,5,2
368,208,22145,1,0
352,136,22288,1,2
120,96,22430,5,2
80,152,22573,1,0
96,224,22716,1,2
272,304,22859,5,2
200,320,23002,1,0
144,280,23145,1,2
224,176,23288,5,0
232,200,23430,1,0
296,192,23573,5,2
304,216,23716,1,0
360,168,23859,5,0
368,192,24002,1,0
432,184,24145,5,2
440,208,24288,1,0
496,176,24430,5,2
512,96,24573,1,2
448,40,24716,5,0
448,40,24859,1,0
368,64,25002,1,2
368,64,25145,1,0
288,32,25288,1,0
288,32,25430,1,0
208,56,25573,1,2
208,56,25716,1,0
128,48,25859,2,2,B|48:48,1,70
128,48,26145,5,0
152,56,26288,1,0
144,120,26430,5,2
168,128,26573,1,0
120,184,26716,5,0
144,192,26859,1,0
136,256,27002,5,2
160,264,27145,1,0
128,320,27288,5,2
48,336,27430,1,2
200,368,27573,6,2,B|200:328|168:280,1,70
160,264,27859,1,0
240,136,28002,6,2,B|232:176|272:224,1,70
280,240,28288,1,0
408,320,28430,6,2,B|376:344|320:352,1,70
304,360,28716,1,0
176,280,28859,6,2,B|208:256|264:248,1,70
280,240,29145,1,0
376,120,29288,5,4
376,120,29430,2,2,B|328:221,1,105
260,198,29716,1,4
260,198,29859,2,2,B|304:102,1,105
231,88,30145,1,4
231,88,30288,2,2,B|183:189,1,105
115,166,30573,1,4
115,166,30716,2,2,B|159:70,1,105
64,184,31002,6,2,B|0:240|48:344,1,140
208,360,31573,2,2,B|272:304|224:200,2,140
304,168,32430,1,0
304,168,32716,2,0,B|348:160|360:176|408:168,1,105
456,168,33288,5,0
104,144,33573,2,2,B|112:40|192:120,1,140
152,280,34145,2,2,B|144:384|64:304,2,140
288,144,35002,1,0
288,144,35288,2,0,B|304:200|272:232|296:288,3,140
112,352,36288,5,2
104,336,36359,1,0
96,320,36430,1,0
72,256,36573,1,2
96,176,36716,1,0
152,232,36859,1,2
232,216,37002,5,2
248,144,37145,1,0
320,160,37287,1,2
304,232,37430,1,0
232,216,37573,1,2
456,320,37859,6,2,B|400:384|296:336,1,140
296,192,38430,2,2,B|352:128|456:176,2,140
376,264,39287,1,0
296,288,39573,2,0,B|256:288|240:304|192:304,1,105
144,288,40145,5,0
264,176,40430,2,2,B|328:120|280:16,1,140
456,96,41002,2,2,B|392:152|440:256,2,140
288,72,41859,1,0
288,72,42145,2,0,B|144:88,1,140,0|2
136,176,42716,2,0,B|275:160,1,140,0|2
344,264,43145,5,2
352,248,43216,1,0
360,232,43287,1,0
384,168,43430,1,2
464,144,43573,1,0
384,168,43716,1,2
320,120,43859,5,0
280,192,44002,1,2
208,144,44145,1,0
168,72,44287,1,2
112,136,44430,1,0
40,176,44573,1,2
104,48,44716,6,0,B|96:128,1,70,4|0
97,117,45145,1,2
97,117,45287,1,2
97,117,45430,1,2
192,152,45573,2,0,B|248:200,1,70
328,160,46145,5,2
328,160,46287,1,2
328,160,46430,2,0,B|400:144,1,70
432,144,46859,1,2
424,176,47002,1,2
424,208,47145,1,2
416,240,47287,1,2
368,288,47573,2,0,B|352:304,7,17.5
320,312,48145,6,0,B|224:312|224:232,1,140
144,200,48573,1,0
144,200,48716,1,0
280,192,49002,2,0,B|424:104,1,140
432,56,49430,1,0
432,56,49573,1,0
480,192,49859,5,4
32,192,50145,1,4
96,176,50287,5,4
432,56,50716,6,2,B|424:64|424:64|416:56|416:56|408:64|408:64|400:56|400:56|392:64|392:64|384:56|384:56|376:64|376:64|368:56|368:56|360:64|360:64|352:56|352:56|344:64|344:64|336:56|336:56|328:64|328:64|320:56|320:56|312:64|312:64|304:56|304:56|296:64|296:64|288:56|288:56|280:64|280:64|272:56|272:56|264:64|264:64|256:56|256:56|248:64|248:64|240:56|240:56|232:64|232:64|224:56|224:56|216:64|216:64|208:56|208:56|200:64|200:64|192:56|192:56|184:64|184:64|176:56|176:56|168:64|168:64|160:56|160:56|152:64|152:64|144:56|144:56|136:64|136:64|128:56|128:56|120:64|120:64|112:56|112:56|104:64|104:64|96:56|96:56|88:64|88:64|80:56|80:56,1,490
80,128,52859,6,0,B|88:176,3,35,2|0|0|0
88,200,53145,2,0,B|80:248,3,35,2|0|0|0
96,264,53430,2,0,B|104:312,3,35,2|0|0|0
136,312,53716,2,0,B|184:320,3,35,2|0|0|0
208,312,54002,6,0,B|240:296,1,35
272,304,54145,2,0,B|304:320,1,35
336,312,54287,2,0,B|368:296,1,35
400,304,54430,2,0,B|432:320,1,35
440,288,54573,6,0,B|432:240,3,35,2|0|0|0
432,216,54859,2,0,B|440:168,3,35,2|0|0|0
400,176,55145,6,0,B|368:160,1,35
336,168,55287,2,0,B|304:184,1,35
272,176,55430,2,0,B|240:160,1,35
208,168,55573,2,0,B|176:184,1,35
152,160,55716,6,0,B|160:112,3,35,2|0|0|0
160,88,56002,2,0,B|152:40,3,35,2|0|0|0
96,112,56287,5,4
24,72,56430,1,4
320,136,56716,5,4
376,72,56859,1,4
240,160,57145,5,4
224,240,57287,1,4
464,136,57573,5,4
384,160,57716,1,4
320,248,58002,5,4
344,328,58145,1,4
56,288,58430,5,4
24,208,58573,1,4
280,312,58859,5,4
200,336,59002,1,4
48,56,59288,6,0,B|144:40|160:128,1,140
232,80,59814,2,0,B|256:168|360:136,1,140
424,72,60340,1,0
336,144,60603,2,0,B|376:231,1,70
430,232,60866,2,0,B|470:319,1,70
491,362,61130,1,0
408,344,61261,1,0
328,320,61393,6,0,B|320:232|400:208,2,140
216,192,62182,2,0,B|304:200|328:120,1,140
176,48,62709,2,0,B|272:48,1,70
48,96,62972,2,0,B|144:96,1,70
136,176,63235,1,0
136,176,63366,1,0
128,248,63498,1,0
128,248,63630,1,0
120,320,63761,1,0
488,112,64024,6,0,B|432:168,1,70
368,144,64288,2,0,B|312:200,1,70
248,232,64551,6,0,B|192:288|248:360,1,140
248,232,65077,1,0
440,296,65340,2,0,B|296:296,1,140
416,136,65866,2,0,B|448:160|448:216,1,70
368,232,66130,2,0,B|336:208|336:152,1,70
416,136,66393,1,0
440,56,66524,1,0
368,64,66656,6,0,B|280:56|256:136,2,140
176,32,67445,2,0,B|184:128|96:136,1,140
0,272,67972,2,0,B|32:264|96:272,1,70
152,248,68235,2,0,B|192:256|248:248,1,70
296,216,68498,1,0
296,216,68630,1,0
288,288,68761,1,0
288,288,68893,1,0
280,360,69024,1,0
24,24,69288,6,0,B|32:56|32:56|80:80,1,70
144,64,69551,2,0,B|177:80|177:80|185:112,1,70
248,168,69814,5,2
312,136,70077,1,2
376,104,70340,1,2
240,240,70603,5,2
176,208,70866,1,2
112,176,71130,1,2
264,312,71393,5,2
328,280,71656,1,2
392,248,71919,1,2
256,384,72182,5,2
192,352,72445,1,2
128,320,72709,1,2
400,216,72972,6,0,B|464:176|448:80,1,140
320,40,73498,2,0,B|280:112,1,70
240,152,73761,6,0,B|200:88|104:104,1,140
64,232,74288,2,0,B|136:272,1,70
192,272,74551,5,0
192,272,74814,1,0
192,272,75044,1,0
192,272,75274,1,0
192,272,75505,1,0
192,272,75702,1,0
192,272,75932,1,0
192,272,76130,1,0
192,272,76327,1,0
272,336,76524,5,4
344,296,76774,1,0
280,240,77024,1,2
312,160,77274,1,0
224,160,77524,5,0
184,88,77774,1,0
128,152,78024,1,2
48,120,78274,1,0
48,280,78524,5,0
80,360,78774,1,0
160,328,79024,1,2
128,248,79274,1,0
256,320,79524,5,0
224,240,79774,1,0
304,208,80024,1,2
336,288,80274,1,0
400,240,80524,5,0
512,192,80774,1,0
400,240,81024,1,2
512,192,81274,1,0
480,112,81524,5,0
368,64,81774,1,0
480,112,82024,1,2
368,64,82274,1,0
216,152,82524,6,2,B|144:232|240:288,1,157.499995306134,2|0
304,328,83149,1,0
288,248,83524,2,2,B|288:160,1,87.5
288,80,84211,1,0
88,112,84524,6,0,B|56:168|104:224,1,104.999996870756,0|0
192,216,85024,2,0,B|224:160|176:104,1,104.999996870756,2|0
112,128,85524,2,0,B|80:184|128:240,1,104.999996870756,0|0
216,232,86024,2,0,B|248:176|200:120,1,104.999996870756,2|0
192,112,86524,6,0,B|304:128,1,104.999996870756,0|0
280,240,87024,2,0,B|392:256,1,104.999996870756,2|0
248,184,87524,2,0,B|136:200,1,104.999996870756,0|0
160,312,88024,2,0,B|48:328,1,104.999996870756,2|0
56,264,88524,6,0,B|32:176|80:136|56:56,1,210
80,16,89524,1,0
176,56,89899,1,2
136,152,90274,1,0
232,120,90524,6,2,B|384:72,1,157.499995306134,0|2
456,48,91190,1,2
456,120,91524,2,2,B|456:216,1,93.3333333333333,0|2
456,280,92190,1,2
256,192,92524,12,0,94899
88,56,95274,5,0
88,56,95399,1,0
144,152,95524,1,0
144,152,95649,1,0
232,88,95774,1,0
232,88,95899,1,0
344,112,96024,1,0
344,112,96149,1,0
432,40,96274,1,0
432,40,96399,1,0
456,152,96524,1,0
456,152,96649,1,0
376,232,96774,6,0,B|408:280|408:280|352:344,1,105
320,296,97024,2,0,B|232:288,1,70
208,184,97274,2,0,B|258:111,1,70
168,48,97524,2,0,B|87:85,1,70
40,168,97774,5,0
24,264,97899,1,0
96,248,98024,1,0
80,344,98149,1,0
160,288,98274,6,0,B|296:272,1,131.249996088445
328,232,98649,5,0
328,232,98711,1,0
328,232,98774,2,0,B|320:160,1,70
224,176,99024,2,0,B|216:104,1,70
120,128,99274,2,0,B|112:56,1,70
208,40,99524,1,0
296,72,99649,1,0
288,144,99774,6,0,B|256:184|272:264,1,105
268,244,100024,1,0
360,296,100149,2,0,B|392:368,1,70
496,192,100524,5,0
424,160,100649,1,0
368,224,100774,1,0
296,192,100899,1,0
272,192,100961,1,0
248,192,101024,2,0,B|112:192,1,105
144,192,101274,1,0
24,64,101524,5,0
48,128,101649,1,2
128,144,101774,5,2
104,80,101899,1,0
160,16,102024,5,0
184,80,102149,1,2
264,96,102274,5,2
240,32,102399,1,0
320,48,102524,5,0
384,24,102649,1,2
432,112,102774,6,0,B|448:160|448:160|416:208,1,105
400,256,103024,2,0,B|416:328,1,70
304,344,103274,2,0,B|224:320,1,70
128,352,103524,2,0,B|112:283,1,70
32,232,103774,1,0
40,152,103899,1,0
144,184,104024,1,0
152,104,104149,1,0
224,80,104274,6,0,B|368:104,1,131.249996088445
400,72,104649,5,0
400,72,104711,1,0
400,72,104774,2,0,B|448:136,1,70
384,224,105024,2,0,B|376:296,1,70
264,296,105274,2,0,B|207:341,1,70
104,296,105524,1,0
80,224,105649,1,0
160,224,105774,6,0,B|280:240,1,105
312,208,106024,2,0,B|360:136,1,70
400,72,106274,1,0
176,48,106524,5,0
104,104,106649,1,0
176,168,106774,1,0
176,168,106836,1,0
176,168,106899,1,0
176,168,106961,1,0
176,168,107024,2,0,B|184:209|184:209|176:224|192:272,1,105
200,320,107274,5,4
416,192,107649,1,4
224,32,108024,1,4
8,160,108399,1,4
432,48,108774,6,0,B|328:48,1,105,4|0
288,88,109024,5,0
288,88,109149,1,0
280,168,109274,1,0
280,168,109399,1,0
208,208,109524,1,0
208,208,109649,1,0
200,288,109774,1,0
200,288,109899,1,0
256,352,110024,1,0
272,344,110086,1,0
288,336,110149,1,0
304,328,110211,1,0
320,320,110274,6,0,B|392:256|320:200,1,140
208,64,110649,1,0
224,80,110711,1,0
224,104,110774,2,0,B|248:184,1,70
172,275,111024,2,0,B|152:208,1,70
32,176,111274,5,0
32,176,111399,1,0
104,104,111524,1,0
104,104,111649,1,0
72,256,111774,6,0,B|208:240,1,105
280,176,112024,1,0
280,176,112149,1,0
280,176,112274,2,0,B|352:224|312:320,1,140
280,352,112649,1,0
408,304,112774,1,0
411,296,112836,1,0
414,289,112899,1,0
418,282,112961,1,0
421,274,113024,1,0
408,176,113149,1,0
488,120,113274,1,0
80,80,113524,6,0,B|64:152,1,70,0|2
168,144,113774,2,0,B|176:224,1,70,0|2
304,176,114024,2,0,B|288:104,1,70,0|2
392,112,114274,2,0,B|400:32,1,70,0|2
488,120,114524,1,2
488,120,114649,1,2
488,120,114774,6,0,B|488:224,1,105,0|0
448,264,115024,5,0
384,272,115149,1,0
320,256,115274,1,0
256,264,115399,1,0
200,224,115524,5,0
136,232,115649,1,0
72,216,115774,1,0
8,224,115899,1,0
32,152,116024,1,0
40,136,116086,1,0
48,120,116149,1,0
56,104,116211,1,0
64,88,116274,6,0,B|112:32|192:64,1,140
264,64,116649,1,0
272,72,116711,1,0
280,80,116774,2,0,B|304:160,1,70
416,192,117024,2,0,B|395:124,1,70
352,264,117274,5,0
352,264,117399,1,0
240,280,117524,1,0
240,280,117649,1,0
120,200,117774,6,0,B|256:184,1,105
280,176,118024,1,0
280,176,118149,1,0
280,176,118274,2,0,B|312:320,1,140
310,312,118649,1,0
432,288,118774,1,0
432,280,118836,1,0
432,272,118899,1,0
432,264,118961,1,0
432,256,119024,1,0
432,176,119149,1,0
432,56,119274,6,4,B|320:24|288:120,1,175
320,200,119649,2,4,B|432:232|464:136,1,175
408,104,120024,6,4,B|296:72|264:168,1,175
296,248,120399,2,4,B|408:280|440:184,1,175
128,32,120774,6,0,B|128:120,1,70
320,272,121024,6,0,B|320:184,1,70
104,80,121274,6,0,B|104:168,1,70
296,320,121524,6,0,B|296:232,1,70
80,128,121774,6,0,B|80:216,1,70
272,368,122024,6,0,B|272:280,1,70
288,136,122274,5,2
288,136,122399,1,2
96,280,122649,5,2
96,280,122774,1,2
352,248,123024,5,2
352,248,123149,1,2
184,120,123399,5,2
184,120,123524,1,2
368,48,123774,6,0,B|464:64|448:168,1,140,2|2
144,336,124631,2,0,B|48:320|64:216,1,140,2|2
256,120,125488,2,0,B|256:280,1,140,2|2
256,328,126345,5,4
256,120,126631,1,4
472,40,126774,5,0
440,72,126916,1,0
400,56,127059,1,0
360,40,127202,1,0
320,24,127345,1,0
288,48,127488,1,0
248,40,127631,1,0
232,48,127702,1,0
216,40,127774,1,0
200,32,127845,1,0
184,24,127916,1,0
168,32,127988,1,0
152,40,128059,1,0
48,160,128202,5,0
80,128,128345,1,0
120,144,128488,1,0
160,136,128631,1,0
184,168,128774,1,0
208,200,128916,1,0
248,184,129059,1,0
272,152,129202,1,0
312,144,129345,1,0
344,168,129488,1,0
472,344,129631,5,0
448,312,129774,1,0
424,280,129916,1,0
392,304,130059,1,0
352,304,130202,1,0
328,272,130345,1,0
288,280,130488,1,0
248,296,130631,1,0
232,336,130774,1,0
192,336,130916,1,0
88,168,131059,6,0,B|120:88,1,70
176,80,131345,1,0
232,176,131488,6,0,B|200:256,1,70
144,264,131774,1,0
328,184,131916,6,0,B|360:104,1,70
416,96,132202,1,0
472,192,132345,6,0,B|440:272,1,70
384,280,132631,1,0
416,352,132774,5,4
328,184,132916,1,4
240,224,133202,5,4
152,56,133345,1,4
0,320,133631,5,4
88,152,133774,1,4
408,136,134059,5,4
240,224,134202,1,4
0,64,134488,5,4
88,232,134631,1,4
408,248,134916,5,4
240,160,135059,1,4
112,312,135345,5,0
152,296,135488,1,0
192,280,135631,1,0
232,264,135774,1,0
256,232,135916,5,0
216,216,136059,1,0
176,200,136202,1,0
136,184,136345,1,0
128,144,136488,5,0
144,104,136631,1,0
160,64,136774,1,0
176,24,136916,1,0
256,104,137202,5,2
