osu file format v9

[General]
AudioFilename: [BMS]Jack-the-Ripper sasakure.UK sta.mp3
AudioLeadIn: 0
PreviewTime: 31003
Countdown: 0
SampleSet: Normal
StackLeniency: 0.7
Mode: 0
LetterboxInBreaks: 1

[Editor]
DistanceSpacing: 1
BeatDivisor: 4
GridSize: 8

[Metadata]
Title:Jack-the-Ripper
Artist:sasakure.UK
Creator:Sprosive
Version:Normal
Source:BMS
Tags:BOF2009 THE BMS OF FIGHTERS Black Jacks tsuka

[Difficulty]
HPDrainRate:3
CircleSize:4
OverallDifficulty:5
ApproachRate:5
SliderMultiplier:0.799999999999999
SliderTickRate:1

[Events]
//Background and Video events
Video,1145,"master.flv"
0,0,"stage.jpg"
//Break Periods
2,31202,43516
2,70014,75324
2,92724,94074
2,123974,125574
//Storyboard Layer 0 (Background)
//Storyboard Layer 1 (Fail)
//Storyboard Layer 2 (Pass)
//Storyboard Layer 3 (Foreground)
//Storyboard Sound Samples
//Background Colour Transformations
3,100,163,162,255

[TimingPoints]
288,285.714285714286,5,2,0,21,1,0
16859,-100,5,2,0,48,0,0
17288,-100,5,2,0,41,0,0
29288,-100,5,2,0,62,0,1
31002,-100,5,2,0,60,0,0
50145,-100,5,1,0,60,0,0
56288,-100,5,2,0,70,0,0
59288,263.157894736842,5,1,0,60,1,1
63893,-100,5,2,0,60,0,1
64156,-100,5,1,0,60,0,1
69156,-100,5,2,0,60,0,1
69814,-100,5,2,0,60,0,0
74555,-100,5,1,0,60,0,0
76524,250,4,2,0,60,1,0
83399,-100,4,1,0,60,0,0
84399,-100,4,2,0,60,0,0
92524,-100,4,1,0,60,0,0
95274,-100,4,1,0,78,0,0
96774,-100,4,1,0,67,0,1
97024,-100,4,1,0,67,0,0
107274,-100,4,1,0,67,0,0
108774,-100,4,1,0,67,0,1
109024,-100,4,1,0,67,0,0
122274,-100,4,2,0,60,0,0
123774,285.714285714286,3,2,0,60,1,0
126774,-100,3,1,0,39,0,1
130631,-100,3,1,0,50,0,1
131060,-100,3,1,0,65,0,0
131345,-100,3,1,0,60,0,0
131774,-100,3,1,0,54,0,0
132202,-100,3,1,0,50,0,0
132774,-100,3,2,0,83,0,1
135345,-100,3,1,0,54,0,0
137202,-100,3,2,0,60,0,0

[HitObjects]
80,96,1716,2,0,B|400:96,1,320
440,168,3145,2,0,B|120:168,1,320
80,240,4573,2,0,B|400:240,1,320
432,312,6002,5,2
312,312,6430,1,0
192,312,6859,1,0
72,312,7288,1,0
24,200,7716,1,4
24,200,8002,6,0,B|144:96|336:120,1,320
344,196,9430,2,0,B|164:173|44:277,1,320
64,356,10859,2,0,B|184:252|376:276,1,320
444,284,12288,2,0,B|464:160,4,120,2|0|0|0|4
256,192,14288,12,4,16859
256,240,17288,6,0,B|136:240,2,120
336,240,18430,1,2
416,240,18716,2,0,B|416:112,2,120
416,320,19859,1,2
336,320,20145,6,0,B|96:320,1,240
16,320,21287,1,2
56,248,21573,6,0,B|32:192|48:120,1,120,2|2
144,56,22430,2,0,B|168:112|152:184,1,120,2|2
264,120,23287,6,0,B|392:120,2,120
208,176,24430,1,2
128,176,24716,2,0,B|128:296,2,120
48,160,25859,1,2
8,88,26145,6,0,B|96:64|232:120|328:80,1,320,0|2
400,56,27573,2,0,B|448:96|440:168,1,120,2|2
392,272,28430,2,0,B|344:232|352:160,1,120,2|2
296,272,29287,5,4
176,304,29716,1,4
104,208,30145,1,4
180,116,30573,1,4
296,148,31002,1,2
416,64,44716,6,0,B|416:224,1,160,4|0
344,256,45573,2,0,B|344:96,1,160,2|0
272,128,46430,2,0,B|272:288,1,160,2|0
200,320,47288,2,0,B|200:144,1,160,2|0
128,120,48145,6,2,B|72:200|168:272|112:352,2,240,2|2|4
232,56,50288,6,0,B|312:32|392:56,1,160,4|0
472,72,51145,2,0,B|464:232,1,160,0|4
336,328,52288,2,0,B|224:288|96:312,1,240,0|4
64,152,53716,2,0,B|176:192|304:168,1,240,0|4
416,144,55002,1,0
440,264,55430,1,0
320,288,55859,1,0
300,168,56288,1,4
256,192,56430,12,4,59288
104,112,60077,6,0,B|56:184|64:272,1,160
408,272,61393,2,0,B|456:200|448:112,1,160
256,264,62709,6,0,B|272:224|256:184|240:144|256:96,1,160
336,328,64024,1,12
176,328,64551,1,0
408,264,65340,6,0,B|248:264,1,160
32,168,66656,2,0,B|200:168,1,160
424,96,67972,2,0,B|264:96,1,160
24,96,69288,1,12
184,96,69814,1,2
112,288,76524,6,0,B|192:312|272:296,1,160,2|2
400,224,77524,2,0,B|320:200|240:216,1,160,2|2
88,176,78524,1,2
184,48,79024,1,2
272,176,79524,1,2
368,48,80024,1,2
464,176,80524,6,0,B|464:272|376:304,1,160,2|2
240,224,81524,2,0,B|158:253|158:349,1,160,2|2
88,200,82524,1,2
120,40,83024,1,2
240,144,83524,1,0
240,144,83857,1,0
240,144,84190,1,0
152,64,84524,6,2,B|480:64,2,320
56,192,87024,2,0,B|48:280|96:344,1,160,0|2
208,224,88024,1,2
344,304,88524,2,2,B|416:272|456:200|480:128|440:24,2,320
184,320,91024,1,2
32,280,91524,1,2
32,280,91867,1,2
32,280,92211,1,2
16,160,92524,5,4
256,192,95274,12,4,96774
440,72,97274,5,0
440,72,97524,1,8
392,224,98024,1,8
392,224,98274,2,0,B|320:264|224:264,1,160
160,260,99024,2,0,B|40:252,2,120,8|8|0
312,320,100274,5,0
312,320,100524,1,8
456,256,101024,1,8
456,256,101274,2,0,B|472:128,1,120
384,48,102024,2,0,B|368:176,2,120,8|8|4
224,56,103274,5,0
224,56,103524,2,0,B|80:64|64:208,1,240,8|0
224,200,104774,1,0
224,200,105024,2,0,B|344:224,2,120,8|8|0
128,328,106274,5,0
128,328,106524,1,8
288,344,107024,1,8
288,344,107274,5,0
360,248,107649,1,0
432,152,108024,1,0
504,56,108399,1,0
384,32,108774,6,0,B|264:8|144:32,1,240,4|8
56,168,110024,1,8
128,208,110274,6,0,B|152:240|160:280,2,79.9999999999999
208,192,111024,2,0,B|184:160|176:120,2,79.9999999999999,8|0|0
288,216,111774,6,0,B|376:160|472:248|408:336,2,240,0|8|0
208,240,113524,2,0,B|120:288|64:224|72:184,1,160,0|8
16,144,114274,2,0,B|104:96|160:160|152:200,1,160,0|4
368,80,115524,5,8
416,312,116274,2,0,B|336:336,1,79.9999999999999
264,304,116774,2,0,B|184:328,1,79.9999999999999,0|8
112,296,117274,2,0,B|32:320,1,79.9999999999999
16,240,117774,6,0,B|120:160|64:16,1,240,0|8
0,72,118774,2,0,B|72:112|168:96,1,160,0|4
272,56,119649,5,0
392,80,120024,1,0
464,176,120399,1,0
440,296,120774,5,4
320,296,121149,1,4
200,296,121524,1,4
80,296,121899,1,4
256,192,122274,12,2,123774
432,96,126774,6,0,B|112:96,1,320,4|0
72,168,128202,2,0,B|392:168,1,320,4|0
432,240,129631,2,0,B|112:240,1,320,4|0
80,312,131059,5,4
200,312,131488,1,0
320,312,131916,1,0
440,312,132345,1,0
488,200,132773,5,4
392,128,133202,1,4
296,200,133631,1,4
200,128,134059,1,4
104,200,134488,1,4
8,128,134916,1,4
256,192,135345,12,2,137202
