osu file format v9

[General]
AudioFilename: [BMS]Jack-the-Ripper sasakure.UK sta.mp3
AudioLeadIn: 0
PreviewTime: 31003
Countdown: 0
SampleSet: Soft
StackLeniency: 0.7
Mode: 0
LetterboxInBreaks: 1

[Editor]
DistanceSpacing: 1
BeatDivisor: 4
GridSize: 8

[Metadata]
Title:Jack-the-Ripper
Artist:sasakure.UK
Creator:Sprosive
Version:JackHasCome!
Source:BMS
Tags:BOF2009 THE BMS OF FIGHTERS Black Jacks tsuka

[Difficulty]
HPDrainRate:4
CircleSize:5
OverallDifficulty:8
ApproachRate:9
SliderMultiplier:2
SliderTickRate:0.5

[Events]
//Background and Video events
Video,1145,"master.flv"
0,0,"stage.jpg"
//Break Periods
2,92724,94674
//Storyboard Layer 0 (Background)
//Storyboard Layer 1 (Fail)
//Storyboard Layer 2 (Pass)
//Storyboard Layer 3 (Foreground)
//Storyboard Sound Samples
//Background Colour Transformations
3,100,163,162,255

[TimingPoints]
288,285.714285714286,5,2,1,21,1,0
14288,-200,5,2,0,28,0,0
16859,-100,5,2,0,48,0,0
17288,-100,5,2,1,41,0,0
23288,-100,5,2,0,41,0,0
29288,-100,5,2,0,62,0,1
29359,-150.15015015015,5,2,0,62,0,1
31002,-100,5,2,0,60,0,0
36216,-200,5,2,0,35,0,0
37502,-100,5,2,0,45,0,0
37788,-100,5,2,0,60,0,0
43073,-200,5,2,0,45,0,0
44359,-100,5,2,0,52,0,0
44645,-100,5,2,0,56,0,0
49859,-100,5,2,0,60,0,0
50288,-100,5,1,0,60,0,0
54573,-200,5,1,0,60,0,0
56288,-100,5,2,0,70,0,1
59252,-100,5,2,0,70,0,0
59288,263.157894736842,5,1,0,60,1,1
63893,-100,5,2,0,82,0,1
64485,-100,5,1,0,60,0,1
69156,-100,5,2,0,82,0,1
69814,-100,5,2,0,60,0,0
74551,-100,5,1,0,60,0,0
76524,250,4,2,0,60,1,0
83399,-100,4,1,0,60,0,0
84399,-100,4,2,0,60,0,0
92524,-100,4,1,0,60,0,0
95274,-100,4,1,0,78,0,0
96774,-100,4,1,0,67,0,1
107274,-100,4,1,0,67,0,0
108774,-100,4,1,0,67,0,1
122242,-200,4,2,0,60,0,0
122336,-100,4,2,0,0,0,0
123774,285.714285714286,3,2,0,60,1,0
126774,-100,3,1,0,39,0,1
126845,-100,3,2,1,60,0,0
128202,-100,3,1,1,39,0,0
128274,-100,3,2,1,60,0,0
129631,-100,3,1,1,39,0,0
129702,-100,3,2,1,60,0,0
131060,-100,3,1,0,60,0,0
131345,-100,3,2,0,60,0,0
131488,-100,3,1,0,50,0,0
131774,-100,3,2,0,58,0,0
131917,-100,3,1,0,45,0,0
132202,-100,3,2,0,55,0,0
132345,-100,3,1,0,38,0,0
132631,-100,3,2,0,51,0,0
132774,-100,3,2,0,76,0,1
132845,-150.15015015015,3,2,0,76,0,1
135345,-100,3,1,0,54,0,0
136131,-100,3,1,0,49,0,0
137202,250,4,2,0,60,1,0
138202,-100,4,2,0,51,0,0
138702,-100,4,2,0,42,0,0
139202,-100,4,2,0,35,0,0
139702,-100,4,2,0,27,0,0
140202,-100,4,2,0,17,0,0
140702,-100,4,2,0,7,0,0
141202,-100,4,2,0,0,0,0

[HitObjects]
72,96,1716,6,0,B|168:120,1,100
136,56,2002,2,0,B|112:152,1,100
96,224,2288,2,0,B|192:248,1,100
136,288,2573,2,0,B|160:192,1,100
232,176,2859,1,0
304,192,3002,1,0
376,208,3145,6,0,B|440:128,1,100
448,192,3430,2,0,B|376:112,1,100
336,64,3716,2,0,B|232:72,1,100
272,24,4002,2,0,B|200:104,1,100
136,120,4288,1,0
64,104,4430,1,0
32,168,4573,6,0,B|40:272,1,100
72,208,4859,2,0,B|151:275,1,100,0|0
128,208,5145,2,0,B|232:200,1,100,0|0
168,168,5430,2,0,B|235:88,1,100,0|0
296,56,5716,1,0
368,72,5859,1,0
440,56,6002,6,0,B|472:152,2,100,0|0|0
392,144,6430,2,0,B|389:245,2,100,0|0|0
312,208,6859,2,0,B|291:307,2,100,0|0|0
224,248,7288,2,0,B|178:338,2,100,0|0|0
120,256,7716,1,2
56,120,7859,1,2
112,176,8002,6,0,B|208:144,1,100
168,112,8288,2,0,B|264:80,1,100
224,48,8573,2,0,B|320:80,1,100
280,112,8859,2,0,B|376:144,1,100
440,168,9145,1,0
464,232,9288,1,0
424,288,9430,6,0,B|328:264,1,100
288,328,9716,2,0,B|192:304,1,100
120,312,10002,2,0,B|152:216,1,100
88,184,10287,2,0,B|120:88,1,100
172,44,10573,1,0
236,76,10716,1,0
304,56,10859,6,0,B|408:72,1,100
424,136,11145,2,0,B|320:120,1,100
288,176,11430,2,0,B|392:192,1,100
408,256,11716,2,0,B|304:240,1,100
240,264,12002,1,0
176,288,12145,1,0
112,272,12287,6,0,B|24:216,2,100
128,200,12716,2,0,B|57:123,2,100,0|0|0
184,160,13145,2,0,B|135:67,2,100,0|0|0
248,136,13573,2,0,B|225:34,2,100,0|0|0
320,128,14002,1,2
464,96,14145,1,2
416,208,14288,6,0,B|349:292|232:272,1,200,4|0
126,364,15145,2,0,B|85:264|161:172,1,200,4|0
134,38,16002,2,0,B|240:53|281:164,1,200,4|2
392,72,16859,5,4
392,72,17145,1,4
448,152,17287,6,0,B|400:168|344:160,1,100,0|0
280,152,17573,2,0,B|288:208|272:256,1,100
248,320,17859,2,0,B|192:304|144:312,1,100
80,320,18145,2,0,B|96:272|88:216,1,100
72,152,18430,1,2
40,88,18573,1,0
96,48,18716,6,0,B|200:40,1,100
232,104,19002,2,0,B|128:112,1,100
300,100,19287,2,0,B|308:212,1,100
376,216,19573,2,0,B|368:112,1,100
448,232,19859,1,2
480,296,20002,1,0
424,344,20145,6,0,B|368:352|312:344,1,100
360,284,20430,2,0,B|296:276|248:284,1,100
192,296,20716,2,0,B|200:248|192:192,1,100
132,232,21002,2,0,B|124:184|132:128,1,100
152,64,21287,1,2
216,32,21430,1,0
288,48,21573,5,2
360,88,21716,1,0
432,128,21859,1,0
496,88,22002,5,2
432,128,22145,1,0
368,168,22288,1,0
296,136,22430,5,2
368,168,22573,1,0
440,200,22716,1,0
512,168,22859,5,2
440,200,23002,1,0
368,232,23145,1,0
296,264,23288,6,0,B|208:312|96:296,3,200,0|0|0|2
32,248,24288,1,0
48,168,24430,1,2
112,120,24573,1,0
192,144,24716,6,0,B|312:144|384:72,3,200,0|0|0|2
456,64,25716,1,0
504,128,25859,1,2
480,200,26002,1,0
408,240,26145,6,0,B|368:288|272:240|216:288,3,200,0|0|0|2
152,320,27145,1,0
72,328,27288,1,2
8,280,27430,1,0
16,200,27573,6,0,B|112:168,1,100,2|0
184,144,27859,1,0
120,96,28002,2,0,B|216:64,1,100,2|0
288,40,28288,1,0
352,88,28430,6,0,B|256:120,1,100,2|0
184,144,28716,1,0
256,192,28859,2,0,B|160:224,1,100,2|0
88,248,29145,1,0
56,312,29288,5,4
88,128,29430,2,0,B|116:204,1,66.6666666666667,2|0
144,272,29716,5,4
176,88,29859,2,0,B|204:164,1,66.6666666666667,2|0
232,232,30145,5,4
264,48,30288,2,0,B|292:124,1,66.6666666666667,2|0
320,192,30573,5,4
352,8,30716,2,0,B|380:84,1,66.6666666666667,2|0
408,152,31002,6,0,B|440:272|312:304,2,200,2|0|2
320,192,31716,1,0
232,232,31859,2,0,B|112:264|80:136,2,200,2|0|2
192,144,32573,1,0
152,52,32716,2,0,B|360:52,1,200,2|0
352,52,33288,1,2
400,312,33573,2,0,B|464:232,1,100,2|0
448,104,33859,2,0,B|384:184,1,100,0|0
385,182,34145,1,2
224,304,34430,6,0,B|128:248|32:296,2,200,2|0|2
216,208,35145,1,0
296,144,35288,2,0,B|392:88|488:136,2,200,2|0|2
288,40,36002,1,0
184,48,36145,1,2
192,152,36288,6,0,B|160:144,2,25,0|0|2
168,216,36573,1,0
216,264,36716,2,0,B|264:280,1,50,2|0
272,216,37002,2,0,B|320:232,1,50,0|2
328,168,37288,2,0,B|376:184,1,50
440,208,37573,1,2
456,288,37716,1,0
376,320,37859,6,0,B|160:320,1,200,2|0
96,320,38430,1,2
72,224,38573,1,0
160,168,38716,2,0,B|368:168,2,200,2|0|2
328,88,39573,6,0,B|420:63|420:63|405:67|405:67|432:168|446:221|446:221|445:247|395:277|350:264|328:212,1,400,2|2
104,224,40430,6,0,B|88:328,1,100,2|0
168,208,40716,2,0,B|206:306,1,100,0|0
216,160,41002,2,0,B|296:227,1,100,2|0
232,96,41288,5,2
328,56,41430,1,0
400,128,41573,1,0
400,128,41859,1,2
280,288,42145,5,2
184,328,42288,1,0
112,256,42430,1,2
112,256,42716,1,2
40,184,43002,5,2
104,156,43145,2,0,B|136:136,2,25,0|0|2
160,204,43430,1,0
224,176,43573,2,0,B|280:184,1,50,2|2
312,128,43859,2,0,B|256:120,1,50,0|2
248,240,44145,2,0,B|304:248,1,50,0|0
396,204,44430,1,2
324,192,44573,1,0
456,152,44716,5,4
392,104,45002,1,0
328,56,45288,1,0
392,104,45573,5,2
320,144,45859,1,0
248,184,46145,1,0
320,144,46430,5,2
352,216,46716,1,0
384,288,47002,1,0
352,216,47288,5,2
288,264,47573,1,0
224,312,47859,1,0
160,360,48145,6,0,B|48:320|48:192,1,200,2|0
40,112,48573,2,0,B|152:152|152:280,1,200,0|0
240,224,49002,2,0,B|336:184,1,100,2|0
240,144,49288,2,0,B|336:104,1,100
424,64,49573,1,0
424,64,49716,1,0
480,184,49859,5,4
480,184,50145,1,4
456,280,50288,5,4
360,296,51716,1,4
264,312,53145,1,4
184,328,54288,1,0
184,328,54573,6,0,B|80:328,1,100,4|0
152,256,55002,2,0,B|40:256,1,100
120,184,55430,2,0,B|232:184,1,100
96,112,55859,2,0,B|208:112,1,100
296,112,56288,5,4
332,64,56430,1,2
288,108,56716,5,4
368,124,56859,1,2
280,104,57145,5,4
340,184,57288,1,2
272,100,57573,5,4
284,228,57716,1,2
264,96,58002,5,4
188,224,58145,1,2
256,92,58430,5,4
108,176,58573,1,2
248,88,58859,5,4
68,100,59002,1,2
352,64,59288,6,2,B|404:80|456:64,1,100,4|0
376,140,59551,2,2,B|425:155|475:135,1,100,2|0
474,136,59814,1,2
488,224,60077,1,2
424,288,60340,1,2
336,288,60603,2,2,B|208:328|92:288|144:144|260:176|340:204,1,400
112,328,61393,6,2,B|96:216,1,100,2|0
16,280,61656,2,2,B|48:176,1,100,0|0
80,88,61919,2,2,B|176:120|288:80,1,200
376,56,62314,1,0
472,88,62445,1,2
472,88,62709,2,2,B|480:192,1,100,2|0
488,288,62972,1,2
488,288,63235,6,2,B|352:368|272:224|88:296,1,400
168,104,64024,1,8
24,128,64156,1,4
168,104,64288,1,8
184,200,64419,1,8
264,140,64551,6,2,B|384:176|448:84,1,200
488,176,64945,1,0
464,272,65077,1,2
464,272,65340,2,2,B|360:248,1,100,2|0
296,320,65603,1,2
296,320,65866,2,2,B|184:336|80:304|48:184|104:72,1,400
101,78,66656,6,2,B|208:48,1,100,2|0
224,152,66919,2,2,B|320:184,1,100,2|0
352,88,67182,1,2
448,72,67314,1,0
488,160,67445,1,2
488,160,67709,1,2
384,328,67972,6,2,B|296:272,1,100,2|0
208,312,68235,2,2,B|120:256,1,100,2|0
40,200,68498,1,2
64,104,68630,1,0
160,112,68761,1,0
160,112,69024,1,2
360,80,69288,5,8
264,96,69419,1,4
360,80,69551,1,8
480,152,69682,1,8
432,272,69814,5,4
384,320,69945,1,0
320,296,70077,1,0
320,296,70340,1,2
296,232,70603,5,4
320,296,70735,1,0
272,344,70866,1,2
272,344,71129,1,0
120,336,71392,5,4
40,216,71656,1,2
112,208,71787,1,0
144,144,71919,1,0
80,112,72182,5,4
144,144,72314,1,0
208,176,72445,1,2
208,176,72708,1,0
328,104,72971,6,0,B|360:136|424:136,1,100,4|0
488,120,73235,2,0,B|496:224,1,100,2|0
504,288,73498,1,0
368,328,73761,6,0,B|264:296,1,100,4|0
208,280,74024,2,0,B|160:312|104:288,1,100,2|0
48,272,74287,2,0,B|24:216|64:168,1,100
120,152,74551,5,0
120,152,74814,1,0
120,152,75044,1,0
120,152,75274,1,0
120,152,75504,1,0
120,152,75702,1,0
120,152,75932,1,0
120,152,76129,1,0
120,152,76327,1,0
120,152,76524,6,0,B|320:152,1,200,4|0
432,232,77024,2,0,B|232:232,1,200,2|0
232,96,77524,2,0,B|232:304,1,200,2|0
352,360,78024,2,0,B|352:160,1,200,2|0
232,96,78524,5,2
136,64,78774,1,0
232,96,79024,1,2
152,160,79274,1,0
232,96,79524,2,0,B|424:104|392:296,2,300,2|0|0
256,192,80524,6,0,B|256:240|208:288|144:288|104:248,1,200,2|0
256,192,81024,2,0,B|256:144|304:96|368:96|408:136,1,200,2|0
256,192,81524,2,0,B|208:192|160:144|160:80|200:40,1,200,2|0
256,192,82024,2,0,B|304:192|352:240|352:304|312:344,1,200,2|0
392,272,82524,2,0,B|80:272,1,300,2|0
92,272,83149,1,0
32,128,83524,5,0
256,160,83857,1,0
480,128,84190,1,0
384,224,84524,5,2
384,224,84774,1,0
384,224,85024,1,2
384,224,85274,1,0
304,288,85524,5,2
304,288,85774,1,0
304,288,86024,1,2
304,288,86274,1,0
176,192,86524,5,2
176,192,86774,1,0
176,192,87024,1,2
176,192,87274,1,0
296,88,87524,5,2
296,88,87774,1,0
296,88,88024,1,2
296,88,88274,1,0
96,64,88524,6,0,B|152:72|208:48,2,100,2|0|0
48,112,89024,2,0,B|88:208|56:312,1,200,2|0
248,256,89524,6,0,B|240:312|288:352,2,100,2|0|0
256,192,90024,2,0,B|384:208|424:96,1,200,2|0
224,64,90524,6,0,B|168:152,1,100,2|0
72,176,90774,2,0,B|128:88,1,100
136,208,91024,1,2
136,208,91274,1,0
96,296,91524,5,2
264,296,91867,1,2
424,296,92211,1,2
424,296,92524,5,4
48,72,95274,5,0
110,43,95399,1,0
117,112,95524,1,0
179,83,95649,1,0
186,152,95774,1,0
249,123,95899,1,0
255,192,96024,1,0
318,163,96149,1,0
325,232,96274,1,0
387,203,96399,1,0
394,272,96524,1,0
457,243,96649,1,0
463,312,96774,2,0,B|424:352|352:344,1,100,4|0
272,344,97024,5,0
208,272,97149,1,0
120,312,97274,2,0,B|64:288|64:232,1,100
80,136,97524,2,0,B|136:160|136:216,1,100,8|0
192,128,97774,2,0,B|288:80,1,100
368,128,98024,2,0,B|272:176,1,100,0|8
192,128,98274,6,0,B|168:176|176:232|224:272|280:264,1,200
376,264,98649,1,0
376,264,98711,1,0
376,264,98774,2,0,B|376:160,1,100
448,232,99024,2,0,B|448:336,1,100,8|0
368,152,99274,2,0,B|368:48,1,100,0|8
456,120,99524,2,0,B|456:224,1,100,0|0
296,120,99774,6,0,B|248:128|192:120,2,100
232,200,100149,1,0
136,224,100274,2,0,B|88:216|32:224,2,100,0|0|8
72,304,100649,1,0
168,344,100774,1,0
256,304,100899,1,0
256,304,100961,1,0
256,304,101024,2,8,B|360:352,1,100,8|0
440,304,101274,1,0
464,112,101524,5,0
368,64,101649,1,0
320,160,101774,1,0
416,208,101899,1,0
392,136,102024,1,8
348,224,102149,1,0
256,180,102274,1,0
296,88,102399,1,8
200,108,102524,2,0,B|108:72,1,100
40,152,102774,6,0,B|56:200|40:256,1,100
120,312,103024,2,0,B|104:264|120:208,1,100
192,288,103274,2,0,B|296:288,1,100
384,336,103524,1,8
480,312,103649,1,0
488,216,103774,2,0,B|392:240,1,100
336,160,104024,1,0
432,136,104149,1,8
360,64,104274,6,0,B|152:64,1,200
64,96,104649,1,0
64,96,104711,1,0
64,96,104774,2,0,B|40:152|96:176,1,100
24,240,105024,2,0,B|84:247|77:307,1,100,8|0
160,248,105274,1,0
256,272,105399,1,8
320,192,105524,1,0
416,216,105649,1,0
472,136,105774,6,0,B|472:32,1,100
376,48,106024,2,0,B|376:152,1,100
280,136,106274,2,0,B|280:32,1,100
184,48,106524,1,8
184,144,106649,1,0
96,184,106774,1,0
184,232,106899,2,0,B|240:232,2,50,0|0|8
96,280,107149,1,0
184,328,107274,5,0
392,264,107649,5,0
328,56,108024,5,0
120,120,108399,5,0
184,328,108774,6,0,B|80:336,1,100,4|0
152,264,109024,2,0,B|256:256,1,100,0|0
352,248,109274,1,0
440,288,109399,1,0
496,208,109524,2,0,B|512:152|504:96,1,100,8|0
440,32,109774,2,0,B|424:88|432:144,1,100,0|0
352,64,110024,1,0
264,104,110149,1,8
184,40,110274,2,0,B|64:72|72:192,1,200
88,280,110649,2,0,B|40:288,2,50
168,216,110899,1,0
216,304,111024,6,0,B|312:264,1,100,8|0
396,312,111274,2,0,B|304:264,1,100,0|8
320,168,111524,2,8,B|308:268,1,100,0|0
416,112,111774,5,0
352,32,111899,1,0
256,64,112024,2,0,B|144:72,1,100
56,80,112274,1,0
56,80,112399,1,0
40,176,112524,2,0,B|64:272,2,100,8|0|0
136,168,112899,1,0
136,168,112961,1,0
136,168,113024,2,0,B|224:224,1,100,8|0
304,272,113274,1,0
464,328,113524,5,0
384,272,113649,1,0
456,216,113774,1,0
376,160,113899,1,0
472,104,114024,1,8
392,40,114149,1,0
304,88,114274,1,0
224,16,114399,1,8
160,96,114524,2,0,B|56:96,2,100,0|0|4
72,168,114899,5,0
120,256,115024,2,0,B|112:304|120:360,1,100
192,288,115274,2,0,B|184:240|192:184,1,100,0|0
264,256,115524,5,8
272,352,115649,1,0
344,288,115774,1,0
352,192,115899,1,0
416,256,116024,5,0
488,184,116149,1,8
440,96,116274,2,0,B|404:48|348:84|348:84|308:40|260:64,1,200
152,64,116649,6,0,B|192:96,2,50
56,40,116899,1,0
16,128,117024,2,0,B|16:232,1,100,8|0
96,288,117274,2,0,B|96:184,1,100,0|8
184,240,117524,1,0
184,240,117649,1,0
248,312,117774,6,0,B|288:336|384:288|456:320,1,200
400,224,118149,1,0
464,152,118274,2,0,B|368:96,1,100
296,48,118524,1,8
96,48,118774,1,0
172,116,118899,2,0,B|220:92,2,50,0|0|8
80,160,119149,1,0
80,256,119274,5,4
320,368,119649,5,4
432,128,120024,5,4
192,16,120399,5,4
80,256,120774,5,4
176,288,120899,1,0
272,320,121024,1,0
240,224,121149,5,4
336,256,121274,1,0
432,288,121399,1,0
416,192,121524,5,4
320,160,121649,1,0
224,128,121774,1,0
128,96,121899,1,4
80,256,122149,5,0
80,256,122273,2,2,B|64:192|40:96|40:96|96:84|152:72|152:72|184:108|168:152|168:152|132:160|96:168|96:168|160:212|248:268,1,600,2|4
320,312,124344,5,0
320,312,124630,1,2
408,288,125201,1,0
408,288,125487,1,2
440,200,126058,1,0
416,104,126344,5,4
416,104,126631,1,4
304,96,126773,6,0,B|296:200,3,100,4|0|0|0
224,232,127344,2,0,B|232:128,3,100
160,168,127915,1,2
88,128,128058,1,2
32,184,128201,6,0,B|16:288,3,100,4|0|0|0
80,328,128773,2,0,B|96:224,3,100
152,288,129344,1,2
224,328,129487,1,2
288,280,129630,6,0,B|384:304,3,100,4|0|0|0
424,232,130201,2,0,B|320:208,3,100
248,192,130773,1,2
296,128,130915,1,2
272,56,131059,1,4
112,88,131344,5,0
112,88,131487,1,0
48,240,131773,1,0
48,240,131916,1,0
208,216,132201,5,0
208,216,132344,1,0
64,144,132630,1,0
64,144,132773,5,4
112,328,132916,2,0,B|91:251,1,66.6666666666667,2|0
134,158,133201,5,4
184,344,133344,2,0,B|163:267,1,66.6666666666667,2|0
204,172,133630,5,4
252,356,133773,2,0,B|231:279,1,66.6666666666667,2|0
307,310,134059,5,4
256,124,134201,2,0,B|277:201,1,66.6666666666667,2|0
360,263,134487,5,4
312,76,134630,2,0,B|333:153,1,66.6666666666667,2|0
414,215,134916,5,4
364,28,135059,2,0,B|385:105,1,66.6666666666667,2|0
312,76,135344,5,4
184,85,135487,1,0
128,200,135630,1,0
199,307,135773,1,0
327,298,135916,1,0
383,183,136059,1,0
324,144,136201,5,0
331,226,136344,1,0
263,274,136487,1,0
188,240,136630,1,0
180,157,136773,1,0
248,109,136916,1,0
256,192,137059,1,0
256,192,137202,5,2
256,192,137233,12,0,141202
