osu file format v9

[General]
AudioFilename: [BMS]Jack-the-Ripper sasakure.UK sta.mp3
AudioLeadIn: 0
PreviewTime: 31003
Countdown: 0
SampleSet: Soft
StackLeniency: 0.7
Mode: 0
LetterboxInBreaks: 1

[Editor]
Bookmarks: 8002,14288,17288,23288,29288,31002,44716,50288,56288,59288,69814,74551,76524,92524,95274,96774,122274,123774,126774,132774,135345
DistanceSpacing: 1.2
BeatDivisor: 4
GridSize: 8

[Metadata]
Title:Jack-the-Ripper
Artist:sasakure.UK
Creator:Sprosive
Version:Hyper
Source:BMS
Tags:BOF2009 THE BMS OF FIGHTERS Black Jacks tsuka

[Difficulty]
HPDrainRate:4
CircleSize:4
OverallDifficulty:6
ApproachRate:7
SliderMultiplier:1.4
SliderTickRate:0.5

[Events]
//Background and Video events
Video,1145,"master.flv"
0,0,"stage.jpg"
//Break Periods
2,50488,55388
2,76724,82624
2,84724,90624
//Storyboard Layer 0 (Background)
//Storyboard Layer 1 (Fail)
//Storyboard Layer 2 (Pass)
//Storyboard Layer 3 (Foreground)
//Storyboard Sound Samples
//Background Colour Transformations
3,100,163,162,255

[TimingPoints]
288,285.714285714286,5,2,0,21,1,0
1145,-200,5,2,0,21,0,0
7716,-100,5,2,0,40,0,0
8002,-200,5,2,0,25,0,0
14002,-100,5,2,0,40,0,0
14288,-200,5,2,0,28,0,0
16859,-100,5,2,0,48,0,0
17288,-100,5,2,0,41,0,0
28859,-133.333333333333,5,2,0,30,0,0
29288,-100,5,2,0,62,0,1
29359,-100,5,2,0,62,0,1
31002,-100,5,2,0,60,0,0
31288,-133.333333333333,5,2,0,60,0,0
44716,-200,5,2,0,50,0,0
44859,-200,5,1,0,30,0,0
45573,-200,5,2,0,40,0,0
45859,-200,5,1,0,30,0,0
46430,-200,5,2,0,40,0,0
46716,-200,5,1,0,30,0,0
47288,-200,5,2,0,40,0,0
47573,-200,5,1,0,30,0,0
48002,-200,5,1,0,21,0,0
48145,-200,5,2,0,40,0,0
48430,-200,5,1,0,30,0,0
49002,-200,5,2,0,40,0,0
49288,-200,5,1,0,30,0,0
49573,-200,5,1,0,35,0,0
49859,-100,5,2,0,60,0,0
50288,-100,5,1,0,60,0,0
56288,-100,5,2,0,70,0,1
59252,-100,5,2,0,70,0,0
59288,263.157894736842,5,1,0,60,1,1
63893,-100,5,2,0,82,0,1
64485,-100,5,1,0,60,0,1
68893,-100,5,2,0,44,0,1
69024,-100,5,1,0,60,0,1
69288,-100,5,2,0,82,0,1
69814,-133.333333333333,5,2,0,60,0,0
69814,-200,5,2,0,60,0,0
72972,-200,5,1,0,60,0,0
73235,-200,5,1,0,45,0,0
73761,-200,5,1,0,60,0,0
74024,-200,5,1,0,45,0,0
74551,-133.333333333333,5,1,0,45,0,0
74551,-100,5,1,0,60,0,0
76524,250,4,1,0,60,1,0
92555,-100,4,1,1,0,0,0
92867,-100,4,1,0,60,0,0
93086,-133.333333333333,4,1,0,60,0,0
93242,-100,4,1,1,0,0,0
93555,-133.333333333333,4,1,0,60,0,0
93836,-200,4,1,0,60,0,0
93992,-100,4,1,1,0,0,0
94461,-200,4,1,0,60,0,0
95274,-100,4,1,0,78,0,0
96774,-100,4,1,0,67,0,1
107274,-100,4,1,0,67,0,0
107524,-100,4,1,0,33,0,0
107586,-100,4,1,0,67,0,0
108774,-100,4,1,0,67,0,1
122242,-100,4,2,0,60,0,0
123774,285.714285714286,3,2,0,60,1,0
126774,-133.333333333333,3,1,0,39,0,1
126845,-133.333333333333,3,1,0,39,0,0
132774,-100,3,2,0,76,0,1
132845,-100,3,2,0,76,0,1
135345,-100,3,1,0,54,0,0
137202,-100,3,2,0,60,0,0

[HitObjects]
80,256,1216,2,2,B|208:248,1,122.5,2|0
272,240,2002,1,0
340,220,2288,1,0
404,192,2573,1,0
452,140,2859,1,2
312,152,3145,5,0
244,148,3430,1,0
176,128,3716,1,0
112,100,4001,1,0
64,48,4287,1,2
16,184,4573,6,0,B|224:152|136:340,1,280,0|2
240,312,6002,6,0,B|288:296|352:304,1,105,2|2
416,320,6716,1,0
416,320,6859,2,0,B|448:216|448:216,1,105,2|2
472,152,7573,1,0
472,152,7716,2,2,B|440:128|392:128,1,70,2|2
336,128,8002,5,0
264,136,8287,1,0
192,144,8574,1,0
120,152,8859,1,0
48,160,9145,1,2
48,160,9288,1,0
48,160,9430,5,0
32,232,9716,1,0
48,304,10002,1,0
104,352,10288,1,0
176,368,10573,1,2
176,368,10716,1,0
176,368,10859,5,0
248,360,11145,1,0
320,352,11430,1,0
392,344,11717,1,0
464,336,12002,1,2
464,336,12145,1,0
464,336,12288,6,0,B|477:228|477:228,1,105,2|2
489,160,13002,1,0
489,160,13145,2,0,B|440:136|384:152,1,105,2|2
320,176,13859,1,0
320,176,14002,2,2,B|248:152,1,70
184,128,14288,6,2,B|40:128,1,140,4|0
56,200,15145,2,2,B|200:208,1,140,4|0
208,280,16002,2,2,B|64:296,1,140,4|2
288,240,16859,5,4
288,240,17145,1,4
288,240,17288,6,0,B|376:232|416:296,2,140
152,248,18145,1,0
152,248,18288,2,0,B|64:256|24:192,1,140
24,128,18716,6,0,B|49:65|137:57,2,140
160,152,19573,1,0
228,140,19716,1,0
296,152,19859,1,0
352,196,20002,1,0
380,260,20145,6,0,B|456:272|456:272|504:232,2,140
368,120,21002,1,0
368,120,21145,2,0,B|416:79|416:79|492:91,1,140
432,192,21573,6,0,B|272:168,1,140
168,240,22145,2,0,B|328:264,1,140
512,184,22716,6,0,B|352:160,1,140
96,280,23288,2,0,B|256:304,2,140,2|0|0
216,216,24145,5,0
216,216,24288,2,0,B|56:192,1,140
24,248,24716,2,0,B|32:176|48:104,2,140,2|0|0
120,144,25573,5,0
188,152,25716,1,0
256,148,25859,1,0
320,124,26002,1,0
372,76,26145,2,0,B|456:64|456:64|496:112,2,140,2|0|0
312,200,27002,5,0
312,200,27145,2,0,B|347:242|347:242|431:230,1,140
464,296,27573,6,2,B|184:336,2,280,2|0|2
456,224,28859,2,2,B|440:176|440:116,1,104.999996870756,0|2
448,48,29288,6,0,B|368:40,2,70,4|2|0
352,112,29716,6,0,B|278:145,2,70,4|2|0
336,204,30145,6,0,B|289:269,2,70,4|2|0
344,320,30573,5,4
264,328,30716,1,2
184,336,30859,1,0
104,344,31002,1,2
48,200,31430,5,0
144,160,31716,1,0
136,208,31859,2,0,B|192:192|248:216,1,104.999996870756,2|0
336,256,32430,5,0
384,232,32573,1,0
440,232,32716,2,0,B|376:176|392:80,1,157.499995306134,2|0
288,56,33430,1,0
312,104,33573,2,0,B|256:96|208:128,1,104.999996870756,2|0
120,176,34145,5,0
120,176,34288,1,0
120,176,34430,1,2
104,280,34716,2,0,B|48:272,1,52.4999984353781
160,288,35145,2,0,B|216:296,1,52.4999984353781,0|2
312,272,35573,2,0,B|360:240|416:248,1,104.999996870756
464,264,36002,1,0
504,296,36145,6,0,B|464:224|488:144,1,157.499995306134,2|0
512,40,36859,1,0
512,40,37002,2,0,B|464:64|408:56,2,104.999996870756,2|0|0
272,48,37859,6,0,B|176:56|144:136,1,157.499995306134,2|0
120,232,38573,1,0
120,232,38716,2,0,B|176:248|184:312,1,104.999996870756,2|0
288,288,39288,5,0
336,280,39430,1,0
384,272,39573,2,0,B|432:200|400:112,1,157.499995306134,2|0
304,96,40288,1,0
304,96,40430,2,0,B|336:152|320:208,1,104.999996870756,2|0
216,192,41002,5,0
160,192,41145,1,0
112,216,41288,2,0,B|24:192|32:88,1,157.499995306134,2|0
88,16,42002,1,0
88,16,42145,2,0,B|136:56|128:112,1,104.999996870756,2|0
232,80,42716,5,0
232,80,42859,1,0
232,80,43002,2,0,B|344:64|344:64|384:80,1,157.499995306134,2|0
312,152,43716,1,0
312,152,43859,2,0,B|200:168,1,104.999996870756,2|0
104,184,44430,5,0
80,232,44573,1,0
56,280,44716,1,4
128,328,45002,6,0,B|168:336,1,35
200,312,45288,2,0,B|240:320,1,35
272,304,45573,2,0,B|352:320,1,70,2|0
416,280,46145,6,0,B|432:248,1,35
424,208,46430,2,0,B|456:144,1,70,2|0
416,72,47002,5,0
376,64,47145,1,0
336,56,47288,2,0,B|296:48|296:48|264:56,1,70,2|0
184,80,47859,5,0
144,92,48002,1,0
104,104,48145,2,0,B|120:144|112:188,1,70,2|0
108,212,48573,2,0,B|102:240|118:280,1,70,0|0
96,312,49002,5,2
200,328,49288,1,0
304,344,49573,1,0
408,360,49859,5,4
448,200,50145,1,4
468,120,50288,5,4
161,155,56288,5,4
225,94,56430,6,2,B|88:119,1,140,2|4
312,107,56859,6,2,B|207:16,1,140,2|4
357,183,57288,6,2,B|362:43,1,140,2|4
325,266,57716,6,2,B|438:184,1,140,2|4
241,292,58145,6,2,B|376:328,1,140,2|4
168,242,58573,6,2,B|222:371,1,140,2|4
161,155,59002,6,2,B|95:279,1,140,2|4
24,160,59551,6,0,B|16:128|40:88,1,70
112,64,59814,2,0,B|120:96|96:136,1,70
192,80,60077,2,0,B|344:80,1,140,4|0
424,200,60603,5,4
424,200,60866,2,0,B|384:200|352:216,1,70
288,248,61130,2,0,B|259:262|219:262,1,70
144,256,61393,2,0,B|56:248|8:312,1,140,4|0
104,176,61919,6,0,B|192:184|240:120,1,140,4|0
280,72,62314,2,0,B|352:104,1,70
192,64,62709,2,0,B|128:35,2,70,4|0|0
320,152,63235,5,4
400,160,63366,1,0
448,224,63498,1,0
320,304,63761,1,0
320,152,64024,5,4
248,120,64156,1,0
192,64,64288,2,2,B|120:80,1,70,2|2
48,96,64551,5,4
32,248,64814,1,0
160,336,65077,1,0
176,184,65340,2,0,B|208:200|232:224,2,70,4|0|0
296,272,65866,6,0,B|352:232|400:176,2,140,4|0|0
336,120,66656,2,0,B|304:96|272:88,1,70,4|0
200,64,66919,2,0,B|173:79|133:85,1,70
56,72,67182,6,0,B|80:144|32:208,1,140,4|0
144,320,67709,1,0
216,292,67840,1,0
292,300,67972,5,4
440,264,68235,1,0
456,112,68498,2,0,B|352:96|328:176|224:136,1,210,4|0
176,128,69024,2,0,B|112:168,1,70,4|0
40,184,69288,5,4
72,256,69419,1,0
64,336,69551,2,2,B|136:352,1,70,2|0
208,368,69814,5,2
280,360,70077,1,0
352,352,70340,1,0
432,360,70603,5,2
424,288,70866,1,0
416,216,71130,1,0
440,136,71393,5,2
368,144,71656,1,0
296,152,71919,1,0
208,128,72182,5,2
216,200,72445,1,0
224,272,72709,1,0
152,296,72972,5,0
72,264,73235,2,0,B|64:224,1,35
48,144,73630,2,0,B|40:104,1,35
24,24,74024,2,0,B|28:56,4,17.5
112,88,74551,5,0
138,181,74814,1,0
202,125,75044,1,0
226,207,75274,1,0
288,146,75505,1,0
308,216,75702,1,0
373,161,75932,1,0
393,231,76130,1,0
413,302,76327,1,0
413,302,76524,5,4
384,280,83524,5,0
320,104,83857,1,0
168,192,84190,1,0
168,192,84524,5,4
128,104,91524,5,0
192,280,91867,1,0
344,192,92211,1,0
472,328,92524,6,0,B|280:328,1,192.5,4|0
360,232,93211,2,0,B|208:232,1,144.37499569729
304,128,93961,2,0,B|160:128,1,140
128,40,94867,1,0
96,232,95274,6,0,B|88:152,2,70
168,224,95649,2,0,B|176:144,2,70
240,240,96024,2,0,B|264:160,2,70
296,288,96399,2,0,B|328:224,2,70
400,264,96774,6,0,B|360:136|480:80,1,210,4|0
432,56,97274,2,0,B|296:32,1,140,0|8
200,16,97774,1,0
128,32,97899,1,0
56,48,98024,1,8
32,184,98274,6,0,B|104:208|168:160,1,140,4|0
224,128,98649,2,0,B|288:96|360:120,1,140
424,152,99024,2,0,B|440:224,1,70,12|0
464,288,99274,1,0
464,288,99399,1,0
464,288,99524,2,0,B|400:328,1,70,8|4
344,360,99774,5,4
208,352,100024,2,0,B|192:272|96:272,1,140
36,284,100399,1,0
4,220,100524,1,8
64,96,100774,2,0,B|80:136,4,35,0|0|0|0|8
200,104,101274,6,0,B|272:80|344:88,1,140,4|0
408,104,101649,2,0,B|440:40,2,70
416,176,102024,2,0,B|344:200|304:272,1,140,12|0
264,320,102399,1,8
192,336,102524,2,0,B|112:336,1,70,0|4
48,336,102774,5,4
48,336,102899,2,0,B|64:272|56:176,1,140
40,56,103399,1,0
40,56,103524,2,0,B|112:80,1,70,8|0
176,80,103774,2,0,B|248:56,1,70
312,80,104024,2,0,B|352:136,1,70,0|8
400,192,104274,5,4
400,192,104399,2,0,B|464:240|448:320,2,140
328,200,105024,2,0,B|264:240,1,70,12|0
200,248,105274,2,0,B|136:288,1,70,0|8
68,284,105524,1,0
36,220,105649,1,4
4,156,105774,1,4
136,120,106024,5,0
200,96,106149,1,0
264,72,106274,1,0
344,184,106524,2,0,B|364:212|408:216,1,70,12|0
472,216,106774,2,0,B|488:256,4,35,0|0|0|0|12
376,320,107274,6,0,B|312:360|232:344,1,140,12|0
208,336,107586,2,0,B|160:344,3,35,0|8|0|0
136,336,107836,2,0,B|96:328,3,35,0|0|0|12
104,256,108149,1,0
96,184,108274,1,0
80,112,108399,1,12
216,80,108649,5,0
216,80,108774,2,2,B|328:64|424:136,1,210,6|0
432,200,109274,2,8,B|496:232,1,70,8|0
464,296,109524,6,2,B|360:272|256:336,1,210,6|0
200,368,110024,2,0,B|144:312,1,70,2|0
104,264,110274,6,2,B|88:192|112:104,1,140,6|2
128,56,110649,2,0,B|56:32,1,70,0|2
240,104,111024,1,6
312,96,111149,1,0
384,88,111274,2,0,B|400:168|480:176,1,140,8|6
496,248,111649,2,0,B|504:296,2,35,0|0|2
368,304,112024,5,0
296,312,112149,1,0
224,320,112274,1,0
88,336,112524,6,2,B|104:272|32:224|48:120,1,210,6|0
64,64,113024,2,0,B|136:80,1,70,2|0
200,96,113274,6,2,B|264:64|344:80,2,140,6|2|0
304,192,114024,2,2,B|240:224|160:208,2,140,14|2|0
432,128,114774,6,2,B|480:232|464:336,1,210,6|0
392,320,115274,2,0,B|320:336,2,70,0|0|14
256,280,115774,1,0
120,312,116024,1,8
48,192,116274,5,2
152,104,116524,2,2,B|304:168|416:48,1,280,2|12
440,192,117274,1,8
456,264,117399,1,4
472,336,117524,1,6
336,320,117774,6,2,B|248:256|136:304,1,210,2|0
72,328,118274,2,0,B|32:272,1,70
24,200,118524,5,14
40,128,118649,1,0
96,88,118774,1,0
168,80,118899,2,0,B|208:80,2,35,0|0|8
288,128,119274,6,6,B|416:296,1,210,6|4
224,256,120024,2,6,B|96:88,1,210,6|4
128,288,120774,5,6
384,352,121149,1,6
384,96,121524,1,6
128,32,121899,1,6
80,192,122274,6,0,B|0:176,1,70,4|0
224,192,122649,2,0,B|144:208,1,70,2|0
368,192,123024,2,0,B|288:176,1,70,2|0
512,192,123399,2,0,B|432:208,1,70,2|0
256,192,123774,12,4,126774
296,128,127774,6,0,B|168:128,1,104.999996870756
120,128,128202,1,4
208,296,129059,6,0,B|264:280,1,52.4999984353781
328,296,129345,2,0,B|384:312,1,52.4999984353781
448,296,129631,1,4
112,96,130631,6,0,B|96:152|104:208,1,104.999996870756
112,272,131059,2,0,B|224:272|304:368,1,209.999993741512,4|0
432,200,132202,1,4
176,80,132774,6,0,B|96:96,2,70,4|2|0
224,152,133202,6,0,B|168:192,2,70,4|2|0
296,192,133631,6,0,B|264:264,2,70,4|2|0
384,192,134059,6,0,B|376:272,2,70,4|2|0
464,160,134488,6,0,B|488:240,2,70,4|2|0
488,80,134916,5,4
488,80,135059,1,2
488,80,135202,1,0
488,80,135345,1,4
256,192,135488,12,2,137202
