osu file format v14

[General]
AudioFilename: chronicles seven.mp3
AudioLeadIn: 0
PreviewTime: 61458
Countdown: 0
SampleSet: Normal
StackLeniency: 0.7
Mode: 1
LetterboxInBreaks: 0
WidescreenStoryboard: 0

[Editor]
DistanceSpacing: 0.9
BeatDivisor: 4
GridSize: 32
TimelineZoom: 1.850002

[Metadata]
Title:ChRoNiClESeVeN feat. Annabel
TitleUnicode:ChRφNiClESeVeN feat. Annabel
Artist:sasakure.UK
ArtistUnicode:sasakure.UK
Creator:Kunieda
Version:Inner Oni
Source:7th Dragon III: Code VFD
Tags:sega opening 3ds
BeatmapID:805957
BeatmapSetID:367472

[Difficulty]
HPDrainRate:5
CircleSize:5
OverallDifficulty:5
ApproachRate:5
SliderMultiplier:1.4
SliderTickRate:1

[Events]
//Background and Video events
0,0,"bg.jpg",0,0
//Break Periods
//Storyboard Layer 0 (Background)
//Storyboard Layer 1 (Fail)
//Storyboard Layer 2 (Pass)
//Storyboard Layer 3 (Foreground)
//Storyboard Sound Samples

[TimingPoints]
12228,307.692307692308,4,2,0,80,1,0
12228,-133.333333333333,4,2,0,80,0,0
21612,-125,4,1,0,80,0,0
21689,-117.647058823529,4,1,0,80,0,0
21766,-111.111111111111,4,1,0,80,0,0
21843,-105.263157894737,4,1,0,80,0,0
21920,-100,4,1,0,80,0,0
62074,-100,4,1,0,80,0,1
81766,-100,4,1,0,80,0,0

[HitObjects]
256,192,12227,5,0,0:0:0:0:
256,192,13304,1,0,0:0:0:0:
256,192,13920,1,8,0:0:0:0:
256,192,14689,1,0,0:0:0:0:
256,192,15766,1,0,0:0:0:0:
256,192,16689,1,8,0:0:0:0:
256,192,17151,1,0,0:0:0:0:
256,192,18228,1,0,0:0:0:0:
256,192,18843,1,0,0:0:0:0:
256,192,19612,1,8,0:0:0:0:
256,192,20074,1,0,0:0:0:0:
256,192,20535,1,0,0:0:0:0:
256,192,20843,1,8,0:0:0:0:
256,192,21151,1,0,0:0:0:0:
256,192,21304,1,8,0:0:0:0:
256,192,21612,1,0,0:0:0:0:
256,192,21689,1,8,0:0:0:0:
256,192,21766,1,8,0:0:0:0:
256,192,21843,1,8,0:0:0:0:
256,192,21920,1,8,0:0:0:0:
256,192,21997,1,8,0:0:0:0:
256,192,22074,1,0,0:0:0:0:
256,192,22228,1,0,0:0:0:0:
256,192,22304,1,0,0:0:0:0:
256,192,22381,1,8,0:0:0:0:
256,192,22535,1,0,0:0:0:0:
256,192,22689,1,8,0:0:0:0:
256,192,22766,1,0,0:0:0:0:
256,192,22843,1,8,0:0:0:0:
256,192,22997,1,0,0:0:0:0:
256,192,23074,1,0,0:0:0:0:
256,192,23151,1,8,0:0:0:0:
256,192,23458,1,8,0:0:0:0:
256,192,23612,1,0,0:0:0:0:
256,192,23766,1,8,0:0:0:0:
256,192,23920,1,0,0:0:0:0:
256,192,24074,1,0,0:0:0:0:
256,192,24151,1,8,0:0:0:0:
256,192,24228,1,0,0:0:0:0:
256,192,24381,1,8,0:0:0:0:
256,192,24535,1,0,0:0:0:0:
256,192,24689,1,0,0:0:0:0:
256,192,24766,1,0,0:0:0:0:
256,192,24843,1,8,0:0:0:0:
256,192,24997,1,0,0:0:0:0:
256,192,25151,1,8,0:0:0:0:
256,192,25228,1,0,0:0:0:0:
256,192,25305,1,8,0:0:0:0:
256,192,25459,1,0,0:0:0:0:
256,192,25536,1,0,0:0:0:0:
256,192,25613,1,8,0:0:0:0:
256,192,25920,1,8,0:0:0:0:
256,192,26074,1,0,0:0:0:0:
256,192,26228,1,8,0:0:0:0:
256,192,26304,1,8,0:0:0:0:
256,192,26382,1,0,0:0:0:0:
256,192,26535,1,0,0:0:0:0:
256,192,26613,1,8,0:0:0:0:
256,192,26690,1,0,0:0:0:0:
256,192,26843,1,8,0:0:0:0:
256,192,26997,1,4,0:0:0:0:
256,192,27151,1,0,0:0:0:0:
256,192,27227,1,0,0:0:0:0:
256,192,27304,1,8,0:0:0:0:
256,192,27458,1,0,0:0:0:0:
256,192,27612,1,8,0:0:0:0:
256,192,27689,1,0,0:0:0:0:
256,192,27766,1,8,0:0:0:0:
256,192,27920,1,0,0:0:0:0:
256,192,27997,1,0,0:0:0:0:
256,192,28074,1,8,0:0:0:0:
256,192,28381,1,8,0:0:0:0:
256,192,28535,1,0,0:0:0:0:
256,192,28689,1,8,0:0:0:0:
256,192,28843,1,0,0:0:0:0:
256,192,28997,1,0,0:0:0:0:
256,192,29074,1,8,0:0:0:0:
256,192,29151,1,0,0:0:0:0:
256,192,29304,1,8,0:0:0:0:
256,192,29458,1,0,0:0:0:0:
256,192,29612,1,0,0:0:0:0:
256,192,29689,1,0,0:0:0:0:
256,192,29766,1,8,0:0:0:0:
256,192,29920,1,0,0:0:0:0:
256,192,30074,1,8,0:0:0:0:
256,192,30151,1,0,0:0:0:0:
256,192,30228,1,8,0:0:0:0:
256,192,30382,1,0,0:0:0:0:
256,192,30459,1,0,0:0:0:0:
256,192,30536,1,8,0:0:0:0:
256,192,30843,1,8,0:0:0:0:
256,192,30997,1,0,0:0:0:0:
256,192,31151,1,8,0:0:0:0:
256,192,31227,1,0,0:0:0:0:
256,192,31305,1,8,0:0:0:0:
256,192,31381,1,0,0:0:0:0:
256,192,31458,1,0,0:0:0:0:
256,192,31536,1,8,0:0:0:0:
256,192,31613,1,0,0:0:0:0:
256,192,31766,1,8,0:0:0:0:
256,192,31920,1,4,0:0:0:0:
256,192,32228,1,8,0:0:0:0:
256,192,32381,1,0,0:0:0:0:
256,192,32535,1,0,0:0:0:0:
256,192,32689,1,8,0:0:0:0:
256,192,32997,1,0,0:0:0:0:
256,192,33304,1,0,0:0:0:0:
256,192,33458,1,8,0:0:0:0:
256,192,33612,1,0,0:0:0:0:
256,192,33689,1,8,0:0:0:0:
256,192,33766,1,0,0:0:0:0:
256,192,33920,1,0,0:0:0:0:
256,192,34074,1,8,0:0:0:0:
256,192,34228,1,0,0:0:0:0:
256,192,34381,1,0,0:0:0:0:
256,192,34689,1,8,0:0:0:0:
256,192,34843,1,0,0:0:0:0:
256,192,34997,1,0,0:0:0:0:
256,192,35151,1,8,0:0:0:0:
256,192,35304,1,0,0:0:0:0:
256,192,35458,1,0,0:0:0:0:
256,192,35766,1,0,0:0:0:0:
256,192,35920,1,8,0:0:0:0:
256,192,36074,1,0,0:0:0:0:
256,192,36151,1,8,0:0:0:0:
256,192,36228,1,0,0:0:0:0:
256,192,36381,1,0,0:0:0:0:
256,192,36535,1,8,0:0:0:0:
256,192,36689,1,0,0:0:0:0:
256,192,36843,1,4,0:0:0:0:
256,192,37151,1,8,0:0:0:0:
256,192,37304,1,0,0:0:0:0:
256,192,37458,1,8,0:0:0:0:
256,192,37612,1,0,0:0:0:0:
256,192,37766,1,8,0:0:0:0:
256,192,37920,1,8,0:0:0:0:
256,192,38074,1,0,0:0:0:0:
256,192,38228,1,8,0:0:0:0:
256,192,38381,1,0,0:0:0:0:
256,192,38536,1,0,0:0:0:0:
256,192,38612,1,8,0:0:0:0:
256,192,38689,1,0,0:0:0:0:
256,192,38843,1,0,0:0:0:0:
256,192,38997,1,8,0:0:0:0:
256,192,39304,1,0,0:0:0:0:
256,192,39458,1,0,0:0:0:0:
256,192,39612,1,8,0:0:0:0:
256,192,39766,1,0,0:0:0:0:
256,192,40074,1,0,0:0:0:0:
256,192,40228,1,8,0:0:0:0:
256,192,40381,1,0,0:0:0:0:
256,192,40535,1,8,0:0:0:0:
256,192,40689,1,0,0:0:0:0:
256,192,40843,1,0,0:0:0:0:
256,192,40997,1,0,0:0:0:0:
256,192,41074,1,0,0:0:0:0:
256,192,41151,1,0,0:0:0:0:
256,192,41228,1,8,0:0:0:0:
256,192,41304,1,8,0:0:0:0:
256,192,41381,1,8,0:0:0:0:
256,192,41458,1,8,0:0:0:0:
256,192,41535,1,8,0:0:0:0:
256,192,41612,1,8,0:0:0:0:
256,192,41689,1,8,0:0:0:0:
256,192,41766,1,0,0:0:0:0:
256,192,41920,1,0,0:0:0:0:
256,192,41997,1,0,0:0:0:0:
256,192,42074,1,8,0:0:0:0:
256,192,42228,1,0,0:0:0:0:
256,192,42381,1,8,0:0:0:0:
256,192,42458,1,0,0:0:0:0:
256,192,42535,1,8,0:0:0:0:
256,192,42689,1,0,0:0:0:0:
256,192,42766,1,0,0:0:0:0:
256,192,42843,1,8,0:0:0:0:
256,192,42997,1,8,0:0:0:0:
256,192,43151,1,0,0:0:0:0:
256,192,43228,1,0,0:0:0:0:
256,192,43304,1,8,0:0:0:0:
256,192,43458,1,0,0:0:0:0:
256,192,43535,1,8,0:0:0:0:
256,192,43612,1,0,0:0:0:0:
256,192,43766,1,0,0:0:0:0:
256,192,43920,1,8,0:0:0:0:
256,192,44228,1,0,0:0:0:0:
256,192,44535,1,8,0:0:0:0:
256,192,44689,1,8,0:0:0:0:
256,192,44766,1,0,0:0:0:0:
256,192,44843,1,8,0:0:0:0:
256,192,44997,1,0,0:0:0:0:
256,192,45151,1,0,0:0:0:0:
256,192,45228,1,0,0:0:0:0:
256,192,45304,1,8,0:0:0:0:
256,192,45458,1,8,0:0:0:0:
256,192,45612,1,0,0:0:0:0:
256,192,45766,1,0,0:0:0:0:
256,192,45920,1,8,0:0:0:0:
256,192,45997,1,0,0:0:0:0:
256,192,46074,1,0,0:0:0:0:
256,192,46151,1,0,0:0:0:0:
256,192,46228,1,8,0:0:0:0:
256,192,46381,1,8,0:0:0:0:
256,192,46535,1,0,0:0:0:0:
256,192,46689,1,4,0:0:0:0:
256,192,46997,1,8,0:0:0:0:
256,192,47151,1,0,0:0:0:0:
256,192,47228,1,0,0:0:0:0:
256,192,47304,1,8,0:0:0:0:
256,192,47381,1,0,0:0:0:0:
256,192,47458,1,8,0:0:0:0:
256,192,47612,1,0,0:0:0:0:
256,192,47766,1,8,0:0:0:0:
256,192,47920,1,0,0:0:0:0:
256,192,48074,1,8,0:0:0:0:
256,192,48151,1,8,0:0:0:0:
256,192,48228,1,0,0:0:0:0:
256,192,48381,1,0,0:0:0:0:
256,192,48535,1,8,0:0:0:0:
256,192,48689,1,0,0:0:0:0:
256,192,48766,1,0,0:0:0:0:
256,192,48843,1,0,0:0:0:0:
256,192,48997,1,0,0:0:0:0:
256,192,49151,1,8,0:0:0:0:
256,192,49228,1,8,0:0:0:0:
256,192,49304,1,0,0:0:0:0:
256,192,49458,1,0,0:0:0:0:
256,192,49612,1,8,0:0:0:0:
256,192,49766,1,0,0:0:0:0:
256,192,49920,1,0,0:0:0:0:
256,192,49997,1,8,0:0:0:0:
256,192,50074,1,8,0:0:0:0:
256,192,50228,1,0,0:0:0:0:
256,192,50304,1,0,0:0:0:0:
256,192,50381,1,8,0:0:0:0:
256,192,50535,1,0,0:0:0:0:
256,192,50689,1,8,0:0:0:0:
256,192,50843,1,0,0:0:0:0:
256,192,50920,1,0,0:0:0:0:
256,192,50997,1,8,0:0:0:0:
256,192,51074,1,0,0:0:0:0:
256,192,51151,1,0,0:0:0:0:
256,192,51228,1,0,0:0:0:0:
256,192,51304,1,8,0:0:0:0:
256,192,51381,1,0,0:0:0:0:
256,192,51458,1,8,0:0:0:0:
256,192,51612,1,8,0:0:0:0:
256,192,51766,1,0,0:0:0:0:
256,192,52074,1,0,0:0:0:0:
256,192,52228,1,8,0:0:0:0:
256,192,52535,1,0,0:0:0:0:
256,192,52843,1,8,0:0:0:0:
256,192,53151,1,8,0:0:0:0:
256,192,53304,1,0,0:0:0:0:
256,192,53612,1,8,0:0:0:0:
256,192,53920,1,0,0:0:0:0:
256,192,54074,1,0,0:0:0:0:
256,192,54228,1,8,0:0:0:0:
256,192,54381,1,0,0:0:0:0:
256,192,54535,1,0,0:0:0:0:
256,192,54689,1,8,0:0:0:0:
256,192,54997,1,0,0:0:0:0:
256,192,55151,1,8,0:0:0:0:
256,192,55304,1,0,0:0:0:0:
265,198,55612,1,0,0:0:0:0:
256,192,55766,1,8,0:0:0:0:
256,192,56074,1,0,0:0:0:0:
256,192,56381,1,8,0:0:0:0:
256,192,56535,1,4,0:0:0:0:
256,192,56689,1,0,0:0:0:0:
256,192,56766,1,0,0:0:0:0:
256,192,56843,1,8,0:0:0:0:
256,192,56997,1,0,0:0:0:0:
256,192,57151,1,8,0:0:0:0:
256,192,57228,1,0,0:0:0:0:
256,192,57304,1,8,0:0:0:0:
256,192,57458,1,0,0:0:0:0:
256,192,57612,1,0,0:0:0:0:
256,192,57766,1,8,0:0:0:0:
256,192,57920,1,8,0:0:0:0:
256,192,58074,1,0,0:0:0:0:
256,192,58151,1,0,0:0:0:0:
256,192,58228,1,0,0:0:0:0:
256,192,58381,5,4,0:0:0:0:
256,192,58535,1,4,0:0:0:0:
256,192,58843,5,4,0:0:0:0:
256,192,59151,1,0,0:0:0:0:
256,192,59304,1,0,0:0:0:0:
256,192,59612,1,8,0:0:0:0:
256,192,59766,1,0,0:0:0:0:
256,192,60074,1,0,0:0:0:0:
256,192,60228,1,0,0:0:0:0:
256,192,60381,1,8,0:0:0:0:
256,192,60535,1,0,0:0:0:0:
224,192,60689,1,0,0:0:0:0:
256,192,60843,1,8,0:0:0:0:
256,192,60997,1,0,0:0:0:0:
256,192,61074,1,0,0:0:0:0:
256,192,61151,1,0,0:0:0:0:
256,192,61304,1,8,0:0:0:0:
256,192,62074,5,4,0:0:0:0:
256,192,62227,1,0,0:0:0:0:
256,192,62381,1,8,0:0:0:0:
256,192,62535,1,0,0:0:0:0:
256,192,62612,1,0,0:0:0:0:
256,192,62689,1,0,0:0:0:0:
256,192,62843,1,0,0:0:0:0:
256,192,62997,1,8,0:0:0:0:
256,192,63074,1,8,0:0:0:0:
256,192,63150,1,0,0:0:0:0:
256,192,63304,1,0,0:0:0:0:
256,192,63458,1,8,0:0:0:0:
256,192,63612,1,0,0:0:0:0:
256,192,63766,1,0,0:0:0:0:
256,192,63843,1,0,0:0:0:0:
256,192,63920,1,8,0:0:0:0:
256,192,63997,1,0,0:0:0:0:
256,192,64074,1,0,0:0:0:0:
256,192,64227,1,8,0:0:0:0:
256,192,64381,1,0,0:0:0:0:
256,192,64535,1,0,0:0:0:0:
256,192,64612,1,0,0:0:0:0:
256,192,64689,1,0,0:0:0:0:
256,192,64843,1,0,0:0:0:0:
256,192,64997,1,8,0:0:0:0:
256,192,65074,1,0,0:0:0:0:
256,192,65150,1,0,0:0:0:0:
256,192,65304,1,8,0:0:0:0:
256,192,65458,1,8,0:0:0:0:
256,192,65535,1,8,0:0:0:0:
256,192,65612,1,0,0:0:0:0:
256,192,65766,1,0,0:0:0:0:
256,192,65920,1,8,0:0:0:0:
256,192,65997,1,0,0:0:0:0:
256,192,66074,1,0,0:0:0:0:
256,192,66227,1,8,0:0:0:0:
256,192,66304,1,0,0:0:0:0:
256,192,66381,1,8,0:0:0:0:
256,192,66458,1,0,0:0:0:0:
256,192,66535,1,0,0:0:0:0:
256,192,66689,1,8,0:0:0:0:
256,192,66843,1,0,0:0:0:0:
256,192,66920,1,0,0:0:0:0:
256,192,66997,1,8,0:0:0:0:
256,192,67150,1,0,0:0:0:0:
256,192,67304,1,8,0:0:0:0:
256,192,67381,1,0,0:0:0:0:
256,192,67458,1,8,0:0:0:0:
256,192,67612,1,8,0:0:0:0:
256,192,67766,1,0,0:0:0:0:
256,192,67920,1,0,0:0:0:0:
256,192,67997,1,0,0:0:0:0:
256,192,68074,1,8,0:0:0:0:
256,192,68227,1,8,0:0:0:0:
256,192,68381,1,0,0:0:0:0:
256,192,68458,1,0,0:0:0:0:
256,192,68535,1,0,0:0:0:0:
256,192,68689,1,8,0:0:0:0:
256,192,68766,1,0,0:0:0:0:
256,192,68843,1,8,0:0:0:0:
256,192,68920,1,8,0:0:0:0:
256,192,68997,1,0,0:0:0:0:
256,192,69074,1,0,0:0:0:0:
256,192,69150,1,8,0:0:0:0:
256,192,69304,1,0,0:0:0:0:
256,192,69458,1,8,0:0:0:0:
256,192,69535,1,0,0:0:0:0:
256,192,69612,1,8,0:0:0:0:
256,192,69766,1,0,0:0:0:0:
256,192,69920,1,8,0:0:0:0:
256,192,69997,1,0,0:0:0:0:
256,192,70074,1,8,0:0:0:0:
256,192,70227,1,8,0:0:0:0:
256,192,70381,1,0,0:0:0:0:
256,192,70458,1,0,0:0:0:0:
256,192,70535,1,8,0:0:0:0:
256,192,70689,1,0,0:0:0:0:
256,192,70843,1,8,0:0:0:0:
256,192,70997,1,0,0:0:0:0:
256,192,71150,1,8,0:0:0:0:
256,192,71227,1,0,0:0:0:0:
256,192,71304,1,8,0:0:0:0:
256,192,71381,1,0,0:0:0:0:
256,192,71458,1,8,0:0:0:0:
256,192,71535,1,8,0:0:0:0:
256,192,71612,1,0,0:0:0:0:
256,192,71689,1,0,0:0:0:0:
256,192,71766,1,8,0:0:0:0:
256,192,71920,1,0,0:0:0:0:
256,192,71997,1,8,0:0:0:0:
256,192,72074,1,0,0:0:0:0:
256,192,72150,1,0,0:0:0:0:
256,192,72227,1,8,0:0:0:0:
256,192,72381,1,0,0:0:0:0:
256,192,72458,1,8,0:0:0:0:
256,192,72535,1,0,0:0:0:0:
256,192,72612,1,0,0:0:0:0:
256,192,72689,1,8,0:0:0:0:
256,192,72843,1,0,0:0:0:0:
256,192,72920,1,8,0:0:0:0:
256,192,72997,1,0,0:0:0:0:
256,192,73073,1,0,0:0:0:0:
256,192,73150,1,8,0:0:0:0:
256,192,73304,1,8,0:0:0:0:
256,192,73381,1,0,0:0:0:0:
256,192,73458,1,8,0:0:0:0:
256,192,73535,1,0,0:0:0:0:
256,192,73612,1,0,0:0:0:0:
256,192,73689,1,8,0:0:0:0:
256,192,73766,1,0,0:0:0:0:
256,192,73843,1,8,0:0:0:0:
256,192,73920,1,0,0:0:0:0:
256,192,73997,1,0,0:0:0:0:
256,192,74074,1,8,0:0:0:0:
256,192,74150,1,0,0:0:0:0:
256,192,74227,1,8,0:0:0:0:
256,192,74381,1,8,0:0:0:0:
256,192,74458,1,8,0:0:0:0:
256,192,74535,1,0,0:0:0:0:
256,192,74612,1,8,0:0:0:0:
256,192,74689,1,0,0:0:0:0:
256,192,74843,1,8,0:0:0:0:
256,192,74920,1,8,0:0:0:0:
256,192,74997,1,0,0:0:0:0:
256,192,75074,1,8,0:0:0:0:
256,192,75151,1,0,0:0:0:0:
256,192,75304,1,8,0:0:0:0:
256,192,75381,1,8,0:0:0:0:
256,192,75458,1,0,0:0:0:0:
256,192,75535,1,8,0:0:0:0:
256,192,75612,1,0,0:0:0:0:
256,192,75766,1,8,0:0:0:0:
256,192,75843,1,8,0:0:0:0:
256,192,75920,1,0,0:0:0:0:
256,192,75997,1,8,0:0:0:0:
256,192,76074,1,8,0:0:0:0:
256,192,76151,1,0,0:0:0:0:
256,192,76228,1,0,0:0:0:0:
256,192,76304,1,8,0:0:0:0:
256,192,76381,1,8,0:0:0:0:
256,192,76535,1,0,0:0:0:0:
256,192,76689,1,0,0:0:0:0:
256,192,76843,1,0,0:0:0:0:
256,192,76920,1,0,0:0:0:0:
256,192,76997,1,0,0:0:0:0:
256,192,77151,1,8,0:0:0:0:
256,192,77228,1,0,0:0:0:0:
256,192,77304,1,8,0:0:0:0:
256,192,77458,1,0,0:0:0:0:
256,192,77612,1,8,0:0:0:0:
256,192,77689,1,8,0:0:0:0:
256,192,77766,1,0,0:0:0:0:
256,192,77843,1,0,0:0:0:0:
256,192,77920,1,8,0:0:0:0:
256,192,78074,1,0,0:0:0:0:
256,192,78228,1,8,0:0:0:0:
256,192,78381,1,0,0:0:0:0:
256,192,78535,1,0,0:0:0:0:
256,192,78612,1,8,0:0:0:0:
256,192,78689,1,0,0:0:0:0:
256,192,78843,1,8,0:0:0:0:
256,192,78997,1,0,0:0:0:0:
256,192,79074,1,0,0:0:0:0:
256,192,79151,1,0,0:0:0:0:
256,192,79304,1,8,0:0:0:0:
256,192,79381,1,8,0:0:0:0:
256,192,79458,1,0,0:0:0:0:
256,192,79535,1,0,0:0:0:0:
256,192,79612,1,8,0:0:0:0:
256,192,79689,1,8,0:0:0:0:
256,192,79766,1,0,0:0:0:0:
256,192,79843,1,0,0:0:0:0:
256,192,79920,1,8,0:0:0:0:
256,192,79997,1,0,0:0:0:0:
256,192,80074,1,8,0:0:0:0:
256,192,80228,1,0,0:0:0:0:
256,192,80304,1,0,0:0:0:0:
256,192,80381,1,8,0:0:0:0:
256,192,80535,1,8,0:0:0:0:
256,192,80689,1,0,0:0:0:0:
256,192,80843,1,8,0:0:0:0:
256,192,80997,1,0,0:0:0:0:
256,192,81074,1,0,0:0:0:0:
256,192,81151,1,0,0:0:0:0:
256,192,81304,1,8,0:0:0:0:
256,192,81381,1,0,0:0:0:0:
256,192,81458,1,8,0:0:0:0:
256,192,81535,1,8,0:0:0:0:
256,192,81612,1,0,0:0:0:0:
256,192,81689,1,0,0:0:0:0:
256,192,81766,1,0,0:0:0:0:
256,192,81920,1,0,0:0:0:0:
256,192,81996,1,0,0:0:0:0:
256,192,82073,1,8,0:0:0:0:
256,192,82227,1,0,0:0:0:0:
256,192,82381,1,8,0:0:0:0:
256,192,82458,1,0,0:0:0:0:
256,192,82535,1,8,0:0:0:0:
256,192,82689,1,0,0:0:0:0:
256,192,82766,1,0,0:0:0:0:
256,192,82843,1,8,0:0:0:0:
256,192,83150,1,8,0:0:0:0:
256,192,83304,1,0,0:0:0:0:
256,192,83458,1,8,0:0:0:0:
256,192,83612,1,0,0:0:0:0:
256,192,83766,1,0,0:0:0:0:
256,192,83843,1,8,0:0:0:0:
256,192,83920,1,0,0:0:0:0:
256,192,84073,1,8,0:0:0:0:
256,192,84227,1,0,0:0:0:0:
256,192,84381,1,0,0:0:0:0:
256,192,84458,1,0,0:0:0:0:
256,192,84535,1,8,0:0:0:0:
256,192,84689,1,0,0:0:0:0:
256,192,84843,1,8,0:0:0:0:
256,192,84920,1,0,0:0:0:0:
256,192,84997,1,8,0:0:0:0:
256,192,85151,1,0,0:0:0:0:
256,192,85228,1,0,0:0:0:0:
256,192,85305,1,8,0:0:0:0:
256,192,85612,1,8,0:0:0:0:
256,192,85766,1,0,0:0:0:0:
256,192,85920,1,8,0:0:0:0:
256,192,85996,1,8,0:0:0:0:
256,192,86074,1,0,0:0:0:0:
256,192,86227,1,0,0:0:0:0:
256,192,86305,1,8,0:0:0:0:
256,192,86382,1,0,0:0:0:0:
256,192,86535,1,8,0:0:0:0:
256,192,86689,1,4,0:0:0:0:
256,192,86843,1,0,0:0:0:0:
256,192,86919,1,0,0:0:0:0:
256,192,86996,1,8,0:0:0:0:
256,192,87150,1,0,0:0:0:0:
256,192,87304,1,8,0:0:0:0:
256,192,87381,1,0,0:0:0:0:
256,192,87458,1,8,0:0:0:0:
256,192,87612,1,0,0:0:0:0:
256,192,87689,1,0,0:0:0:0:
256,192,87766,1,8,0:0:0:0:
256,192,88074,1,8,0:0:0:0:
256,192,88228,1,0,0:0:0:0:
256,192,88382,1,0,0:0:0:0:
256,192,88458,1,8,0:0:0:0:
256,192,88536,1,0,0:0:0:0:
256,192,88690,1,0,0:0:0:0:
256,192,88767,1,0,0:0:0:0:
256,192,88844,1,8,0:0:0:0:
256,192,88997,1,8,0:0:0:0:
256,192,89151,1,0,0:0:0:0:
256,192,89305,1,0,0:0:0:0:
256,192,89382,1,0,0:0:0:0:
256,192,89459,1,8,0:0:0:0:
256,192,89613,1,0,0:0:0:0:
256,192,89767,1,8,0:0:0:0:
256,192,89844,1,0,0:0:0:0:
256,192,89921,1,8,0:0:0:0:
256,192,90075,1,0,0:0:0:0:
256,192,90152,1,0,0:0:0:0:
256,192,90229,1,8,0:0:0:0:
256,192,90535,1,8,0:0:0:0:
256,192,90612,1,0,0:0:0:0:
256,192,90689,1,8,0:0:0:0:
256,192,90843,1,8,0:0:0:0:
256,192,90997,1,0,0:0:0:0:
256,192,91151,1,0,0:0:0:0:
256,192,91228,1,0,0:0:0:0:
256,192,91304,1,0,0:0:0:0:
256,192,91458,1,8,0:0:0:0:
