osu file format v14

[General]
AudioFilename: Atropos (Short Edit).mp3
AudioLeadIn: 1500
PreviewTime: 73321
Countdown: 0
SampleSet: Normal
StackLeniency: 0.7
Mode: 3
LetterboxInBreaks: 0
SpecialStyle: 0
WidescreenStoryboard: 0

[Editor]
DistanceSpacing: 1.2
BeatDivisor: 4
GridSize: 16
TimelineZoom: 1.5

[Metadata]
Title:Atropos (Short Edit)
TitleUnicode:Atröpøs (Short Edit)
Artist:sasakure.UK
ArtistUnicode:sasakure.UK
Creator:Fullerene-
Version:Lachesis
Source:meatmania two decks
Tags:stepmania neutronika rcalibergx
BeatmapID:693529
BeatmapSetID:310328

[Difficulty]
HPDrainRate:8
CircleSize:4
OverallDifficulty:5.5
ApproachRate:9
SliderMultiplier:1.4
SliderTickRate:1

[Events]
//Background and Video events
0,0,"atropos bg.png",0,0
//Break Periods
//Storyboard Layer 0 (Background)
//Storyboard Layer 1 (Fail)
//Storyboard Layer 2 (Pass)
//Storyboard Layer 3 (Foreground)
//Storyboard Sound Samples

[TimingPoints]
506.991,329.67032967033,4,1,1,100,1,0
9737,-1000,4,1,1,100,0,0
9763.38,-996.412913511359,4,1,1,100,0,0
9789.76,-985.804416403785,4,1,1,100,0,0
9816.14,-968.616815187912,4,1,1,100,0,0
9842.52,-945.53706505295,4,1,1,100,0,0
9868.9,-917.43119266055,4,1,1,100,0,0
9895.28,-885.269121813031,4,1,1,100,0,0
9921.66,-850.051003060184,4,1,1,100,0,0
9948.04,-812.743823146944,4,1,1,100,0,0
9974.42,-774.233508826262,4,1,1,100,0,0
10000.8,-735.294117647059,4,1,1,100,0,0
10027.18,-696.572861521315,4,1,1,100,0,0
10053.56,-658.587987355111,4,1,1,100,0,0
10079.94,-621.735886595374,4,1,1,100,0,0
10106.32,-586.303939962477,4,1,1,100,0,0
10132.7,-552.486187845304,4,1,1,100,0,0
10159.08,-520.399666944213,4,1,1,100,0,0
10185.46,-490.099980396001,4,1,1,100,0,0
10211.84,-461.595273264402,4,1,1,100,0,0
10238.22,-434.858236214994,4,1,1,100,0,0
10264.6,-409.83606557377,4,1,1,100,0,0
10290.98,-386.458494357706,4,1,1,100,0,0
10317.36,-364.644107351225,4,1,1,100,0,0
10343.74,-344.305192122297,4,1,1,100,0,0
10370.12,-325.351379489849,4,1,1,100,0,0
10396.5,-307.692307692308,4,1,1,100,0,0
10422.88,-291.239515377446,4,1,1,100,0,0
10449.26,-275.90773645293,4,1,1,100,0,0
10475.64,-261.615738802846,4,1,1,100,0,0
10502.02,-248.286820935545,4,1,1,100,0,0
10528.4,-235.849056603774,4,1,1,100,0,0
10554.78,-224.23535743116,4,1,1,100,0,0
10581.16,-213.383407306248,4,1,1,100,0,0
10607.54,-203.235509308186,4,1,1,100,0,0
10633.92,-193.738375697458,4,1,1,100,0,0
10660.3,-184.842883548983,4,1,1,100,0,0
10686.68,-176.50381248235,4,1,1,100,0,0
10713.06,-168.679576276904,4,1,1,100,0,0
10739.44,-161.33195663397,4,1,1,100,0,0
10765.82,-154.425844709371,4,1,1,100,0,0
10792.2,-147.92899408284,4,1,1,100,0,0
10818.58,-141.811787395768,4,1,1,100,0,0
10844.96,-136.047017849369,4,1,1,100,0,0
10871.34,-130.609686014315,4,1,1,100,0,0
10897.72,-125.476811885164,4,1,1,100,0,0
10924.1,-120.627261761158,4,1,1,100,0,0
10950.48,-116.041589305607,4,1,1,100,0,0
10976.86,-111.701889995979,4,1,1,100,0,0
11003.24,-107.591668101222,4,1,1,100,0,0
11029.62,-103.695715293044,4,1,1,100,0,0
11056,-100,4,1,1,100,0,0
42704,329.67032967033,5,1,1,100,1,0
44351,329.67032967033,6,1,1,100,1,0
56220,329.67032967033,4,1,1,100,1,0
56220,-10000,4,1,1,100,0,0
56272.74,-9901.97049212793,4,1,1,100,0,0
56325.48,-9619.08426317815,4,1,1,100,0,0
56378.22,-9181.89330639978,4,1,1,100,0,0
56430.96,-8632.59668508287,4,1,1,100,0,0
56483.7,-8016.03206412826,4,1,1,100,0,0
56536.44,-7372.45650250664,4,1,1,100,0,0
56589.18,-6733.55329607434,4,1,1,100,0,0
56641.92,-6121.44955925563,4,1,1,100,0,0
56694.66,-5549.69754148399,4,1,1,100,0,0
56747.4,-5025.1256281407,4,1,1,100,0,0
56800.14,-4549.79753400974,4,1,1,100,0,0
56852.88,-4122.69129287599,4,1,1,100,0,0
56905.62,-3740.97489805843,4,1,1,100,0,0
56958.36,-3400.89783702898,4,1,1,100,0,0
57011.1,-3098.37335398916,4,1,1,100,0,0
57063.84,-2829.33454051607,4,1,1,100,0,0
57116.58,-2589.93551060579,4,1,1,100,0,0
57169.32,-2376.65177298222,4,1,1,100,0,0
57222.06,-2186.31802181945,4,1,1,100,0,0
57274.8,-2016.12903225806,4,1,1,100,0,0
57327.54,-1863.62026873404,4,1,1,100,0,0
57380.28,-1726.63858001243,4,1,1,100,0,0
57433.02,-1603.30923025124,4,1,1,100,0,0
57485.76,-1492.0028646455,4,1,1,100,0,0
57538.5,-1391.30434782609,4,1,1,100,0,0
57591.24,-1299.9844001872,4,1,1,100,0,0
57643.98,-1216.97435835027,4,1,1,100,0,0
57696.72,-1141.34404674945,4,1,1,100,0,0
57749.46,-1072.28256790229,4,1,1,100,0,0
57802.2,-1009.08173562059,4,1,1,100,0,0
57854.94,-951.121848219976,4,1,1,100,0,0
57907.68,-897.859502944979,4,1,1,100,0,0
57960.42,-848.81717326905,4,1,1,100,0,0
58013.16,-803.574298479637,4,1,1,100,0,0
58065.9,-761.759664825748,4,1,1,100,0,0
58118.64,-723.044886626562,4,1,1,100,0,0
58171.38,-687.138822656341,4,1,1,100,0,0
58224.12,-653.782787206778,4,1,1,100,0,0
58276.86,-622.746436333518,4,1,1,100,0,0
58329.6,-593.824228028503,4,1,1,100,0,0
58382.34,-566.832370663024,4,1,1,100,0,0
58435.08,-541.606187309084,4,1,1,100,0,0
58487.82,-517.997834769051,4,1,1,100,0,0
58540.56,-495.874325610917,4,1,1,100,0,0
58593.3,-475.11580947856,4,1,1,100,0,0
58646.04,-455.614076652512,4,1,1,100,0,0
58698.78,-437.271252476048,4,1,1,100,0,0
58751.52,-419.998656004301,4,1,1,100,0,0
58804.26,-403.715800225273,4,1,1,100,0,0
58857,-388.349514563107,4,1,1,100,0,0
58909.74,-373.833173208124,4,1,1,100,0,0
58962.48,-360.106015210878,4,1,1,100,0,0
59015.22,-347.112544300238,4,1,1,100,0,0
59067.96,-334.801998098325,4,1,1,100,0,0
59120.7,-323.127877857662,4,1,1,100,0,0
59173.44,-312.047531079934,4,1,1,100,0,0
59226.18,-301.521780425809,4,1,1,100,0,0
59278.92,-291.514593220537,4,1,1,100,0,0
59331.66,-281.992786624518,4,1,1,100,0,0
59384.4,-272.92576419214,4,1,1,100,0,0
59437.14,-264.285280102754,4,1,1,100,0,0
59489.88,-256.045227829044,4,1,1,100,0,0
59542.62,-248.181450422033,4,1,1,100,0,0
59595.36,-240.671569948785,4,1,1,100,0,0
59648.1,-233.494833926799,4,1,1,100,0,0
59700.84,-226.631976865408,4,1,1,100,0,0
59753.58,-220.065095255176,4,1,1,100,0,0
59806.32,-213.77753454645,4,1,1,100,0,0
59859.06,-207.75378683215,4,1,1,100,0,0
59911.8,-201.979398101394,4,1,1,100,0,0
59964.54,-196.440884062555,4,1,1,100,0,0
60017.28,-191.125653649735,4,1,1,100,0,0
60070.02,-186.021939427536,4,1,1,100,0,0
60122.76,-181.11873419739,4,1,1,100,0,0
60175.5,-176.405733186329,4,1,1,100,0,0
60228.24,-171.873281267187,4,1,1,100,0,0
60280.98,-167.512324719291,4,1,1,100,0,0
60333.72,-163.314367091502,4,1,1,100,0,0
60386.46,-159.271428776206,4,1,1,100,0,0
60439.2,-155.376009944065,4,1,1,100,0,0
60491.94,-151.621056525846,4,1,1,100,0,0
60544.68,-147.999928960034,4,1,1,100,0,0
60597.42,-144.506373453601,4,1,1,100,0,0
60650.16,-141.134495528859,4,1,1,100,0,0
60702.9,-137.878735651994,4,1,1,100,0,0
60755.64,-134.733846759112,4,1,1,100,0,0
60808.38,-131.694873513659,4,1,1,100,0,0
60861.12,-128.757133145176,4,1,1,100,0,0
60913.86,-125.91619773376,4,1,1,100,0,0
60966.6,-123.167877817465,4,1,1,100,0,0
61019.34,-120.508207211452,4,1,1,100,0,0
61072.08,-117.933428938033,4,1,1,100,0,0
61124.82,-115.439982176067,4,1,1,100,0,0
61177.56,-113.024490146525,4,1,1,100,0,0
61230.3,-110.683748858574,4,1,1,100,0,0
61283.04,-108.414716647297,4,1,1,100,0,0
61335.78,-106.214504440297,4,1,1,100,0,0
61388.52,-104.080366695948,4,1,1,100,0,0
61441.26,-102.009692961025,4,1,1,100,0,0
61494,-100,4,1,1,100,0,0
70560,-10000,4,1,1,100,0,0
70588.02,-9901.97049212793,4,1,1,100,0,0
70616.04,-9619.08426317815,4,1,1,100,0,0
70644.06,-9181.89330639978,4,1,1,100,0,0
70672.08,-8632.59668508287,4,1,1,100,0,0
70700.1,-8016.03206412826,4,1,1,100,0,0
70728.12,-7372.45650250664,4,1,1,100,0,0
70756.14,-6733.55329607434,4,1,1,100,0,0
70784.16,-6121.44955925563,4,1,1,100,0,0
70812.18,-5549.69754148399,4,1,1,100,0,0
70840.2,-5025.1256281407,4,1,1,100,0,0
70868.22,-4549.79753400974,4,1,1,100,0,0
70896.24,-4122.69129287599,4,1,1,100,0,0
70924.26,-3740.97489805843,4,1,1,100,0,0
70952.28,-3400.89783702898,4,1,1,100,0,0
70980.3,-3098.37335398916,4,1,1,100,0,0
71008.32,-2829.33454051607,4,1,1,100,0,0
71036.34,-2589.93551060579,4,1,1,100,0,0
71064.36,-2376.65177298222,4,1,1,100,0,0
71092.38,-2186.31802181945,4,1,1,100,0,0
71120.4,-2016.12903225806,4,1,1,100,0,0
71148.42,-1863.62026873404,4,1,1,100,0,0
71176.44,-1726.63858001243,4,1,1,100,0,0
71204.46,-1603.30923025124,4,1,1,100,0,0
71232.48,-1492.0028646455,4,1,1,100,0,0
71260.5,-1391.30434782609,4,1,1,100,0,0
71288.52,-1299.9844001872,4,1,1,100,0,0
71316.54,-1216.97435835027,4,1,1,100,0,0
71344.56,-1141.34404674945,4,1,1,100,0,0
71372.58,-1072.28256790229,4,1,1,100,0,0
71400.6,-1009.08173562059,4,1,1,100,0,0
71428.62,-951.121848219976,4,1,1,100,0,0
71456.64,-897.859502944979,4,1,1,100,0,0
71484.66,-848.81717326905,4,1,1,100,0,0
71512.68,-803.574298479637,4,1,1,100,0,0
71540.7,-761.759664825748,4,1,1,100,0,0
71568.72,-723.044886626562,4,1,1,100,0,0
71596.74,-687.138822656341,4,1,1,100,0,0
71624.76,-653.782787206778,4,1,1,100,0,0
71652.78,-622.746436333518,4,1,1,100,0,0
71680.8,-593.824228028503,4,1,1,100,0,0
71708.82,-566.832370663024,4,1,1,100,0,0
71736.84,-541.606187309084,4,1,1,100,0,0
71764.86,-517.997834769051,4,1,1,100,0,0
71792.88,-495.874325610917,4,1,1,100,0,0
71820.9,-475.11580947856,4,1,1,100,0,0
71848.92,-455.614076652512,4,1,1,100,0,0
71876.94,-437.271252476048,4,1,1,100,0,0
71904.96,-419.998656004301,4,1,1,100,0,0
71932.98,-403.715800225273,4,1,1,100,0,0
71961,-388.349514563107,4,1,1,100,0,0
71989.02,-373.833173208124,4,1,1,100,0,0
72017.04,-360.106015210878,4,1,1,100,0,0
72045.06,-347.112544300238,4,1,1,100,0,0
72073.08,-334.801998098325,4,1,1,100,0,0
72101.1,-323.127877857662,4,1,1,100,0,0
72129.12,-312.047531079934,4,1,1,100,0,0
72157.14,-301.521780425809,4,1,1,100,0,0
72185.16,-291.514593220537,4,1,1,100,0,0
72213.18,-281.992786624518,4,1,1,100,0,0
72241.2,-272.92576419214,4,1,1,100,0,0
72269.22,-264.285280102754,4,1,1,100,0,0
72297.24,-256.045227829044,4,1,1,100,0,0
72325.26,-248.181450422033,4,1,1,100,0,0
72353.28,-240.671569948785,4,1,1,100,0,0
72381.3,-233.494833926799,4,1,1,100,0,0
72409.32,-226.631976865408,4,1,1,100,0,0
72437.34,-220.065095255176,4,1,1,100,0,0
72465.36,-213.77753454645,4,1,1,100,0,0
72493.38,-207.75378683215,4,1,1,100,0,0
72521.4,-201.979398101394,4,1,1,100,0,0
72549.42,-196.440884062555,4,1,1,100,0,0
72577.44,-191.125653649735,4,1,1,100,0,0
72605.46,-186.021939427536,4,1,1,100,0,0
72633.48,-181.11873419739,4,1,1,100,0,0
72661.5,-176.405733186329,4,1,1,100,0,0
72689.52,-171.873281267187,4,1,1,100,0,0
72717.54,-167.512324719291,4,1,1,100,0,0
72745.56,-163.314367091502,4,1,1,100,0,0
72773.58,-159.271428776206,4,1,1,100,0,0
72801.6,-155.376009944065,4,1,1,100,0,0
72829.62,-151.621056525846,4,1,1,100,0,0
72857.64,-147.999928960034,4,1,1,100,0,0
72885.66,-144.506373453601,4,1,1,100,0,0
72913.68,-141.134495528859,4,1,1,100,0,0
72941.7,-137.878735651994,4,1,1,100,0,0
72969.72,-134.733846759112,4,1,1,100,0,0
72997.74,-131.694873513659,4,1,1,100,0,0
73025.76,-128.757133145176,4,1,1,100,0,0
73053.78,-125.91619773376,4,1,1,100,0,0
73081.8,-123.167877817465,4,1,1,100,0,0
73109.82,-120.508207211452,4,1,1,100,0,0
73137.84,-117.933428938033,4,1,1,100,0,0
73165.86,-115.439982176067,4,1,1,100,0,0
73193.88,-113.024490146525,4,1,1,100,0,0
73221.9,-110.683748858574,4,1,1,100,0,0
73249.92,-108.414716647297,4,1,1,100,0,0
73277.94,-106.214504440297,4,1,1,100,0,0
73305.96,-104.080366695948,4,1,1,100,0,0
73333.98,-102.009692961025,4,1,1,100,0,0
73362,-100,4,1,1,100,0,0

[HitObjects]
64,0,506,5,0,0:0:0:0:
320,0,506,1,0,0:0:0:0:
192,0,1331,128,0,1743:0:0:0:0:
448,0,1331,128,0,1743:0:0:0:0:
64,0,1825,1,0,0:0:0:0:
320,0,1825,1,0,0:0:0:0:
192,0,2649,128,0,3061:0:0:0:0:
448,0,2649,128,0,3061:0:0:0:0:
64,0,3144,1,0,0:0:0:0:
320,0,3144,1,0,0:0:0:0:
192,0,3968,128,0,4380:0:0:0:0:
448,0,3968,128,0,4380:0:0:0:0:
64,0,4463,1,0,0:0:0:0:
448,0,4463,1,0,0:0:0:0:
64,0,5287,128,0,5699:0:0:0:0:
192,0,5287,128,0,5699:0:0:0:0:
64,0,5781,1,0,0:0:0:0:
320,0,5781,1,0,0:0:0:0:
192,0,5946,1,0,0:0:0:0:
448,0,6111,1,0,0:0:0:0:
448,0,6276,1,0,0:0:0:0:
192,0,6605,128,0,7017:0:0:0:0:
448,0,6605,128,0,7017:0:0:0:0:
320,0,6770,1,0,0:0:0:0:
320,0,6935,1,0,0:0:0:0:
64,0,7100,1,0,0:0:0:0:
320,0,7100,1,0,0:0:0:0:
64,0,7265,1,0,0:0:0:0:
64,0,7430,1,0,0:0:0:0:
64,0,7594,1,0,0:0:0:0:
64,0,7759,1,0,0:0:0:0:
192,0,7924,128,0,8336:0:0:0:0:
448,0,7924,128,0,8336:0:0:0:0:
320,0,8089,1,0,0:0:0:0:
320,0,8254,1,0,0:0:0:0:
64,0,8419,1,0,0:0:0:0:
320,0,8419,1,0,0:0:0:0:
64,0,8583,1,0,0:0:0:0:
192,0,8583,1,0,0:0:0:0:
320,0,8748,1,0,0:0:0:0:
320,0,8913,1,0,0:0:0:0:
192,0,9243,128,0,9655:0:0:0:0:
448,0,9243,128,0,9655:0:0:0:0:
320,0,9408,1,0,0:0:0:0:
320,0,9572,1,0,0:0:0:0:
448,0,9737,1,0,0:0:0:0:
64,0,9737,128,0,11056:0:0:0:0:
192,0,11056,1,0,0:0:0:0:
320,0,11056,1,0,0:0:0:0:
448,0,11056,1,0,0:0:0:0:
64,0,11221,1,0,0:0:0:0:
320,0,11386,1,0,0:0:0:0:
448,0,11386,1,0,0:0:0:0:
192,0,11550,1,0,0:0:0:0:
448,0,11653,1,0,0:0:0:0:
64,0,11715,1,0,0:0:0:0:
448,0,11818,1,0,0:0:0:0:
192,0,11880,1,0,0:0:0:0:
64,0,12045,1,0,0:0:0:0:
448,0,12045,1,0,0:0:0:0:
192,0,12210,1,0,0:0:0:0:
64,0,12375,1,0,0:0:0:0:
320,0,12375,1,0,0:0:0:0:
192,0,12457,1,0,0:0:0:0:
64,0,12539,1,0,0:0:0:0:
192,0,12622,1,0,0:0:0:0:
320,0,12704,1,0,0:0:0:0:
448,0,12704,1,0,0:0:0:0:
192,0,12869,1,0,0:0:0:0:
448,0,13034,1,0,0:0:0:0:
64,0,13116,1,0,0:0:0:0:
320,0,13199,1,0,0:0:0:0:
64,0,13364,1,0,0:0:0:0:
448,0,13364,1,0,0:0:0:0:
192,0,13528,1,0,0:0:0:0:
64,0,13693,1,0,0:0:0:0:
320,0,13693,1,0,0:0:0:0:
192,0,13858,1,0,0:0:0:0:
320,0,14023,1,0,0:0:0:0:
448,0,14023,1,0,0:0:0:0:
64,0,14105,1,0,0:0:0:0:
192,0,14105,1,0,0:0:0:0:
320,0,14188,1,0,0:0:0:0:
448,0,14188,1,0,0:0:0:0:
64,0,14270,1,0,0:0:0:0:
192,0,14270,1,0,0:0:0:0:
320,0,14353,1,0,0:0:0:0:
448,0,14456,1,0,0:0:0:0:
64,0,14517,1,0,0:0:0:0:
192,0,14682,1,0,0:0:0:0:
320,0,14682,1,0,0:0:0:0:
320,0,14847,1,0,0:0:0:0:
64,0,14930,1,0,0:0:0:0:
192,0,14930,1,0,0:0:0:0:
320,0,15012,1,0,0:0:0:0:
448,0,15012,1,0,0:0:0:0:
448,0,15177,1,0,0:0:0:0:
64,0,15342,1,0,0:0:0:0:
192,0,15342,1,0,0:0:0:0:
320,0,15424,1,0,0:0:0:0:
448,0,15424,1,0,0:0:0:0:
64,0,15506,1,0,0:0:0:0:
320,0,15616,1,0,0:0:0:0:
192,0,15671,1,0,0:0:0:0:
64,0,15754,1,0,0:0:0:0:
320,0,15754,1,0,0:0:0:0:
192,0,15836,1,0,0:0:0:0:
448,0,15836,1,0,0:0:0:0:
64,0,15919,1,0,0:0:0:0:
320,0,15919,1,0,0:0:0:0:
192,0,16001,1,0,0:0:0:0:
448,0,16001,1,0,0:0:0:0:
64,0,16083,1,0,0:0:0:0:
320,0,16083,1,0,0:0:0:0:
192,0,16166,1,0,0:0:0:0:
448,0,16166,1,0,0:0:0:0:
64,0,16248,1,0,0:0:0:0:
320,0,16248,1,0,0:0:0:0:
192,0,16331,1,0,0:0:0:0:
448,0,16331,128,0,16496:0:0:0:0:
64,0,16496,1,0,0:0:0:0:
192,0,16660,1,0,0:0:0:0:
320,0,16660,1,0,0:0:0:0:
448,0,16825,1,0,0:0:0:0:
64,0,16928,1,0,0:0:0:0:
192,0,16990,1,0,0:0:0:0:
320,0,17093,1,0,0:0:0:0:
448,0,17155,1,0,0:0:0:0:
64,0,17320,1,0,0:0:0:0:
192,0,17320,1,0,0:0:0:0:
448,0,17485,1,0,0:0:0:0:
192,0,17649,1,0,0:0:0:0:
320,0,17649,1,0,0:0:0:0:
448,0,17732,1,0,0:0:0:0:
320,0,17814,1,0,0:0:0:0:
448,0,17897,1,0,0:0:0:0:
64,0,17979,1,0,0:0:0:0:
320,0,17979,1,0,0:0:0:0:
192,0,18144,1,0,0:0:0:0:
448,0,18309,1,0,0:0:0:0:
64,0,18412,1,0,0:0:0:0:
192,0,18474,128,0,18638:0:0:0:0:
64,0,18638,1,0,0:0:0:0:
320,0,18638,1,0,0:0:0:0:
64,0,18803,1,0,0:0:0:0:
320,0,18968,1,0,0:0:0:0:
448,0,18968,1,0,0:0:0:0:
320,0,19133,1,0,0:0:0:0:
64,0,19298,1,0,0:0:0:0:
448,0,19298,1,0,0:0:0:0:
320,0,19463,1,0,0:0:0:0:
192,0,19566,1,0,0:0:0:0:
64,0,19627,1,0,0:0:0:0:
448,0,19730,1,0,0:0:0:0:
64,0,19792,1,0,0:0:0:0:
192,0,19957,1,0,0:0:0:0:
448,0,19957,1,0,0:0:0:0:
64,0,20039,1,0,0:0:0:0:
320,0,20039,1,0,0:0:0:0:
192,0,20122,1,0,0:0:0:0:
320,0,20204,1,0,0:0:0:0:
448,0,20204,1,0,0:0:0:0:
64,0,20287,1,0,0:0:0:0:
192,0,20287,1,0,0:0:0:0:
320,0,20369,1,0,0:0:0:0:
64,0,20452,1,0,0:0:0:0:
192,0,20534,1,0,0:0:0:0:
320,0,20616,1,0,0:0:0:0:
448,0,20616,1,0,0:0:0:0:
320,0,20699,1,0,0:0:0:0:
448,0,20699,1,0,0:0:0:0:
192,0,20781,1,0,0:0:0:0:
64,0,20864,1,0,0:0:0:0:
320,0,20864,1,0,0:0:0:0:
448,0,20946,128,0,20987:0:0:0:0:
64,0,21028,128,0,21070:0:0:0:0:
192,0,21111,128,0,21152:0:0:0:0:
64,0,21193,128,0,21235:0:0:0:0:
320,0,21276,128,0,21317:0:0:0:0:
192,0,21358,128,0,21399:0:0:0:0:
448,0,21441,128,0,21482:0:0:0:0:
320,0,21523,128,0,21564:0:0:0:0:
64,0,21605,1,0,0:0:0:0:
192,0,21605,128,0,21770:0:0:0:0:
448,0,21605,1,0,0:0:0:0:
64,0,21770,1,0,0:0:0:0:
320,0,21935,1,0,0:0:0:0:
448,0,21935,1,0,0:0:0:0:
320,0,22100,128,0,22265:0:0:0:0:
64,0,22182,1,0,0:0:0:0:
192,0,22265,1,0,0:0:0:0:
64,0,22347,1,0,0:0:0:0:
320,0,22430,1,0,0:0:0:0:
448,0,22430,1,0,0:0:0:0:
192,0,22594,1,0,0:0:0:0:
320,0,22594,1,0,0:0:0:0:
64,0,22759,1,0,0:0:0:0:
64,0,22924,1,0,0:0:0:0:
320,0,22924,1,0,0:0:0:0:
192,0,23006,1,0,0:0:0:0:
320,0,23089,1,0,0:0:0:0:
192,0,23171,1,0,0:0:0:0:
64,0,23254,1,0,0:0:0:0:
448,0,23254,1,0,0:0:0:0:
192,0,23419,1,0,0:0:0:0:
320,0,23583,1,0,0:0:0:0:
448,0,23666,1,0,0:0:0:0:
64,0,23748,1,0,0:0:0:0:
192,192,23748,1,0,0:0:0:0:
192,0,23913,1,0,0:0:0:0:
448,0,23913,1,0,0:0:0:0:
320,0,24078,1,0,0:0:0:0:
64,0,24243,128,0,24408:0:0:0:0:
448,0,24243,1,0,0:0:0:0:
320,0,24408,1,0,0:0:0:0:
64,0,24572,1,0,0:0:0:0:
448,0,24572,1,0,0:0:0:0:
192,0,24655,1,0,0:0:0:0:
320,0,24655,1,0,0:0:0:0:
64,0,24737,1,0,0:0:0:0:
448,0,24737,128,0,24902:0:0:0:0:
192,0,24820,1,0,0:0:0:0:
320,0,24820,1,0,0:0:0:0:
64,0,24902,1,0,0:0:0:0:
320,0,25012,1,0,0:0:0:0:
192,0,25067,1,0,0:0:0:0:
448,0,25122,1,0,0:0:0:0:
192,0,25177,1,0,0:0:0:0:
64,0,25232,1,0,0:0:0:0:
320,0,25232,1,0,0:0:0:0:
448,0,25314,1,0,0:0:0:0:
192,0,25397,1,0,0:0:0:0:
320,0,25479,1,0,0:0:0:0:
448,0,25479,1,0,0:0:0:0:
64,0,25561,1,0,0:0:0:0:
192,0,25561,1,0,0:0:0:0:
320,0,25726,1,0,0:0:0:0:
64,0,25891,1,0,0:0:0:0:
448,0,25891,1,0,0:0:0:0:
192,0,25974,1,0,0:0:0:0:
320,0,25974,1,0,0:0:0:0:
64,0,26056,1,0,0:0:0:0:
192,0,26166,1,0,0:0:0:0:
320,0,26221,1,0,0:0:0:0:
192,0,26303,1,0,0:0:0:0:
448,0,26303,1,0,0:0:0:0:
64,0,26386,1,0,0:0:0:0:
320,0,26386,1,0,0:0:0:0:
192,0,26468,1,0,0:0:0:0:
448,0,26468,1,0,0:0:0:0:
64,0,26550,1,0,0:0:0:0:
320,0,26550,1,0,0:0:0:0:
192,0,26633,1,0,0:0:0:0:
448,0,26633,1,0,0:0:0:0:
64,0,26715,1,0,0:0:0:0:
320,0,26715,1,0,0:0:0:0:
192,0,26798,1,0,0:0:0:0:
448,0,26798,1,0,0:0:0:0:
64,0,26880,128,0,27045:0:0:0:0:
320,0,26880,1,0,0:0:0:0:
192,0,27045,1,0,0:0:0:0:
320,0,27210,1,0,0:0:0:0:
448,0,27210,1,0,0:0:0:0:
64,0,27375,128,0,27539:0:0:0:0:
448,0,27457,1,0,0:0:0:0:
192,0,27539,1,0,0:0:0:0:
320,0,27704,1,0,0:0:0:0:
448,0,27704,1,0,0:0:0:0:
64,0,27869,1,0,0:0:0:0:
448,0,27869,1,0,0:0:0:0:
192,0,28034,1,0,0:0:0:0:
64,0,28199,1,0,0:0:0:0:
320,0,28199,1,0,0:0:0:0:
192,0,28281,1,0,0:0:0:0:
64,0,28364,1,0,0:0:0:0:
192,0,28446,1,0,0:0:0:0:
320,0,28528,1,0,0:0:0:0:
448,0,28528,1,0,0:0:0:0:
192,0,28693,1,0,0:0:0:0:
448,0,28858,1,0,0:0:0:0:
64,0,28920,1,0,0:0:0:0:
320,0,29023,1,0,0:0:0:0:
192,192,29023,1,0,0:0:0:0:
64,0,29188,1,0,0:0:0:0:
192,0,29188,1,0,0:0:0:0:
320,0,29353,1,0,0:0:0:0:
192,0,29517,1,0,0:0:0:0:
448,0,29517,1,0,0:0:0:0:
64,0,29572,1,0,0:0:0:0:
448,0,29627,1,0,0:0:0:0:
320,0,29682,1,0,0:0:0:0:
192,0,29737,1,0,0:0:0:0:
448,0,29792,1,0,0:0:0:0:
64,0,29847,1,0,0:0:0:0:
320,0,29847,1,0,0:0:0:0:
192,0,29902,1,0,0:0:0:0:
320,0,29957,1,0,0:0:0:0:
448,0,30012,1,0,0:0:0:0:
64,0,30067,1,0,0:0:0:0:
192,0,30122,1,0,0:0:0:0:
320,0,30177,1,0,0:0:0:0:
448,0,30218,1,0,0:0:0:0:
192,0,30300,1,0,0:0:0:0:
64,0,30342,1,0,0:0:0:0:
320,0,30506,1,0,0:0:0:0:
448,0,30506,1,0,0:0:0:0:
64,0,30589,1,0,0:0:0:0:
192,0,30589,1,0,0:0:0:0:
320,0,30671,1,0,0:0:0:0:
192,0,30754,1,0,0:0:0:0:
448,0,30754,1,0,0:0:0:0:
64,0,30836,1,0,0:0:0:0:
320,0,30836,1,0,0:0:0:0:
192,0,30919,1,0,0:0:0:0:
64,0,31001,1,0,0:0:0:0:
192,0,31083,1,0,0:0:0:0:
320,0,31166,1,0,0:0:0:0:
448,192,31166,1,0,0:0:0:0:
320,0,31248,1,0,0:0:0:0:
448,192,31248,1,0,0:0:0:0:
192,0,31331,1,0,0:0:0:0:
64,192,31331,1,0,0:0:0:0:
448,0,31413,1,0,0:0:0:0:
320,0,31496,128,0,31537:0:0:0:0:
64,0,31578,128,0,31619:0:0:0:0:
192,0,31660,128,0,31702:0:0:0:0:
320,0,31743,128,0,31784:0:0:0:0:
192,0,31825,128,0,31866:0:0:0:0:
64,0,31825,1,0,0:0:0:0:
320,0,31908,128,0,31949:0:0:0:0:
448,0,31990,128,0,32031:0:0:0:0:
192,0,32072,128,0,32114:0:0:0:0:
64,0,32155,1,0,0:0:0:0:
320,0,32155,1,0,0:0:0:0:
448,0,32155,1,0,0:0:0:0:
64,0,32320,1,0,0:0:0:0:
192,0,32402,1,0,0:0:0:0:
320,0,32485,1,0,0:0:0:0:
448,0,32485,1,0,0:0:0:0:
320,0,32567,1,0,0:0:0:0:
192,0,32649,1,0,0:0:0:0:
64,0,32732,1,0,0:0:0:0:
192,0,32814,1,0,0:0:0:0:
320,0,32897,1,0,0:0:0:0:
64,0,32979,1,0,0:0:0:0:
192,0,32979,1,0,0:0:0:0:
192,0,33061,1,0,0:0:0:0:
320,0,33144,1,0,0:0:0:0:
448,0,33144,1,0,0:0:0:0:
64,0,33309,1,0,0:0:0:0:
192,0,33391,1,0,0:0:0:0:
320,0,33474,1,0,0:0:0:0:
448,0,33474,1,0,0:0:0:0:
320,0,33556,1,0,0:0:0:0:
192,0,33638,1,0,0:0:0:0:
64,0,33721,1,0,0:0:0:0:
192,0,33803,1,0,0:0:0:0:
448,0,33803,1,0,0:0:0:0:
320,0,33886,1,0,0:0:0:0:
448,0,33968,1,0,0:0:0:0:
448,0,34050,1,0,0:0:0:0:
320,0,34133,1,0,0:0:0:0:
64,0,34215,1,0,0:0:0:0:
192,0,34298,1,0,0:0:0:0:
448,0,34298,1,0,0:0:0:0:
320,0,34380,1,0,0:0:0:0:
64,0,34463,1,0,0:0:0:0:
192,0,34463,1,0,0:0:0:0:
448,0,34545,1,0,0:0:0:0:
320,0,34627,1,0,0:0:0:0:
192,0,34710,1,0,0:0:0:0:
64,0,34792,1,0,0:0:0:0:
320,0,34792,1,0,0:0:0:0:
448,0,34792,1,0,0:0:0:0:
64,0,34957,1,0,0:0:0:0:
192,0,35039,1,0,0:0:0:0:
320,0,35122,1,0,0:0:0:0:
448,0,35122,1,0,0:0:0:0:
448,0,35204,1,0,0:0:0:0:
64,0,35287,1,0,0:0:0:0:
320,0,35369,1,0,0:0:0:0:
192,0,35452,1,0,0:0:0:0:
448,0,35534,1,0,0:0:0:0:
64,0,35616,1,0,0:0:0:0:
320,0,35616,1,0,0:0:0:0:
64,0,35699,1,0,0:0:0:0:
192,0,35781,1,0,0:0:0:0:
320,0,35781,1,0,0:0:0:0:
448,0,35864,1,0,0:0:0:0:
64,0,35946,1,0,0:0:0:0:
192,0,36028,1,0,0:0:0:0:
320,0,36111,1,0,0:0:0:0:
448,0,36111,1,0,0:0:0:0:
448,0,36193,1,0,0:0:0:0:
320,0,36276,1,0,0:0:0:0:
192,0,36358,1,0,0:0:0:0:
64,0,36441,1,0,0:0:0:0:
448,0,36441,1,0,0:0:0:0:
320,0,36523,1,0,0:0:0:0:
448,0,36605,1,0,0:0:0:0:
448,0,36688,1,0,0:0:0:0:
192,0,36770,1,0,0:0:0:0:
320,0,36853,1,0,0:0:0:0:
64,0,36935,1,0,0:0:0:0:
448,0,36935,1,0,0:0:0:0:
192,0,37017,1,0,0:0:0:0:
64,0,37100,1,0,0:0:0:0:
320,0,37100,1,0,0:0:0:0:
448,0,37182,1,0,0:0:0:0:
320,0,37265,1,0,0:0:0:0:
64,0,37347,1,0,0:0:0:0:
192,0,37430,1,0,0:0:0:0:
320,0,37430,1,0,0:0:0:0:
448,0,37430,1,0,0:0:0:0:
64,0,37594,1,0,0:0:0:0:
192,0,37677,1,0,0:0:0:0:
320,0,37759,1,0,0:0:0:0:
448,0,37759,1,0,0:0:0:0:
320,0,37842,1,0,0:0:0:0:
64,0,37924,1,0,0:0:0:0:
192,0,38006,1,0,0:0:0:0:
320,0,38089,1,0,0:0:0:0:
448,0,38171,1,0,0:0:0:0:
64,0,38254,1,0,0:0:0:0:
192,0,38254,1,0,0:0:0:0:
192,0,38336,1,0,0:0:0:0:
64,0,38419,1,0,0:0:0:0:
448,0,38419,1,0,0:0:0:0:
192,0,38583,1,0,0:0:0:0:
320,0,38666,1,0,0:0:0:0:
64,0,38748,1,0,0:0:0:0:
448,0,38748,1,0,0:0:0:0:
448,0,38831,1,0,0:0:0:0:
320,0,38913,1,0,0:0:0:0:
64,0,38996,1,0,0:0:0:0:
192,0,39078,1,0,0:0:0:0:
448,0,39078,1,0,0:0:0:0:
320,0,39160,1,0,0:0:0:0:
448,0,39243,1,0,0:0:0:0:
448,0,39325,1,0,0:0:0:0:
320,0,39408,1,0,0:0:0:0:
64,0,39490,1,0,0:0:0:0:
192,0,39572,1,0,0:0:0:0:
448,0,39572,1,0,0:0:0:0:
320,0,39655,1,0,0:0:0:0:
64,0,39737,1,0,0:0:0:0:
192,0,39737,1,0,0:0:0:0:
448,0,39820,1,0,0:0:0:0:
320,0,39902,1,0,0:0:0:0:
192,0,39985,1,0,0:0:0:0:
64,0,40067,1,0,0:0:0:0:
320,0,40067,1,0,0:0:0:0:
448,0,40067,1,0,0:0:0:0:
192,0,40149,1,0,0:0:0:0:
64,0,40232,1,0,0:0:0:0:
320,0,40314,1,0,0:0:0:0:
192,0,40397,1,0,0:0:0:0:
448,0,40397,1,0,0:0:0:0:
448,0,40479,1,0,0:0:0:0:
64,0,40561,1,0,0:0:0:0:
192,0,40644,1,0,0:0:0:0:
320,0,40726,1,0,0:0:0:0:
448,0,40809,1,0,0:0:0:0:
64,0,40891,1,0,0:0:0:0:
192,0,40891,1,0,0:0:0:0:
192,0,40974,1,0,0:0:0:0:
320,0,41056,1,0,0:0:0:0:
448,0,41056,1,0,0:0:0:0:
64,0,41138,1,0,0:0:0:0:
192,0,41221,1,0,0:0:0:0:
320,0,41303,1,0,0:0:0:0:
64,0,41386,1,0,0:0:0:0:
192,0,41386,1,0,0:0:0:0:
448,0,41386,1,0,0:0:0:0:
448,0,41468,1,0,0:0:0:0:
320,0,41550,1,0,0:0:0:0:
64,0,41633,1,0,0:0:0:0:
192,0,41715,1,0,0:0:0:0:
448,0,41715,1,0,0:0:0:0:
320,0,41798,1,0,0:0:0:0:
64,0,41880,1,0,0:0:0:0:
192,0,41880,1,0,0:0:0:0:
448,0,41880,1,0,0:0:0:0:
448,0,41963,1,0,0:0:0:0:
320,0,42045,128,0,42086:0:0:0:0:
64,0,42127,128,0,42169:0:0:0:0:
192,0,42210,128,0,42251:0:0:0:0:
320,0,42292,128,0,42333:0:0:0:0:
64,0,42375,1,0,0:0:0:0:
192,0,42375,1,0,0:0:0:0:
448,0,42375,128,0,42416:0:0:0:0:
320,0,42457,128,0,42498:0:0:0:0:
448,0,42539,128,0,42581:0:0:0:0:
320,0,42622,128,0,42663:0:0:0:0:
64,0,42704,128,0,42786:0:0:0:0:
192,0,42704,1,0,0:0:0:0:
192,0,43199,1,0,0:0:0:0:
320,0,43254,1,0,0:0:0:0:
64,0,43309,1,0,0:0:0:0:
192,0,43364,1,0,0:0:0:0:
320,0,43528,1,0,0:0:0:0:
448,0,43693,1,0,0:0:0:0:
320,0,43858,1,0,0:0:0:0:
448,0,44188,128,0,44270:0:0:0:0:
64,0,44352,1,0,0:0:0:0:
320,0,44517,1,0,0:0:0:0:
192,0,44682,1,0,0:0:0:0:
320,0,44847,1,0,0:0:0:0:
448,0,45012,1,0,0:0:0:0:
320,0,45177,1,0,0:0:0:0:
448,0,45177,1,0,0:0:0:0:
192,0,45506,128,0,45671:0:0:0:0:
320,0,45506,128,0,45671:0:0:0:0:
320,0,45836,1,0,0:0:0:0:
448,0,45919,1,0,0:0:0:0:
320,0,46001,1,0,0:0:0:0:
192,0,46083,1,0,0:0:0:0:
320,0,46166,1,0,0:0:0:0:
64,0,46248,1,0,0:0:0:0:
192,0,46331,128,0,46660:0:0:0:0:
448,0,46331,128,0,46660:0:0:0:0:
64,0,46825,1,0,0:0:0:0:
448,0,46825,1,0,0:0:0:0:
448,0,47155,1,0,0:0:0:0:
192,0,47320,1,0,0:0:0:0:
320,0,47485,1,0,0:0:0:0:
64,0,47649,128,0,47732:0:0:0:0:
448,0,47649,1,0,0:0:0:0:
320,0,47759,1,0,0:0:0:0:
192,0,47869,1,0,0:0:0:0:
64,0,47979,1,0,0:0:0:0:
320,0,48089,1,0,0:0:0:0:
192,0,48199,1,0,0:0:0:0:
64,0,48309,1,0,0:0:0:0:
448,0,48309,128,0,49627:0:0:0:0:
320,0,48638,128,0,48886:0:0:0:0:
192,0,48803,128,0,49050:0:0:0:0:
64,0,48968,128,0,49133:0:0:0:0:
320,0,49133,128,0,49298:0:0:0:0:
64,0,49298,128,0,49463:0:0:0:0:
192,0,49463,128,0,49627:0:0:0:0:
320,0,49792,1,0,0:0:0:0:
448,0,49957,1,0,0:0:0:0:
192,0,50122,1,0,0:0:0:0:
64,0,50286,128,0,51439:0:0:0:0:
448,0,50287,1,0,0:0:0:0:
448,0,50616,128,0,50864:0:0:0:0:
192,0,50781,128,0,51028:0:0:0:0:
320,0,50946,128,0,51111:0:0:0:0:
448,0,51111,128,0,51276:0:0:0:0:
192,0,51276,128,0,51441:0:0:0:0:
448,0,51441,1,0,0:0:0:0:
448,0,51770,1,0,0:0:0:0:
320,0,51853,1,0,0:0:0:0:
192,0,51935,1,0,0:0:0:0:
448,0,52017,1,0,0:0:0:0:
320,0,52100,1,0,0:0:0:0:
192,0,52182,1,0,0:0:0:0:
64,0,52265,1,0,0:0:0:0:
448,0,52265,128,0,53583:0:0:0:0:
320,0,52594,128,0,52842:0:0:0:0:
192,0,52759,128,0,53006:0:0:0:0:
64,0,52924,128,0,53089:0:0:0:0:
320,0,53089,128,0,53254:0:0:0:0:
64,0,53254,128,0,53419:0:0:0:0:
192,0,53419,128,0,53583:0:0:0:0:
320,0,53748,1,0,0:0:0:0:
448,0,53913,1,0,0:0:0:0:
192,0,54078,1,0,0:0:0:0:
64,0,54242,128,0,55395:0:0:0:0:
448,0,54243,1,0,0:0:0:0:
448,0,54572,128,0,54820:0:0:0:0:
192,0,54737,128,0,54985:0:0:0:0:
320,0,54902,128,0,55067:0:0:0:0:
448,0,55067,128,0,55232:0:0:0:0:
192,0,55232,128,0,55397:0:0:0:0:
448,0,55397,1,0,0:0:0:0:
448,0,55726,1,0,0:0:0:0:
320,0,55809,1,0,0:0:0:0:
192,0,55891,1,0,0:0:0:0:
320,0,55972,1,0,0:0:0:0:
192,0,56055,1,0,0:0:0:0:
64,0,56137,1,0,0:0:0:0:
448,0,56220,128,0,61494:0:0:0:0:
192,0,61496,1,0,0:0:0:0:
320,0,61496,1,0,0:0:0:0:
64,0,61660,1,0,0:0:0:0:
192,0,61825,1,0,0:0:0:0:
64,0,61990,1,0,0:0:0:0:
320,0,61990,1,0,0:0:0:0:
448,0,62072,1,0,0:0:0:0:
320,0,62155,1,0,0:0:0:0:
192,0,62320,1,0,0:0:0:0:
64,0,62485,1,0,0:0:0:0:
192,0,62649,1,0,0:0:0:0:
320,0,62649,128,0,63309:0:0:0:0:
448,0,62979,1,0,0:0:0:0:
192,0,63144,1,0,0:0:0:0:
64,0,63309,1,0,0:0:0:0:
448,0,63309,128,0,64133:0:0:0:0:
64,0,63638,1,0,0:0:0:0:
320,0,63803,1,0,0:0:0:0:
192,0,63968,1,0,0:0:0:0:
64,0,64133,1,0,0:0:0:0:
320,0,64133,1,0,0:0:0:0:
448,0,64298,1,0,0:0:0:0:
320,0,64380,1,0,0:0:0:0:
192,0,64463,1,0,0:0:0:0:
64,0,64627,1,0,0:0:0:0:
448,0,64627,1,0,0:0:0:0:
192,0,64792,1,0,0:0:0:0:
320,0,64957,1,0,0:0:0:0:
448,0,65122,1,0,0:0:0:0:
64,0,65287,128,0,65864:0:0:0:0:
320,0,65287,1,0,0:0:0:0:
192,0,65616,1,0,0:0:0:0:
320,0,65781,1,0,0:0:0:0:
448,0,65946,1,0,0:0:0:0:
64,0,65946,128,0,66770:0:0:0:0:
192,0,66770,1,0,0:0:0:0:
320,0,66770,1,0,0:0:0:0:
64,0,66935,1,0,0:0:0:0:
192,0,67100,1,0,0:0:0:0:
64,0,67265,1,0,0:0:0:0:
320,0,67265,1,0,0:0:0:0:
448,0,67347,1,0,0:0:0:0:
320,0,67430,1,0,0:0:0:0:
192,0,67594,1,0,0:0:0:0:
64,0,67759,1,0,0:0:0:0:
192,0,67924,1,0,0:0:0:0:
320,0,67924,128,0,68583:0:0:0:0:
448,0,68254,1,0,0:0:0:0:
192,0,68419,1,0,0:0:0:0:
64,0,68583,1,0,0:0:0:0:
448,0,68583,128,0,69408:0:0:0:0:
64,0,68748,1,0,0:0:0:0:
64,0,68913,1,0,0:0:0:0:
192,0,69078,1,0,0:0:0:0:
320,0,69243,1,0,0:0:0:0:
64,0,69408,1,0,0:0:0:0:
320,0,69408,1,0,0:0:0:0:
64,0,69572,1,0,0:0:0:0:
192,0,69572,1,0,0:0:0:0:
192,0,69737,1,0,0:0:0:0:
320,0,69902,1,0,0:0:0:0:
448,0,69902,1,0,0:0:0:0:
320,0,70067,1,0,0:0:0:0:
192,0,70232,1,0,0:0:0:0:
448,0,70397,1,0,0:0:0:0:
320,0,70560,1,0,0:0:0:0:
64,0,70561,128,0,73281:0:0:0:0:
64,0,73364,1,0,0:0:0:0:
320,0,73364,128,0,73446:0:0:0:0:
448,0,73364,1,0,0:0:0:0:
192,0,73528,1,0,0:0:0:0:
64,0,73693,1,0,0:0:0:0:
320,0,73693,1,0,0:0:0:0:
192,0,73858,128,0,73941:0:0:0:0:
448,0,73941,1,0,0:0:0:0:
320,0,74023,1,0,0:0:0:0:
192,0,74188,1,0,0:0:0:0:
320,0,74188,1,0,0:0:0:0:
64,0,74353,1,0,0:0:0:0:
448,0,74353,1,0,0:0:0:0:
320,0,74517,1,0,0:0:0:0:
64,0,74682,1,0,0:0:0:0:
320,0,74765,1,0,0:0:0:0:
448,0,74847,1,0,0:0:0:0:
192,0,74930,1,0,0:0:0:0:
64,0,75012,1,0,0:0:0:0:
320,0,75012,1,0,0:0:0:0:
192,0,75177,1,0,0:0:0:0:
320,0,75342,1,0,0:0:0:0:
192,0,75424,1,0,0:0:0:0:
64,0,75506,1,0,0:0:0:0:
320,0,75671,1,0,0:0:0:0:
448,0,75671,1,0,0:0:0:0:
192,0,75836,1,0,0:0:0:0:
64,0,76001,128,0,76083:0:0:0:0:
320,0,76001,1,0,0:0:0:0:
448,0,76166,1,0,0:0:0:0:
320,0,76248,1,0,0:0:0:0:
64,0,76331,1,0,0:0:0:0:
192,0,76331,1,0,0:0:0:0:
64,0,76496,128,0,76578:0:0:0:0:
448,0,76496,1,0,0:0:0:0:
192,0,76660,1,0,0:0:0:0:
448,0,76770,1,0,0:0:0:0:
320,0,76825,1,0,0:0:0:0:
192,0,76880,1,0,0:0:0:0:
64,0,76935,1,0,0:0:0:0:
320,0,76990,1,0,0:0:0:0:
448,0,76990,1,0,0:0:0:0:
448,0,77072,1,0,0:0:0:0:
192,0,77155,1,0,0:0:0:0:
320,0,77237,1,0,0:0:0:0:
192,0,77320,1,0,0:0:0:0:
448,0,77402,1,0,0:0:0:0:
64,0,77485,1,0,0:0:0:0:
192,0,77649,1,0,0:0:0:0:
320,0,77649,1,0,0:0:0:0:
448,0,77814,1,0,0:0:0:0:
64,0,77917,1,0,0:0:0:0:
448,0,77979,1,0,0:0:0:0:
192,0,78061,1,0,0:0:0:0:
448,0,78144,1,0,0:0:0:0:
192,0,78226,1,0,0:0:0:0:
320,0,78309,1,0,0:0:0:0:
448,0,78309,1,0,0:0:0:0:
192,0,78391,1,0,0:0:0:0:
448,0,78474,1,0,0:0:0:0:
192,0,78556,1,0,0:0:0:0:
64,0,78638,1,0,0:0:0:0:
448,0,78638,128,0,78721:0:0:0:0:
64,0,78803,1,0,0:0:0:0:
192,0,78968,1,0,0:0:0:0:
320,0,78968,1,0,0:0:0:0:
320,0,79133,128,0,79215:0:0:0:0:
448,0,79215,1,0,0:0:0:0:
192,0,79298,1,0,0:0:0:0:
192,0,79463,1,0,0:0:0:0:
320,0,79463,1,0,0:0:0:0:
64,0,79627,1,0,0:0:0:0:
448,0,79627,1,0,0:0:0:0:
192,0,79792,1,0,0:0:0:0:
64,0,79957,1,0,0:0:0:0:
192,0,80039,1,0,0:0:0:0:
448,0,80122,1,0,0:0:0:0:
320,0,80204,1,0,0:0:0:0:
64,0,80287,1,0,0:0:0:0:
192,0,80287,1,0,0:0:0:0:
320,0,80452,1,0,0:0:0:0:
64,0,80616,1,0,0:0:0:0:
192,0,80699,1,0,0:0:0:0:
64,0,80781,1,0,0:0:0:0:
320,0,80864,1,0,0:0:0:0:
192,0,80946,1,0,0:0:0:0:
448,0,80946,1,0,0:0:0:0:
320,0,81111,1,0,0:0:0:0:
64,0,81276,1,0,0:0:0:0:
448,0,81276,128,0,81358:0:0:0:0:
320,0,81441,1,0,0:0:0:0:
64,0,81605,1,0,0:0:0:0:
192,0,81605,1,0,0:0:0:0:
320,0,81770,128,0,81853:0:0:0:0:
448,0,81770,1,0,0:0:0:0:
64,0,81935,1,0,0:0:0:0:
448,0,82045,1,0,0:0:0:0:
192,0,82100,1,0,0:0:0:0:
320,0,82155,1,0,0:0:0:0:
64,0,82210,1,0,0:0:0:0:
192,0,82265,1,0,0:0:0:0:
448,0,82265,1,0,0:0:0:0:
448,0,82347,1,0,0:0:0:0:
64,0,82430,1,0,0:0:0:0:
320,0,82430,1,0,0:0:0:0:
448,0,82512,1,0,0:0:0:0:
192,0,82594,1,0,0:0:0:0:
320,0,82594,1,0,0:0:0:0:
64,0,82677,1,0,0:0:0:0:
320,0,82759,1,0,0:0:0:0:
64,0,82842,1,0,0:0:0:0:
320,0,82924,1,0,0:0:0:0:
64,0,83006,1,0,0:0:0:0:
192,0,83089,1,0,0:0:0:0:
448,0,83089,1,0,0:0:0:0:
320,0,83171,1,0,0:0:0:0:
64,0,83254,128,0,83295:0:0:0:0:
192,0,83336,128,0,83377:0:0:0:0:
320,0,83419,128,0,83460:0:0:0:0:
192,0,83501,128,0,83542:0:0:0:0:
64,0,83583,1,0,0:0:0:0:
320,0,83583,128,0,83625:0:0:0:0:
448,0,83666,128,0,83707:0:0:0:0:
192,0,83748,128,0,83789:0:0:0:0:
320,0,83831,128,0,83872:0:0:0:0:
64,0,83913,1,0,0:0:0:0:
192,0,83913,1,0,0:0:0:0:
448,0,83913,1,0,0:0:0:0:
64,0,84078,1,0,0:0:0:0:
192,0,84160,1,0,0:0:0:0:
320,0,84243,1,0,0:0:0:0:
320,0,84325,1,0,0:0:0:0:
192,0,84408,1,0,0:0:0:0:
448,0,84408,1,0,0:0:0:0:
64,0,84490,1,0,0:0:0:0:
192,0,84572,1,0,0:0:0:0:
320,0,84655,1,0,0:0:0:0:
448,0,84737,1,0,0:0:0:0:
448,0,84820,1,0,0:0:0:0:
192,0,84902,1,0,0:0:0:0:
320,0,84985,1,0,0:0:0:0:
64,0,85067,1,0,0:0:0:0:
448,0,85067,1,0,0:0:0:0:
192,0,85149,1,0,0:0:0:0:
64,0,85232,1,0,0:0:0:0:
320,0,85232,1,0,0:0:0:0:
448,0,85232,1,0,0:0:0:0:
320,0,85314,1,0,0:0:0:0:
192,0,85397,1,0,0:0:0:0:
64,0,85479,1,0,0:0:0:0:
192,0,85561,1,0,0:0:0:0:
320,0,85644,1,0,0:0:0:0:
64,0,85726,1,0,0:0:0:0:
448,0,85726,1,0,0:0:0:0:
448,0,85809,1,0,0:0:0:0:
192,0,85891,1,0,0:0:0:0:
64,0,85974,1,0,0:0:0:0:
192,0,86056,1,0,0:0:0:0:
320,0,86138,1,0,0:0:0:0:
64,0,86221,1,0,0:0:0:0:
448,0,86303,1,0,0:0:0:0:
320,0,86386,1,0,0:0:0:0:
192,0,86468,1,0,0:0:0:0:
64,0,86550,1,0,0:0:0:0:
320,0,86550,1,0,0:0:0:0:
448,0,86550,1,0,0:0:0:0:
64,0,86715,1,0,0:0:0:0:
192,0,86798,1,0,0:0:0:0:
448,0,86880,1,0,0:0:0:0:
448,0,86963,1,0,0:0:0:0:
192,0,87045,1,0,0:0:0:0:
320,0,87045,1,0,0:0:0:0:
64,0,87127,1,0,0:0:0:0:
192,0,87210,1,0,0:0:0:0:
320,0,87292,1,0,0:0:0:0:
448,0,87375,1,0,0:0:0:0:
448,0,87457,1,0,0:0:0:0:
320,0,87539,1,0,0:0:0:0:
64,0,87622,1,0,0:0:0:0:
192,0,87704,1,0,0:0:0:0:
448,0,87704,1,0,0:0:0:0:
320,0,87787,1,0,0:0:0:0:
64,0,87869,1,0,0:0:0:0:
192,0,87869,1,0,0:0:0:0:
448,0,87869,1,0,0:0:0:0:
448,0,87952,1,0,0:0:0:0:
320,0,88034,1,0,0:0:0:0:
64,0,88116,1,0,0:0:0:0:
192,0,88199,1,0,0:0:0:0:
320,0,88281,1,0,0:0:0:0:
64,0,88364,1,0,0:0:0:0:
192,0,88364,1,0,0:0:0:0:
448,0,88364,1,0,0:0:0:0:
448,0,88446,1,0,0:0:0:0:
320,0,88528,1,0,0:0:0:0:
64,0,88611,1,0,0:0:0:0:
192,0,88693,1,0,0:0:0:0:
320,0,88776,1,0,0:0:0:0:
64,0,88858,1,0,0:0:0:0:
192,0,88858,1,0,0:0:0:0:
448,0,88858,1,0,0:0:0:0:
320,0,88941,1,0,0:0:0:0:
192,0,89023,1,0,0:0:0:0:
64,0,89105,1,0,0:0:0:0:
192,0,89188,1,0,0:0:0:0:
320,0,89188,1,0,0:0:0:0:
448,0,89188,1,0,0:0:0:0:
320,0,89517,1,0,0:0:0:0:
448,0,89517,1,0,0:0:0:0:
320,0,89600,1,0,0:0:0:0:
448,0,89600,1,0,0:0:0:0:
448,0,89785,1,0,0:0:0:0:
192,0,89847,1,0,0:0:0:0:
64,0,89930,1,0,0:0:0:0:
192,0,90012,1,0,0:0:0:0:
64,0,90094,1,0,0:0:0:0:
320,0,90177,1,0,0:0:0:0:
192,0,90259,1,0,0:0:0:0:
320,0,90342,1,0,0:0:0:0:
192,0,90424,1,0,0:0:0:0:
448,0,90506,1,0,0:0:0:0:
320,0,90589,1,0,0:0:0:0:
448,0,90671,1,0,0:0:0:0:
320,0,90754,1,0,0:0:0:0:
192,0,90836,1,0,0:0:0:0:
64,0,90919,1,0,0:0:0:0:
192,0,91001,1,0,0:0:0:0:
64,0,91083,1,0,0:0:0:0:
448,0,91166,1,0,0:0:0:0:
192,0,91221,1,0,0:0:0:0:
448,0,91276,1,0,0:0:0:0:
320,0,91331,1,0,0:0:0:0:
192,0,91386,1,0,0:0:0:0:
448,0,91441,1,0,0:0:0:0:
320,0,91496,1,0,0:0:0:0:
64,0,91550,1,0,0:0:0:0:
320,0,91605,1,0,0:0:0:0:
192,0,91660,1,0,0:0:0:0:
64,0,91715,1,0,0:0:0:0:
448,0,91770,1,0,0:0:0:0:
64,0,91825,1,0,0:0:0:0:
192,0,91825,1,0,0:0:0:0:
320,0,91825,1,0,0:0:0:0:
448,0,91908,1,0,0:0:0:0:
64,0,91990,1,0,0:0:0:0:
192,0,92072,1,0,0:0:0:0:
320,0,92155,1,0,0:0:0:0:
320,0,92237,1,0,0:0:0:0:
64,0,92320,1,0,0:0:0:0:
192,0,92320,1,0,0:0:0:0:
448,0,92320,1,0,0:0:0:0:
320,0,92402,1,0,0:0:0:0:
64,0,92485,1,0,0:0:0:0:
192,0,92567,1,0,0:0:0:0:
320,0,92649,1,0,0:0:0:0:
320,0,92732,1,0,0:0:0:0:
64,0,92814,1,0,0:0:0:0:
192,0,92814,1,0,0:0:0:0:
448,0,92814,1,0,0:0:0:0:
320,0,92897,1,0,0:0:0:0:
64,0,92979,1,0,0:0:0:0:
192,0,93061,1,0,0:0:0:0:
320,0,93144,1,0,0:0:0:0:
320,0,93226,1,0,0:0:0:0:
64,0,93309,1,0,0:0:0:0:
192,0,93309,1,0,0:0:0:0:
448,0,93309,1,0,0:0:0:0:
320,0,93391,1,0,0:0:0:0:
64,0,93474,1,0,0:0:0:0:
192,0,93556,1,0,0:0:0:0:
320,0,93638,1,0,0:0:0:0:
320,0,93721,1,0,0:0:0:0:
64,0,93803,1,0,0:0:0:0:
192,0,93803,1,0,0:0:0:0:
448,0,93803,1,0,0:0:0:0:
320,0,93886,1,0,0:0:0:0:
64,0,93968,1,0,0:0:0:0:
192,0,94050,1,0,0:0:0:0:
64,0,94133,1,0,0:0:0:0:
320,0,94133,1,0,0:0:0:0:
448,0,94133,1,0,0:0:0:0:
192,0,94215,1,0,0:0:0:0:
320,0,94298,1,0,0:0:0:0:
448,0,94380,1,0,0:0:0:0:
64,0,94463,128,0,94627:0:0:0:0:
192,0,94463,1,0,0:0:0:0:
320,0,94463,1,0,0:0:0:0:
192,0,94627,1,0,0:0:0:0:
320,0,94792,1,0,0:0:0:0:
448,0,94792,1,0,0:0:0:0:
192,0,94957,128,0,95122:0:0:0:0:
192,0,95287,1,0,0:0:0:0:
320,0,95287,1,0,0:0:0:0:
64,0,95452,1,0,0:0:0:0:
448,0,95452,1,0,0:0:0:0:
192,0,95616,1,0,0:0:0:0:
320,0,95781,1,0,0:0:0:0:
448,0,95864,1,0,0:0:0:0:
320,0,95946,1,0,0:0:0:0:
448,0,96028,1,0,0:0:0:0:
192,0,96111,1,0,0:0:0:0:
320,0,96111,1,0,0:0:0:0:
64,0,96276,1,0,0:0:0:0:
448,0,96441,1,0,0:0:0:0:
320,0,96544,1,0,0:0:0:0:
192,0,96605,1,0,0:0:0:0:
64,0,96770,1,0,0:0:0:0:
320,0,96770,1,0,0:0:0:0:
448,0,96935,1,0,0:0:0:0:
192,0,97100,128,0,97265:0:0:0:0:
320,0,97100,1,0,0:0:0:0:
448,0,97265,1,0,0:0:0:0:
320,0,97347,1,0,0:0:0:0:
64,0,97430,1,0,0:0:0:0:
192,0,97430,1,0,0:0:0:0:
64,0,97594,128,0,97759:0:0:0:0:
192,0,97759,1,0,0:0:0:0:
448,0,97869,1,0,0:0:0:0:
320,0,97924,1,0,0:0:0:0:
64,0,97979,1,0,0:0:0:0:
192,0,98034,1,0,0:0:0:0:
448,0,98089,1,0,0:0:0:0:
448,0,98171,1,0,0:0:0:0:
64,0,98254,1,0,0:0:0:0:
192,0,98336,1,0,0:0:0:0:
320,0,98419,1,0,0:0:0:0:
192,0,98583,1,0,0:0:0:0:
320,0,98748,1,0,0:0:0:0:
448,0,98748,1,0,0:0:0:0:
320,0,98831,1,0,0:0:0:0:
448,0,98831,1,0,0:0:0:0:
192,0,98913,1,0,0:0:0:0:
64,0,99023,1,0,0:0:0:0:
192,0,99078,1,0,0:0:0:0:
320,0,99160,1,0,0:0:0:0:
448,0,99160,1,0,0:0:0:0:
64,0,99243,1,0,0:0:0:0:
192,0,99243,1,0,0:0:0:0:
320,0,99325,1,0,0:0:0:0:
448,0,99325,1,0,0:0:0:0:
64,0,99408,1,0,0:0:0:0:
192,0,99408,1,0,0:0:0:0:
320,0,99490,1,0,0:0:0:0:
448,0,99490,1,0,0:0:0:0:
64,0,99572,1,0,0:0:0:0:
192,0,99572,1,0,0:0:0:0:
320,0,99655,1,0,0:0:0:0:
448,0,99655,1,0,0:0:0:0:
64,0,99737,128,0,99902:0:0:0:0:
192,0,99737,1,0,0:0:0:0:
448,0,99902,1,0,0:0:0:0:
192,0,100067,1,0,0:0:0:0:
320,0,100067,1,0,0:0:0:0:
448,0,100232,128,0,100397:0:0:0:0:
320,0,100314,1,0,0:0:0:0:
192,0,100397,1,0,0:0:0:0:
64,0,100500,1,0,0:0:0:0:
192,0,100561,1,0,0:0:0:0:
320,0,100561,1,0,0:0:0:0:
320,0,100726,1,0,0:0:0:0:
448,0,100726,1,0,0:0:0:0:
64,0,100891,1,0,0:0:0:0:
192,0,101056,1,0,0:0:0:0:
448,0,101138,1,0,0:0:0:0:
192,0,101221,1,0,0:0:0:0:
448,0,101303,1,0,0:0:0:0:
64,0,101386,1,0,0:0:0:0:
320,0,101468,1,0,0:0:0:0:
64,0,101550,1,0,0:0:0:0:
320,0,101633,1,0,0:0:0:0:
192,0,101715,1,0,0:0:0:0:
448,0,101715,1,0,0:0:0:0:
320,0,101777,1,0,0:0:0:0:
64,0,101880,1,0,0:0:0:0:
192,0,102045,1,0,0:0:0:0:
448,0,102045,1,0,0:0:0:0:
320,0,102107,1,0,0:0:0:0:
64,0,102210,1,0,0:0:0:0:
448,0,102375,1,0,0:0:0:0:
192,0,102430,1,0,0:0:0:0:
320,0,102485,1,0,0:0:0:0:
192,0,102539,1,0,0:0:0:0:
64,0,102594,1,0,0:0:0:0:
448,0,102649,1,0,0:0:0:0:
192,0,102704,1,0,0:0:0:0:
320,0,102704,1,0,0:0:0:0:
64,0,102759,1,0,0:0:0:0:
448,0,102814,1,0,0:0:0:0:
320,0,102869,1,0,0:0:0:0:
64,0,102924,1,0,0:0:0:0:
192,0,102979,1,0,0:0:0:0:
320,0,103034,1,0,0:0:0:0:
448,0,103075,1,0,0:0:0:0:
192,0,103158,1,0,0:0:0:0:
64,0,103199,1,0,0:0:0:0:
320,0,103364,1,0,0:0:0:0:
448,0,103364,1,0,0:0:0:0:
64,0,103446,1,0,0:0:0:0:
192,0,103446,1,0,0:0:0:0:
320,0,103528,1,0,0:0:0:0:
192,0,103611,1,0,0:0:0:0:
448,0,103611,1,0,0:0:0:0:
64,0,103693,1,0,0:0:0:0:
320,0,103693,1,0,0:0:0:0:
192,0,103776,1,0,0:0:0:0:
64,0,103858,1,0,0:0:0:0:
192,0,103941,1,0,0:0:0:0:
320,0,104023,1,0,0:0:0:0:
448,0,104023,1,0,0:0:0:0:
320,0,104105,1,0,0:0:0:0:
448,0,104105,1,0,0:0:0:0:
64,0,104188,1,0,0:0:0:0:
192,0,104188,1,0,0:0:0:0:
320,0,104270,1,0,0:0:0:0:
64,0,104353,128,0,104394:0:0:0:0:
192,0,104435,128,0,104476:0:0:0:0:
320,0,104517,128,0,104559:0:0:0:0:
192,0,104600,128,0,104641:0:0:0:0:
320,0,104682,128,0,104724:0:0:0:0:
448,0,104682,1,0,0:0:0:0:
64,0,104765,128,0,104806:0:0:0:0:
192,0,104847,128,0,104888:0:0:0:0:
320,0,104930,128,0,104971:0:0:0:0:
64,0,105012,1,0,0:0:0:0:
448,0,105012,1,0,0:0:0:0:
192,0,105506,1,0,0:0:0:0:
320,0,105561,1,0,0:0:0:0:
64,0,105616,1,0,0:0:0:0:
192,0,105671,1,0,0:0:0:0:
448,0,105671,1,0,0:0:0:0:
320,0,105836,1,0,0:0:0:0:
448,0,106001,1,0,0:0:0:0:
320,0,106166,1,0,0:0:0:0:
64,0,106496,128,0,106578:0:0:0:0:
192,0,106660,1,0,0:0:0:0:
448,0,106660,1,0,0:0:0:0:
320,0,106825,1,0,0:0:0:0:
64,0,106990,1,0,0:0:0:0:
448,0,106990,1,0,0:0:0:0:
192,0,107155,1,0,0:0:0:0:
320,0,107320,1,0,0:0:0:0:
320,0,107485,1,0,0:0:0:0:
448,0,107485,1,0,0:0:0:0:
64,0,107649,1,0,0:0:0:0:
192,0,107649,1,0,0:0:0:0:
192,192,107813,128,0,107978:0:0:0:0:
320,192,107813,128,0,107978:0:0:0:0:
320,0,108144,1,0,0:0:0:0:
448,0,108226,1,0,0:0:0:0:
320,0,108309,1,0,0:0:0:0:
192,0,108391,1,0,0:0:0:0:
320,0,108474,1,0,0:0:0:0:
64,0,108556,1,0,0:0:0:0:
192,0,108638,128,0,108968:0:0:0:0:
448,0,108638,128,0,108968:0:0:0:0:
64,0,109133,1,0,0:0:0:0:
448,0,109133,1,0,0:0:0:0:
192,0,109298,1,0,0:0:0:0:
320,0,109298,1,0,0:0:0:0:
448,0,109463,1,0,0:0:0:0:
64,0,109627,1,0,0:0:0:0:
320,0,109792,1,0,0:0:0:0:
448,0,109957,128,0,110039:0:0:0:0:
320,0,110067,1,0,0:0:0:0:
192,0,110177,1,0,0:0:0:0:
64,0,110287,1,0,0:0:0:0:
448,0,110287,1,0,0:0:0:0:
320,0,110397,1,0,0:0:0:0:
64,0,110506,1,0,0:0:0:0:
320,0,110616,1,0,0:0:0:0:
448,0,110616,1,0,0:0:0:0:
192,0,110726,1,0,0:0:0:0:
64,0,110836,1,0,0:0:0:0:
320,0,110946,1,0,0:0:0:0:
192,0,111056,1,0,0:0:0:0:
64,0,111166,1,0,0:0:0:0:
192,0,111276,1,0,0:0:0:0:
448,0,111276,1,0,0:0:0:0:
320,0,111386,1,0,0:0:0:0:
192,0,111496,1,0,0:0:0:0:
448,0,111605,1,0,0:0:0:0:
320,0,111715,1,0,0:0:0:0:
192,0,111825,1,0,0:0:0:0:
64,0,111935,128,0,112017:0:0:0:0:
