osu file format v14

[General]
AudioFilename: AP.mp3
AudioLeadIn: 0
PreviewTime: -1
Countdown: 1
SampleSet: None
StackLeniency: 0.7
Mode: 2
LetterboxInBreaks: 1
WidescreenStoryboard: 1

[Editor]
DistanceSpacing: 0.9
BeatDivisor: 16
GridSize: 4
TimelineZoom: 8

[Metadata]
Title:AVALONnayo,AVALONna...!!.mp4
TitleUnicode:AVALONnayo态AVALONna...!!.mp4
Artist:sasakure.UK
ArtistUnicode:sasakure.UK
Creator:Furan_495
Version:KANDOU NO LAST
Source:
Tags:Furely
BeatmapID:766189
BeatmapSetID:345834

[Difficulty]
HPDrainRate:0
CircleSize:4
OverallDifficulty:9.5
ApproachRate:9.5
SliderMultiplier:2.99999990463257
SliderTickRate:2

[Events]
//Background and Video events
0,0,"kuro.jpg",0,0
//Break Periods
//Storyboard Layer 0 (Background)
//Storyboard Layer 1 (Fail)
//Storyboard Layer 2 (Pass)
//Storyboard Layer 3 (Foreground)
//Storyboard Sound Samples

[TimingPoints]
711,300,4,1,0,80,1,0
729,-100,4,1,0,80,0,0
748,-100,4,1,0,5,0,0
14695,300,7,1,0,80,1,0
18295,-50,4,1,0,80,0,0
18595,-100,4,1,0,80,0,0
18895,300,4,1,0,80,1,0
18895,-50,4,1,0,80,0,0
23695,300,7,1,0,80,1,0
27895,300,4,1,0,80,1,0
27895,-50,4,1,0,80,0,0
32725,300,7,1,0,80,1,0
32725,-50,4,1,0,80,0,0
41743,-100,4,1,0,40,0,0
42006,-50,4,1,0,80,0,0
42943,-100,4,1,0,33,0,0
43506,-50,4,1,0,80,0,0
44462,-50,4,1,0,30,0,0
44725,-50,4,1,0,80,0,0
47425,300,4,1,0,80,1,0
55675,-100,4,1,0,5,0,0
60853,300,6,1,0,80,1,0
60853,-100,4,1,0,80,0,0
62653,-50,4,1,0,80,0,0
62953,-100,4,1,0,80,0,0
63253,-50,4,1,0,80,0,0
63553,-100,4,1,0,80,0,0
66834,300,3,1,0,80,1,0
70453,-100,4,1,0,10,0,0
72234,-100,4,1,0,80,0,0
74634,-50,4,1,0,80,0,0
83053,-100,4,1,0,5,0,0
86615,-100,4,1,0,80,0,0
89052,-100,4,1,0,5,0,0
96553,300,4,1,0,80,1,0
98098,300,4,1,0,80,1,0
98098,-100,4,1,2,80,0,1
105316,-100,4,1,2,40,0,1
106498,-100,4,1,2,15,0,1
107698,-100,4,1,0,80,0,1
108598,-100,4,1,0,40,0,1
108898,-100,4,1,0,80,0,1
109516,-100,4,1,0,40,0,1
109798,-50,4,1,0,80,0,1
110098,-100,4,1,0,80,0,1
111616,-100,4,1,0,40,0,1
116998,-100,4,1,2,80,0,1
117166,-100,4,1,2,20,0,1
136498,-100,4,1,0,50,0,0
145498,-50,4,1,0,80,0,0
148048,-100,4,1,0,5,0,0
149098,-100,4,1,0,27,0,0
151198,-100,4,1,0,20,0,0
153316,-100,4,1,0,5,0,0

[Colours]
Combo1 : 255,0,128
Combo2 : 0,202,0
Combo3 : 18,124,255
Combo4 : 242,24,57
Combo5 : 255,192,0
Combo6 : 0,0,255

[HitObjects]
392,216,96553,6,0,L|404:196,1,18.7499994039536
344,196,96628,2,0,L|344:176,1,18.7499994039536
288,180,96703,2,0,L|272:156,1,18.7499994039536
312,120,96778,2,0,L|332:104,1,18.7499994039536
380,92,96853,2,0,L|388:76,1,18.7499994039536
352,32,96928,2,0,L|348:4,1,18.7499994039536
144,220,97003,6,0,L|132:196,1,18.7499994039536
68,188,97078,2,0,L|52:160,1,18.7499994039536
76,116,97153,2,0,L|88:100,1,18.7499994039536
152,84,97228,2,0,L|128:100,1,18.7499994039536
188,140,97303,2,0,L|176:164,1,18.7499994039536
112,172,97378,2,0,L|88:164,1,18.7499994039536
116,136,97453,2,0,L|112:100,1,18.7499994039536
464,128,97603,6,0,B|488:288|488:288|348:240,1,299.999990463257
488,144,97621,1,0,0:0:0:0:
484,172,97640,1,0,0:0:0:0:
260,248,98098,6,0,B|160:172|160:172|276:40,1,299.999990463257
412,132,98548,2,0,B|324:208|324:208|440:356,1,299.999990463257
32,276,98998,2,0,L|120:140,1,149.999995231629
480,276,99298,2,0,L|392:140,1,149.999995231629
32,276,99598,2,0,L|120:140,1,149.999995231629
480,276,99898,2,0,L|392:140,1,149.999995231629
32,276,100198,2,0,L|120:140,1,149.999995231629
332,144,100498,6,0,B|424:232|424:232|240:240,1,299.999990463257
180,144,100948,6,0,B|112:224|112:224|296:312,1,299.999990463257
408,296,101398,2,0,L|496:164,1,149.999995231629
420,280,101416,1,0,0:0:0:0:
496,164,101566,1,0,0:0:0:0:
44,216,101698,6,0,L|28:200,1,18.7499994039536
104,176,101848,6,0,L|120:160,1,18.7499994039536
24,156,101998,6,0,L|48:136,1,18.7499994039536
104,176,102148,2,0,B|136:336|132:336|132:336|176:192,1,299.999990463257
464,208,102466,2,0,B|500:96|500:96|464:272,1,281.249991059303
24,252,102766,2,0,L|24:104,1,131.249995827675
24,88,102916,6,0,B|32:296|32:296|24:208,1,281.249991059303
488,88,103348,6,0,B|472:304|472:304|504:224,1,299.999990463257
24,88,103798,6,0,B|168:160|168:160,1,149.999995231629
484,180,104098,2,0,L|464:172,1,18.7499994039536
484,180,104248,2,0,L|464:172,1,18.7499994039536
466,173,104398,2,0,L|484:180,1,18.7499994039536
466,173,104548,2,0,L|484:180,1,18.7499994039536
28,180,104848,2,0,L|48:172,1,18.7499994039536
28,180,104998,2,0,L|48:172,1,18.7499994039536
124,184,105298,5,0,0:0:0:0:
160,196,105335,1,0,0:0:0:0:
192,216,105373,1,0,0:0:0:0:
216,244,105410,1,0,0:0:0:0:
216,280,105448,1,0,0:0:0:0:
196,312,105485,1,0,0:0:0:0:
164,328,105523,1,0,0:0:0:0:
128,332,105560,1,0,0:0:0:0:
100,308,105598,1,0,0:0:0:0:
132,292,105635,1,0,0:0:0:0:
168,276,105673,1,0,0:0:0:0:
200,256,105710,1,0,0:0:0:0:
220,224,105748,1,0,0:0:0:0:
236,192,105785,1,0,0:0:0:0:
240,156,105823,1,0,0:0:0:0:
224,124,105860,1,0,0:0:0:0:
152,124,105898,5,0,0:0:0:0:
172,148,105935,1,0,0:0:0:0:
196,164,105973,1,0,0:0:0:0:
224,176,106010,1,0,0:0:0:0:
252,188,106048,1,0,0:0:0:0:
280,180,106085,1,0,0:0:0:0:
308,164,106123,1,0,0:0:0:0:
332,148,106160,1,0,0:0:0:0:
356,188,106198,1,0,0:0:0:0:
372,228,106235,1,0,0:0:0:0:
356,268,106273,1,0,0:0:0:0:
320,296,106310,1,0,0:0:0:0:
276,292,106348,1,0,0:0:0:0:
232,284,106385,1,0,0:0:0:0:
228,240,106423,1,0,0:0:0:0:
184,216,106460,1,0,0:0:0:0:
8,184,106498,6,0,L|32:184,15,18.7499994039536
504,184,106798,6,0,L|480:184,15,18.7499994039536
8,184,107098,6,0,L|32:184,15,18.7499994039536
504,184,107398,6,0,L|480:184,7,18.7499994039536
8,184,107548,6,0,L|32:184,7,18.7499994039536
264,184,107698,6,0,L|348:184,1,74.9999976158143
408,264,107848,2,0,L|352:320,1,74.9999976158143
144,316,107998,2,0,L|64:284,1,74.9999976158143
32,192,108148,2,0,L|60:120,1,74.9999976158143
376,132,108298,2,0,L|464:144,1,74.9999976158143
472,248,108448,2,0,L|436:328,1,74.9999976158143
16,248,108598,5,0,0:0:0:0:
12,292,108616,1,0,0:0:0:0:
36,276,108635,1,0,0:0:0:0:
44,240,108654,1,0,0:0:0:0:
20,224,108673,1,0,0:0:0:0:
36,236,108691,1,0,0:0:0:0:
16,216,108710,1,0,0:0:0:0:
0,196,108729,1,0,0:0:0:0:
12,172,108748,1,0,0:0:0:0:
12,156,108766,1,0,0:0:0:0:
28,136,108785,1,0,0:0:0:0:
36,112,108804,1,0,0:0:0:0:
36,104,108823,1,0,0:0:0:0:
16,88,108841,1,0,0:0:0:0:
12,60,108860,1,0,0:0:0:0:
36,48,108879,1,0,0:0:0:0:
456,96,108898,6,0,P|455:178|444:256,1,149.999995231629
140,236,109066,2,0,P|112:168|144:128,1,131.249995827675
264,160,109216,2,0,P|300:200|276:272,1,131.249995827675
36,288,109366,2,0,P|28:236|68:156,1,131.249995827675
512,184,109516,2,0,L|484:184,14,18.7499994039536
84,220,109798,2,0,B|12:136|12:52|12:52|4:144|4:144|344:144,1,599.999980926514
392,192,110173,5,0,0:0:0:0:
392,280,110248,2,0,L|320:312,1,74.9999976158143
128,308,110398,2,0,L|60:240,1,74.9999976158143
36,164,110548,2,0,L|96:88,1,74.9999976158143
376,112,110698,6,0,L|456:156,1,74.9999976158143
408,240,110848,2,0,L|328:316,1,74.9999976158143
156,284,110998,2,0,L|84:240,1,74.9999976158143
68,152,111148,2,0,L|136:88,1,74.9999976158143
344,80,111298,6,0,L|396:104,1,37.4999988079071
420,120,111373,2,0,L|448:160,1,37.4999988079071
452,200,111448,2,0,L|464:272,1,37.4999988079071
440,284,111523,2,0,L|396:340,1,37.4999988079071
136,356,111598,6,0,L|112:348,1,18.7499994039536
96,340,111635,2,0,L|76:316,1,18.7499994039536
72,304,111673,2,0,L|56:280,1,18.7499994039536
44,272,111710,2,0,L|28:240,1,18.7499994039536
56,240,111748,2,0,L|76:224,1,18.7499994039536
96,224,111785,2,0,L|116:216,1,18.7499994039536
96,200,111823,2,0,L|72:176,1,18.7499994039536
60,176,111860,2,0,L|36:160,1,18.7499994039536
68,152,111898,6,0,L|92:136,1,18.7499994039536
64,128,111935,2,0,L|48:112,1,18.7499994039536
68,152,111973,2,0,L|92:136,1,18.7499994039536
64,128,112010,2,0,L|48:112,1,18.7499994039536
68,152,112048,2,0,L|92:136,1,18.7499994039536
64,128,112085,2,0,L|48:112,1,18.7499994039536
64,128,112123,2,0,L|48:112,1,18.7499994039536
68,152,112160,2,0,L|92:136,1,18.7499994039536
368,100,112198,6,0,B|484:172|484:172|356:288,1,299.999990463257
96,268,112573,5,0,0:0:0:0:
16,216,112648,1,0,0:0:0:0:
80,88,112723,1,0,0:0:0:0:
408,72,112798,5,0,0:0:0:0:
480,148,112873,1,0,0:0:0:0:
460,240,112948,1,0,0:0:0:0:
388,300,113023,1,0,0:0:0:0:
104,72,113098,5,0,0:0:0:0:
32,148,113173,1,0,0:0:0:0:
52,240,113248,1,0,0:0:0:0:
124,300,113323,1,0,0:0:0:0:
408,72,113398,5,0,0:0:0:0:
480,148,113473,1,0,0:0:0:0:
460,240,113548,1,0,0:0:0:0:
388,300,113623,1,0,0:0:0:0:
104,72,113698,5,0,0:0:0:0:
32,148,113773,1,0,0:0:0:0:
52,240,113848,1,0,0:0:0:0:
124,300,113923,1,0,0:0:0:0:
408,72,113998,5,0,0:0:0:0:
480,148,114073,1,0,0:0:0:0:
460,240,114148,1,0,0:0:0:0:
388,300,114223,1,0,0:0:0:0:
104,72,114298,5,0,0:0:0:0:
32,148,114373,1,0,0:0:0:0:
52,240,114448,1,0,0:0:0:0:
124,300,114523,1,0,0:0:0:0:
408,72,114598,5,0,0:0:0:0:
480,148,114673,1,0,0:0:0:0:
460,240,114748,1,0,0:0:0:0:
388,300,114823,1,0,0:0:0:0:
128,196,114898,6,0,L|164:268,4,74.9999976158143
236,196,115348,6,0,L|164:160,4,74.9999976158143
196,232,115798,6,0,L|272:244,4,74.9999976158143
296,284,116173,6,0,L|248:224,6,74.9999976158143
388,280,116698,5,0,0:0:0:0:
416,264,116716,1,0,0:0:0:0:
512,248,116773,1,0,0:0:0:0:
512,248,116791,1,0,0:0:0:0:
436,216,116848,1,0,0:0:0:0:
436,216,116866,1,0,0:0:0:0:
328,172,116923,1,0,0:0:0:0:
328,172,116941,1,0,0:0:0:0:
512,192,116998,5,8,0:0:0:0:
480,192,117016,5,0,0:0:0:0:
512,192,117035,5,0,0:0:0:0:
480,192,117053,5,0,0:0:0:0:
512,192,117073,5,0,0:0:0:0:
480,192,117091,5,0,0:0:0:0:
512,192,117110,5,0,0:0:0:0:
480,192,117128,5,0,0:0:0:0:
512,192,117148,5,0,0:0:0:0:
480,192,117166,5,0,0:0:0:0:
512,192,117185,5,0,0:0:0:0:
480,192,117203,5,0,0:0:0:0:
512,192,117223,5,0,0:0:0:0:
480,192,117241,5,0,0:0:0:0:
512,192,117260,5,0,0:0:0:0:
480,192,117278,5,0,0:0:0:0:
208,192,117298,1,0,0:0:0:0:
200,192,117316,1,0,0:0:0:0:
192,192,117335,5,0,0:0:0:0:
184,192,117354,5,0,0:0:0:0:
176,192,117373,5,0,0:0:0:0:
168,192,117391,5,0,0:0:0:0:
160,192,117410,5,0,0:0:0:0:
152,192,117429,5,0,0:0:0:0:
144,192,117448,5,0,0:0:0:0:
136,192,117466,5,0,0:0:0:0:
128,192,117485,5,0,0:0:0:0:
120,192,117504,5,0,0:0:0:0:
112,192,117523,5,0,0:0:0:0:
104,192,117541,5,0,0:0:0:0:
96,192,117560,5,0,0:0:0:0:
88,192,117579,5,0,0:0:0:0:
96,192,117598,5,0,0:0:0:0:
104,192,117616,5,0,0:0:0:0:
112,192,117635,5,0,0:0:0:0:
120,192,117654,5,0,0:0:0:0:
128,192,117673,5,0,0:0:0:0:
136,192,117691,5,0,0:0:0:0:
144,192,117710,5,0,0:0:0:0:
152,192,117729,5,0,0:0:0:0:
160,192,117748,5,0,0:0:0:0:
168,192,117766,5,0,0:0:0:0:
176,192,117785,5,0,0:0:0:0:
184,192,117804,5,0,0:0:0:0:
192,192,117823,5,0,0:0:0:0:
200,192,117841,5,0,0:0:0:0:
208,192,117860,5,0,0:0:0:0:
216,192,117879,5,0,0:0:0:0:
224,192,117898,5,0,0:0:0:0:
232,192,117916,5,0,0:0:0:0:
240,192,117935,5,0,0:0:0:0:
248,192,117954,5,0,0:0:0:0:
256,192,117973,5,0,0:0:0:0:
264,192,117991,5,0,0:0:0:0:
272,192,118010,5,0,0:0:0:0:
280,192,118029,5,0,0:0:0:0:
288,192,118048,5,0,0:0:0:0:
296,192,118066,5,0,0:0:0:0:
304,192,118085,5,0,0:0:0:0:
312,192,118104,5,0,0:0:0:0:
304,192,118123,5,0,0:0:0:0:
296,192,118141,5,0,0:0:0:0:
288,192,118160,5,0,0:0:0:0:
280,192,118179,5,0,0:0:0:0:
136,272,118197,5,0,0:0:0:0:
128,272,118216,5,0,0:0:0:0:
120,272,118235,5,0,0:0:0:0:
112,272,118254,5,0,0:0:0:0:
120,272,118273,5,0,0:0:0:0:
128,272,118292,5,0,0:0:0:0:
136,272,118311,5,0,0:0:0:0:
144,272,118330,5,0,0:0:0:0:
152,272,118348,5,0,0:0:0:0:
160,272,118367,5,0,0:0:0:0:
168,272,118386,5,0,0:0:0:0:
176,272,118405,5,0,0:0:0:0:
184,272,118423,5,0,0:0:0:0:
192,272,118442,5,0,0:0:0:0:
200,272,118461,5,0,0:0:0:0:
208,272,118479,5,0,0:0:0:0:
424,192,118498,5,0,0:0:0:0:
432,192,118516,5,0,0:0:0:0:
440,192,118535,5,0,0:0:0:0:
448,192,118554,5,0,0:0:0:0:
440,192,118573,5,0,0:0:0:0:
432,192,118591,5,0,0:0:0:0:
424,192,118610,5,0,0:0:0:0:
416,192,118629,5,0,0:0:0:0:
136,88,118648,5,0,0:0:0:0:
128,88,118666,5,0,0:0:0:0:
120,88,118685,5,0,0:0:0:0:
112,88,118704,5,0,0:0:0:0:
120,88,118723,5,0,0:0:0:0:
128,88,118741,5,0,0:0:0:0:
136,88,118760,5,0,0:0:0:0:
144,88,118779,5,0,0:0:0:0:
368,316,118798,5,0,0:0:0:0:
376,316,118816,5,0,0:0:0:0:
384,316,118835,5,0,0:0:0:0:
392,316,118854,5,0,0:0:0:0:
384,316,118873,5,0,0:0:0:0:
376,316,118891,5,0,0:0:0:0:
368,316,118910,5,0,0:0:0:0:
360,316,118929,5,0,0:0:0:0:
136,296,118948,5,0,0:0:0:0:
128,296,118966,5,0,0:0:0:0:
120,296,118985,5,0,0:0:0:0:
112,296,119004,5,0,0:0:0:0:
120,296,119023,5,0,0:0:0:0:
128,296,119041,5,0,0:0:0:0:
136,296,119060,5,0,0:0:0:0:
144,296,119079,5,0,0:0:0:0:
488,300,119098,5,0,0:0:0:0:
488,292,119116,5,0,0:0:0:0:
488,284,119135,5,0,0:0:0:0:
488,276,119154,5,0,0:0:0:0:
488,268,119173,5,0,0:0:0:0:
488,260,119191,5,0,0:0:0:0:
480,260,119210,5,0,0:0:0:0:
472,260,119229,5,0,0:0:0:0:
40,280,119248,5,0,0:0:0:0:
40,280,119266,5,0,0:0:0:0:
40,280,119285,5,0,0:0:0:0:
40,280,119304,5,0,0:0:0:0:
40,280,119323,5,0,0:0:0:0:
40,280,119341,5,0,0:0:0:0:
48,280,119360,5,0,0:0:0:0:
56,280,119379,5,0,0:0:0:0:
488,300,119398,5,0,0:0:0:0:
488,292,119416,5,0,0:0:0:0:
488,284,119435,5,0,0:0:0:0:
488,276,119454,5,0,0:0:0:0:
488,268,119473,5,0,0:0:0:0:
488,260,119491,5,0,0:0:0:0:
480,260,119510,5,0,0:0:0:0:
472,260,119529,5,0,0:0:0:0:
24,264,119548,5,0,0:0:0:0:
24,264,119566,5,0,0:0:0:0:
24,264,119585,5,0,0:0:0:0:
24,264,119604,5,0,0:0:0:0:
24,264,119623,5,0,0:0:0:0:
24,264,119641,5,0,0:0:0:0:
32,264,119660,5,0,0:0:0:0:
40,264,119679,5,0,0:0:0:0:
172,248,119698,5,0,0:0:0:0:
180,248,119716,5,0,0:0:0:0:
188,248,119735,5,0,0:0:0:0:
196,248,119754,5,0,0:0:0:0:
204,248,119773,5,0,0:0:0:0:
212,248,119791,5,0,0:0:0:0:
220,248,119810,5,0,0:0:0:0:
228,248,119829,5,0,0:0:0:0:
312,248,119848,5,0,0:0:0:0:
320,248,119866,5,0,0:0:0:0:
328,248,119885,5,0,0:0:0:0:
336,248,119904,5,0,0:0:0:0:
344,248,119923,5,0,0:0:0:0:
352,248,119941,5,0,0:0:0:0:
360,248,119960,5,0,0:0:0:0:
368,248,119979,5,0,0:0:0:0:
452,96,119998,5,0,0:0:0:0:
460,96,120017,5,0,0:0:0:0:
468,96,120036,5,0,0:0:0:0:
476,96,120054,5,0,0:0:0:0:
484,96,120073,5,0,0:0:0:0:
492,96,120091,5,0,0:0:0:0:
484,96,120110,5,0,0:0:0:0:
476,96,120129,5,0,0:0:0:0:
392,96,120148,5,0,0:0:0:0:
384,96,120166,5,0,0:0:0:0:
376,96,120185,5,0,0:0:0:0:
368,96,120204,5,0,0:0:0:0:
360,96,120223,5,0,0:0:0:0:
352,96,120241,5,0,0:0:0:0:
344,96,120260,5,0,0:0:0:0:
336,96,120279,5,0,0:0:0:0:
252,96,120298,5,0,0:0:0:0:
244,96,120316,5,0,0:0:0:0:
236,96,120335,5,0,0:0:0:0:
228,96,120354,5,0,0:0:0:0:
220,96,120373,5,0,0:0:0:0:
212,96,120391,5,0,0:0:0:0:
204,96,120410,5,0,0:0:0:0:
196,96,120429,5,0,0:0:0:0:
112,96,120448,5,0,0:0:0:0:
104,96,120466,5,0,0:0:0:0:
96,96,120485,5,0,0:0:0:0:
88,96,120504,5,0,0:0:0:0:
80,96,120523,5,0,0:0:0:0:
72,96,120541,5,0,0:0:0:0:
80,96,120560,5,0,0:0:0:0:
88,96,120579,5,0,0:0:0:0:
172,176,120598,5,0,0:0:0:0:
180,176,120616,5,0,0:0:0:0:
188,176,120635,5,0,0:0:0:0:
196,176,120654,5,0,0:0:0:0:
280,176,120673,5,0,0:0:0:0:
288,176,120691,5,0,0:0:0:0:
296,176,120710,5,0,0:0:0:0:
304,176,120729,5,0,0:0:0:0:
388,176,120748,5,0,0:0:0:0:
396,176,120767,5,0,0:0:0:0:
404,176,120786,5,0,0:0:0:0:
412,176,120804,5,0,0:0:0:0:
496,176,120823,5,0,0:0:0:0:
488,176,120841,5,0,0:0:0:0:
480,176,120860,5,0,0:0:0:0:
472,176,120879,5,0,0:0:0:0:
24,180,120898,5,0,0:0:0:0:
16,180,120916,5,0,0:0:0:0:
8,180,120935,5,0,0:0:0:0:
0,180,120954,5,0,0:0:0:0:
0,180,120973,5,0,0:0:0:0:
0,180,120991,5,0,0:0:0:0:
8,180,121010,5,0,0:0:0:0:
16,180,121029,5,0,0:0:0:0:
324,340,121048,5,0,0:0:0:0:
332,340,121066,5,0,0:0:0:0:
340,340,121085,5,0,0:0:0:0:
348,340,121104,5,0,0:0:0:0:
356,340,121123,5,0,0:0:0:0:
364,340,121141,5,0,0:0:0:0:
356,340,121160,5,0,0:0:0:0:
348,340,121179,5,0,0:0:0:0:
188,340,121198,5,0,0:0:0:0:
180,340,121216,5,0,0:0:0:0:
172,340,121235,5,0,0:0:0:0:
164,340,121254,5,0,0:0:0:0:
156,340,121273,5,0,0:0:0:0:
148,340,121291,5,0,0:0:0:0:
156,340,121310,5,0,0:0:0:0:
164,340,121329,5,0,0:0:0:0:
472,288,121348,5,0,0:0:0:0:
480,288,121366,5,0,0:0:0:0:
488,288,121385,5,0,0:0:0:0:
496,288,121404,5,0,0:0:0:0:
504,288,121423,5,0,0:0:0:0:
512,288,121441,5,0,0:0:0:0:
504,288,121460,5,0,0:0:0:0:
496,288,121479,5,0,0:0:0:0:
40,288,121498,5,0,0:0:0:0:
32,288,121516,5,0,0:0:0:0:
24,288,121535,5,0,0:0:0:0:
16,288,121554,5,0,0:0:0:0:
8,288,121573,5,0,0:0:0:0:
0,288,121591,5,0,0:0:0:0:
8,288,121610,5,0,0:0:0:0:
16,288,121629,5,0,0:0:0:0:
324,340,121648,5,0,0:0:0:0:
332,340,121666,5,0,0:0:0:0:
340,340,121685,5,0,0:0:0:0:
348,340,121704,5,0,0:0:0:0:
356,340,121723,5,0,0:0:0:0:
364,340,121741,5,0,0:0:0:0:
356,340,121760,5,0,0:0:0:0:
348,340,121779,5,0,0:0:0:0:
188,340,121798,5,0,0:0:0:0:
180,340,121816,5,0,0:0:0:0:
172,340,121835,5,0,0:0:0:0:
164,340,121854,5,0,0:0:0:0:
156,340,121873,5,0,0:0:0:0:
148,340,121891,5,0,0:0:0:0:
156,340,121910,5,0,0:0:0:0:
164,340,121929,5,0,0:0:0:0:
472,288,121948,5,0,0:0:0:0:
480,288,121966,5,0,0:0:0:0:
488,288,121985,5,0,0:0:0:0:
496,288,122004,5,0,0:0:0:0:
504,288,122023,5,0,0:0:0:0:
512,288,122041,5,0,0:0:0:0:
504,288,122060,5,0,0:0:0:0:
496,288,122079,5,0,0:0:0:0:
256,276,122098,5,0,0:0:0:0:
256,276,122116,5,0,0:0:0:0:
256,276,122135,5,0,0:0:0:0:
256,276,122154,5,0,0:0:0:0:
256,276,122173,5,0,0:0:0:0:
256,276,122191,5,0,0:0:0:0:
256,276,122210,5,0,0:0:0:0:
256,276,122229,5,0,0:0:0:0:
256,276,122248,5,0,0:0:0:0:
256,276,122266,5,0,0:0:0:0:
256,276,122285,5,0,0:0:0:0:
256,276,122304,5,0,0:0:0:0:
256,276,122323,5,0,0:0:0:0:
256,276,122341,5,0,0:0:0:0:
256,276,122360,5,0,0:0:0:0:
256,276,122379,5,0,0:0:0:0:
256,276,122398,5,0,0:0:0:0:
256,276,122416,5,0,0:0:0:0:
256,276,122435,5,0,0:0:0:0:
256,276,122454,5,0,0:0:0:0:
256,276,122473,5,0,0:0:0:0:
256,276,122491,5,0,0:0:0:0:
248,276,122510,5,0,0:0:0:0:
240,276,122529,5,0,0:0:0:0:
64,220,122548,5,0,0:0:0:0:
64,220,122566,5,0,0:0:0:0:
64,220,122585,5,0,0:0:0:0:
64,220,122604,5,0,0:0:0:0:
64,220,122623,5,0,0:0:0:0:
64,220,122641,5,0,0:0:0:0:
64,220,122660,5,0,0:0:0:0:
64,220,122679,5,0,0:0:0:0:
64,220,122698,5,0,0:0:0:0:
64,220,122716,5,0,0:0:0:0:
64,220,122735,5,0,0:0:0:0:
64,220,122754,5,0,0:0:0:0:
64,220,122773,5,0,0:0:0:0:
64,220,122791,5,0,0:0:0:0:
64,220,122810,5,0,0:0:0:0:
64,220,122829,5,0,0:0:0:0:
64,220,122848,5,0,0:0:0:0:
64,220,122866,5,0,0:0:0:0:
64,220,122885,5,0,0:0:0:0:
64,220,122904,5,0,0:0:0:0:
64,220,122923,5,0,0:0:0:0:
64,220,122941,5,0,0:0:0:0:
72,220,122960,5,0,0:0:0:0:
80,220,122979,5,0,0:0:0:0:
436,196,122998,5,0,0:0:0:0:
436,196,123016,5,0,0:0:0:0:
436,196,123035,5,0,0:0:0:0:
436,196,123054,5,0,0:0:0:0:
436,196,123073,5,0,0:0:0:0:
436,196,123091,5,0,0:0:0:0:
436,196,123110,5,0,0:0:0:0:
436,196,123129,5,0,0:0:0:0:
436,196,123148,5,0,0:0:0:0:
436,196,123166,5,0,0:0:0:0:
436,196,123185,5,0,0:0:0:0:
436,196,123204,5,0,0:0:0:0:
436,196,123223,5,0,0:0:0:0:
436,196,123241,5,0,0:0:0:0:
428,196,123260,5,0,0:0:0:0:
420,196,123279,5,0,0:0:0:0:
84,136,123298,5,0,0:0:0:0:
76,136,123316,5,0,0:0:0:0:
68,136,123335,5,0,0:0:0:0:
60,136,123354,5,0,0:0:0:0:
52,136,123373,5,0,0:0:0:0:
44,136,123391,5,0,0:0:0:0:
52,136,123410,5,0,0:0:0:0:
60,136,123429,5,0,0:0:0:0:
144,136,123448,5,0,0:0:0:0:
152,136,123466,5,0,0:0:0:0:
160,136,123485,5,0,0:0:0:0:
168,136,123504,5,0,0:0:0:0:
252,136,123523,5,0,0:0:0:0:
260,136,123541,5,0,0:0:0:0:
268,136,123560,5,0,0:0:0:0:
276,136,123579,5,0,0:0:0:0:
360,136,123598,5,0,0:0:0:0:
368,136,123616,5,0,0:0:0:0:
376,136,123635,5,0,0:0:0:0:
384,136,123654,5,0,0:0:0:0:
468,136,123673,5,0,0:0:0:0:
476,136,123691,5,0,0:0:0:0:
484,136,123710,5,0,0:0:0:0:
492,136,123729,5,0,0:0:0:0:
84,136,123748,5,0,0:0:0:0:
76,136,123766,5,0,0:0:0:0:
68,136,123785,5,0,0:0:0:0:
60,136,123804,5,0,0:0:0:0:
52,136,123823,5,0,0:0:0:0:
44,136,123841,5,0,0:0:0:0:
52,136,123860,5,0,0:0:0:0:
60,136,123879,5,0,0:0:0:0:
144,136,123898,5,0,0:0:0:0:
152,136,123916,5,0,0:0:0:0:
160,136,123935,5,0,0:0:0:0:
168,136,123954,5,0,0:0:0:0:
252,136,123973,5,0,0:0:0:0:
260,136,123991,5,0,0:0:0:0:
268,136,124010,5,0,0:0:0:0:
276,136,124029,5,0,0:0:0:0:
360,136,124048,5,0,0:0:0:0:
368,136,124066,5,0,0:0:0:0:
376,136,124085,5,0,0:0:0:0:
384,136,124104,5,0,0:0:0:0:
512,24,124123,5,0,0:0:0:0:
508,24,124141,5,0,0:0:0:0:
504,24,124160,5,0,0:0:0:0:
496,24,124179,5,0,0:0:0:0:
84,136,124198,5,0,0:0:0:0:
76,136,124216,5,0,0:0:0:0:
68,136,124235,5,0,0:0:0:0:
60,136,124254,5,0,0:0:0:0:
52,136,124273,5,0,0:0:0:0:
44,136,124291,5,0,0:0:0:0:
52,136,124310,5,0,0:0:0:0:
60,136,124329,5,0,0:0:0:0:
144,136,124348,5,0,0:0:0:0:
152,136,124366,5,0,0:0:0:0:
160,136,124385,5,0,0:0:0:0:
168,136,124404,5,0,0:0:0:0:
252,136,124423,5,0,0:0:0:0:
260,136,124441,5,0,0:0:0:0:
268,136,124460,5,0,0:0:0:0:
276,136,124479,5,0,0:0:0:0:
384,344,124498,5,0,0:0:0:0:
392,344,124516,5,0,0:0:0:0:
400,344,124535,5,0,0:0:0:0:
408,344,124554,5,0,0:0:0:0:
416,344,124573,5,0,0:0:0:0:
424,344,124591,5,0,0:0:0:0:
432,344,124610,5,0,0:0:0:0:
440,344,124629,5,0,0:0:0:0:
448,344,124648,5,0,0:0:0:0:
456,344,124666,5,0,0:0:0:0:
464,344,124685,5,0,0:0:0:0:
472,344,124704,5,0,0:0:0:0:
480,344,124723,5,0,0:0:0:0:
488,344,124741,5,0,0:0:0:0:
480,344,124760,5,0,0:0:0:0:
472,344,124779,5,0,0:0:0:0:
128,344,124798,5,0,0:0:0:0:
120,344,124816,5,0,0:0:0:0:
112,344,124835,5,0,0:0:0:0:
104,344,124854,5,0,0:0:0:0:
96,344,124873,5,0,0:0:0:0:
88,344,124891,5,0,0:0:0:0:
80,344,124910,5,0,0:0:0:0:
72,344,124929,5,0,0:0:0:0:
64,344,124948,5,0,0:0:0:0:
56,344,124966,5,0,0:0:0:0:
48,344,124985,5,0,0:0:0:0:
40,344,125004,5,0,0:0:0:0:
32,344,125023,5,0,0:0:0:0:
24,344,125041,5,0,0:0:0:0:
32,344,125060,5,0,0:0:0:0:
40,344,125079,5,0,0:0:0:0:
384,344,125098,5,0,0:0:0:0:
392,344,125116,5,0,0:0:0:0:
400,344,125135,5,0,0:0:0:0:
408,344,125154,5,0,0:0:0:0:
416,344,125173,5,0,0:0:0:0:
424,344,125191,5,0,0:0:0:0:
432,344,125210,5,0,0:0:0:0:
440,344,125229,5,0,0:0:0:0:
448,344,125248,5,0,0:0:0:0:
456,344,125266,5,0,0:0:0:0:
464,344,125285,5,0,0:0:0:0:
472,344,125304,5,0,0:0:0:0:
480,344,125323,5,0,0:0:0:0:
488,344,125341,5,0,0:0:0:0:
480,344,125360,5,0,0:0:0:0:
472,344,125379,5,0,0:0:0:0:
128,344,125398,5,0,0:0:0:0:
120,344,125416,5,0,0:0:0:0:
112,344,125435,5,0,0:0:0:0:
104,344,125454,5,0,0:0:0:0:
96,344,125473,5,0,0:0:0:0:
88,344,125491,5,0,0:0:0:0:
80,344,125510,5,0,0:0:0:0:
72,344,125529,5,0,0:0:0:0:
64,344,125548,5,0,0:0:0:0:
56,344,125566,5,0,0:0:0:0:
48,344,125585,5,0,0:0:0:0:
40,344,125604,5,0,0:0:0:0:
32,344,125623,5,0,0:0:0:0:
24,344,125641,5,0,0:0:0:0:
32,344,125660,5,0,0:0:0:0:
40,344,125679,5,0,0:0:0:0:
384,344,125698,5,0,0:0:0:0:
392,344,125716,5,0,0:0:0:0:
400,344,125735,5,0,0:0:0:0:
408,344,125754,5,0,0:0:0:0:
416,344,125773,5,0,0:0:0:0:
424,344,125791,5,0,0:0:0:0:
432,344,125810,5,0,0:0:0:0:
440,344,125829,5,0,0:0:0:0:
448,344,125848,5,0,0:0:0:0:
456,344,125866,5,0,0:0:0:0:
464,344,125885,5,0,0:0:0:0:
472,344,125904,5,0,0:0:0:0:
480,344,125923,5,0,0:0:0:0:
488,344,125941,5,0,0:0:0:0:
480,344,125960,5,0,0:0:0:0:
472,344,125979,5,0,0:0:0:0:
128,344,125998,5,0,0:0:0:0:
120,344,126016,5,0,0:0:0:0:
112,344,126035,5,0,0:0:0:0:
104,344,126054,5,0,0:0:0:0:
96,344,126073,5,0,0:0:0:0:
88,344,126091,5,0,0:0:0:0:
80,344,126110,5,0,0:0:0:0:
72,344,126129,5,0,0:0:0:0:
64,344,126148,5,0,0:0:0:0:
56,344,126166,5,0,0:0:0:0:
48,344,126185,5,0,0:0:0:0:
40,344,126204,5,0,0:0:0:0:
32,344,126223,5,0,0:0:0:0:
24,344,126241,5,0,0:0:0:0:
32,344,126260,5,0,0:0:0:0:
40,344,126279,5,0,0:0:0:0:
384,344,126298,5,0,0:0:0:0:
392,344,126316,5,0,0:0:0:0:
400,344,126335,5,0,0:0:0:0:
408,344,126354,5,0,0:0:0:0:
416,344,126373,5,0,0:0:0:0:
424,344,126391,5,0,0:0:0:0:
432,344,126410,5,0,0:0:0:0:
440,344,126429,5,0,0:0:0:0:
448,344,126448,5,0,0:0:0:0:
456,344,126466,5,0,0:0:0:0:
464,344,126485,5,0,0:0:0:0:
472,344,126504,5,0,0:0:0:0:
480,344,126523,5,0,0:0:0:0:
488,344,126541,5,0,0:0:0:0:
480,344,126560,5,0,0:0:0:0:
472,344,126579,5,0,0:0:0:0:
128,344,126598,5,0,0:0:0:0:
120,344,126616,5,0,0:0:0:0:
112,344,126635,5,0,0:0:0:0:
104,344,126654,5,0,0:0:0:0:
96,344,126673,5,0,0:0:0:0:
88,344,126691,5,0,0:0:0:0:
80,344,126710,5,0,0:0:0:0:
72,344,126729,5,0,0:0:0:0:
64,344,126748,5,0,0:0:0:0:
56,344,126766,5,0,0:0:0:0:
48,344,126785,5,0,0:0:0:0:
40,344,126804,5,0,0:0:0:0:
32,344,126823,5,0,0:0:0:0:
24,344,126841,5,0,0:0:0:0:
32,344,126860,5,0,0:0:0:0:
40,344,126879,5,0,0:0:0:0:
124,44,126898,5,0,0:0:0:0:
132,44,126916,5,0,0:0:0:0:
140,44,126935,5,0,0:0:0:0:
148,44,126954,5,0,0:0:0:0:
156,44,126973,5,0,0:0:0:0:
164,44,126991,5,0,0:0:0:0:
172,44,127010,5,0,0:0:0:0:
180,44,127029,5,0,0:0:0:0:
264,48,127048,5,0,0:0:0:0:
272,48,127066,5,0,0:0:0:0:
280,48,127085,5,0,0:0:0:0:
288,48,127104,5,0,0:0:0:0:
296,48,127123,5,0,0:0:0:0:
304,48,127141,5,0,0:0:0:0:
312,48,127160,5,0,0:0:0:0:
320,48,127179,5,0,0:0:0:0:
404,52,127198,5,0,0:0:0:0:
412,52,127216,5,0,0:0:0:0:
420,52,127235,5,0,0:0:0:0:
428,52,127254,5,0,0:0:0:0:
436,52,127273,5,0,0:0:0:0:
444,52,127291,5,0,0:0:0:0:
436,52,127310,5,0,0:0:0:0:
428,52,127329,5,0,0:0:0:0:
344,48,127348,5,0,0:0:0:0:
336,48,127366,5,0,0:0:0:0:
328,48,127385,5,0,0:0:0:0:
320,48,127404,5,0,0:0:0:0:
312,48,127423,5,0,0:0:0:0:
304,48,127441,5,0,0:0:0:0:
296,48,127460,5,0,0:0:0:0:
288,48,127479,5,0,0:0:0:0:
204,52,127498,5,0,0:0:0:0:
196,52,127516,5,0,0:0:0:0:
188,52,127535,5,0,0:0:0:0:
180,52,127554,5,0,0:0:0:0:
172,52,127573,5,0,0:0:0:0:
164,52,127591,5,0,0:0:0:0:
156,52,127610,5,0,0:0:0:0:
148,52,127629,5,0,0:0:0:0:
64,56,127648,5,0,0:0:0:0:
56,56,127666,5,0,0:0:0:0:
48,56,127685,5,0,0:0:0:0:
40,56,127704,5,0,0:0:0:0:
32,56,127723,5,0,0:0:0:0:
24,56,127741,5,0,0:0:0:0:
16,56,127760,5,0,0:0:0:0:
8,56,127779,5,0,0:0:0:0:
400,204,127798,5,0,0:0:0:0:
400,204,127816,5,0,0:0:0:0:
400,204,127835,5,0,0:0:0:0:
400,204,127854,5,0,0:0:0:0:
400,204,127873,5,0,0:0:0:0:
400,204,127891,5,0,0:0:0:0:
400,204,127910,5,0,0:0:0:0:
400,204,127929,5,0,0:0:0:0:
400,204,127948,5,0,0:0:0:0:
400,204,127966,5,0,0:0:0:0:
400,204,127985,5,0,0:0:0:0:
400,204,128004,5,0,0:0:0:0:
400,204,128023,5,0,0:0:0:0:
400,204,128041,5,0,0:0:0:0:
392,204,128060,5,0,0:0:0:0:
384,204,128079,5,0,0:0:0:0:
76,224,128098,5,0,0:0:0:0:
68,224,128116,5,0,0:0:0:0:
60,224,128135,5,0,0:0:0:0:
52,224,128154,5,0,0:0:0:0:
44,224,128173,5,0,0:0:0:0:
36,224,128191,5,0,0:0:0:0:
44,224,128210,5,0,0:0:0:0:
52,224,128229,5,0,0:0:0:0:
496,336,128248,5,0,0:0:0:0:
504,336,128266,5,0,0:0:0:0:
512,336,128285,5,0,0:0:0:0:
504,336,128304,5,0,0:0:0:0:
480,256,128323,5,0,0:0:0:0:
472,256,128341,5,0,0:0:0:0:
464,256,128360,5,0,0:0:0:0:
472,256,128379,5,0,0:0:0:0:
496,336,128398,5,0,0:0:0:0:
504,336,128416,5,0,0:0:0:0:
512,336,128435,5,0,0:0:0:0:
504,336,128454,5,0,0:0:0:0:
480,256,128473,5,0,0:0:0:0:
472,256,128491,5,0,0:0:0:0:
464,256,128510,5,0,0:0:0:0:
456,256,128529,5,0,0:0:0:0:
260,332,128548,5,0,0:0:0:0:
252,332,128566,5,0,0:0:0:0:
244,332,128585,5,0,0:0:0:0:
236,332,128604,5,0,0:0:0:0:
228,332,128623,5,0,0:0:0:0:
220,332,128641,5,0,0:0:0:0:
212,332,128660,5,0,0:0:0:0:
204,332,128679,5,0,0:0:0:0:
16,336,128698,5,0,0:0:0:0:
8,336,128716,5,0,0:0:0:0:
0,336,128735,5,0,0:0:0:0:
8,336,128754,5,0,0:0:0:0:
32,256,128773,5,0,0:0:0:0:
40,256,128791,5,0,0:0:0:0:
48,256,128810,5,0,0:0:0:0:
40,256,128829,5,0,0:0:0:0:
16,336,128848,5,0,0:0:0:0:
8,336,128866,5,0,0:0:0:0:
0,336,128885,5,0,0:0:0:0:
8,336,128904,5,0,0:0:0:0:
32,256,128923,5,0,0:0:0:0:
40,256,128941,5,0,0:0:0:0:
48,256,128960,5,0,0:0:0:0:
56,256,128979,5,0,0:0:0:0:
388,336,128998,5,0,0:0:0:0:
396,336,129017,5,0,0:0:0:0:
404,336,129036,5,0,0:0:0:0:
412,336,129054,5,0,0:0:0:0:
420,336,129073,5,0,0:0:0:0:
428,336,129091,5,0,0:0:0:0:
420,336,129110,5,0,0:0:0:0:
412,336,129129,5,0,0:0:0:0:
176,144,129148,5,0,0:0:0:0:
168,144,129166,5,0,0:0:0:0:
160,144,129185,5,0,0:0:0:0:
168,144,129204,5,0,0:0:0:0:
336,144,129223,5,0,0:0:0:0:
344,144,129241,5,0,0:0:0:0:
352,144,129260,5,0,0:0:0:0:
344,144,129279,5,0,0:0:0:0:
4,144,129298,5,0,0:0:0:0:
4,144,129316,5,0,0:0:0:0:
4,144,129335,5,0,0:0:0:0:
4,144,129354,5,0,0:0:0:0:
4,144,129373,5,0,0:0:0:0:
4,144,129391,5,0,0:0:0:0:
4,144,129409,5,0,0:0:0:0:
4,144,129428,5,0,0:0:0:0:
4,144,129447,5,0,0:0:0:0:
4,144,129466,5,0,0:0:0:0:
4,144,129485,5,0,0:0:0:0:
4,144,129503,5,0,0:0:0:0:
4,144,129522,5,0,0:0:0:0:
4,144,129541,5,0,0:0:0:0:
4,144,129560,5,0,0:0:0:0:
4,144,129579,5,0,0:0:0:0:
4,144,129598,5,0,0:0:0:0:
4,144,129616,5,0,0:0:0:0:
4,144,129634,5,0,0:0:0:0:
4,144,129653,5,0,0:0:0:0:
4,144,129672,5,0,0:0:0:0:
4,144,129691,5,0,0:0:0:0:
12,144,129710,5,0,0:0:0:0:
20,144,129728,5,0,0:0:0:0:
252,140,129748,5,0,0:0:0:0:
252,140,129767,5,0,0:0:0:0:
252,140,129785,5,0,0:0:0:0:
252,140,129804,5,0,0:0:0:0:
252,140,129823,5,0,0:0:0:0:
252,140,129842,5,0,0:0:0:0:
252,140,129861,5,0,0:0:0:0:
252,140,129880,5,0,0:0:0:0:
252,140,129898,5,0,0:0:0:0:
252,140,129916,5,0,0:0:0:0:
252,140,129935,5,0,0:0:0:0:
252,140,129954,5,0,0:0:0:0:
252,140,129973,5,0,0:0:0:0:
252,140,129992,5,0,0:0:0:0:
252,140,130010,5,0,0:0:0:0:
252,140,130029,5,0,0:0:0:0:
252,140,130048,5,0,0:0:0:0:
252,140,130067,5,0,0:0:0:0:
252,140,130086,5,0,0:0:0:0:
252,140,130105,5,0,0:0:0:0:
252,140,130123,5,0,0:0:0:0:
252,140,130141,5,0,0:0:0:0:
260,140,130160,5,0,0:0:0:0:
268,140,130179,5,0,0:0:0:0:
48,156,130198,5,0,0:0:0:0:
48,156,130216,5,0,0:0:0:0:
48,156,130235,5,0,0:0:0:0:
48,156,130254,5,0,0:0:0:0:
48,156,130273,5,0,0:0:0:0:
48,156,130291,5,0,0:0:0:0:
48,156,130310,5,0,0:0:0:0:
48,156,130329,5,0,0:0:0:0:
48,156,130348,5,0,0:0:0:0:
48,156,130367,5,0,0:0:0:0:
48,156,130385,5,0,0:0:0:0:
48,156,130404,5,0,0:0:0:0:
48,156,130423,5,0,0:0:0:0:
48,156,130442,5,0,0:0:0:0:
56,156,130460,5,0,0:0:0:0:
64,156,130479,5,0,0:0:0:0:
436,224,130498,5,0,0:0:0:0:
444,224,130516,5,0,0:0:0:0:
452,224,130535,5,0,0:0:0:0:
460,224,130554,5,0,0:0:0:0:
468,224,130573,5,0,0:0:0:0:
476,224,130591,5,0,0:0:0:0:
468,224,130610,5,0,0:0:0:0:
460,224,130629,5,0,0:0:0:0:
16,336,130648,5,0,0:0:0:0:
8,336,130666,5,0,0:0:0:0:
0,336,130685,5,0,0:0:0:0:
8,336,130704,5,0,0:0:0:0:
32,256,130723,5,0,0:0:0:0:
40,256,130741,5,0,0:0:0:0:
48,256,130760,5,0,0:0:0:0:
40,256,130779,5,0,0:0:0:0:
16,336,130798,5,0,0:0:0:0:
8,336,130816,5,0,0:0:0:0:
0,336,130835,5,0,0:0:0:0:
8,336,130854,5,0,0:0:0:0:
32,256,130873,5,0,0:0:0:0:
40,256,130891,5,0,0:0:0:0:
48,256,130910,5,0,0:0:0:0:
56,256,130929,5,0,0:0:0:0:
252,332,130948,5,0,0:0:0:0:
260,332,130966,5,0,0:0:0:0:
268,332,130985,5,0,0:0:0:0:
276,332,131004,5,0,0:0:0:0:
284,332,131023,5,0,0:0:0:0:
292,332,131041,5,0,0:0:0:0:
300,332,131060,5,0,0:0:0:0:
308,332,131079,5,0,0:0:0:0:
496,336,131098,5,0,0:0:0:0:
504,336,131116,5,0,0:0:0:0:
512,336,131135,5,0,0:0:0:0:
504,336,131154,5,0,0:0:0:0:
480,256,131173,5,0,0:0:0:0:
472,256,131191,5,0,0:0:0:0:
464,256,131210,5,0,0:0:0:0:
472,256,131229,5,0,0:0:0:0:
496,336,131248,5,0,0:0:0:0:
504,336,131266,5,0,0:0:0:0:
512,336,131285,5,0,0:0:0:0:
504,336,131304,5,0,0:0:0:0:
480,256,131323,5,0,0:0:0:0:
472,256,131341,5,0,0:0:0:0:
464,256,131360,5,0,0:0:0:0:
456,256,131379,5,0,0:0:0:0:
124,336,131398,5,0,0:0:0:0:
116,336,131417,5,0,0:0:0:0:
108,336,131436,5,0,0:0:0:0:
100,336,131454,5,0,0:0:0:0:
92,336,131473,5,0,0:0:0:0:
84,336,131491,5,0,0:0:0:0:
92,336,131510,5,0,0:0:0:0:
100,336,131529,5,0,0:0:0:0:
336,144,131548,5,0,0:0:0:0:
344,144,131566,5,0,0:0:0:0:
352,144,131585,5,0,0:0:0:0:
344,144,131604,5,0,0:0:0:0:
176,144,131623,5,0,0:0:0:0:
168,144,131641,5,0,0:0:0:0:
160,144,131660,5,0,0:0:0:0:
168,144,131679,5,0,0:0:0:0:
456,144,131698,5,0,0:0:0:0:
460,144,131716,5,0,0:0:0:0:
464,144,131735,5,0,0:0:0:0:
468,144,131754,5,0,0:0:0:0:
472,144,131773,5,0,0:0:0:0:
476,144,131791,5,0,0:0:0:0:
480,144,131810,5,0,0:0:0:0:
484,144,131829,5,0,0:0:0:0:
488,144,131848,5,0,0:0:0:0:
492,144,131866,5,0,0:0:0:0:
492,144,131885,5,0,0:0:0:0:
492,144,131904,5,0,0:0:0:0:
492,144,131923,5,0,0:0:0:0:
492,144,131941,5,0,0:0:0:0:
484,144,131960,5,0,0:0:0:0:
476,144,131979,5,0,0:0:0:0:
168,144,131998,5,0,0:0:0:0:
160,144,132016,5,0,0:0:0:0:
152,144,132035,5,0,0:0:0:0:
144,144,132054,5,0,0:0:0:0:
136,144,132073,5,0,0:0:0:0:
128,144,132091,5,0,0:0:0:0:
120,144,132110,5,0,0:0:0:0:
112,144,132129,5,0,0:0:0:0:
104,144,132148,5,0,0:0:0:0:
96,144,132166,5,0,0:0:0:0:
88,144,132185,5,0,0:0:0:0:
80,144,132204,5,0,0:0:0:0:
72,144,132223,5,0,0:0:0:0:
80,144,132241,5,0,0:0:0:0:
88,144,132260,5,0,0:0:0:0:
96,144,132279,5,0,0:0:0:0:
344,240,132298,5,0,0:0:0:0:
352,240,132316,5,0,0:0:0:0:
360,240,132335,5,0,0:0:0:0:
368,240,132354,5,0,0:0:0:0:
376,240,132373,5,0,0:0:0:0:
384,240,132391,5,0,0:0:0:0:
392,240,132410,5,0,0:0:0:0:
400,240,132429,5,0,0:0:0:0:
408,240,132448,5,0,0:0:0:0:
416,240,132466,5,0,0:0:0:0:
416,240,132485,5,0,0:0:0:0:
416,240,132504,5,0,0:0:0:0:
424,240,132523,5,0,0:0:0:0:
432,240,132541,5,0,0:0:0:0:
424,240,132560,5,0,0:0:0:0:
416,240,132579,5,0,0:0:0:0:
104,224,132598,5,0,0:0:0:0:
96,224,132616,5,0,0:0:0:0:
88,224,132635,5,0,0:0:0:0:
80,224,132654,5,0,0:0:0:0:
72,224,132673,5,0,0:0:0:0:
64,224,132691,5,0,0:0:0:0:
56,224,132710,5,0,0:0:0:0:
48,224,132729,5,0,0:0:0:0:
40,224,132748,5,0,0:0:0:0:
32,224,132766,5,0,0:0:0:0:
32,224,132785,5,0,0:0:0:0:
32,224,132804,5,0,0:0:0:0:
24,224,132823,5,0,0:0:0:0:
16,224,132841,5,0,0:0:0:0:
24,224,132860,5,0,0:0:0:0:
32,224,132879,5,0,0:0:0:0:
392,72,132898,5,0,0:0:0:0:
400,72,132916,5,0,0:0:0:0:
408,72,132935,5,0,0:0:0:0:
416,72,132954,5,0,0:0:0:0:
424,72,132973,5,0,0:0:0:0:
432,72,132991,5,0,0:0:0:0:
440,72,133010,5,0,0:0:0:0:
448,72,133029,5,0,0:0:0:0:
456,72,133048,5,0,0:0:0:0:
464,72,133066,5,0,0:0:0:0:
464,72,133085,5,0,0:0:0:0:
464,72,133104,5,0,0:0:0:0:
472,72,133123,5,0,0:0:0:0:
480,72,133141,5,0,0:0:0:0:
472,72,133160,5,0,0:0:0:0:
464,72,133179,5,0,0:0:0:0:
176,336,133198,5,0,0:0:0:0:
168,336,133216,5,0,0:0:0:0:
160,336,133235,5,0,0:0:0:0:
152,336,133254,5,0,0:0:0:0:
144,336,133273,5,0,0:0:0:0:
136,336,133291,5,0,0:0:0:0:
128,336,133310,5,0,0:0:0:0:
120,336,133329,5,0,0:0:0:0:
112,336,133348,5,0,0:0:0:0:
104,336,133366,5,0,0:0:0:0:
104,336,133385,5,0,0:0:0:0:
104,336,133404,5,0,0:0:0:0:
96,336,133423,5,0,0:0:0:0:
88,336,133441,5,0,0:0:0:0:
96,336,133460,5,0,0:0:0:0:
104,336,133479,5,0,0:0:0:0:
188,336,133498,5,0,0:0:0:0:
196,336,133516,5,0,0:0:0:0:
204,336,133535,5,0,0:0:0:0:
212,336,133554,5,0,0:0:0:0:
220,336,133573,5,0,0:0:0:0:
228,336,133591,5,0,0:0:0:0:
236,336,133610,5,0,0:0:0:0:
244,336,133629,5,0,0:0:0:0:
252,336,133648,5,0,0:0:0:0:
260,336,133666,5,0,0:0:0:0:
260,336,133685,5,0,0:0:0:0:
260,336,133704,5,0,0:0:0:0:
268,336,133723,5,0,0:0:0:0:
276,336,133741,5,0,0:0:0:0:
268,336,133760,5,0,0:0:0:0:
260,336,133779,5,0,0:0:0:0:
336,336,133798,5,0,0:0:0:0:
344,336,133816,5,0,0:0:0:0:
352,336,133835,5,0,0:0:0:0:
360,336,133854,5,0,0:0:0:0:
368,336,133873,5,0,0:0:0:0:
376,336,133891,5,0,0:0:0:0:
384,336,133910,5,0,0:0:0:0:
392,336,133929,5,0,0:0:0:0:
400,336,133948,5,0,0:0:0:0:
408,336,133966,5,0,0:0:0:0:
408,336,133985,5,0,0:0:0:0:
408,336,134004,5,0,0:0:0:0:
416,336,134023,5,0,0:0:0:0:
424,336,134041,5,0,0:0:0:0:
416,336,134060,5,0,0:0:0:0:
408,336,134079,5,0,0:0:0:0:
324,336,134098,5,0,0:0:0:0:
316,336,134116,5,0,0:0:0:0:
308,336,134135,5,0,0:0:0:0:
300,336,134154,5,0,0:0:0:0:
292,336,134173,5,0,0:0:0:0:
284,336,134191,5,0,0:0:0:0:
276,336,134210,5,0,0:0:0:0:
268,336,134229,5,0,0:0:0:0:
260,336,134248,5,0,0:0:0:0:
252,336,134266,5,0,0:0:0:0:
252,336,134285,5,0,0:0:0:0:
252,336,134304,5,0,0:0:0:0:
244,336,134323,5,0,0:0:0:0:
236,336,134341,5,0,0:0:0:0:
244,336,134360,5,0,0:0:0:0:
252,336,134379,5,0,0:0:0:0:
496,336,134398,5,0,0:0:0:0:
496,336,134416,5,0,0:0:0:0:
496,336,134435,5,0,0:0:0:0:
496,336,134454,5,0,0:0:0:0:
488,336,134473,5,0,0:0:0:0:
480,336,134491,5,0,0:0:0:0:
472,336,134510,5,0,0:0:0:0:
464,336,134529,5,0,0:0:0:0:
456,336,134548,5,0,0:0:0:0:
448,336,134566,5,0,0:0:0:0:
440,336,134585,5,0,0:0:0:0:
432,336,134604,5,0,0:0:0:0:
424,336,134623,5,0,0:0:0:0:
416,336,134641,5,0,0:0:0:0:
408,336,134660,5,0,0:0:0:0:
400,336,134679,5,0,0:0:0:0:
16,336,134698,5,0,0:0:0:0:
16,336,134716,5,0,0:0:0:0:
16,336,134735,5,0,0:0:0:0:
16,336,134754,5,0,0:0:0:0:
24,336,134773,5,0,0:0:0:0:
32,336,134791,5,0,0:0:0:0:
40,336,134810,5,0,0:0:0:0:
48,336,134829,5,0,0:0:0:0:
56,336,134848,5,0,0:0:0:0:
64,336,134866,5,0,0:0:0:0:
72,336,134885,5,0,0:0:0:0:
80,336,134904,5,0,0:0:0:0:
88,336,134923,5,0,0:0:0:0:
96,336,134941,5,0,0:0:0:0:
104,336,134960,5,0,0:0:0:0:
112,336,134979,5,0,0:0:0:0:
496,336,134998,5,0,0:0:0:0:
496,336,135016,5,0,0:0:0:0:
496,336,135035,5,0,0:0:0:0:
496,336,135054,5,0,0:0:0:0:
488,336,135073,5,0,0:0:0:0:
480,336,135091,5,0,0:0:0:0:
472,336,135110,5,0,0:0:0:0:
464,336,135129,5,0,0:0:0:0:
456,336,135148,5,0,0:0:0:0:
448,336,135166,5,0,0:0:0:0:
440,336,135185,5,0,0:0:0:0:
432,336,135204,5,0,0:0:0:0:
424,336,135223,5,0,0:0:0:0:
416,336,135241,5,0,0:0:0:0:
408,336,135260,5,0,0:0:0:0:
400,336,135279,5,0,0:0:0:0:
16,336,135298,5,0,0:0:0:0:
16,336,135316,5,0,0:0:0:0:
16,336,135335,5,0,0:0:0:0:
16,336,135354,5,0,0:0:0:0:
24,336,135373,5,0,0:0:0:0:
32,336,135391,5,0,0:0:0:0:
40,336,135410,5,0,0:0:0:0:
48,336,135429,5,0,0:0:0:0:
56,336,135448,5,0,0:0:0:0:
64,336,135466,5,0,0:0:0:0:
72,336,135485,5,0,0:0:0:0:
80,336,135504,5,0,0:0:0:0:
88,336,135523,5,0,0:0:0:0:
96,336,135541,5,0,0:0:0:0:
104,336,135560,5,0,0:0:0:0:
112,336,135579,5,0,0:0:0:0:
496,336,135598,5,0,0:0:0:0:
496,336,135616,5,0,0:0:0:0:
496,336,135635,5,0,0:0:0:0:
496,336,135654,5,0,0:0:0:0:
488,336,135673,5,0,0:0:0:0:
480,336,135691,5,0,0:0:0:0:
472,336,135710,5,0,0:0:0:0:
464,336,135729,5,0,0:0:0:0:
16,336,135748,5,0,0:0:0:0:
16,336,135766,5,0,0:0:0:0:
16,336,135785,5,0,0:0:0:0:
16,336,135804,5,0,0:0:0:0:
24,336,135823,5,0,0:0:0:0:
32,336,135841,5,0,0:0:0:0:
40,336,135860,5,0,0:0:0:0:
48,336,135879,5,0,0:0:0:0:
132,168,135897,5,0,0:0:0:0:
140,168,135916,1,0,0:0:0:0:
148,168,135935,1,0,0:0:0:0:
156,168,135954,1,0,0:0:0:0:
240,172,135973,1,0,0:0:0:0:
248,172,135991,1,0,0:0:0:0:
256,172,136010,1,0,0:0:0:0:
264,172,136029,1,0,0:0:0:0:
348,172,136048,1,0,0:0:0:0:
356,172,136067,1,0,0:0:0:0:
364,172,136086,1,0,0:0:0:0:
372,172,136104,1,0,0:0:0:0:
456,172,136123,1,0,0:0:0:0:
464,172,136142,1,0,0:0:0:0:
472,172,136161,1,0,0:0:0:0:
456,172,136179,1,0,0:0:0:0:
380,168,136198,5,0,0:0:0:0:
372,168,136217,1,0,0:0:0:0:
364,168,136236,1,0,0:0:0:0:
356,168,136255,1,0,0:0:0:0:
272,172,136274,1,0,0:0:0:0:
264,172,136292,1,0,0:0:0:0:
256,172,136311,1,0,0:0:0:0:
248,172,136330,1,0,0:0:0:0:
164,172,136349,1,0,0:0:0:0:
156,172,136368,1,0,0:0:0:0:
148,172,136387,1,0,0:0:0:0:
140,172,136405,1,0,0:0:0:0:
56,172,136424,1,0,0:0:0:0:
48,172,136443,1,0,0:0:0:0:
40,172,136462,1,0,0:0:0:0:
32,172,136480,1,0,0:0:0:0:
116,172,136497,5,0,0:0:0:0:
124,172,136516,1,0,0:0:0:0:
132,172,136535,1,0,0:0:0:0:
140,172,136554,1,0,0:0:0:0:
224,172,136572,5,0,0:0:0:0:
232,172,136591,1,0,0:0:0:0:
240,172,136610,1,0,0:0:0:0:
248,172,136629,1,0,0:0:0:0:
356,168,136647,5,0,0:0:0:0:
364,168,136666,1,0,0:0:0:0:
372,168,136685,1,0,0:0:0:0:
380,168,136704,1,0,0:0:0:0:
156,168,136723,5,0,0:0:0:0:
148,168,136742,1,0,0:0:0:0:
140,168,136761,1,0,0:0:0:0:
132,168,136780,1,0,0:0:0:0:
356,168,136798,5,0,0:0:0:0:
364,168,136817,1,0,0:0:0:0:
372,168,136836,1,0,0:0:0:0:
380,168,136855,1,0,0:0:0:0:
388,168,136873,1,0,0:0:0:0:
396,168,136891,1,0,0:0:0:0:
404,168,136910,1,0,0:0:0:0:
412,168,136929,1,0,0:0:0:0:
156,168,136948,5,0,0:0:0:0:
148,168,136967,1,0,0:0:0:0:
140,168,136986,1,0,0:0:0:0:
132,168,137004,1,0,0:0:0:0:
132,168,137005,1,0,0:0:0:0:
124,164,137023,1,0,0:0:0:0:
116,160,137041,1,0,0:0:0:0:
108,152,137060,1,0,0:0:0:0:
100,148,137079,1,0,0:0:0:0:
96,140,137098,1,0,0:0:0:0:
92,132,137116,1,0,0:0:0:0:
88,124,137135,1,0,0:0:0:0:
92,116,137154,1,0,0:0:0:0:
100,108,137173,1,0,0:0:0:0:
108,104,137191,1,0,0:0:0:0:
492,96,137210,5,0,0:0:0:0:
492,96,137229,5,0,0:0:0:0:
492,96,137248,5,0,0:0:0:0:
492,96,137266,5,0,0:0:0:0:
492,96,137285,5,0,0:0:0:0:
492,96,137304,5,0,0:0:0:0:
484,96,137323,1,0,0:0:0:0:
476,96,137341,1,0,0:0:0:0:
468,96,137360,1,0,0:0:0:0:
460,96,137379,1,0,0:0:0:0:
452,96,137398,1,0,0:0:0:0:
444,96,137416,1,0,0:0:0:0:
436,96,137435,1,0,0:0:0:0:
428,96,137454,1,0,0:0:0:0:
420,96,137473,1,0,0:0:0:0:
412,96,137491,1,0,0:0:0:0:
404,96,137510,1,0,0:0:0:0:
396,96,137529,1,0,0:0:0:0:
168,88,137548,5,0,0:0:0:0:
152,88,137566,1,0,0:0:0:0:
160,88,137585,1,0,0:0:0:0:
168,88,137604,1,0,0:0:0:0:
344,88,137623,5,0,0:0:0:0:
360,88,137641,1,0,0:0:0:0:
352,88,137660,1,0,0:0:0:0:
344,88,137679,1,0,0:0:0:0:
20,88,137698,2,0,B|20:344|20:344|72:328,1,299.999990463257
496,344,138016,2,0,L|464:60,1,281.249991059303
20,92,138316,2,0,B|20:72|20:72|24:344,1,281.249991059303
32,332,138616,5,0,0:0:0:0:
44,332,138635,1,0,0:0:0:0:
56,332,138654,1,0,0:0:0:0:
500,272,138673,5,0,0:0:0:0:
488,268,138691,1,0,0:0:0:0:
476,264,138710,1,0,0:0:0:0:
464,256,138729,1,0,0:0:0:0:
12,272,138748,5,0,0:0:0:0:
24,268,138766,1,0,0:0:0:0:
36,264,138785,1,0,0:0:0:0:
48,256,138804,1,0,0:0:0:0:
500,272,138823,5,0,0:0:0:0:
488,268,138841,1,0,0:0:0:0:
476,264,138860,1,0,0:0:0:0:
464,256,138879,1,0,0:0:0:0:
12,272,138898,5,0,0:0:0:0:
24,268,138916,1,0,0:0:0:0:
36,264,138935,1,0,0:0:0:0:
48,256,138954,1,0,0:0:0:0:
500,272,138973,5,0,0:0:0:0:
488,268,138991,1,0,0:0:0:0:
476,264,139010,1,0,0:0:0:0:
464,256,139029,1,0,0:0:0:0:
4,56,139048,2,0,B|4:320|4:320|8:304,1,281.249991059303
72,288,139348,1,0,0:0:0:0:
508,200,139366,2,0,B|500:44|500:44|444:164,1,281.249991059303
4,200,139666,2,0,B|12:44|12:44|64:172,1,281.249991059303
508,200,139966,2,0,B|504:56|504:56,1,131.249995827675
12,136,140116,5,0,0:0:0:0:
12,136,140135,1,0,0:0:0:0:
12,136,140154,1,0,0:0:0:0:
16,128,140173,1,0,0:0:0:0:
28,120,140191,1,0,0:0:0:0:
36,116,140210,1,0,0:0:0:0:
44,112,140229,1,0,0:0:0:0:
252,104,140248,5,0,0:0:0:0:
260,104,140266,1,0,0:0:0:0:
268,104,140285,1,0,0:0:0:0:
276,104,140304,1,0,0:0:0:0:
388,104,140323,1,0,0:0:0:0:
396,104,140341,1,0,0:0:0:0:
404,104,140360,1,0,0:0:0:0:
388,104,140379,1,0,0:0:0:0:
12,136,140398,5,0,0:0:0:0:
12,136,140416,1,0,0:0:0:0:
12,136,140435,1,0,0:0:0:0:
20,132,140454,1,0,0:0:0:0:
28,132,140473,1,0,0:0:0:0:
36,128,140491,1,0,0:0:0:0:
44,124,140510,1,0,0:0:0:0:
52,120,140529,1,0,0:0:0:0:
252,104,140548,5,0,0:0:0:0:
260,104,140566,1,0,0:0:0:0:
268,104,140585,1,0,0:0:0:0:
276,104,140604,1,0,0:0:0:0:
388,104,140623,1,0,0:0:0:0:
396,104,140641,1,0,0:0:0:0:
404,104,140660,1,0,0:0:0:0:
412,104,140679,1,0,0:0:0:0:
256,192,140698,12,0,141598,0:0:0:0:
448,104,140716,6,0,B|416:312|416:312|432:224|432:224|192:128|192:128|192:332|192:332|188:268,1,824.999973773957
136,152,141748,5,0,0:0:0:0:
140,152,141766,1,0,0:0:0:0:
140,152,141898,1,0,0:0:0:0:
140,152,141916,1,0,0:0:0:0:
140,152,142048,1,0,0:0:0:0:
140,152,142066,1,0,0:0:0:0:
140,152,142198,1,0,0:0:0:0:
140,152,142216,1,0,0:0:0:0:
140,152,142348,1,0,0:0:0:0:
140,152,142366,1,0,0:0:0:0:
140,152,142498,5,0,0:0:0:0:
136,152,142516,1,0,0:0:0:0:
140,152,142535,1,0,0:0:0:0:
136,152,142648,5,0,0:0:0:0:
136,152,142666,1,0,0:0:0:0:
136,152,142685,1,0,0:0:0:0:
136,152,142760,5,0,0:0:0:0:
136,152,142779,1,0,0:0:0:0:
136,152,142798,1,0,0:0:0:0:
140,152,142816,1,0,0:0:0:0:
148,152,142835,1,0,0:0:0:0:
512,164,142854,6,0,B|444:68|448:68|472:88|472:88|504:128|496:204,1,243.749992251396
492,132,143023,1,0,0:0:0:0:
448,184,143173,2,0,L|136:180,1,299.999990463257
124,176,143548,2,0,L|120:156,1,18.7499994039536
92,148,143623,2,0,L|84:128,1,18.7499994039536
8,96,143698,5,0,0:0:0:0:
16,96,143716,1,0,0:0:0:0:
24,96,143735,1,0,0:0:0:0:
32,96,143754,1,0,0:0:0:0:
40,96,143773,1,0,0:0:0:0:
48,96,143791,1,0,0:0:0:0:
56,96,143810,1,0,0:0:0:0:
64,96,143829,1,0,0:0:0:0:
504,96,143848,5,0,0:0:0:0:
496,96,143866,1,0,0:0:0:0:
488,96,143885,1,0,0:0:0:0:
480,96,143904,1,0,0:0:0:0:
472,96,143923,1,0,0:0:0:0:
464,96,143941,1,0,0:0:0:0:
456,96,143960,1,0,0:0:0:0:
448,96,143979,1,0,0:0:0:0:
16,200,143998,6,0,B|16:288|16:288|48:224,1,149.999995231629
488,332,144166,2,0,B|484:244|488:244|488:244|464:192,1,131.249995827675
220,256,144316,2,0,L|216:120,1,131.249995827675
352,160,144466,2,0,B|372:28|372:28|356:184,1,281.249991059303
16,152,144766,1,0,0:0:0:0:
16,152,144785,1,0,0:0:0:0:
16,152,144804,1,0,0:0:0:0:
16,152,144823,1,0,0:0:0:0:
16,152,144841,1,0,0:0:0:0:
24,152,144860,1,0,0:0:0:0:
32,152,144879,1,0,0:0:0:0:
464,172,144898,5,0,0:0:0:0:
476,172,144917,1,0,0:0:0:0:
488,172,144936,1,0,0:0:0:0:
500,172,144954,1,0,0:0:0:0:
380,176,144972,5,0,0:0:0:0:
368,176,144991,1,0,0:0:0:0:
356,176,145010,1,0,0:0:0:0:
344,176,145028,1,0,0:0:0:0:
260,180,145048,5,0,0:0:0:0:
252,180,145067,1,0,0:0:0:0:
244,180,145086,1,0,0:0:0:0:
236,180,145104,1,0,0:0:0:0:
148,184,145123,5,0,0:0:0:0:
140,184,145141,1,0,0:0:0:0:
132,184,145160,1,0,0:0:0:0:
124,184,145179,1,0,0:0:0:0:
16,204,145198,5,0,0:0:0:0:
20,196,145216,1,0,0:0:0:0:
24,188,145235,1,0,0:0:0:0:
28,180,145254,1,0,0:0:0:0:
32,172,145273,1,0,0:0:0:0:
36,164,145291,1,0,0:0:0:0:
40,156,145310,1,0,0:0:0:0:
44,148,145329,1,0,0:0:0:0:
188,64,145348,5,0,0:0:0:0:
192,72,145367,1,0,0:0:0:0:
196,80,145386,1,0,0:0:0:0:
200,88,145404,1,0,0:0:0:0:
204,96,145423,1,0,0:0:0:0:
208,104,145442,1,0,0:0:0:0:
212,112,145461,1,0,0:0:0:0:
216,120,145479,1,0,0:0:0:0:
304,48,145498,6,0,B|356:296|356:296|312:296|-12:256,1,599.999980926514
4,312,145666,2,0,B|0:116|0:116|-80:204|317:150,1,562.499982118607
288,152,145854,1,0,0:0:0:0:
488,104,145967,5,0,0:0:0:0:
488,104,145985,1,0,0:0:0:0:
360,104,146248,1,0,0:0:0:0:
360,104,146266,1,0,0:0:0:0:
488,104,146398,1,0,0:0:0:0:
488,104,146416,1,0,0:0:0:0:
360,104,146698,6,0,L|360:148,7,37.4999988079071
496,152,146997,1,0,0:0:0:0:
496,152,147016,1,0,0:0:0:0:
496,152,147035,1,0,0:0:0:0:
496,152,147054,1,0,0:0:0:0:
496,152,147072,1,0,0:0:0:0:
488,152,147091,1,0,0:0:0:0:
480,152,147110,1,0,0:0:0:0:
48,172,147129,5,0,0:0:0:0:
36,172,147148,1,0,0:0:0:0:
24,172,147167,1,0,0:0:0:0:
12,172,147185,1,0,0:0:0:0:
132,176,147203,5,0,0:0:0:0:
144,176,147222,1,0,0:0:0:0:
156,176,147241,1,0,0:0:0:0:
168,176,147259,1,0,0:0:0:0:
252,180,147279,5,0,0:0:0:0:
260,180,147298,1,0,0:0:0:0:
268,180,147317,1,0,0:0:0:0:
276,180,147335,1,0,0:0:0:0:
364,184,147354,5,0,0:0:0:0:
372,184,147372,1,0,0:0:0:0:
380,184,147391,1,0,0:0:0:0:
388,184,147410,1,0,0:0:0:0:
496,204,147429,5,0,0:0:0:0:
492,196,147447,1,0,0:0:0:0:
488,188,147466,1,0,0:0:0:0:
484,180,147485,1,0,0:0:0:0:
480,172,147504,1,0,0:0:0:0:
476,164,147522,1,0,0:0:0:0:
472,156,147541,1,0,0:0:0:0:
468,148,147560,1,0,0:0:0:0:
324,64,147579,5,0,0:0:0:0:
320,72,147598,1,0,0:0:0:0:
316,80,147617,1,0,0:0:0:0:
312,88,147635,1,0,0:0:0:0:
308,96,147654,1,0,0:0:0:0:
304,104,147673,1,0,0:0:0:0:
300,112,147692,1,0,0:0:0:0:
296,120,147710,1,0,0:0:0:0:
208,48,147729,6,0,B|156:296|156:296|200:296|296:296,1,374.999988079071
281,307,147898,1,0,0:0:0:0:
294,272,147935,1,0,0:0:0:0:
312,270,147954,1,0,0:0:0:0:
330,269,147973,1,0,0:0:0:0:
347,268,147991,1,0,0:0:0:0:
365,267,148010,1,0,0:0:0:0:
338,268,148029,1,0,0:0:0:0:
0,268,148048,5,0,0:0:0:0:
6,268,148048,5,0,0:0:0:0:
18,268,148048,5,0,0:0:0:0:
3,268,148066,5,0,0:0:0:0:
9,268,148066,5,0,0:0:0:0:
21,268,148066,5,0,0:0:0:0:
6,268,148085,5,0,0:0:0:0:
12,268,148085,5,0,0:0:0:0:
24,268,148085,5,0,0:0:0:0:
9,268,148104,5,0,0:0:0:0:
15,268,148104,5,0,0:0:0:0:
27,268,148104,5,0,0:0:0:0:
12,268,148123,5,0,0:0:0:0:
18,268,148123,5,0,0:0:0:0:
30,268,148123,5,0,0:0:0:0:
15,268,148141,5,0,0:0:0:0:
21,268,148141,5,0,0:0:0:0:
33,268,148141,5,0,0:0:0:0:
18,268,148160,5,0,0:0:0:0:
24,268,148160,5,0,0:0:0:0:
36,268,148160,5,0,0:0:0:0:
21,268,148179,5,0,0:0:0:0:
27,268,148179,5,0,0:0:0:0:
39,268,148179,5,0,0:0:0:0:
24,268,148198,5,0,0:0:0:0:
30,268,148198,5,0,0:0:0:0:
42,268,148198,5,0,0:0:0:0:
27,268,148216,5,0,0:0:0:0:
33,268,148216,5,0,0:0:0:0:
45,268,148216,5,0,0:0:0:0:
30,268,148235,5,0,0:0:0:0:
36,268,148235,5,0,0:0:0:0:
48,268,148235,5,0,0:0:0:0:
33,268,148254,5,0,0:0:0:0:
39,268,148254,5,0,0:0:0:0:
51,268,148254,5,0,0:0:0:0:
36,268,148273,5,0,0:0:0:0:
42,268,148273,5,0,0:0:0:0:
54,268,148273,5,0,0:0:0:0:
39,268,148291,5,0,0:0:0:0:
45,268,148291,5,0,0:0:0:0:
57,268,148291,5,0,0:0:0:0:
42,268,148310,5,0,0:0:0:0:
48,268,148310,5,0,0:0:0:0:
60,268,148310,5,0,0:0:0:0:
45,268,148329,5,0,0:0:0:0:
51,268,148329,5,0,0:0:0:0:
63,268,148329,5,0,0:0:0:0:
48,268,148348,5,0,0:0:0:0:
54,268,148348,5,0,0:0:0:0:
66,268,148348,5,0,0:0:0:0:
51,268,148366,5,0,0:0:0:0:
57,268,148366,5,0,0:0:0:0:
69,268,148366,5,0,0:0:0:0:
54,268,148385,5,0,0:0:0:0:
60,268,148385,5,0,0:0:0:0:
72,268,148385,5,0,0:0:0:0:
57,268,148404,5,0,0:0:0:0:
63,268,148404,5,0,0:0:0:0:
75,268,148404,5,0,0:0:0:0:
60,268,148423,5,0,0:0:0:0:
66,268,148423,5,0,0:0:0:0:
78,268,148423,5,0,0:0:0:0:
63,268,148441,5,0,0:0:0:0:
69,268,148441,5,0,0:0:0:0:
81,268,148441,5,0,0:0:0:0:
66,268,148460,5,0,0:0:0:0:
72,268,148460,5,0,0:0:0:0:
84,268,148460,5,0,0:0:0:0:
69,268,148479,5,0,0:0:0:0:
75,268,148479,5,0,0:0:0:0:
87,268,148479,5,0,0:0:0:0:
70,268,148498,5,0,0:0:0:0:
76,268,148498,5,0,0:0:0:0:
88,268,148498,5,0,0:0:0:0:
71,268,148516,5,0,0:0:0:0:
77,268,148516,5,0,0:0:0:0:
89,268,148516,5,0,0:0:0:0:
72,268,148535,5,0,0:0:0:0:
78,268,148535,5,0,0:0:0:0:
90,268,148535,5,0,0:0:0:0:
73,268,148554,5,0,0:0:0:0:
79,268,148554,5,0,0:0:0:0:
91,268,148554,5,0,0:0:0:0:
74,268,148573,5,0,0:0:0:0:
80,268,148573,5,0,0:0:0:0:
92,268,148573,5,0,0:0:0:0:
75,268,148591,5,0,0:0:0:0:
81,268,148591,5,0,0:0:0:0:
93,268,148591,5,0,0:0:0:0:
76,268,148610,5,0,0:0:0:0:
82,268,148610,5,0,0:0:0:0:
94,268,148610,5,0,0:0:0:0:
77,268,148629,5,0,0:0:0:0:
83,268,148629,5,0,0:0:0:0:
95,268,148629,5,0,0:0:0:0:
78,268,148648,5,0,0:0:0:0:
84,268,148648,5,0,0:0:0:0:
96,268,148648,5,0,0:0:0:0:
79,268,148666,5,0,0:0:0:0:
85,268,148666,5,0,0:0:0:0:
97,268,148666,5,0,0:0:0:0:
80,268,148685,5,0,0:0:0:0:
86,268,148685,5,0,0:0:0:0:
98,268,148685,5,0,0:0:0:0:
81,268,148704,5,0,0:0:0:0:
87,268,148704,5,0,0:0:0:0:
99,268,148704,5,0,0:0:0:0:
82,268,148723,5,0,0:0:0:0:
88,268,148723,5,0,0:0:0:0:
100,268,148723,5,0,0:0:0:0:
83,268,148741,5,0,0:0:0:0:
89,268,148741,5,0,0:0:0:0:
101,268,148741,5,0,0:0:0:0:
84,268,148760,5,0,0:0:0:0:
90,268,148760,5,0,0:0:0:0:
102,268,148760,5,0,0:0:0:0:
85,268,148779,5,0,0:0:0:0:
91,268,148779,5,0,0:0:0:0:
103,268,148779,5,0,0:0:0:0:
86,268,148798,5,0,0:0:0:0:
92,268,148798,5,0,0:0:0:0:
104,268,148798,5,0,0:0:0:0:
87,268,148816,5,0,0:0:0:0:
93,268,148816,5,0,0:0:0:0:
105,268,148816,5,0,0:0:0:0:
88,268,148835,5,0,0:0:0:0:
94,268,148835,5,0,0:0:0:0:
106,268,148835,5,0,0:0:0:0:
89,268,148854,5,0,0:0:0:0:
95,268,148854,5,0,0:0:0:0:
107,268,148854,5,0,0:0:0:0:
90,268,148873,5,0,0:0:0:0:
96,268,148873,5,0,0:0:0:0:
108,268,148873,5,0,0:0:0:0:
91,268,148891,5,0,0:0:0:0:
97,268,148891,5,0,0:0:0:0:
109,268,148891,5,0,0:0:0:0:
92,268,148910,5,0,0:0:0:0:
98,268,148910,5,0,0:0:0:0:
110,268,148910,5,0,0:0:0:0:
93,268,148929,5,0,0:0:0:0:
99,268,148929,5,0,0:0:0:0:
111,268,148929,5,0,0:0:0:0:
94,268,148948,5,0,0:0:0:0:
100,268,148948,5,0,0:0:0:0:
112,268,148948,5,0,0:0:0:0:
95,268,148966,5,0,0:0:0:0:
101,268,148966,5,0,0:0:0:0:
113,268,148966,5,0,0:0:0:0:
96,268,148985,5,0,0:0:0:0:
102,268,148985,5,0,0:0:0:0:
114,268,148985,5,0,0:0:0:0:
97,268,149004,5,0,0:0:0:0:
103,268,149004,5,0,0:0:0:0:
115,268,149004,5,0,0:0:0:0:
98,268,149023,5,0,0:0:0:0:
104,268,149023,5,0,0:0:0:0:
116,268,149023,5,0,0:0:0:0:
99,268,149041,5,0,0:0:0:0:
105,268,149041,5,0,0:0:0:0:
117,268,149041,5,0,0:0:0:0:
100,268,149060,5,0,0:0:0:0:
106,268,149060,5,0,0:0:0:0:
118,268,149060,5,0,0:0:0:0:
101,268,149079,5,0,0:0:0:0:
107,268,149079,5,0,0:0:0:0:
119,268,149079,5,0,0:0:0:0:
476,272,149098,5,0,0:0:0:0:
460,272,149098,1,0,0:0:0:0:
440,272,149098,1,0,0:0:0:0:
360,176,149398,5,0,0:0:0:0:
324,176,149398,1,0,0:0:0:0:
344,176,149398,1,0,0:0:0:0:
228,136,149698,5,0,0:0:0:0:
212,136,149698,1,0,0:0:0:0:
192,136,149698,1,0,0:0:0:0:
172,136,149848,5,0,0:0:0:0:
156,136,149848,1,0,0:0:0:0:
136,136,149848,1,0,0:0:0:0:
380,88,150148,5,0,0:0:0:0:
344,88,150148,1,0,0:0:0:0:
364,88,150148,1,0,0:0:0:0:
188,92,150448,5,0,0:0:0:0:
172,92,150448,1,0,0:0:0:0:
152,92,150448,1,0,0:0:0:0:
300,92,150598,5,0,0:0:0:0:
264,92,150598,1,0,0:0:0:0:
284,92,150598,1,0,0:0:0:0:
432,88,150748,5,0,0:0:0:0:
416,88,150748,1,0,0:0:0:0:
396,88,150748,1,0,0:0:0:0:
328,224,150898,5,0,0:0:0:0:
292,224,150898,1,0,0:0:0:0:
312,224,150898,1,0,0:0:0:0:
216,340,151048,5,0,0:0:0:0:
200,340,151048,1,0,0:0:0:0:
180,340,151048,1,0,0:0:0:0:
72,144,151198,5,0,0:0:0:0:
80,144,151216,1,0,0:0:0:0:
88,144,151235,1,0,0:0:0:0:
96,144,151254,1,0,0:0:0:0:
104,144,151273,1,0,0:0:0:0:
112,144,151291,1,0,0:0:0:0:
120,144,151310,1,0,0:0:0:0:
128,144,151329,1,0,0:0:0:0:
136,144,151348,1,0,0:0:0:0:
144,144,151366,1,0,0:0:0:0:
152,144,151385,1,0,0:0:0:0:
160,144,151404,1,0,0:0:0:0:
168,144,151423,1,0,0:0:0:0:
176,144,151441,1,0,0:0:0:0:
184,144,151460,1,0,0:0:0:0:
192,144,151479,1,0,0:0:0:0:
464,164,151498,5,0,0:0:0:0:
464,164,151516,5,0,0:0:0:0:
464,164,151535,5,0,0:0:0:0:
464,164,151554,5,0,0:0:0:0:
464,164,151573,5,0,0:0:0:0:
464,164,151591,5,0,0:0:0:0:
464,164,151610,5,0,0:0:0:0:
464,164,151629,5,0,0:0:0:0:
72,144,151648,5,0,0:0:0:0:
80,144,151666,1,0,0:0:0:0:
88,144,151685,1,0,0:0:0:0:
96,144,151704,1,0,0:0:0:0:
104,144,151723,1,0,0:0:0:0:
112,144,151741,1,0,0:0:0:0:
120,144,151760,1,0,0:0:0:0:
128,144,151779,1,0,0:0:0:0:
136,144,151798,1,0,0:0:0:0:
144,144,151816,1,0,0:0:0:0:
152,144,151835,1,0,0:0:0:0:
160,144,151854,1,0,0:0:0:0:
168,144,151873,1,0,0:0:0:0:
176,144,151891,1,0,0:0:0:0:
184,144,151910,1,0,0:0:0:0:
192,144,151929,1,0,0:0:0:0:
492,212,151948,5,0,0:0:0:0:
492,212,151966,5,0,0:0:0:0:
492,212,151985,5,0,0:0:0:0:
492,212,152004,5,0,0:0:0:0:
492,212,152023,5,0,0:0:0:0:
492,212,152041,5,0,0:0:0:0:
492,212,152060,5,0,0:0:0:0:
492,212,152079,5,0,0:0:0:0:
0,124,152098,5,0,0:0:0:0:
8,124,152116,1,0,0:0:0:0:
16,124,152135,1,0,0:0:0:0:
24,124,152154,1,0,0:0:0:0:
16,124,152173,1,0,0:0:0:0:
8,124,152191,1,0,0:0:0:0:
0,124,152210,1,0,0:0:0:0:
8,124,152229,1,0,0:0:0:0:
16,124,152248,1,0,0:0:0:0:
24,124,152266,1,0,0:0:0:0:
16,124,152285,1,0,0:0:0:0:
8,124,152304,1,0,0:0:0:0:
0,124,152323,1,0,0:0:0:0:
8,124,152341,1,0,0:0:0:0:
16,124,152360,1,0,0:0:0:0:
24,124,152379,1,0,0:0:0:0:
504,116,152398,5,0,0:0:0:0:
500,116,152416,1,0,0:0:0:0:
496,116,152435,1,0,0:0:0:0:
492,116,152454,1,0,0:0:0:0:
488,116,152473,1,0,0:0:0:0:
492,116,152491,1,0,0:0:0:0:
496,116,152510,1,0,0:0:0:0:
500,116,152529,5,0,0:0:0:0:
12,248,152548,5,0,0:0:0:0:
24,248,152566,1,0,0:0:0:0:
36,248,152585,1,0,0:0:0:0:
48,248,152604,1,0,0:0:0:0:
132,248,152622,1,0,0:0:0:0:
144,248,152641,1,0,0:0:0:0:
156,248,152660,1,0,0:0:0:0:
168,248,152678,1,0,0:0:0:0:
252,248,152697,5,0,0:0:0:0:
264,248,152716,1,0,0:0:0:0:
276,248,152735,1,0,0:0:0:0:
288,248,152753,1,0,0:0:0:0:
372,248,152772,1,0,0:0:0:0:
384,248,152791,1,0,0:0:0:0:
396,248,152810,1,0,0:0:0:0:
408,248,152828,1,0,0:0:0:0:
500,248,152848,5,0,0:0:0:0:
488,248,152866,1,0,0:0:0:0:
476,248,152885,1,0,0:0:0:0:
464,248,152904,1,0,0:0:0:0:
380,248,152922,1,0,0:0:0:0:
368,248,152941,1,0,0:0:0:0:
356,248,152960,1,0,0:0:0:0:
344,248,152978,1,0,0:0:0:0:
260,248,152997,5,0,0:0:0:0:
248,248,153016,1,0,0:0:0:0:
236,248,153035,1,0,0:0:0:0:
224,248,153053,1,0,0:0:0:0:
140,248,153072,1,0,0:0:0:0:
128,248,153091,1,0,0:0:0:0:
116,248,153110,1,0,0:0:0:0:
140,248,153128,1,0,0:0:0:0:
256,348,153148,5,0,0:0:0:0:
256,348,153166,5,0,0:0:0:0:
256,348,153185,5,0,0:0:0:0:
256,348,153204,5,0,0:0:0:0:
256,348,153223,5,0,0:0:0:0:
256,348,153241,5,0,0:0:0:0:
256,348,153260,5,0,0:0:0:0:
256,348,153279,5,0,0:0:0:0:
256,192,153298,12,0,161248,0:0:0:0:
288,96,153316,5,0,0:0:0:0:
268,96,153316,5,0,0:0:0:0:
238,164,153316,5,0,0:0:0:0:
220,164,153316,5,0,0:0:0:0:
288,96,153335,5,0,0:0:0:0:
238,164,153335,5,0,0:0:0:0:
220,164,153335,5,0,0:0:0:0:
268,96,153335,5,0,0:0:0:0:
288,96,153354,5,0,0:0:0:0:
268,96,153354,5,0,0:0:0:0:
238,164,153354,5,0,0:0:0:0:
220,164,153354,5,0,0:0:0:0:
288,96,153373,5,0,0:0:0:0:
238,164,153373,5,0,0:0:0:0:
220,164,153373,5,0,0:0:0:0:
268,96,153373,5,0,0:0:0:0:
288,96,153391,5,0,0:0:0:0:
268,96,153391,5,0,0:0:0:0:
238,164,153391,5,0,0:0:0:0:
220,164,153391,5,0,0:0:0:0:
288,96,153410,5,0,0:0:0:0:
238,164,153410,5,0,0:0:0:0:
220,164,153410,5,0,0:0:0:0:
268,96,153410,5,0,0:0:0:0:
288,96,153429,5,0,0:0:0:0:
220,164,153429,5,0,0:0:0:0:
268,96,153429,5,0,0:0:0:0:
238,164,153429,5,0,0:0:0:0:
288,96,153448,5,0,0:0:0:0:
220,164,153448,5,0,0:0:0:0:
268,96,153448,5,0,0:0:0:0:
238,164,153448,5,0,0:0:0:0:
288,96,153467,5,0,0:0:0:0:
220,164,153467,5,0,0:0:0:0:
268,96,153467,5,0,0:0:0:0:
238,164,153467,5,0,0:0:0:0:
288,96,153486,5,0,0:0:0:0:
238,164,153486,5,0,0:0:0:0:
220,164,153486,5,0,0:0:0:0:
268,96,153486,5,0,0:0:0:0:
288,96,153504,5,0,0:0:0:0:
220,164,153504,5,0,0:0:0:0:
268,96,153504,5,0,0:0:0:0:
238,164,153504,5,0,0:0:0:0:
288,96,153523,5,0,0:0:0:0:
238,164,153523,5,0,0:0:0:0:
220,164,153523,5,0,0:0:0:0:
268,96,153523,5,0,0:0:0:0:
288,96,153541,5,0,0:0:0:0:
220,164,153541,5,0,0:0:0:0:
268,96,153541,5,0,0:0:0:0:
238,164,153541,5,0,0:0:0:0:
288,96,153560,5,0,0:0:0:0:
268,96,153560,5,0,0:0:0:0:
220,164,153560,5,0,0:0:0:0:
238,164,153560,5,0,0:0:0:0:
288,96,153579,5,0,0:0:0:0:
220,164,153579,5,0,0:0:0:0:
268,96,153579,5,0,0:0:0:0:
238,164,153579,5,0,0:0:0:0:
288,96,153598,5,0,0:0:0:0:
268,96,153598,5,0,0:0:0:0:
238,164,153598,5,0,0:0:0:0:
220,164,153598,5,0,0:0:0:0:
288,96,153616,5,0,0:0:0:0:
268,96,153616,5,0,0:0:0:0:
220,164,153616,5,0,0:0:0:0:
238,164,153616,5,0,0:0:0:0:
288,96,153635,5,0,0:0:0:0:
238,164,153635,5,0,0:0:0:0:
268,96,153635,5,0,0:0:0:0:
220,164,153635,5,0,0:0:0:0:
288,96,153654,5,0,0:0:0:0:
220,164,153654,5,0,0:0:0:0:
238,164,153654,5,0,0:0:0:0:
268,96,153654,5,0,0:0:0:0:
288,96,153673,5,0,0:0:0:0:
220,164,153673,5,0,0:0:0:0:
268,96,153673,5,0,0:0:0:0:
238,164,153673,5,0,0:0:0:0:
288,96,153692,5,0,0:0:0:0:
220,164,153692,5,0,0:0:0:0:
268,96,153692,5,0,0:0:0:0:
238,164,153692,5,0,0:0:0:0:
288,96,153711,5,0,0:0:0:0:
238,164,153711,5,0,0:0:0:0:
220,164,153711,5,0,0:0:0:0:
268,96,153711,5,0,0:0:0:0:
288,96,153729,5,0,0:0:0:0:
238,164,153729,5,0,0:0:0:0:
268,96,153729,5,0,0:0:0:0:
220,164,153729,5,0,0:0:0:0:
288,96,153748,5,0,0:0:0:0:
238,164,153748,5,0,0:0:0:0:
220,164,153748,5,0,0:0:0:0:
268,96,153748,5,0,0:0:0:0:
288,96,153766,5,0,0:0:0:0:
238,164,153766,5,0,0:0:0:0:
220,164,153766,5,0,0:0:0:0:
268,96,153766,5,0,0:0:0:0:
288,96,153785,5,0,0:0:0:0:
238,164,153785,5,0,0:0:0:0:
268,96,153785,5,0,0:0:0:0:
220,164,153785,5,0,0:0:0:0:
288,96,153804,5,0,0:0:0:0:
238,164,153804,5,0,0:0:0:0:
220,164,153804,5,0,0:0:0:0:
268,96,153804,5,0,0:0:0:0:
288,96,153823,5,0,0:0:0:0:
220,164,153823,5,0,0:0:0:0:
268,96,153823,5,0,0:0:0:0:
238,164,153823,5,0,0:0:0:0:
288,96,153841,5,0,0:0:0:0:
238,164,153841,5,0,0:0:0:0:
268,96,153841,5,0,0:0:0:0:
220,164,153841,5,0,0:0:0:0:
288,96,153860,5,0,0:0:0:0:
220,164,153860,5,0,0:0:0:0:
238,164,153860,5,0,0:0:0:0:
268,96,153860,5,0,0:0:0:0:
288,96,153879,5,0,0:0:0:0:
268,96,153879,5,0,0:0:0:0:
220,164,153879,5,0,0:0:0:0:
238,164,153879,5,0,0:0:0:0:
288,96,153898,5,0,0:0:0:0:
238,164,153898,5,0,0:0:0:0:
220,164,153898,5,0,0:0:0:0:
268,96,153898,5,0,0:0:0:0:
288,96,153917,5,0,0:0:0:0:
238,164,153917,5,0,0:0:0:0:
220,164,153917,5,0,0:0:0:0:
268,96,153917,5,0,0:0:0:0:
288,96,153936,5,0,0:0:0:0:
268,96,153936,5,0,0:0:0:0:
238,164,153936,5,0,0:0:0:0:
220,164,153936,5,0,0:0:0:0:
288,96,153954,5,0,0:0:0:0:
220,164,153954,5,0,0:0:0:0:
238,164,153954,5,0,0:0:0:0:
268,96,153954,5,0,0:0:0:0:
288,96,153973,5,0,0:0:0:0:
268,96,153973,5,0,0:0:0:0:
238,164,153973,5,0,0:0:0:0:
220,164,153973,5,0,0:0:0:0:
288,96,153991,5,0,0:0:0:0:
220,164,153991,5,0,0:0:0:0:
268,96,153991,5,0,0:0:0:0:
238,164,153991,5,0,0:0:0:0:
288,96,154010,5,0,0:0:0:0:
268,96,154010,5,0,0:0:0:0:
220,164,154010,5,0,0:0:0:0:
238,164,154010,5,0,0:0:0:0:
288,96,154029,5,0,0:0:0:0:
220,164,154029,5,0,0:0:0:0:
268,96,154029,5,0,0:0:0:0:
238,164,154029,5,0,0:0:0:0:
288,96,154048,5,0,0:0:0:0:
268,96,154048,5,0,0:0:0:0:
238,164,154048,5,0,0:0:0:0:
220,164,154048,5,0,0:0:0:0:
288,96,154066,5,0,0:0:0:0:
268,96,154066,5,0,0:0:0:0:
220,164,154066,5,0,0:0:0:0:
238,164,154066,5,0,0:0:0:0:
288,96,154085,5,0,0:0:0:0:
238,164,154085,5,0,0:0:0:0:
268,96,154085,5,0,0:0:0:0:
220,164,154085,5,0,0:0:0:0:
288,96,154104,5,0,0:0:0:0:
220,164,154104,5,0,0:0:0:0:
238,164,154104,5,0,0:0:0:0:
268,96,154104,5,0,0:0:0:0:
288,96,154123,5,0,0:0:0:0:
220,164,154123,5,0,0:0:0:0:
268,96,154123,5,0,0:0:0:0:
238,164,154123,5,0,0:0:0:0:
288,96,154142,5,0,0:0:0:0:
220,164,154142,5,0,0:0:0:0:
268,96,154142,5,0,0:0:0:0:
238,164,154142,5,0,0:0:0:0:
288,96,154161,5,0,0:0:0:0:
238,164,154161,5,0,0:0:0:0:
220,164,154161,5,0,0:0:0:0:
268,96,154161,5,0,0:0:0:0:
288,96,154179,5,0,0:0:0:0:
238,164,154179,5,0,0:0:0:0:
268,96,154179,5,0,0:0:0:0:
220,164,154179,5,0,0:0:0:0:
288,96,154198,5,0,0:0:0:0:
238,164,154198,5,0,0:0:0:0:
220,164,154198,5,0,0:0:0:0:
268,96,154198,5,0,0:0:0:0:
288,96,154216,5,0,0:0:0:0:
238,164,154216,5,0,0:0:0:0:
220,164,154216,5,0,0:0:0:0:
268,96,154216,5,0,0:0:0:0:
288,96,154235,5,0,0:0:0:0:
238,164,154235,5,0,0:0:0:0:
268,96,154235,5,0,0:0:0:0:
220,164,154235,5,0,0:0:0:0:
288,96,154254,5,0,0:0:0:0:
238,164,154254,5,0,0:0:0:0:
220,164,154254,5,0,0:0:0:0:
268,96,154254,5,0,0:0:0:0:
288,96,154273,5,0,0:0:0:0:
220,164,154273,5,0,0:0:0:0:
268,96,154273,5,0,0:0:0:0:
238,164,154273,5,0,0:0:0:0:
288,96,154291,5,0,0:0:0:0:
238,164,154291,5,0,0:0:0:0:
268,96,154291,5,0,0:0:0:0:
220,164,154291,5,0,0:0:0:0:
288,96,154310,5,0,0:0:0:0:
220,164,154310,5,0,0:0:0:0:
238,164,154310,5,0,0:0:0:0:
268,96,154310,5,0,0:0:0:0:
288,96,154329,5,0,0:0:0:0:
268,96,154329,5,0,0:0:0:0:
220,164,154329,5,0,0:0:0:0:
238,164,154329,5,0,0:0:0:0:
288,96,154348,5,0,0:0:0:0:
238,164,154348,5,0,0:0:0:0:
220,164,154348,5,0,0:0:0:0:
268,96,154348,5,0,0:0:0:0:
288,96,154367,5,0,0:0:0:0:
238,164,154367,5,0,0:0:0:0:
220,164,154367,5,0,0:0:0:0:
268,96,154367,5,0,0:0:0:0:
288,96,154386,5,0,0:0:0:0:
268,96,154386,5,0,0:0:0:0:
238,164,154386,5,0,0:0:0:0:
220,164,154386,5,0,0:0:0:0:
288,96,154404,5,0,0:0:0:0:
220,164,154404,5,0,0:0:0:0:
238,164,154404,5,0,0:0:0:0:
268,96,154404,5,0,0:0:0:0:
288,96,154423,5,0,0:0:0:0:
268,96,154423,5,0,0:0:0:0:
238,164,154423,5,0,0:0:0:0:
220,164,154423,5,0,0:0:0:0:
288,96,154441,5,0,0:0:0:0:
220,164,154441,5,0,0:0:0:0:
268,96,154441,5,0,0:0:0:0:
238,164,154441,5,0,0:0:0:0:
288,96,154460,5,0,0:0:0:0:
268,96,154460,5,0,0:0:0:0:
220,164,154460,5,0,0:0:0:0:
238,164,154460,5,0,0:0:0:0:
288,96,154479,5,0,0:0:0:0:
220,164,154479,5,0,0:0:0:0:
268,96,154479,5,0,0:0:0:0:
238,164,154479,5,0,0:0:0:0:
288,96,154498,5,0,0:0:0:0:
268,96,154498,5,0,0:0:0:0:
238,164,154498,5,0,0:0:0:0:
220,164,154498,5,0,0:0:0:0:
288,96,154516,5,0,0:0:0:0:
268,96,154516,5,0,0:0:0:0:
220,164,154516,5,0,0:0:0:0:
238,164,154516,5,0,0:0:0:0:
288,96,154535,5,0,0:0:0:0:
238,164,154535,5,0,0:0:0:0:
268,96,154535,5,0,0:0:0:0:
220,164,154535,5,0,0:0:0:0:
288,96,154554,5,0,0:0:0:0:
220,164,154554,5,0,0:0:0:0:
238,164,154554,5,0,0:0:0:0:
268,96,154554,5,0,0:0:0:0:
288,96,154573,5,0,0:0:0:0:
220,164,154573,5,0,0:0:0:0:
268,96,154573,5,0,0:0:0:0:
238,164,154573,5,0,0:0:0:0:
288,96,154592,5,0,0:0:0:0:
220,164,154592,5,0,0:0:0:0:
268,96,154592,5,0,0:0:0:0:
238,164,154592,5,0,0:0:0:0:
288,96,154611,5,0,0:0:0:0:
238,164,154611,5,0,0:0:0:0:
220,164,154611,5,0,0:0:0:0:
268,96,154611,5,0,0:0:0:0:
288,96,154629,5,0,0:0:0:0:
238,164,154629,5,0,0:0:0:0:
268,96,154629,5,0,0:0:0:0:
220,164,154629,5,0,0:0:0:0:
288,96,154648,5,0,0:0:0:0:
238,164,154648,5,0,0:0:0:0:
220,164,154648,5,0,0:0:0:0:
268,96,154648,5,0,0:0:0:0:
288,96,154666,5,0,0:0:0:0:
220,164,154666,5,0,0:0:0:0:
238,164,154666,5,0,0:0:0:0:
268,96,154666,5,0,0:0:0:0:
288,96,154685,5,0,0:0:0:0:
268,96,154685,5,0,0:0:0:0:
220,164,154685,5,0,0:0:0:0:
238,164,154685,5,0,0:0:0:0:
288,96,154703,5,0,0:0:0:0:
268,96,154703,5,0,0:0:0:0:
238,164,154703,5,0,0:0:0:0:
220,164,154703,5,0,0:0:0:0:
288,96,154722,5,0,0:0:0:0:
268,96,154722,5,0,0:0:0:0:
238,164,154722,5,0,0:0:0:0:
220,164,154722,5,0,0:0:0:0:
288,96,154741,5,0,0:0:0:0:
238,164,154741,5,0,0:0:0:0:
220,164,154741,5,0,0:0:0:0:
268,96,154741,5,0,0:0:0:0:
288,96,154760,5,0,0:0:0:0:
220,164,154760,5,0,0:0:0:0:
238,164,154760,5,0,0:0:0:0:
268,96,154760,5,0,0:0:0:0:
288,96,154778,5,0,0:0:0:0:
268,96,154778,5,0,0:0:0:0:
220,164,154778,5,0,0:0:0:0:
238,164,154778,5,0,0:0:0:0:
288,96,154797,5,0,0:0:0:0:
220,164,154797,5,0,0:0:0:0:
268,96,154797,5,0,0:0:0:0:
238,164,154797,5,0,0:0:0:0:
288,96,154816,5,0,0:0:0:0:
220,164,154816,5,0,0:0:0:0:
268,96,154816,5,0,0:0:0:0:
238,164,154816,5,0,0:0:0:0:
288,96,154835,5,0,0:0:0:0:
268,96,154835,5,0,0:0:0:0:
220,164,154835,5,0,0:0:0:0:
238,164,154835,5,0,0:0:0:0:
288,96,154854,5,0,0:0:0:0:
238,164,154854,5,0,0:0:0:0:
220,164,154854,5,0,0:0:0:0:
268,96,154854,5,0,0:0:0:0:
288,96,154873,5,0,0:0:0:0:
220,164,154873,5,0,0:0:0:0:
238,164,154873,5,0,0:0:0:0:
268,96,154873,5,0,0:0:0:0:
288,96,154891,5,0,0:0:0:0:
268,96,154891,5,0,0:0:0:0:
220,164,154891,5,0,0:0:0:0:
238,164,154891,5,0,0:0:0:0:
288,96,154910,5,0,0:0:0:0:
268,96,154910,5,0,0:0:0:0:
238,164,154910,5,0,0:0:0:0:
220,164,154910,5,0,0:0:0:0:
288,96,154928,5,0,0:0:0:0:
238,164,154928,5,0,0:0:0:0:
220,164,154928,5,0,0:0:0:0:
268,96,154928,5,0,0:0:0:0:
288,96,154947,5,0,0:0:0:0:
238,164,154947,5,0,0:0:0:0:
268,96,154947,5,0,0:0:0:0:
220,164,154947,5,0,0:0:0:0:
288,96,154966,5,0,0:0:0:0:
220,164,154966,5,0,0:0:0:0:
268,96,154966,5,0,0:0:0:0:
238,164,154966,5,0,0:0:0:0:
288,96,154985,5,0,0:0:0:0:
238,164,154985,5,0,0:0:0:0:
268,96,154985,5,0,0:0:0:0:
220,164,154985,5,0,0:0:0:0:
288,96,155003,5,0,0:0:0:0:
220,164,155003,5,0,0:0:0:0:
268,96,155003,5,0,0:0:0:0:
238,164,155003,5,0,0:0:0:0:
288,96,155022,5,0,0:0:0:0:
220,164,155022,5,0,0:0:0:0:
268,96,155022,5,0,0:0:0:0:
238,164,155022,5,0,0:0:0:0:
288,96,155041,5,0,0:0:0:0:
268,96,155041,5,0,0:0:0:0:
220,164,155041,5,0,0:0:0:0:
238,164,155041,5,0,0:0:0:0:
288,96,155060,5,0,0:0:0:0:
220,164,155060,5,0,0:0:0:0:
268,96,155060,5,0,0:0:0:0:
238,164,155060,5,0,0:0:0:0:
288,96,155079,5,0,0:0:0:0:
268,96,155079,5,0,0:0:0:0:
220,164,155079,5,0,0:0:0:0:
238,164,155079,5,0,0:0:0:0:
288,96,155098,5,0,0:0:0:0:
220,164,155098,5,0,0:0:0:0:
238,164,155098,5,0,0:0:0:0:
268,96,155098,5,0,0:0:0:0:
288,96,155116,5,0,0:0:0:0:
220,164,155116,5,0,0:0:0:0:
238,164,155116,5,0,0:0:0:0:
268,96,155116,5,0,0:0:0:0:
288,96,155135,5,0,0:0:0:0:
220,164,155135,5,0,0:0:0:0:
238,164,155135,5,0,0:0:0:0:
268,96,155135,5,0,0:0:0:0:
288,96,155154,5,0,0:0:0:0:
268,96,155154,5,0,0:0:0:0:
220,164,155154,5,0,0:0:0:0:
238,164,155154,5,0,0:0:0:0:
288,96,155173,5,0,0:0:0:0:
238,164,155173,5,0,0:0:0:0:
268,96,155173,5,0,0:0:0:0:
220,164,155173,5,0,0:0:0:0:
288,96,155191,5,0,0:0:0:0:
220,164,155191,5,0,0:0:0:0:
268,96,155191,5,0,0:0:0:0:
238,164,155191,5,0,0:0:0:0:
288,96,155210,5,0,0:0:0:0:
220,164,155210,5,0,0:0:0:0:
268,96,155210,5,0,0:0:0:0:
238,164,155210,5,0,0:0:0:0:
288,96,155229,5,0,0:0:0:0:
268,96,155229,5,0,0:0:0:0:
238,164,155229,5,0,0:0:0:0:
220,164,155229,5,0,0:0:0:0:
288,96,155248,5,0,0:0:0:0:
268,96,155248,5,0,0:0:0:0:
220,164,155248,5,0,0:0:0:0:
238,164,155248,5,0,0:0:0:0:
288,96,155266,5,0,0:0:0:0:
238,164,155266,5,0,0:0:0:0:
268,96,155266,5,0,0:0:0:0:
220,164,155266,5,0,0:0:0:0:
288,96,155285,5,0,0:0:0:0:
238,164,155285,5,0,0:0:0:0:
220,164,155285,5,0,0:0:0:0:
268,96,155285,5,0,0:0:0:0:
288,96,155304,5,0,0:0:0:0:
238,164,155304,5,0,0:0:0:0:
220,164,155304,5,0,0:0:0:0:
268,96,155304,5,0,0:0:0:0:
288,96,155323,5,0,0:0:0:0:
238,164,155323,5,0,0:0:0:0:
268,96,155323,5,0,0:0:0:0:
220,164,155323,5,0,0:0:0:0:
288,96,155342,5,0,0:0:0:0:
268,96,155342,5,0,0:0:0:0:
238,164,155342,5,0,0:0:0:0:
220,164,155342,5,0,0:0:0:0:
288,96,155361,5,0,0:0:0:0:
268,96,155361,5,0,0:0:0:0:
220,164,155361,5,0,0:0:0:0:
238,164,155361,5,0,0:0:0:0:
288,96,155379,5,0,0:0:0:0:
238,164,155379,5,0,0:0:0:0:
268,96,155379,5,0,0:0:0:0:
220,164,155379,5,0,0:0:0:0:
288,96,155398,5,0,0:0:0:0:
220,164,155398,5,0,0:0:0:0:
268,96,155398,5,0,0:0:0:0:
238,164,155398,5,0,0:0:0:0:
256,156,155416,1,0,0:0:0:0:
272,148,155435,1,0,0:0:0:0:
288,140,155454,1,0,0:0:0:0:
304,132,155473,1,0,0:0:0:0:
320,124,155491,1,0,0:0:0:0:
492,120,155510,5,0,0:0:0:0:
496,144,155510,5,0,0:0:0:0:
512,120,155510,5,0,0:0:0:0:
478,144,155510,5,0,0:0:0:0:
512,120,155529,5,0,0:0:0:0:
478,144,155529,5,0,0:0:0:0:
492,120,155529,5,0,0:0:0:0:
496,144,155529,5,0,0:0:0:0:
492,120,155548,5,0,0:0:0:0:
496,144,155548,5,0,0:0:0:0:
512,120,155548,5,0,0:0:0:0:
478,144,155548,5,0,0:0:0:0:
512,120,155566,5,0,0:0:0:0:
478,144,155566,5,0,0:0:0:0:
492,120,155566,5,0,0:0:0:0:
496,144,155566,5,0,0:0:0:0:
492,120,155585,5,0,0:0:0:0:
496,144,155585,5,0,0:0:0:0:
512,120,155585,5,0,0:0:0:0:
478,144,155585,5,0,0:0:0:0:
512,120,155604,5,0,0:0:0:0:
478,144,155604,5,0,0:0:0:0:
492,120,155604,5,0,0:0:0:0:
496,144,155604,5,0,0:0:0:0:
492,120,155623,5,0,0:0:0:0:
496,144,155623,5,0,0:0:0:0:
512,120,155623,5,0,0:0:0:0:
478,144,155623,5,0,0:0:0:0:
512,120,155641,5,0,0:0:0:0:
478,144,155641,5,0,0:0:0:0:
492,120,155641,5,0,0:0:0:0:
496,144,155641,5,0,0:0:0:0:
492,120,155660,5,0,0:0:0:0:
496,144,155660,5,0,0:0:0:0:
512,120,155660,5,0,0:0:0:0:
478,144,155660,5,0,0:0:0:0:
512,120,155679,5,0,0:0:0:0:
478,144,155679,5,0,0:0:0:0:
492,120,155679,5,0,0:0:0:0:
496,144,155679,5,0,0:0:0:0:
496,144,155698,5,0,0:0:0:0:
492,120,155698,5,0,0:0:0:0:
478,144,155698,5,0,0:0:0:0:
512,120,155698,5,0,0:0:0:0:
478,144,155717,5,0,0:0:0:0:
492,120,155717,5,0,0:0:0:0:
496,144,155717,5,0,0:0:0:0:
512,120,155717,5,0,0:0:0:0:
492,120,155736,5,0,0:0:0:0:
496,144,155736,5,0,0:0:0:0:
512,120,155736,5,0,0:0:0:0:
478,144,155736,5,0,0:0:0:0:
492,120,155754,5,0,0:0:0:0:
478,144,155754,5,0,0:0:0:0:
512,120,155754,5,0,0:0:0:0:
496,144,155754,5,0,0:0:0:0:
512,120,155773,5,0,0:0:0:0:
492,120,155773,5,0,0:0:0:0:
478,144,155773,5,0,0:0:0:0:
496,144,155773,5,0,0:0:0:0:
512,120,155792,5,0,0:0:0:0:
496,144,155792,5,0,0:0:0:0:
492,120,155792,5,0,0:0:0:0:
478,144,155792,5,0,0:0:0:0:
478,144,155811,5,0,0:0:0:0:
496,144,155811,5,0,0:0:0:0:
512,120,155811,5,0,0:0:0:0:
492,120,155811,5,0,0:0:0:0:
478,144,155829,5,0,0:0:0:0:
492,120,155829,5,0,0:0:0:0:
512,120,155829,5,0,0:0:0:0:
496,144,155829,5,0,0:0:0:0:
492,120,155848,5,0,0:0:0:0:
496,144,155848,5,0,0:0:0:0:
512,120,155848,5,0,0:0:0:0:
478,144,155848,5,0,0:0:0:0:
496,144,155867,5,0,0:0:0:0:
492,120,155867,5,0,0:0:0:0:
478,144,155867,5,0,0:0:0:0:
512,120,155867,5,0,0:0:0:0:
478,144,155885,5,0,0:0:0:0:
512,120,155885,5,0,0:0:0:0:
496,144,155885,5,0,0:0:0:0:
492,120,155885,5,0,0:0:0:0:
496,144,155904,5,0,0:0:0:0:
512,120,155904,5,0,0:0:0:0:
478,144,155904,5,0,0:0:0:0:
492,120,155904,5,0,0:0:0:0:
512,120,155923,5,0,0:0:0:0:
478,144,155923,5,0,0:0:0:0:
492,120,155923,5,0,0:0:0:0:
496,144,155923,5,0,0:0:0:0:
512,120,155941,5,0,0:0:0:0:
496,144,155941,5,0,0:0:0:0:
492,120,155941,5,0,0:0:0:0:
478,144,155941,5,0,0:0:0:0:
478,144,155960,5,0,0:0:0:0:
496,144,155960,5,0,0:0:0:0:
512,120,155960,5,0,0:0:0:0:
492,120,155960,5,0,0:0:0:0:
492,120,155979,5,0,0:0:0:0:
478,144,155979,5,0,0:0:0:0:
512,120,155979,5,0,0:0:0:0:
496,144,155979,5,0,0:0:0:0:
512,120,155998,5,0,0:0:0:0:
492,120,155998,5,0,0:0:0:0:
478,144,155998,5,0,0:0:0:0:
496,144,155998,5,0,0:0:0:0:
512,120,156016,5,0,0:0:0:0:
496,144,156016,5,0,0:0:0:0:
478,144,156016,5,0,0:0:0:0:
492,120,156016,5,0,0:0:0:0:
512,120,156035,5,0,0:0:0:0:
478,144,156035,5,0,0:0:0:0:
492,120,156035,5,0,0:0:0:0:
496,144,156035,5,0,0:0:0:0:
478,144,156054,5,0,0:0:0:0:
512,120,156054,5,0,0:0:0:0:
496,144,156054,5,0,0:0:0:0:
492,120,156054,5,0,0:0:0:0:
496,144,156073,5,0,0:0:0:0:
492,120,156073,5,0,0:0:0:0:
478,144,156073,5,0,0:0:0:0:
512,120,156073,5,0,0:0:0:0:
478,144,156092,5,0,0:0:0:0:
492,120,156092,5,0,0:0:0:0:
496,144,156092,5,0,0:0:0:0:
512,120,156092,5,0,0:0:0:0:
492,120,156111,5,0,0:0:0:0:
496,144,156111,5,0,0:0:0:0:
512,120,156111,5,0,0:0:0:0:
478,144,156111,5,0,0:0:0:0:
492,120,156129,5,0,0:0:0:0:
478,144,156129,5,0,0:0:0:0:
512,120,156129,5,0,0:0:0:0:
496,144,156129,5,0,0:0:0:0:
512,120,156148,5,0,0:0:0:0:
492,120,156148,5,0,0:0:0:0:
478,144,156148,5,0,0:0:0:0:
496,144,156148,5,0,0:0:0:0:
512,120,156167,5,0,0:0:0:0:
496,144,156167,5,0,0:0:0:0:
492,120,156167,5,0,0:0:0:0:
478,144,156167,5,0,0:0:0:0:
478,144,156186,5,0,0:0:0:0:
496,144,156186,5,0,0:0:0:0:
512,120,156186,5,0,0:0:0:0:
492,120,156186,5,0,0:0:0:0:
478,144,156204,5,0,0:0:0:0:
492,120,156204,5,0,0:0:0:0:
512,120,156204,5,0,0:0:0:0:
496,144,156204,5,0,0:0:0:0:
492,120,156223,5,0,0:0:0:0:
496,144,156223,5,0,0:0:0:0:
512,120,156223,5,0,0:0:0:0:
478,144,156223,5,0,0:0:0:0:
496,144,156242,5,0,0:0:0:0:
492,120,156242,5,0,0:0:0:0:
478,144,156242,5,0,0:0:0:0:
512,120,156242,5,0,0:0:0:0:
496,144,156260,5,0,0:0:0:0:
512,120,156260,5,0,0:0:0:0:
478,144,156260,5,0,0:0:0:0:
492,120,156260,5,0,0:0:0:0:
496,144,156279,5,0,0:0:0:0:
478,144,156279,5,0,0:0:0:0:
492,120,156279,5,0,0:0:0:0:
512,120,156279,5,0,0:0:0:0:
512,120,156297,5,0,0:0:0:0:
492,120,156297,5,0,0:0:0:0:
496,144,156297,5,0,0:0:0:0:
478,144,156297,5,0,0:0:0:0:
492,120,156316,5,0,0:0:0:0:
496,144,156316,5,0,0:0:0:0:
478,144,156316,5,0,0:0:0:0:
512,120,156316,5,0,0:0:0:0:
478,144,156335,5,0,0:0:0:0:
492,120,156335,5,0,0:0:0:0:
512,120,156335,5,0,0:0:0:0:
496,144,156335,5,0,0:0:0:0:
478,144,156353,5,0,0:0:0:0:
492,120,156353,5,0,0:0:0:0:
512,120,156353,5,0,0:0:0:0:
496,144,156353,5,0,0:0:0:0:
492,120,156372,5,0,0:0:0:0:
496,144,156372,5,0,0:0:0:0:
512,120,156372,5,0,0:0:0:0:
478,144,156372,5,0,0:0:0:0:
492,120,156391,5,0,0:0:0:0:
478,144,156391,5,0,0:0:0:0:
512,120,156391,5,0,0:0:0:0:
496,144,156391,5,0,0:0:0:0:
512,120,156409,5,0,0:0:0:0:
496,144,156409,5,0,0:0:0:0:
478,144,156409,5,0,0:0:0:0:
492,120,156409,5,0,0:0:0:0:
492,120,156428,5,0,0:0:0:0:
496,144,156428,5,0,0:0:0:0:
512,120,156428,5,0,0:0:0:0:
478,144,156428,5,0,0:0:0:0:
478,144,156447,5,0,0:0:0:0:
512,120,156447,5,0,0:0:0:0:
492,120,156447,5,0,0:0:0:0:
496,144,156447,5,0,0:0:0:0:
496,144,156466,5,0,0:0:0:0:
492,120,156466,5,0,0:0:0:0:
478,144,156466,5,0,0:0:0:0:
512,120,156466,5,0,0:0:0:0:
478,144,156484,5,0,0:0:0:0:
512,120,156484,5,0,0:0:0:0:
492,120,156484,5,0,0:0:0:0:
496,144,156484,5,0,0:0:0:0:
492,120,156503,5,0,0:0:0:0:
496,144,156503,5,0,0:0:0:0:
478,144,156503,5,0,0:0:0:0:
512,120,156503,5,0,0:0:0:0:
496,144,156522,5,0,0:0:0:0:
478,144,156522,5,0,0:0:0:0:
492,120,156522,5,0,0:0:0:0:
512,120,156522,5,0,0:0:0:0:
478,144,156541,5,0,0:0:0:0:
512,120,156541,5,0,0:0:0:0:
492,120,156541,5,0,0:0:0:0:
496,144,156541,5,0,0:0:0:0:
512,120,156560,5,0,0:0:0:0:
496,144,156560,5,0,0:0:0:0:
478,144,156560,5,0,0:0:0:0:
492,120,156560,5,0,0:0:0:0:
496,144,156579,5,0,0:0:0:0:
492,120,156579,5,0,0:0:0:0:
478,144,156579,5,0,0:0:0:0:
512,120,156579,5,0,0:0:0:0:
512,120,156597,5,0,0:0:0:0:
492,120,156597,5,0,0:0:0:0:
496,144,156597,5,0,0:0:0:0:
478,144,156597,5,0,0:0:0:0:
496,144,156616,5,0,0:0:0:0:
478,144,156616,5,0,0:0:0:0:
512,120,156616,5,0,0:0:0:0:
492,120,156616,5,0,0:0:0:0:
492,120,156635,5,0,0:0:0:0:
496,144,156635,5,0,0:0:0:0:
512,120,156635,5,0,0:0:0:0:
478,144,156635,5,0,0:0:0:0:
512,120,156654,5,0,0:0:0:0:
496,144,156654,5,0,0:0:0:0:
492,120,156654,5,0,0:0:0:0:
478,144,156654,5,0,0:0:0:0:
478,144,156672,5,0,0:0:0:0:
496,144,156672,5,0,0:0:0:0:
492,120,156672,5,0,0:0:0:0:
512,120,156672,5,0,0:0:0:0:
492,120,156691,5,0,0:0:0:0:
496,144,156691,5,0,0:0:0:0:
512,120,156691,5,0,0:0:0:0:
478,144,156691,5,0,0:0:0:0:
512,120,156710,5,0,0:0:0:0:
492,120,156710,5,0,0:0:0:0:
478,144,156710,5,0,0:0:0:0:
496,144,156710,5,0,0:0:0:0:
478,144,156729,5,0,0:0:0:0:
492,120,156729,5,0,0:0:0:0:
496,144,156729,5,0,0:0:0:0:
512,120,156729,5,0,0:0:0:0:
492,120,156748,5,0,0:0:0:0:
512,120,156748,5,0,0:0:0:0:
496,144,156748,5,0,0:0:0:0:
478,144,156748,5,0,0:0:0:0:
496,144,156766,5,0,0:0:0:0:
478,144,156766,5,0,0:0:0:0:
512,120,156766,5,0,0:0:0:0:
492,120,156766,5,0,0:0:0:0:
478,144,156785,5,0,0:0:0:0:
512,120,156785,5,0,0:0:0:0:
492,120,156785,5,0,0:0:0:0:
496,144,156785,5,0,0:0:0:0:
512,120,156804,5,0,0:0:0:0:
496,144,156804,5,0,0:0:0:0:
478,144,156804,5,0,0:0:0:0:
492,120,156804,5,0,0:0:0:0:
512,120,156822,5,0,0:0:0:0:
496,144,156822,5,0,0:0:0:0:
478,144,156822,5,0,0:0:0:0:
492,120,156822,5,0,0:0:0:0:
512,120,156841,5,0,0:0:0:0:
478,144,156841,5,0,0:0:0:0:
492,120,156841,5,0,0:0:0:0:
496,144,156841,5,0,0:0:0:0:
512,120,156860,5,0,0:0:0:0:
496,144,156860,5,0,0:0:0:0:
492,120,156860,5,0,0:0:0:0:
478,144,156860,5,0,0:0:0:0:
478,144,156878,5,0,0:0:0:0:
492,120,156878,5,0,0:0:0:0:
512,120,156878,5,0,0:0:0:0:
496,144,156878,5,0,0:0:0:0:
512,120,156897,5,0,0:0:0:0:
478,144,156897,5,0,0:0:0:0:
492,120,156897,5,0,0:0:0:0:
496,144,156897,5,0,0:0:0:0:
492,120,156916,5,0,0:0:0:0:
496,144,156916,5,0,0:0:0:0:
478,144,156916,5,0,0:0:0:0:
512,120,156916,5,0,0:0:0:0:
478,144,156935,5,0,0:0:0:0:
512,120,156935,5,0,0:0:0:0:
496,144,156935,5,0,0:0:0:0:
492,120,156935,5,0,0:0:0:0:
492,120,156953,5,0,0:0:0:0:
496,144,156953,5,0,0:0:0:0:
478,144,156953,5,0,0:0:0:0:
512,120,156953,5,0,0:0:0:0:
478,144,156972,5,0,0:0:0:0:
512,120,156972,5,0,0:0:0:0:
492,120,156972,5,0,0:0:0:0:
496,144,156972,5,0,0:0:0:0:
492,120,156991,5,0,0:0:0:0:
512,120,156991,5,0,0:0:0:0:
496,144,156991,5,0,0:0:0:0:
478,144,156991,5,0,0:0:0:0:
492,120,157010,5,0,0:0:0:0:
496,144,157010,5,0,0:0:0:0:
478,144,157010,5,0,0:0:0:0:
512,120,157010,5,0,0:0:0:0:
478,144,157029,5,0,0:0:0:0:
492,120,157029,5,0,0:0:0:0:
512,120,157029,5,0,0:0:0:0:
496,144,157029,5,0,0:0:0:0:
478,144,157048,5,0,0:0:0:0:
512,120,157048,5,0,0:0:0:0:
496,144,157048,5,0,0:0:0:0:
492,120,157048,5,0,0:0:0:0:
496,144,157066,5,0,0:0:0:0:
478,144,157066,5,0,0:0:0:0:
512,120,157066,5,0,0:0:0:0:
492,120,157066,5,0,0:0:0:0:
512,120,157085,5,0,0:0:0:0:
492,120,157085,5,0,0:0:0:0:
496,144,157085,5,0,0:0:0:0:
478,144,157085,5,0,0:0:0:0:
512,120,157104,5,0,0:0:0:0:
478,144,157104,5,0,0:0:0:0:
492,120,157104,5,0,0:0:0:0:
496,144,157104,5,0,0:0:0:0:
492,120,157123,5,0,0:0:0:0:
478,144,157123,5,0,0:0:0:0:
512,120,157123,5,0,0:0:0:0:
496,144,157123,5,0,0:0:0:0:
492,120,157141,5,0,0:0:0:0:
512,120,157141,5,0,0:0:0:0:
478,144,157141,5,0,0:0:0:0:
496,144,157141,5,0,0:0:0:0:
512,120,157160,5,0,0:0:0:0:
478,144,157160,5,0,0:0:0:0:
492,120,157160,5,0,0:0:0:0:
496,144,157160,5,0,0:0:0:0:
478,144,157179,5,0,0:0:0:0:
496,144,157179,5,0,0:0:0:0:
512,120,157179,5,0,0:0:0:0:
492,120,157179,5,0,0:0:0:0:
478,144,157198,5,0,0:0:0:0:
496,144,157198,5,0,0:0:0:0:
492,120,157198,5,0,0:0:0:0:
512,120,157198,5,0,0:0:0:0:
496,144,157217,5,0,0:0:0:0:
492,120,157217,5,0,0:0:0:0:
478,144,157217,5,0,0:0:0:0:
512,120,157217,5,0,0:0:0:0:
512,120,157236,5,0,0:0:0:0:
496,144,157236,5,0,0:0:0:0:
478,144,157236,5,0,0:0:0:0:
492,120,157236,5,0,0:0:0:0:
492,120,157254,5,0,0:0:0:0:
512,120,157254,5,0,0:0:0:0:
496,144,157254,5,0,0:0:0:0:
478,144,157254,5,0,0:0:0:0:
496,144,157273,5,0,0:0:0:0:
478,144,157273,5,0,0:0:0:0:
512,120,157273,5,0,0:0:0:0:
492,120,157273,5,0,0:0:0:0:
512,120,157292,5,0,0:0:0:0:
496,144,157292,5,0,0:0:0:0:
492,120,157292,5,0,0:0:0:0:
478,144,157292,5,0,0:0:0:0:
492,120,157311,5,0,0:0:0:0:
512,120,157311,5,0,0:0:0:0:
478,144,157311,5,0,0:0:0:0:
496,144,157311,5,0,0:0:0:0:
492,120,157330,5,0,0:0:0:0:
512,120,157330,5,0,0:0:0:0:
478,144,157330,5,0,0:0:0:0:
496,144,157330,5,0,0:0:0:0:
496,144,157348,5,0,0:0:0:0:
478,144,157348,5,0,0:0:0:0:
492,120,157348,5,0,0:0:0:0:
512,120,157348,5,0,0:0:0:0:
492,120,157367,5,0,0:0:0:0:
512,120,157367,5,0,0:0:0:0:
478,144,157367,5,0,0:0:0:0:
496,144,157367,5,0,0:0:0:0:
478,144,157386,5,0,0:0:0:0:
496,144,157386,5,0,0:0:0:0:
492,120,157386,5,0,0:0:0:0:
512,120,157386,5,0,0:0:0:0:
478,144,157404,5,0,0:0:0:0:
512,120,157404,5,0,0:0:0:0:
496,144,157404,5,0,0:0:0:0:
492,120,157404,5,0,0:0:0:0:
512,120,157423,5,0,0:0:0:0:
478,144,157423,5,0,0:0:0:0:
496,144,157423,5,0,0:0:0:0:
492,120,157423,5,0,0:0:0:0:
492,120,157442,5,0,0:0:0:0:
512,120,157442,5,0,0:0:0:0:
478,144,157442,5,0,0:0:0:0:
496,144,157442,5,0,0:0:0:0:
496,144,157460,5,0,0:0:0:0:
492,120,157460,5,0,0:0:0:0:
478,144,157460,5,0,0:0:0:0:
512,120,157460,5,0,0:0:0:0:
496,144,157479,5,0,0:0:0:0:
512,120,157479,5,0,0:0:0:0:
478,144,157479,5,0,0:0:0:0:
492,120,157479,5,0,0:0:0:0:
492,120,157498,5,0,0:0:0:0:
512,120,157498,5,0,0:0:0:0:
478,144,157498,5,0,0:0:0:0:
496,144,157498,5,0,0:0:0:0:
492,120,157517,5,0,0:0:0:0:
478,144,157517,5,0,0:0:0:0:
496,144,157517,5,0,0:0:0:0:
512,120,157517,5,0,0:0:0:0:
478,144,157535,5,0,0:0:0:0:
496,144,157535,5,0,0:0:0:0:
492,120,157535,5,0,0:0:0:0:
512,120,157535,5,0,0:0:0:0:
492,120,157554,1,0,0:0:0:0:
472,120,157573,1,0,0:0:0:0:
456,120,157591,1,0,0:0:0:0:
20,120,157610,5,0,0:0:0:0:
0,120,157610,5,0,0:0:0:0:
34,144,157610,5,0,0:0:0:0:
16,144,157610,5,0,0:0:0:0:
34,144,157629,5,0,0:0:0:0:
16,144,157629,5,0,0:0:0:0:
20,120,157629,5,0,0:0:0:0:
0,120,157629,5,0,0:0:0:0:
20,120,157648,5,0,0:0:0:0:
0,120,157648,5,0,0:0:0:0:
34,144,157648,5,0,0:0:0:0:
16,144,157648,5,0,0:0:0:0:
34,144,157666,5,0,0:0:0:0:
16,144,157666,5,0,0:0:0:0:
20,120,157666,5,0,0:0:0:0:
0,120,157666,5,0,0:0:0:0:
0,120,157685,5,0,0:0:0:0:
20,120,157685,5,0,0:0:0:0:
16,144,157685,5,0,0:0:0:0:
34,144,157685,5,0,0:0:0:0:
16,144,157704,5,0,0:0:0:0:
20,120,157704,5,0,0:0:0:0:
0,120,157704,5,0,0:0:0:0:
34,144,157704,5,0,0:0:0:0:
16,144,157723,5,0,0:0:0:0:
20,120,157723,5,0,0:0:0:0:
34,144,157723,5,0,0:0:0:0:
0,120,157723,5,0,0:0:0:0:
16,144,157741,5,0,0:0:0:0:
0,120,157741,5,0,0:0:0:0:
20,120,157741,5,0,0:0:0:0:
34,144,157741,5,0,0:0:0:0:
0,120,157760,5,0,0:0:0:0:
20,120,157760,5,0,0:0:0:0:
16,144,157760,5,0,0:0:0:0:
34,144,157760,5,0,0:0:0:0:
16,144,157779,5,0,0:0:0:0:
0,120,157779,5,0,0:0:0:0:
20,120,157779,5,0,0:0:0:0:
34,144,157779,5,0,0:0:0:0:
20,120,157798,5,0,0:0:0:0:
16,144,157798,5,0,0:0:0:0:
34,144,157798,5,0,0:0:0:0:
0,120,157798,5,0,0:0:0:0:
16,144,157816,5,0,0:0:0:0:
20,120,157816,5,0,0:0:0:0:
0,120,157816,5,0,0:0:0:0:
34,144,157816,5,0,0:0:0:0:
20,120,157835,5,0,0:0:0:0:
16,144,157835,5,0,0:0:0:0:
34,144,157835,5,0,0:0:0:0:
0,120,157835,5,0,0:0:0:0:
20,120,157854,5,0,0:0:0:0:
16,144,157854,5,0,0:0:0:0:
0,120,157854,5,0,0:0:0:0:
34,144,157854,5,0,0:0:0:0:
0,120,157873,5,0,0:0:0:0:
20,120,157873,5,0,0:0:0:0:
16,144,157873,5,0,0:0:0:0:
34,144,157873,5,0,0:0:0:0:
34,144,157891,5,0,0:0:0:0:
16,144,157891,5,0,0:0:0:0:
20,120,157891,5,0,0:0:0:0:
0,120,157891,5,0,0:0:0:0:
16,144,157910,5,0,0:0:0:0:
34,144,157910,5,0,0:0:0:0:
0,120,157910,5,0,0:0:0:0:
20,120,157910,5,0,0:0:0:0:
0,120,157929,5,0,0:0:0:0:
20,120,157929,5,0,0:0:0:0:
16,144,157929,5,0,0:0:0:0:
34,144,157929,5,0,0:0:0:0:
20,120,157947,5,0,0:0:0:0:
16,144,157947,5,0,0:0:0:0:
0,120,157947,5,0,0:0:0:0:
34,144,157947,5,0,0:0:0:0:
0,120,157966,5,0,0:0:0:0:
20,120,157966,5,0,0:0:0:0:
16,144,157966,5,0,0:0:0:0:
34,144,157966,5,0,0:0:0:0:
16,144,157985,5,0,0:0:0:0:
34,144,157985,5,0,0:0:0:0:
20,120,157985,5,0,0:0:0:0:
0,120,157985,5,0,0:0:0:0:
0,120,158004,5,0,0:0:0:0:
34,144,158004,5,0,0:0:0:0:
20,120,158004,5,0,0:0:0:0:
16,144,158004,5,0,0:0:0:0:
34,144,158022,5,0,0:0:0:0:
0,120,158022,5,0,0:0:0:0:
16,144,158022,5,0,0:0:0:0:
20,120,158022,5,0,0:0:0:0:
0,120,158041,5,0,0:0:0:0:
20,120,158041,5,0,0:0:0:0:
34,144,158041,5,0,0:0:0:0:
16,144,158041,5,0,0:0:0:0:
34,144,158060,5,0,0:0:0:0:
16,144,158060,5,0,0:0:0:0:
0,120,158060,5,0,0:0:0:0:
20,120,158060,5,0,0:0:0:0:
16,144,158079,5,0,0:0:0:0:
20,120,158079,5,0,0:0:0:0:
0,120,158079,5,0,0:0:0:0:
34,144,158079,5,0,0:0:0:0:
20,120,158097,5,0,0:0:0:0:
16,144,158097,5,0,0:0:0:0:
34,144,158097,5,0,0:0:0:0:
0,120,158097,5,0,0:0:0:0:
20,120,158116,5,0,0:0:0:0:
34,144,158116,5,0,0:0:0:0:
0,120,158116,5,0,0:0:0:0:
16,144,158116,5,0,0:0:0:0:
20,120,158135,5,0,0:0:0:0:
0,120,158135,5,0,0:0:0:0:
34,144,158135,5,0,0:0:0:0:
16,144,158135,5,0,0:0:0:0:
0,120,158154,5,0,0:0:0:0:
20,120,158154,5,0,0:0:0:0:
34,144,158154,5,0,0:0:0:0:
16,144,158154,5,0,0:0:0:0:
34,144,158172,5,0,0:0:0:0:
20,120,158172,5,0,0:0:0:0:
16,144,158172,5,0,0:0:0:0:
0,120,158172,5,0,0:0:0:0:
16,144,158191,5,0,0:0:0:0:
20,120,158191,5,0,0:0:0:0:
0,120,158191,5,0,0:0:0:0:
34,144,158191,5,0,0:0:0:0:
34,144,158210,5,0,0:0:0:0:
0,120,158210,5,0,0:0:0:0:
16,144,158210,5,0,0:0:0:0:
20,120,158210,5,0,0:0:0:0:
34,144,158229,5,0,0:0:0:0:
0,120,158229,5,0,0:0:0:0:
20,120,158229,5,0,0:0:0:0:
16,144,158229,5,0,0:0:0:0:
0,120,158248,5,0,0:0:0:0:
16,144,158248,5,0,0:0:0:0:
34,144,158248,5,0,0:0:0:0:
20,120,158248,5,0,0:0:0:0:
20,120,158266,5,0,0:0:0:0:
16,144,158266,5,0,0:0:0:0:
34,144,158266,5,0,0:0:0:0:
0,120,158266,5,0,0:0:0:0:
0,120,158285,5,0,0:0:0:0:
34,144,158285,5,0,0:0:0:0:
16,144,158285,5,0,0:0:0:0:
20,120,158285,5,0,0:0:0:0:
16,144,158304,5,0,0:0:0:0:
0,120,158304,5,0,0:0:0:0:
34,144,158304,5,0,0:0:0:0:
20,120,158304,5,0,0:0:0:0:
256,192,158304,12,0,160442,0:0:0:0:
0,120,158322,5,0,0:0:0:0:
20,120,158322,5,0,0:0:0:0:
16,144,158322,5,0,0:0:0:0:
34,144,158322,5,0,0:0:0:0:
16,144,158341,5,0,0:0:0:0:
34,144,158341,5,0,0:0:0:0:
0,120,158341,5,0,0:0:0:0:
20,120,158341,5,0,0:0:0:0:
16,144,158379,5,0,0:0:0:0:
20,120,158379,5,0,0:0:0:0:
0,120,158379,5,0,0:0:0:0:
34,144,158379,5,0,0:0:0:0:
34,144,158398,5,0,0:0:0:0:
20,120,158398,5,0,0:0:0:0:
16,144,158398,5,0,0:0:0:0:
0,120,158398,5,0,0:0:0:0:
16,144,158416,5,0,0:0:0:0:
34,144,158416,5,0,0:0:0:0:
0,120,158416,5,0,0:0:0:0:
20,120,158416,5,0,0:0:0:0:
20,120,158435,5,0,0:0:0:0:
0,120,158435,5,0,0:0:0:0:
16,144,158435,5,0,0:0:0:0:
34,144,158435,5,0,0:0:0:0:
20,120,158453,5,0,0:0:0:0:
34,144,158453,5,0,0:0:0:0:
0,120,158453,5,0,0:0:0:0:
16,144,158453,5,0,0:0:0:0:
0,120,158472,5,0,0:0:0:0:
20,120,158472,5,0,0:0:0:0:
16,144,158472,5,0,0:0:0:0:
34,144,158472,5,0,0:0:0:0:
34,144,158491,5,0,0:0:0:0:
0,120,158491,5,0,0:0:0:0:
20,120,158491,5,0,0:0:0:0:
16,144,158491,5,0,0:0:0:0:
34,144,158510,5,0,0:0:0:0:
20,120,158510,5,0,0:0:0:0:
0,120,158510,5,0,0:0:0:0:
16,144,158510,5,0,0:0:0:0:
34,144,158529,5,0,0:0:0:0:
20,120,158529,5,0,0:0:0:0:
16,144,158529,5,0,0:0:0:0:
0,120,158529,5,0,0:0:0:0:
0,120,158547,5,0,0:0:0:0:
16,144,158547,5,0,0:0:0:0:
34,144,158547,5,0,0:0:0:0:
20,120,158547,5,0,0:0:0:0:
20,120,158566,5,0,0:0:0:0:
0,120,158566,5,0,0:0:0:0:
16,144,158566,5,0,0:0:0:0:
34,144,158566,5,0,0:0:0:0:
0,120,158585,5,0,0:0:0:0:
34,144,158585,5,0,0:0:0:0:
16,144,158585,5,0,0:0:0:0:
20,120,158585,5,0,0:0:0:0:
16,144,158603,5,0,0:0:0:0:
0,120,158603,5,0,0:0:0:0:
20,120,158603,5,0,0:0:0:0:
34,144,158603,5,0,0:0:0:0:
20,120,158622,5,0,0:0:0:0:
34,144,158622,5,0,0:0:0:0:
16,144,158622,5,0,0:0:0:0:
0,120,158622,5,0,0:0:0:0:
16,144,158641,5,0,0:0:0:0:
34,144,158641,5,0,0:0:0:0:
20,120,158641,5,0,0:0:0:0:
0,120,158641,5,0,0:0:0:0:
0,120,158659,5,0,0:0:0:0:
16,144,158659,5,0,0:0:0:0:
20,120,158659,5,0,0:0:0:0:
34,144,158659,5,0,0:0:0:0:
16,144,158678,5,0,0:0:0:0:
34,144,158678,5,0,0:0:0:0:
0,120,158678,5,0,0:0:0:0:
20,120,158678,5,0,0:0:0:0:
40,120,158698,5,0,0:0:0:0:
56,120,158716,5,0,0:0:0:0:
256,192,158735,5,0,0:0:0:0:
276,188,158754,5,0,0:0:0:0:
288,172,158773,5,0,0:0:0:0:
284,156,158791,5,0,0:0:0:0:
272,140,158810,5,0,0:0:0:0:
256,132,158829,5,0,0:0:0:0:
272,140,158848,5,0,0:0:0:0:
272,140,158866,5,0,0:0:0:0:
272,140,158885,5,0,0:0:0:0:
272,140,158904,5,0,0:0:0:0:
288,96,158923,5,0,0:0:0:0:
268,96,158923,5,0,0:0:0:0:
274,168,158923,5,0,0:0:0:0:
256,168,158923,5,0,0:0:0:0:
274,168,158941,5,0,0:0:0:0:
256,168,158941,5,0,0:0:0:0:
288,96,158941,5,0,0:0:0:0:
268,96,158941,5,0,0:0:0:0:
288,96,158960,5,0,0:0:0:0:
268,96,158960,5,0,0:0:0:0:
274,168,158960,5,0,0:0:0:0:
256,168,158960,5,0,0:0:0:0:
274,168,158979,5,0,0:0:0:0:
256,168,158979,5,0,0:0:0:0:
288,96,158979,5,0,0:0:0:0:
268,96,158979,5,0,0:0:0:0:
288,96,158998,5,0,0:0:0:0:
268,96,158998,5,0,0:0:0:0:
274,168,158998,5,0,0:0:0:0:
256,168,158998,5,0,0:0:0:0:
274,168,159016,5,0,0:0:0:0:
256,168,159016,5,0,0:0:0:0:
288,96,159016,5,0,0:0:0:0:
268,96,159016,5,0,0:0:0:0:
274,168,159034,5,0,0:0:0:0:
256,168,159034,5,0,0:0:0:0:
288,96,159034,5,0,0:0:0:0:
268,96,159034,5,0,0:0:0:0:
274,168,159053,5,0,0:0:0:0:
256,168,159053,5,0,0:0:0:0:
288,96,159053,5,0,0:0:0:0:
268,96,159053,5,0,0:0:0:0:
274,168,159072,5,0,0:0:0:0:
256,168,159072,5,0,0:0:0:0:
288,96,159072,5,0,0:0:0:0:
268,96,159072,5,0,0:0:0:0:
274,168,159091,5,0,0:0:0:0:
256,168,159091,5,0,0:0:0:0:
288,96,159091,5,0,0:0:0:0:
268,96,159091,5,0,0:0:0:0:
288,96,159110,5,0,0:0:0:0:
268,96,159110,5,0,0:0:0:0:
274,168,159110,5,0,0:0:0:0:
256,168,159110,5,0,0:0:0:0:
288,96,159128,5,0,0:0:0:0:
268,96,159128,5,0,0:0:0:0:
274,168,159128,5,0,0:0:0:0:
256,168,159128,5,0,0:0:0:0:
288,96,159147,5,0,0:0:0:0:
268,96,159147,5,0,0:0:0:0:
274,168,159147,5,0,0:0:0:0:
256,168,159147,5,0,0:0:0:0:
288,96,159166,5,0,0:0:0:0:
268,96,159166,5,0,0:0:0:0:
238,164,159166,5,0,0:0:0:0:
220,164,159166,5,0,0:0:0:0:
288,96,159185,5,0,0:0:0:0:
268,96,159185,5,0,0:0:0:0:
238,164,159185,5,0,0:0:0:0:
220,164,159185,5,0,0:0:0:0:
238,164,159204,5,0,0:0:0:0:
220,164,159204,5,0,0:0:0:0:
288,96,159204,5,0,0:0:0:0:
268,96,159204,5,0,0:0:0:0:
238,164,159222,5,0,0:0:0:0:
220,164,159222,5,0,0:0:0:0:
288,96,159222,5,0,0:0:0:0:
268,96,159222,5,0,0:0:0:0:
238,164,159241,5,0,0:0:0:0:
220,164,159241,5,0,0:0:0:0:
288,96,159241,5,0,0:0:0:0:
268,96,159241,5,0,0:0:0:0:
238,164,159260,5,0,0:0:0:0:
220,164,159260,5,0,0:0:0:0:
288,96,159260,5,0,0:0:0:0:
268,96,159260,5,0,0:0:0:0:
238,164,159279,5,0,0:0:0:0:
220,164,159279,5,0,0:0:0:0:
288,96,159279,5,0,0:0:0:0:
268,96,159279,5,0,0:0:0:0:
288,96,159298,5,0,0:0:0:0:
268,96,159298,5,0,0:0:0:0:
238,164,159298,5,0,0:0:0:0:
220,164,159298,5,0,0:0:0:0:
288,96,159316,5,0,0:0:0:0:
268,96,159316,5,0,0:0:0:0:
238,164,159316,5,0,0:0:0:0:
220,164,159316,5,0,0:0:0:0:
288,96,159335,5,0,0:0:0:0:
268,96,159335,5,0,0:0:0:0:
238,164,159335,5,0,0:0:0:0:
220,164,159335,5,0,0:0:0:0:
288,96,159354,5,0,0:0:0:0:
268,96,159354,5,0,0:0:0:0:
238,164,159354,5,0,0:0:0:0:
220,164,159354,5,0,0:0:0:0:
288,96,159373,5,0,0:0:0:0:
268,96,159373,5,0,0:0:0:0:
238,164,159373,5,0,0:0:0:0:
220,164,159373,5,0,0:0:0:0:
288,96,159391,5,0,0:0:0:0:
268,96,159391,5,0,0:0:0:0:
238,164,159391,5,0,0:0:0:0:
220,164,159391,5,0,0:0:0:0:
238,164,159409,5,0,0:0:0:0:
220,164,159409,5,0,0:0:0:0:
288,96,159409,5,0,0:0:0:0:
268,96,159409,5,0,0:0:0:0:
288,96,159428,5,0,0:0:0:0:
268,96,159428,5,0,0:0:0:0:
238,164,159428,5,0,0:0:0:0:
220,164,159428,5,0,0:0:0:0:
238,164,159447,5,0,0:0:0:0:
220,164,159447,5,0,0:0:0:0:
288,96,159447,5,0,0:0:0:0:
268,96,159447,5,0,0:0:0:0:
288,96,159466,5,0,0:0:0:0:
268,96,159466,5,0,0:0:0:0:
238,164,159466,5,0,0:0:0:0:
220,164,159466,5,0,0:0:0:0:
288,96,159485,5,0,0:0:0:0:
268,96,159485,5,0,0:0:0:0:
238,164,159485,5,0,0:0:0:0:
220,164,159485,5,0,0:0:0:0:
238,164,159503,5,0,0:0:0:0:
220,164,159503,5,0,0:0:0:0:
288,96,159503,5,0,0:0:0:0:
268,96,159503,5,0,0:0:0:0:
288,96,159522,5,0,0:0:0:0:
268,96,159522,5,0,0:0:0:0:
238,164,159522,5,0,0:0:0:0:
220,164,159522,5,0,0:0:0:0:
238,164,159541,5,0,0:0:0:0:
220,164,159541,5,0,0:0:0:0:
288,96,159541,5,0,0:0:0:0:
268,96,159541,5,0,0:0:0:0:
288,96,159560,5,0,0:0:0:0:
268,96,159560,5,0,0:0:0:0:
238,164,159560,5,0,0:0:0:0:
220,164,159560,5,0,0:0:0:0:
288,96,159579,5,0,0:0:0:0:
268,96,159579,5,0,0:0:0:0:
238,164,159579,5,0,0:0:0:0:
220,164,159579,5,0,0:0:0:0:
238,164,159597,5,0,0:0:0:0:
220,164,159597,5,0,0:0:0:0:
288,96,159597,5,0,0:0:0:0:
268,96,159597,5,0,0:0:0:0:
288,96,159616,5,0,0:0:0:0:
268,96,159616,5,0,0:0:0:0:
238,164,159616,5,0,0:0:0:0:
220,164,159616,5,0,0:0:0:0:
238,164,159635,5,0,0:0:0:0:
220,164,159635,5,0,0:0:0:0:
288,96,159635,5,0,0:0:0:0:
268,96,159635,5,0,0:0:0:0:
288,96,159654,5,0,0:0:0:0:
268,96,159654,5,0,0:0:0:0:
238,164,159654,5,0,0:0:0:0:
220,164,159654,5,0,0:0:0:0:
238,164,159673,5,0,0:0:0:0:
220,164,159673,5,0,0:0:0:0:
288,96,159673,5,0,0:0:0:0:
268,96,159673,5,0,0:0:0:0:
238,164,159691,5,0,0:0:0:0:
220,164,159691,5,0,0:0:0:0:
288,96,159691,5,0,0:0:0:0:
268,96,159691,5,0,0:0:0:0:
238,164,159710,5,0,0:0:0:0:
220,164,159710,5,0,0:0:0:0:
288,96,159710,5,0,0:0:0:0:
268,96,159710,5,0,0:0:0:0:
238,164,159729,5,0,0:0:0:0:
220,164,159729,5,0,0:0:0:0:
288,96,159729,5,0,0:0:0:0:
268,96,159729,5,0,0:0:0:0:
238,164,159748,5,0,0:0:0:0:
220,164,159748,5,0,0:0:0:0:
288,96,159748,5,0,0:0:0:0:
268,96,159748,5,0,0:0:0:0:
238,164,159766,5,0,0:0:0:0:
220,164,159766,5,0,0:0:0:0:
288,96,159766,5,0,0:0:0:0:
268,96,159766,5,0,0:0:0:0:
288,96,159784,5,0,0:0:0:0:
268,96,159784,5,0,0:0:0:0:
238,164,159784,5,0,0:0:0:0:
220,164,159784,5,0,0:0:0:0:
238,164,159803,5,0,0:0:0:0:
220,164,159803,5,0,0:0:0:0:
288,96,159803,5,0,0:0:0:0:
268,96,159803,5,0,0:0:0:0:
288,96,159822,5,0,0:0:0:0:
268,96,159822,5,0,0:0:0:0:
238,164,159822,5,0,0:0:0:0:
220,164,159822,5,0,0:0:0:0:
238,164,159841,5,0,0:0:0:0:
220,164,159841,5,0,0:0:0:0:
288,96,159841,5,0,0:0:0:0:
268,96,159841,5,0,0:0:0:0:
238,164,159860,5,0,0:0:0:0:
220,164,159860,5,0,0:0:0:0:
288,96,159860,5,0,0:0:0:0:
268,96,159860,5,0,0:0:0:0:
288,96,159878,5,0,0:0:0:0:
268,96,159878,5,0,0:0:0:0:
238,164,159878,5,0,0:0:0:0:
220,164,159878,5,0,0:0:0:0:
238,164,159897,5,0,0:0:0:0:
220,164,159897,5,0,0:0:0:0:
288,96,159897,5,0,0:0:0:0:
268,96,159897,5,0,0:0:0:0:
288,96,159916,5,0,0:0:0:0:
268,96,159916,5,0,0:0:0:0:
238,164,159916,5,0,0:0:0:0:
220,164,159916,5,0,0:0:0:0:
238,164,159935,5,0,0:0:0:0:
220,164,159935,5,0,0:0:0:0:
288,96,159935,5,0,0:0:0:0:
268,96,159935,5,0,0:0:0:0:
238,164,159954,5,0,0:0:0:0:
220,164,159954,5,0,0:0:0:0:
288,96,159954,5,0,0:0:0:0:
268,96,159954,5,0,0:0:0:0:
288,96,159972,5,0,0:0:0:0:
268,96,159972,5,0,0:0:0:0:
238,164,159972,5,0,0:0:0:0:
220,164,159972,5,0,0:0:0:0:
238,164,159991,5,0,0:0:0:0:
220,164,159991,5,0,0:0:0:0:
288,96,159991,5,0,0:0:0:0:
268,96,159991,5,0,0:0:0:0:
288,96,160010,5,0,0:0:0:0:
268,96,160010,5,0,0:0:0:0:
238,164,160010,5,0,0:0:0:0:
220,164,160010,5,0,0:0:0:0:
238,164,160029,5,0,0:0:0:0:
220,164,160029,5,0,0:0:0:0:
288,96,160029,5,0,0:0:0:0:
268,96,160029,5,0,0:0:0:0:
288,96,160048,5,0,0:0:0:0:
268,96,160048,5,0,0:0:0:0:
238,164,160048,5,0,0:0:0:0:
220,164,160048,5,0,0:0:0:0:
288,96,160066,5,0,0:0:0:0:
268,96,160066,5,0,0:0:0:0:
238,164,160066,5,0,0:0:0:0:
220,164,160066,5,0,0:0:0:0:
288,96,160085,5,0,0:0:0:0:
268,96,160085,5,0,0:0:0:0:
238,164,160085,5,0,0:0:0:0:
220,164,160085,5,0,0:0:0:0:
288,96,160104,5,0,0:0:0:0:
268,96,160104,5,0,0:0:0:0:
238,164,160104,5,0,0:0:0:0:
220,164,160104,5,0,0:0:0:0:
288,96,160123,5,0,0:0:0:0:
268,96,160123,5,0,0:0:0:0:
238,164,160123,5,0,0:0:0:0:
220,164,160123,5,0,0:0:0:0:
288,96,160141,5,0,0:0:0:0:
268,96,160141,5,0,0:0:0:0:
238,164,160141,5,0,0:0:0:0:
220,164,160141,5,0,0:0:0:0:
238,164,160159,5,0,0:0:0:0:
220,164,160159,5,0,0:0:0:0:
288,96,160159,5,0,0:0:0:0:
268,96,160159,5,0,0:0:0:0:
288,96,160178,5,0,0:0:0:0:
268,96,160178,5,0,0:0:0:0:
238,164,160178,5,0,0:0:0:0:
220,164,160178,5,0,0:0:0:0:
238,164,160197,5,0,0:0:0:0:
220,164,160197,5,0,0:0:0:0:
288,96,160197,5,0,0:0:0:0:
268,96,160197,5,0,0:0:0:0:
288,96,160216,5,0,0:0:0:0:
268,96,160216,5,0,0:0:0:0:
238,164,160216,5,0,0:0:0:0:
220,164,160216,5,0,0:0:0:0:
288,96,160235,5,0,0:0:0:0:
268,96,160235,5,0,0:0:0:0:
238,164,160235,5,0,0:0:0:0:
220,164,160235,5,0,0:0:0:0:
238,164,160253,5,0,0:0:0:0:
220,164,160253,5,0,0:0:0:0:
288,96,160253,5,0,0:0:0:0:
268,96,160253,5,0,0:0:0:0:
288,96,160272,5,0,0:0:0:0:
268,96,160272,5,0,0:0:0:0:
238,164,160272,5,0,0:0:0:0:
220,164,160272,5,0,0:0:0:0:
238,164,160291,5,0,0:0:0:0:
220,164,160291,5,0,0:0:0:0:
288,96,160291,5,0,0:0:0:0:
268,96,160291,5,0,0:0:0:0:
288,96,160310,5,0,0:0:0:0:
268,96,160310,5,0,0:0:0:0:
238,164,160310,5,0,0:0:0:0:
220,164,160310,5,0,0:0:0:0:
288,96,160329,5,0,0:0:0:0:
268,96,160329,5,0,0:0:0:0:
238,164,160329,5,0,0:0:0:0:
220,164,160329,5,0,0:0:0:0:
238,164,160347,5,0,0:0:0:0:
220,164,160347,5,0,0:0:0:0:
288,96,160347,5,0,0:0:0:0:
268,96,160347,5,0,0:0:0:0:
288,96,160366,5,0,0:0:0:0:
268,96,160366,5,0,0:0:0:0:
238,164,160366,5,0,0:0:0:0:
220,164,160366,5,0,0:0:0:0:
238,164,160385,5,0,0:0:0:0:
220,164,160385,5,0,0:0:0:0:
288,96,160385,5,0,0:0:0:0:
268,96,160385,5,0,0:0:0:0:
288,96,160404,5,0,0:0:0:0:
268,96,160404,5,0,0:0:0:0:
238,164,160404,5,0,0:0:0:0:
220,164,160404,5,0,0:0:0:0:
238,164,160423,5,0,0:0:0:0:
220,164,160423,5,0,0:0:0:0:
288,96,160423,5,0,0:0:0:0:
268,96,160423,5,0,0:0:0:0:
238,164,160441,5,0,0:0:0:0:
220,164,160441,5,0,0:0:0:0:
288,96,160441,5,0,0:0:0:0:
268,96,160441,5,0,0:0:0:0:
238,164,160460,5,0,0:0:0:0:
220,164,160460,5,0,0:0:0:0:
288,96,160460,5,0,0:0:0:0:
268,96,160460,5,0,0:0:0:0:
238,164,160479,5,0,0:0:0:0:
220,164,160479,5,0,0:0:0:0:
288,96,160479,5,0,0:0:0:0:
268,96,160479,5,0,0:0:0:0:
238,164,160498,5,0,0:0:0:0:
220,164,160498,5,0,0:0:0:0:
288,96,160498,5,0,0:0:0:0:
268,96,160498,5,0,0:0:0:0:
238,164,160516,5,0,0:0:0:0:
220,164,160516,5,0,0:0:0:0:
288,96,160516,5,0,0:0:0:0:
268,96,160516,5,0,0:0:0:0:
288,96,160534,5,0,0:0:0:0:
268,96,160534,5,0,0:0:0:0:
238,164,160534,5,0,0:0:0:0:
220,164,160534,5,0,0:0:0:0:
238,164,160553,5,0,0:0:0:0:
220,164,160553,5,0,0:0:0:0:
288,96,160553,5,0,0:0:0:0:
268,96,160553,5,0,0:0:0:0:
288,96,160572,5,0,0:0:0:0:
268,96,160572,5,0,0:0:0:0:
238,164,160572,5,0,0:0:0:0:
220,164,160572,5,0,0:0:0:0:
238,164,160591,5,0,0:0:0:0:
220,164,160591,5,0,0:0:0:0:
288,96,160591,5,0,0:0:0:0:
268,96,160591,5,0,0:0:0:0:
238,164,160610,5,0,0:0:0:0:
220,164,160610,5,0,0:0:0:0:
288,96,160610,5,0,0:0:0:0:
268,96,160610,5,0,0:0:0:0:
288,96,160628,5,0,0:0:0:0:
268,96,160628,5,0,0:0:0:0:
238,164,160628,5,0,0:0:0:0:
220,164,160628,5,0,0:0:0:0:
238,164,160647,5,0,0:0:0:0:
220,164,160647,5,0,0:0:0:0:
288,96,160647,5,0,0:0:0:0:
268,96,160647,5,0,0:0:0:0:
288,96,160666,5,0,0:0:0:0:
268,96,160666,5,0,0:0:0:0:
238,164,160666,5,0,0:0:0:0:
220,164,160666,5,0,0:0:0:0:
238,164,160685,5,0,0:0:0:0:
220,164,160685,5,0,0:0:0:0:
288,96,160685,5,0,0:0:0:0:
268,96,160685,5,0,0:0:0:0:
238,164,160704,5,0,0:0:0:0:
220,164,160704,5,0,0:0:0:0:
288,96,160704,5,0,0:0:0:0:
268,96,160704,5,0,0:0:0:0:
288,96,160722,5,0,0:0:0:0:
268,96,160722,5,0,0:0:0:0:
238,164,160722,5,0,0:0:0:0:
220,164,160722,5,0,0:0:0:0:
238,164,160741,5,0,0:0:0:0:
220,164,160741,5,0,0:0:0:0:
288,96,160741,5,0,0:0:0:0:
268,96,160741,5,0,0:0:0:0:
288,96,160760,5,0,0:0:0:0:
268,96,160760,5,0,0:0:0:0:
238,164,160760,5,0,0:0:0:0:
220,164,160760,5,0,0:0:0:0:
238,164,160779,5,0,0:0:0:0:
220,164,160779,5,0,0:0:0:0:
288,96,160779,5,0,0:0:0:0:
268,96,160779,5,0,0:0:0:0:
288,96,160798,5,0,0:0:0:0:
268,96,160798,5,0,0:0:0:0:
238,164,160798,5,0,0:0:0:0:
220,164,160798,5,0,0:0:0:0:
288,96,160816,5,0,0:0:0:0:
268,96,160816,5,0,0:0:0:0:
238,164,160816,5,0,0:0:0:0:
220,164,160816,5,0,0:0:0:0:
288,96,160835,5,0,0:0:0:0:
268,96,160835,5,0,0:0:0:0:
238,164,160835,5,0,0:0:0:0:
220,164,160835,5,0,0:0:0:0:
288,96,160854,5,0,0:0:0:0:
268,96,160854,5,0,0:0:0:0:
238,164,160854,5,0,0:0:0:0:
220,164,160854,5,0,0:0:0:0:
288,96,160873,5,0,0:0:0:0:
268,96,160873,5,0,0:0:0:0:
238,164,160873,5,0,0:0:0:0:
220,164,160873,5,0,0:0:0:0:
288,96,160891,5,0,0:0:0:0:
268,96,160891,5,0,0:0:0:0:
238,164,160891,5,0,0:0:0:0:
220,164,160891,5,0,0:0:0:0:
238,164,160909,5,0,0:0:0:0:
220,164,160909,5,0,0:0:0:0:
288,96,160909,5,0,0:0:0:0:
268,96,160909,5,0,0:0:0:0:
288,96,160928,5,0,0:0:0:0:
268,96,160928,5,0,0:0:0:0:
238,164,160928,5,0,0:0:0:0:
220,164,160928,5,0,0:0:0:0:
238,164,160947,5,0,0:0:0:0:
220,164,160947,5,0,0:0:0:0:
288,96,160947,5,0,0:0:0:0:
268,96,160947,5,0,0:0:0:0:
288,96,160966,5,0,0:0:0:0:
268,96,160966,5,0,0:0:0:0:
238,164,160966,5,0,0:0:0:0:
220,164,160966,5,0,0:0:0:0:
288,96,160985,5,0,0:0:0:0:
268,96,160985,5,0,0:0:0:0:
238,164,160985,5,0,0:0:0:0:
220,164,160985,5,0,0:0:0:0:
238,164,161003,5,0,0:0:0:0:
220,164,161003,5,0,0:0:0:0:
288,96,161003,5,0,0:0:0:0:
268,96,161003,5,0,0:0:0:0:
288,96,161022,5,0,0:0:0:0:
268,96,161022,5,0,0:0:0:0:
238,164,161022,5,0,0:0:0:0:
220,164,161022,5,0,0:0:0:0:
238,164,161041,5,0,0:0:0:0:
220,164,161041,5,0,0:0:0:0:
288,96,161041,5,0,0:0:0:0:
268,96,161041,5,0,0:0:0:0:
288,96,161060,5,0,0:0:0:0:
268,96,161060,5,0,0:0:0:0:
238,164,161060,5,0,0:0:0:0:
220,164,161060,5,0,0:0:0:0:
288,96,161079,5,0,0:0:0:0:
268,96,161079,5,0,0:0:0:0:
238,164,161079,5,0,0:0:0:0:
220,164,161079,5,0,0:0:0:0:
238,164,161097,5,0,0:0:0:0:
220,164,161097,5,0,0:0:0:0:
288,96,161097,5,0,0:0:0:0:
268,96,161097,5,0,0:0:0:0:
288,96,161116,5,0,0:0:0:0:
268,96,161116,5,0,0:0:0:0:
238,164,161116,5,0,0:0:0:0:
220,164,161116,5,0,0:0:0:0:
238,164,161135,5,0,0:0:0:0:
220,164,161135,5,0,0:0:0:0:
288,96,161135,5,0,0:0:0:0:
268,96,161135,5,0,0:0:0:0:
288,96,161154,5,0,0:0:0:0:
268,96,161154,5,0,0:0:0:0:
238,164,161154,5,0,0:0:0:0:
220,164,161154,5,0,0:0:0:0:
