osu file format v13

[General]
AudioFilename: 2020 SeventH-HeaveNsasakure.UK(feat.).mp3
AudioLeadIn: 0
PreviewTime: 56382
Countdown: 0
SampleSet: Normal
StackLeniency: 0.7
Mode: 1
LetterboxInBreaks: 0
WidescreenStoryboard: 0

[Editor]
DistanceSpacing: 0.8
BeatDivisor: 4
GridSize: 32
TimelineZoom: 3.199999

[Metadata]
Title:SeventH-HeaveN
TitleUnicode:SeventH-HeaveN
Artist:sasakure.UK (feat.Hatsune Miku)
ArtistUnicode:sasakure.UK (feat.初音ミク)
Creator:[I]MMoRTal[S]
Version:Muzukashii
Source:セブンスドラゴン2020
Tags:Seventh Dragon 2020 vocaloid Nardoxyribonucleic Love Soldsaga KunG
BeatmapID:426543
BeatmapSetID:177182

[Difficulty]
HPDrainRate:5
CircleSize:5
OverallDifficulty:5
ApproachRate:5
SliderMultiplier:1.4
SliderTickRate:1

[Events]
//Background and Video events
0,0,"~.jpg",0,120
//Break Periods
//Storyboard Layer 0 (Background)
//Storyboard Layer 1 (Fail)
//Storyboard Layer 2 (Pass)
//Storyboard Layer 3 (Foreground)
//Storyboard Sound Samples
//Background Colour Transformations
3,100,163,162,255

[TimingPoints]
7387,333.333333333333,4,1,0,30,1,0
19386,-100,4,1,0,45,0,0
30136,-100,4,1,0,60,0,0
51876,333.333333333333,4,1,0,60,1,0
57209,-100,4,1,0,60,0,1
78542,333.333333333333,6,1,0,60,1,0
78542,-100,6,1,0,60,0,0

[HitObjects]
256,192,8053,5,8,0:0:0:0:
256,192,8386,1,8,0:0:0:0:
256,192,8720,1,8,0:0:0:0:
256,192,8886,1,8,0:0:0:0:
256,192,9053,1,0,0:0:0:0:
256,192,9220,1,0,0:0:0:0:
256,192,9553,1,0,0:0:0:0:
256,192,9720,1,0,0:0:0:0:
256,192,9886,1,8,0:0:0:0:
256,192,10053,1,8,0:0:0:0:
256,192,10220,1,8,0:0:0:0:
256,192,10386,1,0,0:0:0:0:
256,192,11053,1,0,0:0:0:0:
256,192,11386,1,8,0:0:0:0:
256,192,11553,1,0,0:0:0:0:
256,192,11720,1,8,0:0:0:0:
256,192,11886,1,0,0:0:0:0:
256,192,12553,1,0,0:0:0:0:
256,192,12886,1,8,0:0:0:0:
256,192,13053,1,0,0:0:0:0:
256,192,13386,1,0,0:0:0:0:
256,192,13720,1,8,0:0:0:0:
256,192,14053,1,0,0:0:0:0:
256,192,14386,1,0,0:0:0:0:
256,192,14553,1,8,0:0:0:0:
256,192,14886,1,0,0:0:0:0:
256,192,15053,1,8,0:0:0:0:
256,192,15220,1,8,0:0:0:0:
256,192,15387,1,0,0:0:0:0:
256,192,15553,1,0,0:0:0:0:
256,192,15720,1,8,0:0:0:0:
256,192,16720,1,0,0:0:0:0:
256,192,17220,1,8,0:0:0:0:
256,192,17720,1,8,0:0:0:0:
256,192,17886,1,0,0:0:0:0:
256,192,18220,1,0,0:0:0:0:
256,192,18386,1,8,0:0:0:0:
256,192,18720,1,0,0:0:0:0:
256,192,18886,1,0,0:0:0:0:
256,192,19053,1,8,0:0:0:0:
256,192,19220,1,0,0:0:0:0:
256,192,19386,1,8,0:0:0:0:
320,224,19553,1,8,0:0:0:0:
192,256,19720,1,0,0:0:0:0:
160,160,19886,1,8,0:0:0:0:
320,288,20220,1,8,0:0:0:0:
384,256,20386,1,0,0:0:0:0:
480,288,20553,1,8,0:0:0:0:
448,192,20720,1,0,0:0:0:0:
448,192,20886,1,0,0:0:0:0:
320,160,21053,1,8,0:0:0:0:
320,160,21386,1,8,0:0:0:0:
384,128,21720,1,0,0:0:0:0:
384,128,22053,1,8,0:0:0:0:
288,224,22386,1,8,0:0:0:0:
288,224,22553,1,0,0:0:0:0:
288,224,23054,1,0,0:0:0:0:
288,224,23220,1,8,0:0:0:0:
384,224,23553,1,0,0:0:0:0:
384,288,23720,1,8,0:0:0:0:
224,128,23886,1,0,0:0:0:0:
352,128,24053,1,0,0:0:0:0:
256,224,24386,1,8,0:0:0:0:
288,256,24720,1,0,0:0:0:0:
416,256,25053,1,8,0:0:0:0:
352,320,25220,1,0,0:0:0:0:
256,192,25386,1,8,0:0:0:0:
224,288,25719,1,0,0:0:0:0:
320,288,25886,1,8,0:0:0:0:
352,224,26220,1,0,0:0:0:0:
416,288,26386,1,8,0:0:0:0:
128,160,26553,1,0,0:0:0:0:
288,160,26720,1,0,0:0:0:0:
416,192,26886,1,0,0:0:0:0:
320,288,27386,1,0,0:0:0:0:
160,160,27553,1,0,0:0:0:0:
416,128,27720,1,8,0:0:0:0:
256,192,27886,1,0,0:0:0:0:
192,256,28053,1,0,0:0:0:0:
384,256,28553,1,0,0:0:0:0:
384,256,28720,1,8,0:0:0:0:
384,256,29053,1,8,0:0:0:0:
192,160,29386,1,0,0:0:0:0:
288,160,29553,1,8,0:0:0:0:
224,224,29720,1,8,0:0:0:0:
384,128,29886,1,0,0:0:0:0:
288,288,30053,1,4,0:0:0:0:
256,128,30386,1,0,0:0:0:0:
352,224,30553,1,8,0:0:0:0:
224,96,30886,1,0,0:0:0:0:
416,128,31220,1,8,0:0:0:0:
96,160,31553,1,0,0:0:0:0:
288,224,31886,1,8,0:0:0:0:
352,288,32220,1,8,0:0:0:0:
416,128,32720,1,8,0:0:0:0:
256,128,32886,1,0,0:0:0:0:
128,256,33220,1,0,0:0:0:0:
352,288,33553,1,0,0:0:0:0:
352,64,33886,1,8,0:0:0:0:
128,192,34220,1,0,0:0:0:0:
320,320,34553,1,8,0:0:0:0:
352,224,34636,1,8,0:0:0:0:
352,128,34720,1,8,0:0:0:0:
384,288,35220,1,0,0:0:0:0:
256,224,35386,1,0,0:0:0:0:
256,224,35720,1,0,0:0:0:0:
256,224,35886,1,8,0:0:0:0:
416,192,36220,1,8,0:0:0:0:
224,96,36553,1,0,0:0:0:0:
128,288,36886,1,8,0:0:0:0:
416,320,37220,1,0,0:0:0:0:
384,64,37386,1,8,0:0:0:0:
320,224,37553,1,0,0:0:0:0:
224,288,37720,1,8,0:0:0:0:
192,160,37886,1,8,0:0:0:0:
352,192,38053,1,0,0:0:0:0:
224,352,38220,1,0,0:0:0:0:
192,128,38386,1,8,0:0:0:0:
384,128,38553,1,0,0:0:0:0:
128,256,38720,1,0,0:0:0:0:
320,128,38886,1,8,0:0:0:0:
352,256,39053,1,8,0:0:0:0:
128,160,39720,1,0,0:0:0:0:
320,128,39886,1,0,0:0:0:0:
128,288,40053,1,8,0:0:0:0:
288,288,40220,1,0,0:0:0:0:
256,128,40386,1,8,0:0:0:0:
224,224,40553,1,8,0:0:0:0:
384,224,40720,1,4,0:0:0:0:
320,224,41053,1,0,0:0:0:0:
320,224,41220,1,8,0:0:0:0:
160,320,41553,1,8,0:0:0:0:
128,128,41886,1,0,0:0:0:0:
352,160,42220,1,8,0:0:0:0:
224,160,42553,1,8,0:0:0:0:
256,320,42720,1,8,0:0:0:0:
320,128,42886,1,0,0:0:0:0:
288,224,43386,1,8,0:0:0:0:
256,128,43553,1,0,0:0:0:0:
64,224,43886,1,0,0:0:0:0:
384,256,44220,1,8,0:0:0:0:
288,64,44553,1,8,0:0:0:0:
224,256,44886,1,0,0:0:0:0:
160,64,45220,1,8,0:0:0:0:
384,192,45303,1,8,0:0:0:0:
384,160,45386,1,8,0:0:0:0:
96,160,46053,1,0,0:0:0:0:
288,288,46386,1,8,0:0:0:0:
256,160,46553,1,8,0:0:0:0:
128,288,46886,1,0,0:0:0:0:
320,64,47220,1,8,0:0:0:0:
416,320,47553,1,8,0:0:0:0:
160,192,47886,1,0,0:0:0:0:
352,128,48220,1,8,0:0:0:0:
288,288,48720,1,4,0:0:0:0:
320,224,48886,1,8,0:0:0:0:
128,256,49220,1,0,0:0:0:0:
192,192,49386,1,8,0:0:0:0:
128,96,49720,1,0,0:0:0:0:
384,192,49886,1,8,0:0:0:0:
256,320,50053,1,8,0:0:0:0:
224,160,50220,1,0,0:0:0:0:
352,192,50386,1,0,0:0:0:0:
320,224,50720,1,0,0:0:0:0:
352,224,50886,1,8,0:0:0:0:
320,0,51053,1,8,0:0:0:0:
320,128,51220,1,0,0:0:0:0:
320,224,51386,1,0,0:0:0:0:
160,96,51720,1,8,0:0:0:0:
416,192,51876,1,4,0:0:0:0:
256,192,52209,1,0,0:0:0:0:
320,192,52376,1,8,0:0:0:0:
288,320,52709,1,0,0:0:0:0:
288,288,52876,1,12,0:0:0:0:
224,256,53209,1,8,0:0:0:0:
160,128,53376,1,0,0:0:0:0:
352,192,53709,1,8,0:0:0:0:
352,192,53876,1,0,0:0:0:0:
128,256,54043,1,8,0:0:0:0:
288,64,54209,1,8,0:0:0:0:
224,288,54376,1,0,0:0:0:0:
256,192,54542,8,0,56209,0:0:0:0:
288,160,56375,5,0,0:0:0:0:
320,224,56542,1,0,0:0:0:0:
192,256,56709,1,8,0:0:0:0:
192,128,56875,1,8,0:0:0:0:
352,160,57042,1,0,0:0:0:0:
320,256,57209,1,12,0:0:0:0:
192,224,57542,1,0,0:0:0:0:
320,160,57875,1,0,0:0:0:0:
416,256,58042,1,0,0:0:0:0:
256,96,58209,1,8,0:0:0:0:
256,96,58375,1,0,0:0:0:0:
192,256,58709,1,0,0:0:0:0:
448,256,58875,1,8,0:0:0:0:
416,96,59042,1,8,0:0:0:0:
128,192,59209,1,0,0:0:0:0:
288,256,59542,1,0,0:0:0:0:
384,160,59875,1,8,0:0:0:0:
224,288,60042,1,0,0:0:0:0:
384,320,60209,1,8,0:0:0:0:
160,128,60375,1,8,0:0:0:0:
288,128,60542,1,0,0:0:0:0:
352,160,60709,1,8,0:0:0:0:
288,224,60875,1,8,0:0:0:0:
96,160,61042,1,0,0:0:0:0:
128,128,61209,1,0,0:0:0:0:
192,256,61375,1,8,0:0:0:0:
224,128,61542,1,8,0:0:0:0:
224,160,61709,1,0,0:0:0:0:
352,192,62042,1,8,0:0:0:0:
352,128,62209,1,0,0:0:0:0:
416,192,62292,1,0,0:0:0:0:
288,256,62375,1,0,0:0:0:0:
288,256,62542,1,8,0:0:0:0:
128,96,62875,1,8,0:0:0:0:
256,160,63042,1,0,0:0:0:0:
64,288,63375,1,8,0:0:0:0:
320,128,63709,1,8,0:0:0:0:
352,288,64042,1,0,0:0:0:0:
192,96,64375,1,8,0:0:0:0:
224,224,64709,1,0,0:0:0:0:
416,128,65042,1,0,0:0:0:0:
320,192,65209,1,8,0:0:0:0:
128,224,65542,1,0,0:0:0:0:
256,160,65709,1,8,0:0:0:0:
352,288,66042,1,8,0:0:0:0:
224,96,66375,1,0,0:0:0:0:
256,256,66709,1,8,0:0:0:0:
352,96,67042,1,0,0:0:0:0:
416,192,67125,1,0,0:0:0:0:
320,224,67209,1,0,0:0:0:0:
384,256,67375,1,0,0:0:0:0:
448,320,67459,1,0,0:0:0:0:
320,320,67542,1,0,0:0:0:0:
128,160,67709,1,8,0:0:0:0:
320,96,67875,1,12,0:0:0:0:
352,256,68209,1,0,0:0:0:0:
288,192,68542,1,8,0:0:0:0:
224,320,68709,1,0,0:0:0:0:
384,128,69042,1,0,0:0:0:0:
448,128,69375,1,8,0:0:0:0:
352,320,69709,1,8,0:0:0:0:
352,320,69875,1,8,0:0:0:0:
384,224,70209,1,0,0:0:0:0:
288,224,70542,1,8,0:0:0:0:
352,320,70709,1,0,0:0:0:0:
160,160,71042,1,0,0:0:0:0:
192,160,71209,1,8,0:0:0:0:
448,192,71542,1,0,0:0:0:0:
416,192,71709,1,8,0:0:0:0:
384,256,71875,1,0,0:0:0:0:
192,288,72042,1,8,0:0:0:0:
288,128,72209,1,8,0:0:0:0:
320,256,72375,1,0,0:0:0:0:
288,128,72709,1,0,0:0:0:0:
192,160,73042,1,0,0:0:0:0:
384,224,73209,1,8,0:0:0:0:
352,96,73542,1,8,0:0:0:0:
352,96,73709,1,0,0:0:0:0:
192,288,74042,1,0,0:0:0:0:
224,96,74375,1,8,0:0:0:0:
416,256,74709,1,8,0:0:0:0:
128,128,75042,1,0,0:0:0:0:
352,32,75375,1,8,0:0:0:0:
288,256,75709,1,0,0:0:0:0:
288,128,75875,1,8,0:0:0:0:
384,192,76209,1,0,0:0:0:0:
384,192,76375,1,8,0:0:0:0:
128,256,76709,1,8,0:0:0:0:
224,96,77042,1,0,0:0:0:0:
256,256,77209,1,0,0:0:0:0:
352,320,77375,1,8,0:0:0:0:
416,256,77542,1,8,0:0:0:0:
384,96,77709,1,0,0:0:0:0:
224,320,77792,1,0,0:0:0:0:
192,288,77875,1,0,0:0:0:0:
352,192,78042,1,8,0:0:0:0:
320,224,78375,1,8,0:0:0:0:
320,224,78542,1,4,0:0:0:0:
192,224,78875,1,8,0:0:0:0:
384,256,79209,1,0,0:0:0:0:
192,96,79709,1,0,0:0:0:0:
352,160,80042,1,8,0:0:0:0:
224,256,80209,1,0,0:0:0:0:
352,256,80542,1,0,0:0:0:0:
256,96,80875,1,8,0:0:0:0:
160,224,81209,1,8,0:0:0:0:
384,224,81709,1,0,0:0:0:0:
416,288,81875,1,0,0:0:0:0:
192,160,82042,1,0,0:0:0:0:
288,288,82209,1,8,0:0:0:0:
224,288,82542,1,0,0:0:0:0:
384,128,82875,1,8,0:0:0:0:
384,288,83209,1,8,0:0:0:0:
192,128,83709,1,0,0:0:0:0:
256,224,83875,1,0,0:0:0:0:
352,192,84042,1,0,0:0:0:0:
416,192,84209,1,8,0:0:0:0:
320,128,84542,1,0,0:0:0:0:
256,320,84875,1,8,0:0:0:0:
288,96,85209,1,8,0:0:0:0:
352,224,85709,1,0,0:0:0:0:
192,256,85792,1,0,0:0:0:0:
288,288,85875,1,0,0:0:0:0:
160,192,86042,1,0,0:0:0:0:
288,224,86209,1,12,0:0:0:0:
448,256,86542,1,0,0:0:0:0:
128,320,86875,1,8,0:0:0:0:
256,160,87209,1,8,0:0:0:0:
320,320,87709,1,0,0:0:0:0:
384,128,88042,1,0,0:0:0:0:
416,192,88209,1,8,0:0:0:0:
