osu file format v11

[General]
AudioFilename: 39.mp3
AudioLeadIn: 2000
PreviewTime: 46552
Countdown: 0
SampleSet: Normal
StackLeniency: 0.7
Mode: 0
LetterboxInBreaks: 0

[Editor]
DistanceSpacing: 1
BeatDivisor: 2
GridSize: 4

[Metadata]
Title:39
TitleUnicode:39
Artist:sasakure.UK & DECO*27
ArtistUnicode:sasakure.UK & DECO*27
Creator:Lizsig
Version:Collab
Source:Vocaloid
Tags:Hatsune Miku 40mP yuxuki waga kous akka hie scoop Laurier mintong89 Naryuga
BeatmapID:179336
BeatmapSetID:59892

[Difficulty]
HPDrainRate:7
CircleSize:4
OverallDifficulty:8
ApproachRate:9
SliderMultiplier:1.8
SliderTickRate:2

[Events]
//Background and Video events
0,0,"39bg.jpg"
Video,24,"movie.flv"
//Break Periods
2,66123,72866
2,145836,146922
//Storyboard Layer 0 (Background)
Sprite,Background,Centre,"laurier.png",320,240 S,0,7301,,1 M,1,7301,7644,124,400,92,400 F,0,7301,7644,0,1 F,0,14329,14844,1,0 M,1,25472,25815,124,400,92,400 F,0,25472,25815,0,1 F,0,35758,36444,1,0 F,0,46386,46558,0,1 S,0,46386,46558,1.2,1 F,0,57358,57529,1,0 M,1,81529,82044,124,400,92,400 F,0,81529,82044,0,1 F,0,91301,91815,1,0 M,1,102272,102615,124,400,92,400 F,0,102272,102615,0,1 F,0,112901,113244,1,0 M,1,121472,122158,124,400,92,400 F,0,121472,122158,0,1 F,0,134501,134672,1,0 M,1,158329,158501,124,400,92,400 F,0,158329,158501,0,1 F,0,166386,166558,1,0 F,0,177529,177701,0,1 S,0,177529,177701,1.2,1 F,0,200844,201015,1,0
Sprite,Background,Centre,"lizsig.png",320,240 S,0,14844,,1 M,1,14844,15358,124,400,92,400 F,0,14844,15358,0,1 F,0,24958,25472,1,0 M,1,36444,37129,124,400,92,400 F,0,36444,37129,0,1 F,0,46215,46368,1,0 F,0,57529,57700,0,1 S,0,57529,57700,1.2,1 F,0,65929,66615,1,0 M,1,73472,73815,124,400,92,400 F,0,73472,73815,0,1 F,0,81015,81529,1,0 M,1,91815,92329,124,400,92,400 F,0,91815,92329,0,1 F,0,101929,102272,1,0 F,0,101929,102272,1,0 M,1,113244,113586,124,400,92,400 F,0,113244,113586,0,1 F,0,120786,121472,1,0 M,1,134672,135015,124,400,92,400 F,0,134672,135015,0,1 F,0,145644,146329,1,0 M,1,147186,147529,124,400,92,400 F,0,147186,147529,0,1 F,0,158158,158329,1,0 F,0,166558,166729,0,1 S,0,166558,166729,1.2,1 F,0,177358,177529,1,0
//Storyboard Layer 1 (Fail)
//Storyboard Layer 2 (Pass)
//Storyboard Layer 3 (Foreground)
//Storyboard Sound Samples
//Background Colour Transformations
3,100,163,162,255

[TimingPoints]
439,342.857142857143,4,2,1,60,1,0
439,-200,4,2,1,60,0,0
3439,-200,4,2,1,5,0,0
3610,-200,4,2,1,60,0,0
6867,-200,4,2,1,5,0,0
7039,-200,4,2,1,60,0,0
7296,-100,4,1,1,60,0,0
10724,342.857142857143,4,1,1,60,1,0
23066,-100,4,1,1,70,0,0
25124,342.857142857143,4,1,1,70,1,0
25638,-100,4,1,1,60,0,0
26066,-100,4,1,2,55,0,0
26238,-100,4,1,1,60,0,0
35752,342.857142857143,4,1,1,60,1,0
36437,-133.333333333333,4,1,1,65,0,0
43637,-100,4,1,1,60,0,0
44323,-100,4,1,1,70,0,0
44666,-100,4,1,1,80,0,0
45009,-100,4,1,1,90,0,0
45352,-100,4,1,1,80,0,0
46552,-100,4,1,1,80,0,1
65923,-100,4,1,1,80,0,0
69352,342.857142857143,4,1,1,60,1,0
76894,342.857142857143,4,1,1,60,1,0
81522,-133.333333333333,4,1,1,50,0,0
83751,-200,4,1,1,40,0,0
83836,-200,4,1,1,5,0,0
84008,-200,4,1,1,40,0,0
84265,-133.333333333333,4,1,1,50,0,0
86494,-200,4,1,1,40,0,0
86579,-200,4,1,1,5,0,0
86751,-200,4,1,1,40,0,0
87008,-133.333333333333,4,1,1,50,0,0
89236,-100,4,1,1,70,0,0
91294,342.857142857143,4,1,1,55,1,0
91808,-133.333333333333,4,1,1,60,0,0
100210,-133.333333333333,4,1,1,50,0,0
102265,-100,4,1,1,60,0,0
121465,-100,4,1,1,50,0,0
135011,-100,4,1,1,70,0,0
143408,-100,4,1,1,60,0,0
143751,-100,4,1,1,70,0,0
144094,-100,4,1,1,80,0,0
144436,-100,4,1,1,90,0,0
144779,-100,4,1,1,80,0,0
147522,-133.333333333333,4,1,1,50,0,0
154379,-133.333333333333,4,1,1,55,0,0
156951,-133.333333333333,4,1,1,65,0,0
158494,-100,4,1,1,70,0,0
166722,-83.3333333333333,4,1,1,90,0,1
178294,-83.3333333333333,4,1,2,80,0,1
178465,-83.3333333333333,4,1,1,90,0,1
181036,-83.3333333333333,4,1,2,80,0,1
181208,-83.3333333333333,4,1,1,90,0,1
184551,-83.3333333333333,4,2,1,70,0,1
184894,-100,4,2,1,70,0,1
185922,-100,4,1,1,70,0,0
189351,342.857142857143,4,1,1,70,1,0
200322,-100,4,2,1,80,0,0
201008,-133.333333333333,4,2,1,50,0,0
201093,-133.333333333333,4,2,1,5,0,0
201436,-133.333333333333,4,2,1,50,0,0
202122,-133.333333333333,4,2,1,5,0,0
202465,-133.333333333333,4,2,1,50,0,0
203151,-133.333333333333,4,2,1,5,0,0
203493,-133.333333333333,4,2,1,50,0,0
204008,-133.333333333333,4,2,1,5,0,0
204179,-133.333333333333,4,2,1,50,0,0
215922,-133.333333333333,4,2,1,40,0,0

[Colours]
Combo1 : 192,192,192
Combo2 : 81,255,81
Combo3 : 255,128,255
Combo4 : 255,128,0

[HitObjects]
40,240,439,1,2,0:0:0
196,204,953,1,0,0:0:0
392,80,1467,1,2,0:0:0
356,236,1981,1,0,0:0:0
160,360,2496,1,2,0:0:0
196,204,3010,1,0,0:0:0
352,56,3353,2,0,B|400:80|424:128,1,90,2|0,0:0|0:0,0:0:0
432,144,3867,5,2,0:0:0
392,304,4381,1,0,0:0:0
216,368,4896,1,2,0:0:0
256,208,5410,1,0,0:0:0
136,32,5924,1,2,0:0:0
96,192,6438,1,0,0:0:0
216,108,6781,2,0,B|312:76,1,90,2|0,0:0|0:0,0:0:0
164,32,7296,6,0,B|72:60,1,90,4|0,0:0|0:0,0:0:0
44,188,7638,1,0,0:0:0
44,188,7810,2,0,B|136:160,1,90
264,136,8153,1,0,0:0:0
264,136,8238,1,0,0:0:0
264,136,8324,2,0,B|248:228,1,90
168,268,8667,1,0,0:0:0
304,360,8838,2,0,B|336:180,1,180
256,40,9353,2,0,B|168:80|80:40,1,180
28,136,9867,1,0,0:0:0
36,244,10038,6,0,B|44:344,1,90
112,196,10381,1,0,0:0:0
204,332,10553,1,0,0:0:0
260,256,10724,6,0,B|164:256,1,90,4|0,0:0|0:0,0:0:0
324,200,11066,1,0,0:0:0
412,336,11238,1,0,0:0:0
412,336,11409,2,0,B|312:336,1,90
260,256,11752,5,0,0:0:0
200,168,11924,2,0,B|248:76|344:64,1,180
260,256,12438,2,0,B|260:300|240:352,1,90
156,280,12781,2,0,B|128:320|88:340,2,90
104,124,13295,6,0,B|88:168|104:216,1,90
260,256,13638,1,0,0:0:0
256,120,13809,1,0,0:0:0
180,232,13981,1,0,0:0:0
308,188,14152,1,0,0:0:0
180,152,14324,1,4,0:0:0
152,44,14838,5,4,0:0:0
88,192,15352,1,2,0:0:0
164,268,15524,2,0,B|208:288|252:284,1,90,2|0,0:0|0:0,0:0:0
332,212,15866,1,8,0:0:0
349,370,16038,2,0,B|400:296,1,90,2|0,0:0|0:0,0:0:0
332,212,16381,2,0,B|382:137,1,90,2|8,0:0|0:0,0:0:0
312,56,16724,2,0,B|216:40|148:108,1,180,2|2,0:0|0:0,0:0:0
216,280,17238,2,0,B|232:240|216:192,1,90,10|0,0:0|0:0,0:0:0
108,212,17581,1,6,0:0:0
40,128,17752,1,0,0:0:0
148,108,17924,1,8,0:0:0
216,192,18095,5,2,0:0:0
312,244,18266,2,0,B|391:286,1,90,2|0,0:0|0:0,0:0:0
308,136,18609,1,8,0:0:0
212,84,18781,2,0,B|116:32,1,90,2|0,0:0|0:0,0:0:0
228,300,19124,2,0,B|324:352,1,90,2|8,0:0|0:0,0:0:0
512,168,19466,2,0,B|504:272|404:296,1,180,2|2,0:0|0:0,0:0:0
312,244,19981,1,10,0:0:0
308,136,20152,2,0,B|356:136|389:169,1,90,0|6,0:0|0:0,0:0:0
208,192,20495,1,0,0:0:0
212,84,20666,1,8,0:0:0
304,28,20838,5,2,0:0:0
400,80,21009,2,0,B|474:130,1,90,2|0,0:0|0:0,0:0:0
312,244,21352,1,8,0:0:0
208,192,21524,2,0,B|133:141,1,90,2|0,0:0|0:0,0:0:0
137,33,21866,2,0,B|212:84,1,90,2|8,0:0|0:0,0:0:0
220,224,22209,2,0,B|72:120,1,180,2|2,0:0|0:0,0:0:0
280,340,22724,6,0,B|328:344|384:320,1,90,10|0,0:0|0:0,0:0:0
408,224,23066,2,0,B|400:148|328:112,1,135,4|0,0:0|0:0,0:0:0
312,108,23409,1,8,0:0:0
88,284,23581,2,0,B|157:315|224:270,1,135,4|0,0:0|0:0,0:0:0
236,258,23924,1,0,0:0:0
180,40,24095,2,0,B|240:160,1,135,4|0,0:0|0:0,0:0:0
252,184,24438,1,8,0:0:0
384,252,24609,2,0,B|324:132,1,135,4|0,0:0|0:0,0:0:0
312,108,24952,1,4,0:0:0
160,272,25124,1,4,0:0:0
160,272,25638,6,0,B|140:316|96:340,1,90,2|0,0:0|0:0,0:0:0
112,204,25981,2,0,B|168:128|272:128,1,180,2|2,0:0|0:0,0:0:0
356,192,26495,1,0,0:0:0
256,236,26666,2,0,B|256:284|276:324,1,90,2|8,0:0|0:0,0:0:0
376,280,27009,2,0,B|404:316|448:336,1,90,2|0,0:0|0:0,0:0:0
356,192,27352,1,2,0:0:0
456,228,27524,2,0,B|468:180|448:140,1,90,10|0,0:0|0:0,0:0:0
296,156,27866,6,0,B|264:192|256:236|256:236|248:192|216:156,1,180,6|8,0:0|0:0,0:0:0
84,252,28381,1,2,0:0:0
88,88,28552,1,2,0:0:0
168,228,28724,2,0,B|176:276|148:312,1,90,0|8,0:0|0:0,0:0:0
112,172,29066,6,0,B|172:100|272:92,1,180,2|2,0:0|0:0,0:0:0
344,140,29581,1,8,0:0:0
256,300,29752,1,2,0:0:0
256,300,30095,1,2,0:0:0
348,240,30266,2,0,B|396:224|444:240,1,90,10|0,0:0|0:0,0:0:0
256,300,30609,6,0,B|164:340|80:300,1,180,6|8,0:0|0:0,0:0:0
80,192,31124,1,2,0:0:0
80,192,31295,1,2,0:0:0
152,112,31466,2,0,B|188:80|240:64,1,90,0|8,0:0|0:0,0:0:0
392,144,31809,6,0,B|356:176|304:192,1,90,2|0,0:0|0:0,0:0:0
180,308,32152,2,0,B|176:264|180:216,1,90,2|8,0:0|0:0,0:0:0
312,40,32495,2,0,B|324:124|312:228,1,180,2|2,0:0|0:0,0:0:0
79,164,33009,2,0,B|112:128|152:112,1,90,10|0,0:0|0:0,0:0:0
392,144,33352,6,0,B|324:200|232:244,1,180,6|10,0:0|0:0,0:0:0
132,252,33866,1,0,0:0:0
216,324,34038,1,0,0:0:0
188,164,34209,2,0,B|178:118|188:76,1,90,2|8,0:0|0:0,0:0:0
312,180,34552,6,0,B|304:272|208:328,1,180,6|0,0:0|0:0,0:0:0
216,324,34981,1,0,0:0:0
216,324,35066,1,10,0:0:0
132,252,35238,2,0,B|68:184,1,90,6|0,0:0|0:0,0:0:0
0,104,35581,1,2,0:0:0
204,84,35752,1,12,0:0:0
440,212,36094,1,0,0:0:0
348,152,36266,5,0,0:0:0
348,152,36351,1,0,0:0:0
348,152,36437,2,0,B|404:100|484:112,2,135.000005149842,0|0|4,0:0|0:0|0:0,0:0:0
244,276,37466,1,0,0:0:0
180,328,37637,1,0,0:0:0
244,276,37809,2,0,B|216:120,1,135.000005149842,8|0,0:0|0:0,0:0:0
352,48,38494,1,4,0:0:0
368,128,38666,2,0,B|380:196,1,67.5000025749208
408,352,39180,6,0,B|352:376|276:382,1,135.000005149842,8|0,0:0|0:0,0:0:0
212,332,39694,1,0,0:0:0
352,292,39866,2,0,B|280:288|208:248,1,135.000005149842,4|0,0:0|0:0,0:0:0
144,268,40380,1,0,0:0:0
168,196,40551,2,0,B|176:112,1,67.5000025749208,8|0,0:0|0:0,0:0:0
336,136,41066,5,0,0:0:0
324,216,41237,2,0,B|404:216|468:160,1,135.000005149842,4|0,0:0|0:0,0:0:0
256,168,41751,1,0,0:0:0
308,320,42094,1,0,0:0:0
144,324,42437,2,0,B|96:272,1,67.5000025749208,4|0,0:0|0:0,0:0:0
94,158,42780,2,0,B|139:207,1,67.5000025749208
200,264,43123,2,0,B|276:252|328:212,1,135.000005149842
396,88,43637,1,0,0:0:0
396,88,43723,1,0,0:0:0
396,88,43809,1,0,0:0:0
396,88,43894,1,0,0:0:0
396,88,43980,6,0,B|432:116|448:160,1,90,4|8,0:0|0:0,0:0:0
304,280,44323,2,0,B|268:252|252:208,1,90,0|8,0:0|0:0,0:0:0
284,80,44666,6,0,B|320:108|336:152,1,90,0|8,0:0|0:0,0:0:0
192,272,45009,2,0,B|156:244|140:200,1,90,0|8,0:0|0:0,0:0:0
120,112,45351,5,0,0:0:0
120,112,45523,1,8,0:0:0
256,312,45866,1,8,0:0:0
256,72,46209,1,8,0:0:0
256,72,46551,5,6,0:0:0
148,192,46723,1,0,0:0:0
308,164,46894,1,0,0:0:0
160,98,47066,1,8,0:0:0
241,239,47237,1,2,0:0:0
241,239,47323,1,0,0:0:0
241,238,47409,2,0,B|312:284|408:304,1,180,0|8,0:0|0:0,0:0:0
428,124,47923,6,0,B|420:80|424:32,1,90,2|0,0:0|0:0,0:0:0
384,212,48266,1,2,0:0:0
336,84,48437,1,8,0:0:0
336,84,48523,1,0,0:0:0
336,84,48609,2,0,B|248:56|160:100,1,180,2|2,0:0|0:0,0:0:0
124,200,49123,1,8,0:0:0
32,144,49294,5,2,0:0:0
36,252,49466,1,0,0:0:0
132,300,49637,1,2,0:0:0
224,244,49809,1,8,0:0:0
224,244,49894,1,0,0:0:0
224,244,49980,2,0,B|300:188|400:220,1,180,2|2,0:0|0:0,0:0:0
472,140,50494,1,8,0:0:0
416,48,50666,1,0,0:0:0
328,112,50837,6,0,B|288:124|240:112,1,90,2|0,0:0|0:0,0:0:0
140,24,51180,2,0,B|180:12|228:24,1,90,10|2,0:0|0:0,0:0:0
188,192,51523,2,0,B|156:160|152:108,1,90,0|2,0:0|0:0,0:0:0
272,172,51866,2,0,B|276:220|240:260,1,90,8|2,0:0|0:0,0:0:0
136,276,52209,1,4,0:0:0
212,352,52380,1,2,0:0:0
320,336,52551,1,8,0:0:0
320,336,52637,1,0,0:0:0
320,336,52723,6,0,B|392:152,1,180,2|2,0:0|0:0,0:0:0
260,40,53237,1,8,0:0:0
260,40,53409,2,0,B|220:140,1,90,2|0,0:0|0:0,0:0:0
232,304,53751,2,0,B|272:204,1,90,2|8,0:0|0:0,0:0:0
132,100,54094,2,0,B|56:160|60:272,1,180,2|2,0:0|0:0,0:0:0
224,124,54609,2,0,B|228:76|200:36,1,90,8|2,0:0|0:0,0:0:0
164,192,54951,6,0,B|224:268|332:248,1,180,0|10,0:0|0:0,0:0:0
400,172,55466,1,0,0:0:0
444,328,55637,2,0,B|468:240,1,90,2|2,0:0|0:0,0:0:0
360,96,55980,1,8,0:0:0
360,96,56066,1,0,0:0:0
360,96,56151,6,0,B|276:132|176:96,1,180,2|2,0:0|0:0,0:0:0
96,36,56666,1,8,0:0:0
76,144,56837,2,0,B|40:320,1,180,2|2,0:0|0:0,0:0:0
132,376,57351,2,0,B|180:388|224:368,1,90,10|0,0:0|0:0,0:0:0
168,272,57694,1,6,0:0:0
168,272,58037,5,8,0:0:0
168,272,58209,1,2,0:0:0
276,284,58380,2,0,B|384:288|444:208,1,180,2|8,0:0|0:0,0:0:0
348,152,58894,2,0,B|376:112|372:64,1,90,2|2,0:0|0:0,0:0:0
192,76,59237,2,0,B|164:116|168:164,1,90,0|8,0:0|0:0,0:0:0
168,272,59580,1,2,0:0:0
276,284,59751,2,0,B|384:288|444:208,1,180,2|8,0:0|0:0,0:0:0
412,64,60266,5,2,0:0:0
304,76,60437,2,0,B|312:128|349:153,1,90,2|0,0:0|0:0,0:0:0
416,348,60780,1,8,0:0:0
488,268,60951,2,0,B|452:236|404:244,1,90,2|2,0:0|0:0,0:0:0
276,284,61294,1,0,0:0:0
168,204,61466,1,8,0:0:0
276,284,61637,5,0,0:0:0
340,144,61809,2,0,B|336:100|324:48,1,90,2|0,0:0|0:0,0:0:0
152,116,62151,2,0,B|156:160|168:212,1,90,10|0,0:0|0:0,0:0:0
450,224,62494,2,0,B|446:180|435:135,1,90,2|0,0:0|0:0,0:0:0
261,195,62837,2,0,B|265:239|276:284,1,90,10|0,0:0|0:0,0:0:0
384,288,63180,5,2,0:0:0
472,352,63351,1,0,0:0:0
320,376,63523,2,0,B|276:388|208:368,1,90,8|2,0:0|0:0,0:0:0
176,328,63780,1,0,0:0:0
176,328,63866,2,0,B|112:252,1,90,2|0,0:0|0:0,0:0:0
56,168,64209,1,8,0:0:0
130,37,64380,5,0,0:0:0
192,128,64551,2,0,B|249:196,1,90,2|0,0:0|0:0,0:0:0
324,276,64894,2,0,B|372:256|400:216,1,90,2|0,0:0|0:0,0:0:0
448,128,65237,1,2,0:0:0
372,40,65409,1,0,0:0:0
372,40,65494,1,0,0:0:0
372,40,65580,2,0,B|324:60|296:100,1,90,8|0,0:0|0:0,0:0:0
324,276,65923,1,4,0:0:0
87,227,73466,5,4,0:0:0
152,88,73637,1,0,0:0:0
108,217,73980,1,0,0:0:0
172,97,74152,1,0,0:0:0
128,208,74494,1,0,0:0:0
193,107,74666,1,0,0:0:0
149,198,75009,1,0,0:0:0
213,116,75180,1,0,0:0:0
169,189,75523,1,0,0:0:0
234,126,75694,1,0,0:0:0
256,216,76037,5,0,0:0:0
360,240,76380,2,0,B|448:184,2,90,0|0|0,0:0|0:0|0:0,0:0:0
280,312,76894,5,4,0:0:0
272,104,77065,1,0,0:0:0
264,304,77408,1,0,0:0:0
280,120,77579,1,0,0:0:0
248,296,77922,1,0,0:0:0
288,136,78094,1,0,0:0:0
232,288,78436,1,0,0:0:0
296,152,78608,1,0,0:0:0
216,280,78951,1,0,0:0:0
296,152,79122,1,0,0:0:0
200,272,79465,1,0,0:0:0
304,168,79636,1,0,0:0:0
184,264,79979,1,0,0:0:0
312,184,80151,1,0,0:0:0
320,288,80322,6,0,B|392:296,3,45
384,248,80665,2,0,B|456:256,3,45,0|0|0|0,0:0|0:0|0:0|0:0,0:0:0
472,256,81008,1,4,0:0:0
340,104,81522,6,0,B|372:124|380:160,1,67.5000025749208
260,140,81865,2,0,B|228:120|220:84,1,67.5000025749208
316,216,82208,2,0,B|324:252|316:284,1,67.5000025749208
192,336,82551,2,0,B|184:300|192:268,1,67.5000025749208
168,168,82894,6,0,B|100:152|32:168,1,135.000005149842
128,252,83408,2,0,B|156:268|196:268,1,67.5000025749208
256,188,83751,6,0,B|256:88,1,90,0|0,0:0|0:0,0:0:0
340,40,84265,6,0,B|372:52|396:76,1,67.5000025749208
392,176,84608,2,0,B|360:164|336:140,1,67.5000025749208
490,149,84951,2,0,B|498:185|482:221,1,67.5000025749208
404,276,85294,1,0,0:0:0
316,228,85465,1,0,0:0:0
316,228,85551,1,0,0:0:0
316,228,85636,2,0,B|300:260|304:300,1,67.5000025749208
256,168,85979,2,0,B|248:128|224:104,2,67.5000025749208
196,236,86494,6,0,B|100:236,1,90,0|0,0:0|0:0,0:0:0
96,136,87008,6,0,B|100:96|84:68,1,67.5000025749208
20,116,87351,2,0,B|16:156|32:184,1,67.5000025749208,0|0,0:0|0:0,0:0:0
96,136,87694,2,0,B|228:88,1,135.000005149842
416,248,88379,2,0,B|284:296,1,135.000005149842
200,240,88894,2,0,B|272:216,1,67.5000025749208
332,160,89236,5,4,0:0:0
300,76,89408,1,0,0:0:0
212,64,89579,1,0,0:0:0
332,160,89751,5,4,0:0:0
256,84,89922,1,0,0:0:0
152,116,90094,1,0,0:0:0
116,220,90265,2,0,B|132:264|116:312,1,90,4|0,0:0|0:0,0:0:0
117,308,90608,1,0,0:0:0
36,236,90779,2,0,B|16:136|80:64,1,180,4|4,0:0|0:0,0:0:0
216,28,91294,1,4,0:0:0
184,264,91808,6,0,B|220:252|244:200,1,67.5000025749208,0|0,0:0|0:0,0:0:0
312,88,92151,1,0,0:0:0
312,88,92494,2,0,B|352:136|360:216,1,135.000005149842,0|0,0:0|0:0,0:0:0
232,112,93179,1,0,0:0:0
344,296,93522,1,0,0:0:0
344,296,93694,1,0,0:0:0
184,268,94036,2,0,B|104:220,1,67.5000025749208,4|0,0:0|0:0,0:0:0
176,80,94551,6,0,B|256:128,1,67.5000025749208
304,160,94894,1,0,0:0:0
304,160,95236,2,0,B|384:176|456:152,1,135.000005149842
504,304,95922,2,0,B|424:288|352:312,1,135.000005149842,0|0,0:0|0:0,0:0:0
304,360,96436,1,0,0:0:0
360,224,96608,1,0,0:0:0
360,224,96694,1,0,0:0:0
360,224,96779,1,4,0:0:0
200,256,97122,1,0,0:0:0
176,176,97294,6,0,B|216:104,1,67.5000025749208
248,48,97636,1,0,0:0:0
408,32,97979,2,0,B|336:152,1,135.000005149842
304,224,98494,1,0,0:0:0
312,304,98665,2,0,B|240:336,1,67.5000025749208,0|0,0:0|0:0,0:0:0
184,284,99008,2,0,B|112:316,1,67.5000025749208,0|0,0:0|0:0,0:0:0
136,128,99522,5,4,0:0:0
376,256,100208,1,0,0:0:0
304,224,100379,2,0,B|288:152|282:90,1,135.000005149842
284,92,101065,1,0,0:0:0
380,132,101236,2,0,B|436:95,1,67.5000025749208
432,220,101579,2,0,B|364:264,1,67.5000025749208
375,376,101922,2,0,B|432:340,1,67.5000025749208
256,220,102265,6,0,B|344:184|432:220,1,180,6|8,0:0|0:0,0:0:0
340,324,102779,1,2,0:0:0
340,324,102951,2,0,B|256:364|160:324,1,180,2|8,0:0|0:0,0:0:0
120,228,103465,1,0,0:0:0
188,144,103636,2,0,B|184:100|164:56,1,90,2|0,0:0|0:0,0:0:0
60,40,103979,2,0,B|64:84|84:128,1,90,8|2,0:0|0:0,0:0:0
120,228,104322,2,0,B|216:244|296:200,1,180,2|8,0:0|0:0,0:0:0
324,96,104836,5,0,0:0:0
294,200,105008,2,0,B|284:248|288:292,1,90,6|0,0:0|0:0,0:0:0
392,260,105351,2,0,B|402:212|398:168,1,90,8|2,0:0|0:0,0:0:0
324,96,105694,2,0,B|248:44|148:64,1,180,2|8,0:0|0:0,0:0:0
84,148,106208,1,0,0:0:0
84,148,106294,1,0,0:0:0
84,148,106379,2,0,B|124:172|176:164,1,90,2|0,0:0|0:0,0:0:0
276,196,106722,2,0,B|244:280,1,90,8|2,0:0|0:0,0:0:0
376,156,107065,2,0,B|308:328,1,180,2|8,0:0|0:0,0:0:0
212,368,107579,5,0,0:0:0
108,344,107751,2,0,B|76:312|32:296,1,90,6|0,0:0|0:0,0:0:0
116,192,108094,2,0,B|20:192,1,90,8|2,0:0|0:0,0:0:0
32,88,108436,2,0,B|76:72|108:40,1,90,2|0,0:0|0:0,0:0:0
256,104,108779,5,8,0:0:0
116,192,108951,1,0,0:0:0
192,336,109122,2,0,B|192:248,1,90,6|0,0:0|0:0,0:0:0
256,104,109465,2,0,B|256:192,1,90,8|2,0:0|0:0,0:0:0
340,56,109808,2,0,B|340:236,1,180,2|8,0:0|0:0,0:0:0
284,328,110322,1,0,0:0:0
340,236,110494,6,0,B|376:200|420:196,1,90,6|0,0:0|0:0,0:0:0
284,328,110836,1,10,0:0:0
284,328,111008,2,0,B|200:364|108:328,1,180,6|2,0:0|0:0,0:0:0
116,220,111522,1,8,0:0:0
160,120,111694,2,0,B|148:72|112:48,1,90,6|0,0:0|0:0,0:0:0
116,220,112036,1,2,0:0:0
116,220,112208,2,0,B|164:240|216:216,1,90,14|2,0:0|0:0,0:0:0
284,112,112551,2,0,B|284:220,1,90,0|2,0:0|0:0,0:0:0
188,328,112894,1,8,0:0:0
188,328,113065,5,0,0:0:0
296,328,113236,2,0,B|400:316|420:200,1,180,6|10,0:0|0:0,0:0:0
364,120,113751,1,0,0:0:0
224,73,113922,2,0,B|200:136|240:204|299:211,1,180,2|10,0:0|0:0,0:0:0
208,272,114436,2,0,B|92:284,1,90,2|0,0:0|0:0,0:0:0
10,185,114779,2,0,B|100:176,1,90,2|8,0:0|0:0,0:0:0
208,164,115122,1,0,0:0:0
323,115,115294,2,0,B|324:164|308:204,1,90,2|0,0:0|0:0,0:0:0
85,265,115636,2,0,B|84:216|100:176,1,90,10|0,0:0|0:0,0:0:0
240,40,115979,6,0,B|344:8|412:76,1,180,6|10,0:0|0:0,0:0:0
452,176,116494,1,0,0:0:0
508,328,116665,2,0,B|404:360|340:292,1,180,2|10,0:0|0:0,0:0:0
244,244,117179,2,0,B|236:196|256:152,1,90,2|0,0:0|0:0,0:0:0
452,176,117522,2,0,B|460:224|441:264,1,90,2|8,0:0|0:0,0:0:0
340,292,117865,1,2,0:0:0
244,344,118036,2,0,B|200:364|152:368,1,90,2|0,0:0|0:0,0:0:0
136,356,118294,1,0,0:0:0
116,340,118379,2,0,B|60:252,1,90,10|0,0:0|0:0,0:0:0
168,252,118722,6,0,B|72:100,1,180,6|10,0:0|0:0,0:0:0
292,136,119236,2,0,B|260:168|208:176,1,90,6|0,0:0|0:0,0:0:0
72,100,119579,2,0,B|104:68|156:60,1,90,2|8,0:0|0:0,0:0:0
260,124,119922,6,0,B|228:156|176:164,1,90,6|0,0:0|0:0,0:0:0
36,100,120265,2,0,B|68:68|115:60,1,90,2|10,0:0|0:0,0:0:0
220,32,120608,1,6,0:0:0
344,120,120779,1,0,0:0:0
244,236,120951,1,6,0:0:0
244,236,121036,1,0,0:0:0
244,236,121122,2,0,B|292:236|332:260,1,90,10|0,0:0|0:0,0:0:0
256,348,121465,6,0,B|208:348|168:324,1,90,6|0,0:0|0:0,0:0:0
136,220,121808,1,8,0:0:0
52,288,121979,1,0,0:0:0
52,288,122065,1,0,0:0:0
52,288,122151,2,0,B|-8:212|20:108,1,180,4|8,0:0|0:0,0:0:0
116,76,122665,1,0,0:0:0
116,76,122751,1,0,0:0:0
116,76,122836,2,0,B|160:100|212:92,1,90,4|0,0:0|0:0,0:0:0
292,32,123179,1,8,0:0:0
360,200,123351,2,0,B|392:160|392:112,1,90,0|4,0:0|0:0,0:0:0
284,128,123694,1,0,0:0:0
256,232,123865,2,0,B|272:280|320:296,1,90,8|0,0:0|0:0,0:0:0
192,160,124208,6,0,B|128:228|140:332,1,180,4|8,0:0|0:0,0:0:0
256,232,124722,1,0,0:0:0
284,128,124894,2,0,B|264:84|220:68,1,90
256,232,125236,2,0,B|276:276|320:292,1,90,8|0,0:0|0:0,0:0:0
420,248,125579,2,0,B|456:156|420:64,2,180,4|8|0,0:0|0:0|0:0,0:0:0
328,348,126436,1,0,0:0:0
344,216,126608,1,8,0:0:0
416,328,126779,1,0,0:0:0
292,276,126951,6,0,B|204:240|116:272,1,180,4|8,0:0|0:0,0:0:0
44,352,127465,1,0,0:0:0
116,271,127636,2,0,B|112:224|92:184,1,90
196,156,127979,2,0,B|196:60,1,90,8|0,0:0|0:0,0:0:0
296,20,128322,2,0,B|296:208,1,180,4|8,0:0|0:0,0:0:0
240,296,128836,1,0,0:0:0
196,156,129008,2,0,B|168:116|124:100,1,90
240,296,129351,2,0,B|268:336|312:352,1,90,8|0,0:0|0:0,0:0:0
392,280,129694,6,0,B|432:192|392:104,2,180,4|8|0,0:0|0:0|0:0,0:0:0
296,232,130551,1,0,0:0:0
188,220,130722,2,0,B|152:252|148:300,1,90,8|0,0:0|0:0,0:0:0
84,212,131065,2,0,B|112:124|84:32,1,180,4|8,0:0|0:0,0:0:0
192,40,131579,2,0,B|216:84|264:96,1,90
360,56,131922,1,0,0:0:0
328,160,132094,2,0,B|328:256,1,90,8|0,0:0|0:0,0:0:0
256,332,132436,6,0,B|168:360|72:332,1,180,4|8,0:0|0:0,0:0:0
256,52,133122,2,0,B|344:24|440:52,1,180,4|8,0:0|0:0,0:0:0
433,50,133636,1,0,0:0:0
344,152,133808,2,0,B|332:196|300:236,1,90,4|0,0:0|0:0,0:0:0
168,236,134151,2,0,B|180:192|212:152,1,90,8|0,0:0|0:0,0:0:0
228,300,134494,1,0,0:0:0
108,164,134665,1,0,0:0:0
108,164,135008,5,0,0:0:0
224,80,135179,1,0,0:0:0
232,224,135351,1,0,0:0:0
348,140,135522,1,0,0:0:0
340,284,135694,1,0,0:0:0
340,284,136379,5,0,0:0:0
348,140,136551,1,0,0:0:0
232,224,136722,1,0,0:0:0
224,80,136894,1,0,0:0:0
108,164,137065,1,0,0:0:0
80,296,137751,5,0,0:0:0
180,332,137922,2,0,B|268:332|360:268,1,180,0|8,0:0|0:0,0:0:0
376,172,138436,1,0,0:0:0
388,64,138608,2,0,B|440:60|480:84,1,90
376,172,138951,1,8,0:0:0
288,112,139122,1,0,0:0:0
276,220,139294,2,0,B|180:248|96:192,1,180,0|8,0:0|0:0,0:0:0
40,36,139808,2,0,B|136:8|212:59,1,180,0|0,0:0|0:0,0:0:0
276,220,140322,1,8,0:0:0
400,324,140494,5,0,0:0:0
400,324,140579,1,0,0:0:0
400,324,140665,2,0,B|488:292|516:172,1,180,4|8,0:0|0:0,0:0:0
432,120,141179,2,0,B|416:72|376:40,1,90
228,92,141522,1,0,0:0:0
96,184,141694,1,8,0:0:0
228,92,141865,6,0,B|244:140|284:172,1,90,0|4,0:0|0:0,0:0:0
372,220,142208,1,0,0:0:0
432,120,142379,2,0,B|416:72|376:40,1,90,8|0,0:0|0:0,0:0:0
466,294,142722,2,0,B|432:324|384:328,1,90,0|0,0:0|0:0,0:0:0
288,280,143065,2,0,B|240:284|205:313,1,90,8|0,0:0|0:0,0:0:0
104,280,143408,5,4,0:0:0
20,164,143579,1,8,0:0:0
184,204,143751,5,0,0:0:0
148,64,143922,1,8,0:0:0
292,192,144094,5,0,0:0:0
300,48,144265,1,8,0:0:0
392,232,144436,5,0,0:0:0
444,100,144608,1,8,0:0:0
256,308,144779,5,0,0:0:0
256,308,144951,1,8,0:0:0
188,180,145294,1,8,0:0:0
336,76,145636,1,8,0:0:0
116,228,147522,5,4,0:0:0
400,88,148894,1,4,0:0:0
228,336,150265,1,4,0:0:0
284,48,151636,1,4,0:0:0
360,248,153008,1,4,0:0:0
128,224,154379,1,4,0:0:0
184,72,155065,1,4,0:0:0
336,120,155751,1,4,0:0:0
180,352,156951,6,0,B|244:360|340:320,1,135.000005149842
356,264,157465,1,0,0:0:0
412,328,157636,1,0,0:0:0
412,328,157722,1,0,0:0:0
412,328,157808,1,0,0:0:0
448,212,157979,1,0,0:0:0
332,187,158151,2,0,B|300:200|284:232,1,67.5000025749208
164,92,158494,6,0,B|256:124|344:100,1,180,6|8,0:0|0:0,0:0:0
436,40,159008,1,2,0:0:0
341,100,159179,2,0,B|328:148|332:192,1,90,2|0,0:0|0:0,0:0:0
424,248,159522,2,0,B|437:200|433:156,1,90,8|0,0:0|0:0,0:0:0
328,284,159865,2,0,B|236:304|148:264,1,180,2|8,0:0|0:0,0:0:0
108,168,160379,1,2,0:0:0
168,76,160551,2,0,B|204:44|252:32,1,90,2|0,0:0|0:0,0:0:0
108,168,160894,1,8,0:0:0
208,204,161065,1,0,0:0:0
280,120,161236,6,0,B|380:136|408:232,1,180,2|8,0:0|0:0,0:0:0
304,268,161751,1,2,0:0:0
204,312,161922,2,0,B|168:336|136:372,1,90,2|0,0:0|0:0,0:0:0
56,300,162265,2,0,B|56:200,1,90,8|0,0:0|0:0,0:0:0
148,76,162608,2,0,B|188:164|148:256,1,180,2|10,0:0|0:0,0:0:0
56,300,163122,1,0,0:0:0
150,250,163294,2,0,B|192:236|248:240,1,90,2|0,0:0|0:0,0:0:0
300,148,163636,2,0,B|340:176|356:216,1,90,10|0,0:0|0:0,0:0:0
304,312,163979,5,2,0:0:0
400,364,164151,1,0,0:0:0
476,288,164322,1,8,0:0:0
444,184,164494,2,0,B|424:144|424:96,2,90,2|2|0,0:0|0:0|0:0,0:0:0
384,272,165008,1,8,0:0:0
296,212,165179,1,0,0:0:0
296,212,165351,6,0,B|252:224|216:252,1,90,2|0,0:0|0:0,0:0:0
212,360,165694,2,0,B|256:348|292:320,1,90,8|0,0:0|0:0,0:0:0
296,212,166036,1,2,0:0:0
232,124,166208,1,0,0:0:0
256,20,166379,1,8,0:0:0
256,20,166465,1,0,0:0:0
256,20,166551,1,0,0:0:0
256,20,166636,1,0,0:0:0
256,20,166722,6,0,B|312:40|344:80,1,107.999996704102,4|0,0:0|0:0,0:0:0
396,176,167065,1,8,0:0:0
123,311,167236,2,0,B|176:196|294:210,1,215.999993408203,4|0,0:0|0:0,0:0:0
324,316,167751,1,8,0:0:0
432,336,167922,2,0,B|476:304|480:244,1,107.999996704102,0|4,0:0|0:0,0:0:0
444,84,168265,2,0,B|400:116|395:176,1,107.999996704102,0|8,0:0|0:0,0:0:0
324,316,168608,2,0,B|200:344|128:244,1,215.999993408203,4|0,0:0|0:0,0:0:0
104,124,169122,1,8,0:0:0
248,104,169294,6,0,B|284:56|344:52,1,107.999996704102,0|4,0:0|0:0,0:0:0
444,84,169636,1,0,0:0:0
512,232,169808,2,0,B|476:280|416:284,1,107.999996704102,8|4,0:0|0:0,0:0:0
356,368,170151,1,0,0:0:0
332,356,170236,1,0,0:0:0
308,344,170322,2,0,B|262:239,1,107.999996704102,0|8,0:0|0:0,0:0:0
296,68,170665,6,0,B|339:167,1,107.999996704102,0|4,0:0|0:0,0:0:0
380,268,171008,1,0,0:0:0
448,184,171179,1,8,0:0:0
224,144,171351,2,0,B|160:152,1,53.9999983520508,4|0,0:0|0:0,0:0:0
144,156,171522,2,0,B|108:196|92:256,1,107.999996704102,0|0,0:0|0:0,0:0:0
316,356,171865,5,8,0:0:0
216,320,172036,1,0,0:0:0
316,356,172208,2,0,B|428:328|464:204,1,215.999993408203,4|8,0:0|0:0,0:0:0
384,136,172722,1,4,0:0:0
440,44,172894,1,0,0:0:0
304,212,173065,6,0,B|256:240|200:240,1,107.999996704102,0|8,0:0|0:0,0:0:0
128,96,173408,2,0,B|176:68|232:68,1,107.999996704102,4|0,0:0|0:0,0:0:0
336,228,173751,6,0,B|288:256|232:256,1,107.999996704102,0|8,0:0|0:0,0:0:0
100,76,174094,2,0,B|148:48|204:48,1,107.999996704102,4|0,0:0|0:0,0:0:0
312,48,174436,1,0,0:0:0
412,88,174608,1,8,0:0:0
468,260,174779,6,0,B|400:356|268:336,1,215.999993408203,4|0,0:0|0:0,0:0:0
120,296,175294,1,8,0:0:0
144,136,175465,2,0,B|212:40|344:60,1,215.999993408203,4|0,0:0|0:0,0:0:0
396,208,175979,1,8,0:0:0
396,208,176151,2,0,B|360:248|300:252,1,107.999996704102,4|0,0:0|0:0,0:0:0
196,224,176494,5,0,0:0:0
276,148,176665,1,8,0:0:0
300,252,176836,1,0,0:0:0
164,132,177008,1,4,0:0:0
300,252,177179,1,0,0:0:0
164,132,177351,1,12,0:0:0
164,132,177694,6,0,B|160:188|122:229,1,107.999996704102,12|0,0:0|0:0,0:0:0
60,104,178036,1,8,0:0:0
148,40,178208,2,0,B|256:4|360:40,1,215.999993408203,0|0,0:0|0:0,0:0:0
428,124,178722,1,8,0:0:0
344,264,178894,2,0,B|324:208|344:156,1,107.999996704102,0|8,0:0|0:0,0:0:0
436,212,179236,1,0,0:0:0
344,264,179408,2,8,B|236:316,1,107.999996704102,8|0,0:0|0:0,0:0:0
152,256,179751,2,0,B|260:204,1,107.999996704102,8|0,0:0|0:0,0:0:0
276,104,180094,2,0,B|168:156,1,107.999996704102,8|0,0:0|0:0,0:0:0
72,132,180436,6,0,B|72:72|36:32,2,107.999996704102,12|0|8,0:0|0:0|0:0,0:0:0
48,236,180951,2,0,B|108:336|236:320,1,215.999993408203,0|0,0:0|0:0,0:0:0
308,244,181465,1,8,0:0:0
380,164,181636,2,0,B|432:164,5,53.9999983520508,0|0|8|0|0|0,0:0|0:0|0:0|0:0|0:0|0:0,0:0:0
352,156,182151,2,0,B|320:108|308:48,1,107.999996704102,8|0,0:0|0:0,0:0:0
204,44,182494,2,0,B|148:56|116:108|112:180|140:224,1,215.999993408203,8|8,0:0|0:0,0:0:0
224,288,183008,1,0,0:0:0
384,256,183179,6,0,B|340:216|276:220,1,107.999996704102,8|0,0:0|0:0,0:0:0
124,252,183522,2,0,B|168:292|232:288,1,107.999996704102,8|0,0:0|0:0,0:0:0
260,128,183865,2,0,B|212:152|196:212,1,107.999996704102,8|0,0:0|0:0,0:0:0
320,340,184208,2,0,B|368:316|384:256,1,107.999996704102,8|0,0:0|0:0,0:0:0
260,128,184551,5,2,0:0:0
260,128,184894,1,2,0:0:0
260,216,185065,2,0,B|260:320,2,90
164,216,185579,2,0,B|120:228|76:216,1,90,2|0,0:0|0:0,0:0:0
260,128,185922,6,0,B|304:116|348:128,1,90,4|0,0:0|0:0,0:0:0
244,216,186265,1,0,0:0:0
244,216,186436,2,0,B|196:200|176:156,2,90
380,224,186951,1,0,0:0:0
272,304,187122,2,0,B|204:360,1,90
380,224,187465,1,0,0:0:0
272,304,187636,2,0,B|224:320|172:304,1,90
120,220,187979,1,0,0:0:0
120,220,188151,2,0,B|84:252|76:304,1,90
196,236,188494,2,0,B|232:144|196:56,1,180
84,132,189008,2,0,B|40:152|24:204,1,90
196,236,189351,5,4,0:0:0
288,296,189522,1,0,0:0:0
380,240,189693,1,0,0:0:0
360,132,189865,2,0,B|352:88|360:40,2,90
256,108,190379,2,0,B|256:152|272:204,2,90
168,44,190893,2,0,B|152:140|180:228,1,180
260,296,191408,1,0,0:0:0
364,276,191579,1,0,0:0:0
464,316,191751,1,0,0:0:0
364,356,191922,2,0,B|308:284|324:176,1,180
296,80,192436,5,0,0:0:0
200,32,192608,1,0,0:0:0
136,116,192779,1,0,0:0:0
232,168,192951,5,0,0:0:0
392,192,193122,1,0,0:0:0
292,320,193293,1,0,0:0:0
232,168,193465,6,0,B|224:120|240:68,2,90,4|0|0,0:0|0:0|0:0,0:0:0
148,204,193979,2,0,B|164:248|204:276,2,90
64,172,194493,2,0,B|72:124|104:88,2,90
80,260,195008,2,0,B|120:348|220:376,1,180
292,328,195522,2,0,B|312:288|352:256,2,90
384,340,196036,5,0,0:0:0
472,276,196208,1,0,0:0:0
472,168,196379,1,0,0:0:0
376,116,196551,2,0,B|332:136|300:180,1,90
292,328,196893,5,4,0:0:0
208,360,197065,1,0,0:0:0
140,300,197236,1,0,0:0:0
152,212,197408,2,0,B|120:160|80:140,1,90
140,300,197751,1,0,0:0:0
224,264,197922,2,0,B|260:240|280:192,2,90
152,212,198436,2,0,B|188:128|288:96,1,180
364,140,198951,2,0,B|392:104|392:52,2,90
316,216,199465,6,0,B|384:288|492:260,1,180
364,140,199979,1,0,0:0:0
276,128,200151,1,0,0:0:0
224,200,200322,5,2,0:0:0
201,228,200408,1,0,0:0:0
165,234,200493,1,0,0:0:0
132,220,200579,1,0,0:0:0
113,188,200665,1,2,0:0:0
119,152,200751,1,0,0:0:0
141,123,200836,1,0,0:0:0
184,116,200922,1,0,0:0:0
212,136,201008,6,0,B|316:156|404:72,1,202.500007724762,2|0,0:0|0:0,0:0:0
504,248,202036,2,0,B|444:356|312:320,1,202.500007724762,2|0,0:0|0:0,0:0:0
132,312,203065,2,0,B|110:197|215:145,1,202.500007724762,2|0,0:0|0:0,0:0:0
276,268,203922,2,0,B|392:352,1,135.000005149842,2|0,0:0|0:0,0:0:0
384,348,204436,5,2,0:0:0
440,220,204951,1,0,0:0:0
360,52,205465,1,2,0:0:0
304,180,205979,1,0,0:0:0
172,352,206493,1,2,0:0:0
308,320,207008,1,0,0:0:0
340,32,207522,1,2,0:0:0
204,64,208036,1,0,0:0:0
256,196,208551,1,2,0:0:0
256,192,208722,12,2,215922,0:0:0
