osu file format v14

[General]
AudioFilename: Kiss no hitotsude.mp3
AudioLeadIn: 0
PreviewTime: 33603
Countdown: 1
SampleSet: Soft
StackLeniency: 0.7
Mode: 0
LetterboxInBreaks: 1
WidescreenStoryboard: 0

[Editor]
DistanceSpacing: 0.7
BeatDivisor: 4
GridSize: 4
TimelineZoom: 2.5

[Metadata]
Title:Kiss no Hitotsu de (short ver.)
TitleUnicode:キスのひとつで (short ver.)
Artist:sasaki sayaka
ArtistUnicode:佐咲紗花
Creator:chucentry
Version:Serenade
Source:ちいさな彼女の小夜曲
Tags:chucentry Laurier ちいさな彼女の小夜曲 sasaki sayaka Kiss no Hitotsu de
BeatmapID:611847
BeatmapSetID:268739

[Difficulty]
HPDrainRate:7
CircleSize:4
OverallDifficulty:8
ApproachRate:9
SliderMultiplier:1.8
SliderTickRate:1

[Events]
//Background and Video events
0,0,"Serenade.jpg",0,0
//Break Periods
//Storyboard Layer 0 (Background)
//Storyboard Layer 1 (Fail)
//Storyboard Layer 2 (Pass)
//Storyboard Layer 3 (Foreground)
//Storyboard Sound Samples

[TimingPoints]
688,342.857142857143,4,1,0,100,1,0
688,-100,4,2,1,100,0,0
1031,-133.333333333333,4,2,1,35,0,0
21603,-100,4,2,1,70,0,0
27946,-166.666666666667,4,2,1,60,0,0
28460,-166.666666666667,4,2,1,50,0,0
30174,-100,4,2,1,65,0,0
30774,-100,4,2,1,69,0,0
33603,-100,4,2,1,80,0,1
44574,-100,4,2,1,69,0,1
50060,-100,4,2,1,50,0,1
54003,-100,4,2,1,80,0,1
57089,-100,4,2,1,60,0,0
57946,-100,4,2,1,75,0,0
64289,-100,4,2,1,85,0,0
83317,-100,4,2,1,55,0,0
87431,-100,4,2,1,40,0,0
90774,-133.333333333333,4,2,1,60,0,0
94117,-133.333333333333,4,2,1,100,0,0
97460,-100,4,2,1,60,0,0
98060,-100,4,2,1,50,0,0
99431,-100,4,2,1,40,0,0
100803,-100,4,2,1,30,0,0
102174,-100,4,2,1,20,0,0

[Colours]
Combo1 : 255,128,0
Combo2 : 0,255,255
Combo3 : 255,0,0
Combo4 : 128,255,0
Combo5 : 0,156,232

[HitObjects]
132,240,689,5,0,0:0:0:0:
132,240,1374,2,0,L|276:256,1,135.000005149842
180,100,2060,2,0,L|324:116,1,135.000005149842
320,333,2746,1,0,0:0:0:0:
320,332,3431,2,0,L|336:188|336:188,1,135.000005149842
356,36,4116,1,0,0:0:0:0:
356,36,4802,6,0,L|208:24,1,135.000005149842
72,296,5488,1,0,0:0:0:0:
72,296,6174,2,0,L|88:156,1,135.000005149842
228,28,6859,1,0,0:0:0:0:
228,28,7545,2,0,L|380:32,1,135.000005149842
280,184,8230,2,0,L|414:187,1,135.000005149842
414,187,8916,6,0,L|392:341,2,135.000005149842
268,36,10288,1,0,0:0:0:0:
336,164,10973,2,0,L|314:318,1,135.000005149842
120,320,11659,1,4,0:0:0:0:
240,144,12345,5,0,0:0:0:0:
240,144,13030,2,0,L|216:304,1,135.000005149842
344,72,13716,2,0,L|376:228,1,135.000005149842
231,288,14402,2,0,L|203:148,1,135.000005149842
120,104,15088,6,0,L|92:264,1,135.000005149842
204,156,15773,2,0,L|176:316,1,135.000005149842
288,204,16459,2,0,L|260:364,2,135.000005149842,0|0|4,0:0|0:0|0:0,0:0:0:0:
184,300,17830,5,0,0:0:0:0:
392,240,18516,2,0,B|416:184|420:164|404:128|404:128|368:148,1,135.000005149842
340,184,19202,1,0,0:0:0:0:
216,194,19889,1,0,0:0:0:0:
216,196,20402,5,0,0:0:0:0:
120,248,20573,2,0,P|156:300|200:320,1,101.250003862381
224,320,20916,2,0,P|296:268|308:216,1,135.000005149842
307,23,21431,1,0,0:0:0:0:
384,112,21774,5,8,0:0:0:0:
356,115,21859,1,8,0:0:0:0:
329,119,21945,1,8,0:0:0:0:
302,123,22031,1,8,0:0:0:0:
275,127,22116,1,8,0:0:0:0:
248,130,22202,1,8,0:0:0:0:
220,134,22288,1,8,0:0:0:0:
193,138,22374,1,8,0:0:0:0:
166,142,22459,1,8,0:0:0:0:
139,145,22545,1,8,0:0:0:0:
116,148,22630,2,8,P|112:217|149:252,1,90,2|0,0:0|0:0,0:0:0:0:
228,312,22973,5,8,0:0:0:0:
356,272,23145,2,8,L|388:180|388:180,1,90,2|0,0:0|0:0,0:0:0:0:
371,42,23488,1,2,0:0:0:0:
214,74,23659,1,8,0:0:0:0:
214,74,23745,1,0,0:0:0:0:
214,74,23830,2,8,P|122:62|62:126,1,180,2|0,0:0|0:0,0:0:0:0:
136,260,24345,5,8,0:0:0:0:
292,180,24516,1,2,0:0:0:0:
153,133,24688,1,2,0:0:0:0:
296,304,24859,1,2,0:0:0:0:
182,200,25030,1,8,0:0:0:0:
296,304,25202,1,2,0:0:0:0:
296,304,25288,1,2,0:0:0:0:
296,304,25373,2,2,L|320:200,1,90,2|0,0:0|0:0,0:0:0:0:
312,92,25716,5,8,0:0:0:0:
235,263,25888,1,2,0:0:0:0:
384,180,26059,2,8,L|280:180,1,90,2|0,0:0|0:0,0:0:0:0:
204,76,26402,1,8,0:0:0:0:
112,170,26573,1,2,0:0:0:0:
120,189,26658,1,2,0:0:0:0:
130,209,26744,1,2,0:0:0:0:
136,228,26830,1,2,0:0:0:0:
148,248,26916,2,8,P|219:263|255:260,1,90,0|8,0:0|0:0,0:0:0:0:
299,177,27259,2,0,P|318:132|315:77,1,90
425,33,27603,5,8,0:0:0:0:
454,55,27688,1,8,0:0:0:0:
475,84,27774,1,8,0:0:0:0:
484,119,27860,1,8,0:0:0:0:
482,154,27945,1,8,0:0:0:0:
468,187,28031,1,8,0:0:0:0:
444,213,28117,2,8,L|384:323,1,107.999996704102,0|0,0:0|0:0,0:0:0:0:
300,176,28630,1,0,0:0:0:0:
300,176,28973,1,0,0:0:0:0:
60,164,29316,6,0,P|137:182|168:172,1,107.999996704102
224,256,29830,2,0,L|220:328,1,53.9999983520508
300,176,30173,1,0,0:0:0:0:
428,288,30516,6,8,L|448:184,1,90
444,199,30773,1,2,0:0:0:0:
444,199,30859,1,2,0:0:0:0:
258,92,31030,1,2,0:0:0:0:
411,65,31202,1,8,0:0:0:0:
319,224,31373,1,2,0:0:0:0:
84,176,31545,5,2,0:0:0:0:
200,280,31717,1,2,0:0:0:0:
259,92,31888,1,8,0:0:0:0:
84,176,32059,1,2,0:0:0:0:
200,280,32231,5,0,0:0:0:0:
211,286,32316,1,0,0:0:0:0:
223,291,32402,1,0,0:0:0:0:
235,296,32488,1,0,0:0:0:0:
248,299,32573,1,0,0:0:0:0:
260,302,32659,1,0,0:0:0:0:
273,304,32745,1,0,0:0:0:0:
286,304,32831,1,0,0:0:0:0:
299,304,32916,1,0,0:0:0:0:
312,302,33003,6,0,P|340:219|335:174,1,90
347,84,33259,2,8,L|291:92,1,45,0|0,0:0|0:0,0:0:0:0:
231,185,33430,2,8,L|163:145,1,45
74,102,33602,2,12,P|30:188|90:256,1,180,4|8,0:0|0:0,0:0:0:0:
204,316,34116,5,2,0:0:0:0:
261,114,34288,1,2,0:0:0:0:
106,178,34459,1,2,0:0:0:0:
300,268,34630,2,8,L|316:168,1,90,8|0,0:0|0:0,0:0:0:0:
192,64,34973,2,8,L|176:164,1,90,2|0,0:0|0:0,0:0:0:0:
300,268,35316,5,2,0:0:0:0:
388,105,35488,1,8,0:0:0:0:
444,268,35659,1,2,0:0:0:0:
316,148,35830,1,2,0:0:0:0:
216,276,36002,1,8,0:0:0:0:
128,157,36173,6,2,L|116:96,1,45,2|0,0:0|0:0,0:0:0:0:
38,179,36346,2,4,P|80:229|145:239,1,135,0|0,0:0|0:0,0:0:0:0:
210,180,36689,1,8,0:0:0:0:
300,268,36859,1,2,0:0:0:0:
352,160,37030,2,0,L|368:56,1,90,2|0,0:0|0:0,0:0:0:0:
452,176,37373,2,0,L|436:280,1,90,8|0,0:0|0:0,0:0:0:0:
328,340,37716,6,0,P|256:332|224:260,1,135,2|0,0:0|0:0,0:0:0:0:
212,248,38059,1,8,0:0:0:0:
218,52,38230,2,0,L|254:140,1,90,2|0,0:0|0:0,0:0:0:0:
112,136,38573,1,2,0:0:0:0:
264,191,38745,6,8,L|316:175,1,45
340,83,38916,2,8,L|392:91,1,45
452,176,39088,2,8,P|468:260|424:348,1,180,12|8,0:0|0:0,0:0:0:0:
268,240,39602,5,2,0:0:0:0:
88,300,39773,2,0,P|70:229|102:161,1,135,2|0,0:0|0:0,0:0:0:0:
114,137,40116,1,8,0:0:0:0:
268,240,40288,1,2,0:0:0:0:
432,136,40459,2,0,B|441:84|405:40,1,90
283,124,40802,1,8,0:0:0:0:
352,276,40973,2,0,P|437:312|516:265,1,180,2|0,0:0|0:0,0:0:0:0:
374,94,41488,5,8,0:0:0:0:
228,220,41660,1,2,0:0:0:0:
404,224,41830,2,0,L|437:121,1,90,2|0,0:0|0:0,0:0:0:0:
312,32,42174,1,8,0:0:0:0:
180,136,42345,2,8,P|132:216|164:300,1,180,2|0,0:0|0:0,0:0:0:0:
300,196,42859,2,0,P|311:148|296:99,1,90,8|0,0:0|0:0,0:0:0:0:
172,48,43202,5,2,0:0:0:0:
68,160,43373,1,8,0:0:0:0:
68,160,43459,1,8,0:0:0:0:
68,160,43545,1,8,0:0:0:0:
160,280,43716,1,8,0:0:0:0:
188,262,43801,1,8,0:0:0:0:
220,267,43887,1,8,0:0:0:0:
248,285,43973,1,8,0:0:0:0:
275,304,44058,1,8,0:0:0:0:
305,319,44144,1,8,0:0:0:0:
338,324,44230,6,8,L|352:256,1,45
456,264,44402,2,8,L|448:188,1,45
384,132,44573,2,8,P|300:96|220:140,1,180,4|8,0:0|0:0,0:0:0:0:
188,264,45088,1,2,0:0:0:0:
305,169,45259,2,0,L|309:265,1,90,2|0,0:0|0:0,0:0:0:0:
192,352,45602,2,0,L|188:262,1,90,2|0,0:0|0:0,0:0:0:0:
236,124,45945,6,0,B|304:64|372:120,1,135,2|0,0:0|0:0,0:0:0:0:
385,133,46288,1,8,0:0:0:0:
188,264,46459,1,2,0:0:0:0:
304,168,46630,1,2,0:0:0:0:
172,48,46802,2,0,L|164:140,1,90,0|8,0:0|0:0,0:0:0:0:
36,321,47145,5,2,0:0:0:0:
36,321,47230,1,2,0:0:0:0:
36,321,47316,2,0,L|128:316,1,90,2|0,0:0|0:0,0:0:0:0:
312,284,47659,1,8,0:0:0:0:
408,108,47830,5,2,0:0:0:0:
408,108,47916,1,2,0:0:0:0:
408,108,48002,2,0,L|384:224,1,90,2|0,0:0|0:0,0:0:0:0:
228,316,48345,2,8,L|252:200,1,90,8|0,0:0|0:0,0:0:0:0:
232,104,48688,6,0,P|172:68|92:96,1,135,2|0,0:0|0:0,0:0:0:0:
76,104,49030,1,8,0:0:0:0:
246,228,49202,1,2,0:0:0:0:
156,143,49373,1,2,0:0:0:0:
112,292,49545,1,2,0:0:0:0:
256,264,49716,2,8,L|304:204,1,45
288,96,49888,2,8,L|332:124,1,45
404,236,50059,2,8,P|384:324|300:336,1,180,12|8,0:0|0:0,0:0:0:0:
183,279,50573,5,2,0:0:0:0:
336,272,50745,2,0,L|272:188,1,90,2|0,0:0|0:0,0:0:0:0:
288,96,51088,2,8,P|340:84|408:100,1,90,8|0,0:0|0:0,0:0:0:0:
404,236,51430,1,2,0:0:0:0:
204,212,51602,1,2,0:0:0:0:
336,272,51773,1,8,0:0:0:0:
204,212,51945,2,0,L|180:112,1,90,2|0,0:0|0:0,0:0:0:0:
288,200,52288,5,2,0:0:0:0:
100,180,52459,2,0,L|76:72,1,90,8|0,0:0|0:0,0:0:0:0:
280,64,52802,1,0,0:0:0:0:
280,64,52888,1,0,0:0:0:0:
280,64,52973,2,0,L|376:96,1,90,0|8,0:0|0:0,0:0:0:0:
392,112,53230,1,0,0:0:0:0:
412,136,53316,2,0,P|420:184|408:256,1,90
296,252,53659,5,8,0:0:0:0:
296,252,53745,1,8,0:0:0:0:
296,252,53830,1,8,0:0:0:0:
296,252,53916,1,8,0:0:0:0:
296,252,54002,1,8,0:0:0:0:
296,252,54088,1,8,0:0:0:0:
296,252,54173,6,8,L|276:200,1,45
144,160,54345,2,8,L|156:208,1,45
124,324,54516,2,8,L|180:340,1,45
300,356,54688,1,8,0:0:0:0:
300,356,54773,1,8,0:0:0:0:
300,356,54859,1,8,0:0:0:0:
300,356,54945,1,8,0:0:0:0:
300,356,55030,2,8,L|336:316|336:316,1,45
396,180,55202,2,8,L|356:236|356:236,1,45
280,204,55373,5,8,0:0:0:0:
104,348,55545,1,8,0:0:0:0:
188,62,55888,5,8,0:0:0:0:
220,288,56060,1,8,0:0:0:0:
352,72,56402,5,8,0:0:0:0:
392,288,56574,1,8,0:0:0:0:
80,292,56916,5,8,0:0:0:0:
272,168,57088,1,8,0:0:0:0:
80,292,57945,6,0,L|152:296,1,45
180,200,58116,2,0,L|240:220,1,45
216,332,58288,2,0,L|276:320,1,45
316,220,58459,2,0,L|364:252,1,45
444,320,58630,2,0,P|476:232|440:152,1,180,8|0,0:0|0:0,0:0:0:0:
272,112,59145,5,2,0:0:0:0:
112,172,59316,2,2,B|72:112|72:112|128:80|152:32,2,180,8|0|8,0:0|0:0|0:0,0:0:0:0:
196,288,60173,1,2,0:0:0:0:
112,172,60345,1,2,0:0:0:0:
272,112,60516,1,0,0:0:0:0:
272,112,60602,1,0,0:0:0:0:
272,112,60688,2,2,L|264:224,1,90,8|2,0:0|0:0,0:0:0:0:
440,240,61030,5,2,0:0:0:0:
308,316,61202,1,2,0:0:0:0:
352,80,61373,2,2,P|276:33|188:92,1,180,8|0,0:0|0:0,0:0:0:0:
136,200,61888,1,2,0:0:0:0:
256,292,62059,2,2,L|274:88,1,180,8|0,0:0|0:0,0:0:0:0:
440,196,62573,5,0,0:0:0:0:
440,196,62659,1,0,0:0:0:0:
440,196,62745,2,0,L|344:188,1,90
284,40,63088,1,0,0:0:0:0:
148,112,63259,2,0,L|136:208,1,90
80,284,63602,1,0,0:0:0:0:
80,284,63688,1,0,0:0:0:0:
80,284,63773,2,0,L|112:336,1,45
196,272,63945,2,0,L|224:324,1,45
316,264,64116,2,0,L|344:312,1,45
416,324,64288,1,12,0:0:0:0:
253,110,64459,6,8,L|256:200,1,90,8|0,0:0|0:0,0:0:0:0:
316,264,64802,1,0,0:0:0:0:
160,76,64973,2,8,L|162:165,1,90,8|0,0:0|0:0,0:0:0:0:
56,248,65316,1,8,0:0:0:0:
160,320,65487,6,2,L|247:310,1,85,2|0,0:0|0:0,0:0:0:0:
416,192,65830,1,10,0:0:0:0:
256,168,66001,2,2,P|255:125|269:85,1,85,0|2,0:0|0:0,0:0:0:0:
496,168,66345,2,2,P|497:210|483:250,1,85,0|10,0:0|0:0,0:0:0:0:
451,61,66688,1,2,0:0:0:0:
270,263,66859,6,2,P|316:258|361:258,1,88,2|0,0:0|0:0,0:0:0:0:
147,67,67202,1,10,0:0:0:0:
120,184,67372,1,2,0:0:0:0:
314,180,67544,1,2,0:0:0:0:
452,60,67715,1,2,0:0:0:0:
389,307,67888,2,2,P|401:266|402:224,1,85,10|0,0:0|0:0,0:0:0:0:
197,355,68230,5,2,0:0:0:0:
237,189,68401,1,2,0:0:0:0:
368,272,68573,1,10,0:0:0:0:
236,192,68744,2,2,P|236:234|244:276,1,85,0|2,0:0|0:0,0:0:0:0:
480,232,69088,2,2,P|487:190|488:147,1,85,0|10,0:0|0:0,0:0:0:0:
415,46,69430,1,10,0:0:0:0:
415,46,69515,1,2,0:0:0:0:
415,46,69601,6,2,P|330:50|248:28,1,170,6|10,0:0|0:0,0:0:0:0:
134,64,70115,1,2,0:0:0:0:
328,192,70288,2,2,P|276:184|224:192,1,90,2|0,0:0|0:0,0:0:0:0:
88,232,70630,1,10,0:0:0:0:
176,336,70801,2,2,P|218:338|259:328,1,85,0|2,0:0|0:0,0:0:0:0:
408,128,71145,6,2,L|398:215,1,85,0|10,0:0|0:0,0:0:0:0:
336,344,71487,1,2,0:0:0:0:
472,292,71658,1,2,0:0:0:0:
320,172,71830,2,2,L|328:256,1,85,0|10,0:0|0:0,0:0:0:0:
484,364,72173,1,10,0:0:0:0:
298,286,72345,6,2,P|251:276|212:276,1,88,2|0,0:0|0:0,0:0:0:0:
40,124,72687,2,2,P|78:142|120:145,1,85,10|0,0:0|0:0,0:0:0:0:
153,130,72944,1,2,0:0:0:0:
177,106,73030,2,2,L|190:22,1,85,2|0,0:0|0:0,0:0:0:0:
204,264,73373,2,2,L|191:315,1,42.5,0|0,0:0|0:0,0:0:0:0:
308,376,73545,2,2,L|296:276,1,90,2|4,0:0|0:0,0:0:0:0:
405,178,73888,1,2,0:0:0:0:
405,178,73973,1,2,0:0:0:0:
405,178,74059,5,2,0:0:0:0:
405,178,74145,1,2,0:0:0:0:
405,178,74230,2,2,L|425:122,1,45
337,50,74402,2,2,L|317:106,1,45
213,138,74573,2,2,L|233:82,1,45
145,10,74745,2,2,L|125:66,1,45
81,158,74916,2,2,L|85:214,1,45
184,304,75088,6,2,P|256:320|316:264,1,135
336,256,75430,1,2,0:0:0:0:
285,106,75602,1,2,0:0:0:0:
242,244,75773,1,2,0:0:0:0:
372,148,75945,6,2,P|416:128|464:132,1,90
420,252,76288,1,2,0:0:0:0:
280,316,76459,2,2,P|236:336|188:332,1,90
88,124,76802,1,2,0:0:0:0:
48,272,76973,1,2,0:0:0:0:
160,196,77145,1,2,0:0:0:0:
189,326,77316,1,2,0:0:0:0:
410,327,77488,6,10,P|343:317|306:266,1,132,10|0,0:0|0:0,0:0:0:0:
224,140,77830,1,2,0:0:0:0:
224,140,77916,1,2,0:0:0:0:
224,140,78002,2,2,P|232:208|224:256,1,90,0|0,0:0|0:0,0:0:0:0:
336,340,78345,1,2,0:0:0:0:
230,230,78516,2,10,P|166:226|118:206,1,90,10|2,0:0|0:0,0:0:0:0:
240,44,78859,5,10,0:0:0:0:
360,140,79030,1,10,0:0:0:0:
136,84,79202,2,10,P|104:140|120:196,1,90
128,192,79459,1,10,0:0:0:0:
156,224,79545,2,10,P|116:264|68:284,1,90
248,344,79888,5,10,0:0:0:0:
292,96,80059,1,10,0:0:0:0:
452,256,80230,1,10,0:0:0:0:
444,104,80401,1,10,0:0:0:0:
444,104,80488,1,10,0:0:0:0:
444,104,80573,2,10,L|392:164,1,45,0|4,0:0|0:0,0:0:0:0:
380,208,80745,6,10,B|300:192|272:260|272:260|208:280,1,180,0|0,0:0|0:0,0:0:0:0:
140,60,81259,1,10,0:0:0:0:
95,202,81430,1,10,0:0:0:0:
280,110,81601,2,10,P|326:101|369:101,1,88,10|0,0:0|0:0,0:0:0:0:
475,268,81944,5,10,0:0:0:0:
394,177,82115,1,10,0:0:0:0:
330,342,82287,2,10,P|287:348|245:336,1,88,10|0,0:0|0:0,0:0:0:0:
58,288,82630,2,10,L|144:274,1,88,2|0,0:0|0:0,0:0:0:0:
280,110,82972,1,10,0:0:0:0:
236,244,83144,1,10,0:0:0:0:
394,176,83315,6,10,P|410:136|414:92,1,88,6|0,0:0|0:0,0:0:0:0:
322,11,83659,1,10,0:0:0:0:
468,204,83830,1,10,0:0:0:0:
468,204,83916,1,10,0:0:0:0:
468,204,84001,1,10,0:0:0:0:
278,218,84173,1,10,0:0:0:0:
246,233,84259,1,10,0:0:0:0:
210,236,84345,1,10,0:0:0:0:
175,227,84430,1,10,0:0:0:0:
145,208,84515,1,10,0:0:0:0:
130,175,84602,1,10,0:0:0:0:
127,139,84687,6,10,L|123:81,2,58.6666666666667,6|8|8,0:0|0:0|0:0,0:0:0:0:
223,93,85030,2,10,L|229:35,2,58.6666666666667,8|8|8,0:0|0:0|0:0,0:0:0:0:
327,70,85372,1,10,0:3:0:0:
327,70,85487,2,10,P|344:38|352:5,1,58.6666666666667,0|8,0:0|0:3,0:0:0:0:
289,143,85715,1,10,0:3:0:0:
302,224,85830,1,10,0:0:0:0:
367,272,85944,1,10,0:0:0:0:
446,255,86058,6,10,P|360:251|287:298,1,176,6|0,0:0|0:0,0:0:0:0:
235,370,86572,1,10,0:0:0:0:
244,237,86744,2,10,L|249:142,1,88,10|2,0:0|0:0,0:0:0:0:
129,42,87088,2,10,P|120:92|124:137,1,88,0|2,0:0|0:0,0:0:0:0:
167,211,87430,5,10,0:0:0:0:
46,140,87601,1,10,0:0:0:0:
206,92,87772,2,10,P|251:78|289:61,1,88,0|2,0:0|0:0,0:0:0:0:
403,143,88115,1,10,0:0:0:0:
328,241,88287,1,10,0:0:0:0:
423,319,88459,2,10,P|429:274|409:217,1,88,0|8,0:0|0:0,0:0:0:0:
167,211,88801,6,10,P|251:195|330:149,1,176,4|0,0:0|0:0,0:0:0:0:
396,57,89315,1,10,0:0:0:0:
328,241,89487,2,10,L|328:331,1,88,8|2,0:0|0:0,0:0:0:0:
439,242,89830,1,10,0:0:0:0:
328,366,90001,1,10,0:0:0:0:
217,243,90172,6,10,P|208:192|217:148,1,88,6|8,0:0|0:0,0:0:0:0:
307,63,90515,5,10,0:3:0:0:
116,200,90687,1,10,0:0:0:0:
104,200,90773,1,10,0:0:0:0:
93,198,90859,6,10,B|108:189|108:189|209:221|296:188,1,202.500007724762,4|0,0:0|0:0,0:0:0:0:
400,116,91544,5,0,0:0:0:0:
393,146,92915,5,0,0:0:0:0:
364,220,94115,5,2,0:0:0:0:
364,220,94201,1,2,0:0:0:0:
364,220,94287,1,4,0:0:0:0:
331,301,94458,1,8,0:0:0:0:
344,111,94630,1,2,0:0:0:0:
452,240,94801,1,8,0:0:0:0:
240,146,94972,5,2,0:0:0:0:
331,301,95144,1,8,0:0:0:0:
274,73,95316,1,2,0:0:0:0:
144,240,95487,1,8,0:0:0:0:
344,111,95658,5,2,0:0:0:0:
229,285,95830,1,8,0:0:0:0:
167,53,96001,1,2,0:0:0:0:
331,206,96172,1,8,0:0:0:0:
132,342,96344,5,2,0:0:0:0:
284,104,96515,1,8,0:0:0:0:
380,331,96687,1,8,0:0:0:0:
134,137,96859,1,8,0:0:0:0:
256,262,97202,6,0,L|256:296,2,33.7500012874604,0|0|6,0:0|0:0|0:0,0:0:0:0:
256,192,97458,12,0,102515,0:0:0:0:
