osu file format v14

[General]
AudioFilename: audio.mp3
AudioLeadIn: 0
PreviewTime: 8027
Countdown: 0
SampleSet: Normal
StackLeniency: 0.7
Mode: 1
LetterboxInBreaks: 0
WidescreenStoryboard: 0

[Editor]
DistanceSpacing: 0.8
BeatDivisor: 2
GridSize: 16
TimelineZoom: 1.3

[Metadata]
Title:220 - Kumano
TitleUnicode:220 - Kumano
Artist:saradisk
ArtistUnicode:saradisk
Creator:khairul anwar
Version:Muzukashii
Source:艦隊これくしょん -艦これ-
Tags:kancolle kantai collection Kayano- MasterHerobrine
BeatmapID:1128070
BeatmapSetID:532377

[Difficulty]
HPDrainRate:5
CircleSize:4
OverallDifficulty:4
ApproachRate:5
SliderMultiplier:1.40000000596046
SliderTickRate:1

[Events]
//Background and Video events
0,0,"lewd.jpg",0,0
//Break Periods
//Storyboard Layer 0 (Background)
//Storyboard Layer 1 (Fail)
//Storyboard Layer 2 (Pass)
//Storyboard Layer 3 (Foreground)
//Storyboard Sound Samples

[TimingPoints]
1277,300,4,1,0,70,1,0
6677,-100,4,2,0,5,0,0
7127,-100,4,1,0,70,0,0
28877,-100,4,1,0,70,0,1
33677,-100,4,1,0,70,0,0
38477,-100,4,1,0,70,0,1
42677,-100,4,1,0,70,0,0

[HitObjects]
256,192,1277,5,0,0:0:0:0:
256,192,1427,1,8,0:0:0:0:
256,192,1577,1,8,0:0:0:0:
256,192,1877,1,8,0:0:0:0:
256,192,2027,1,0,0:0:0:0:
256,192,2327,1,8,0:0:0:0:
256,192,2627,1,0,0:0:0:0:
256,192,2777,1,8,0:0:0:0:
256,192,3077,1,8,0:0:0:0:
256,192,3227,1,0,0:0:0:0:
256,192,3677,12,0,6677,0:0:0:0:
256,192,7127,5,0,0:0:0:0:
256,192,7277,1,8,0:0:0:0:
256,192,7577,1,8,0:0:0:0:
256,192,7877,1,0,0:0:0:0:
256,192,8027,1,8,0:0:0:0:
256,192,8177,1,8,0:0:0:0:
256,192,8327,1,8,0:0:0:0:
256,192,8477,1,4,0:0:0:0:
256,192,8777,1,8,0:0:0:0:
256,192,8927,1,0,0:0:0:0:
256,192,9227,1,8,0:0:0:0:
256,192,9377,1,0,0:0:0:0:
256,192,9527,1,0,0:0:0:0:
256,192,9677,1,0,0:0:0:0:
256,192,9977,1,8,0:0:0:0:
256,192,10127,1,0,0:0:0:0:
256,192,10427,1,8,0:0:0:0:
256,192,10577,1,0,0:0:0:0:
256,192,10652,1,0,0:0:0:0:
256,192,10727,1,0,0:0:0:0:
256,192,10877,1,0,0:0:0:0:
256,192,11177,1,8,0:0:0:0:
256,192,11327,1,0,0:0:0:0:
256,192,11627,1,8,0:0:0:0:
256,192,11777,1,0,0:0:0:0:
256,192,11927,1,0,0:0:0:0:
256,192,12077,1,0,0:0:0:0:
256,192,12377,1,8,0:0:0:0:
256,192,12827,1,8,0:0:0:0:
256,192,12977,1,0,0:0:0:0:
256,192,13052,1,0,0:0:0:0:
256,192,13127,1,0,0:0:0:0:
256,192,13277,1,0,0:0:0:0:
256,192,13577,1,0,0:0:0:0:
256,192,13727,1,8,0:0:0:0:
256,192,14027,1,0,0:0:0:0:
256,192,14177,1,8,0:0:0:0:
256,192,14477,1,8,0:0:0:0:
256,192,14627,1,0,0:0:0:0:
256,192,14927,1,0,0:0:0:0:
256,192,15227,1,0,0:0:0:0:
256,192,15377,1,8,0:0:0:0:
256,192,15452,1,8,0:0:0:0:
256,192,15527,1,8,0:0:0:0:
256,192,15677,1,0,0:0:0:0:
256,192,16127,1,0,0:0:0:0:
256,192,16577,1,0,0:0:0:0:
256,192,16727,1,0,0:0:0:0:
256,192,16877,1,8,0:0:0:0:
256,192,17327,1,8,0:0:0:0:
256,192,17777,1,8,0:0:0:0:
256,192,17927,1,8,0:0:0:0:
256,192,18077,1,0,0:0:0:0:
256,192,18527,1,0,0:0:0:0:
256,192,18827,1,8,0:0:0:0:
256,192,18977,1,0,0:0:0:0:
256,192,19127,1,0,0:0:0:0:
256,192,19277,1,0,0:0:0:0:
256,192,19577,1,8,0:0:0:0:
256,192,19877,1,0,0:0:0:0:
256,192,20177,1,0,0:0:0:0:
256,192,20327,1,8,0:0:0:0:
256,192,20477,1,0,0:0:0:0:
256,192,20702,1,8,0:0:0:0:
256,192,20927,1,8,0:0:0:0:
256,192,21077,1,0,0:0:0:0:
256,192,21227,1,0,0:0:0:0:
256,192,21302,1,8,0:0:0:0:
256,192,21527,1,8,0:0:0:0:
256,192,21677,1,0,0:0:0:0:
256,192,22127,1,0,0:0:0:0:
256,192,22577,1,0,0:0:0:0:
256,192,22652,1,0,0:0:0:0:
256,192,22727,1,0,0:0:0:0:
256,192,22877,1,0,0:0:0:0:
256,192,23177,1,8,0:0:0:0:
256,192,23327,1,8,0:0:0:0:
256,192,23477,1,0,0:0:0:0:
256,192,23777,1,8,0:0:0:0:
256,192,24077,1,4,0:0:0:0:
256,192,24377,1,8,0:0:0:0:
256,192,24527,1,0,0:0:0:0:
256,192,24677,1,8,0:0:0:0:
256,192,24977,1,8,0:0:0:0:
256,192,25127,1,8,0:0:0:0:
256,192,25277,1,4,0:0:0:0:
256,192,25577,1,8,0:0:0:0:
256,192,25727,1,0,0:0:0:0:
256,192,25877,1,8,0:0:0:0:
256,192,26177,1,8,0:0:0:0:
256,192,26327,1,8,0:0:0:0:
256,192,26477,1,4,0:0:0:0:
256,192,26777,1,8,0:0:0:0:
256,192,26927,1,0,0:0:0:0:
256,192,27077,1,4,0:0:0:0:
256,192,27377,1,8,0:0:0:0:
256,192,27527,1,0,0:0:0:0:
256,192,27677,1,4,0:0:0:0:
256,192,27977,1,4,0:0:0:0:
256,192,28277,1,4,0:0:0:0:
256,192,28577,1,8,0:0:0:0:
256,192,28877,1,4,0:0:0:0:
256,192,29177,1,8,0:0:0:0:
256,192,29327,1,0,0:0:0:0:
256,192,29477,1,8,0:0:0:0:
256,192,29777,1,0,0:0:0:0:
256,192,30077,1,8,0:0:0:0:
256,192,30377,1,0,0:0:0:0:
256,192,30527,1,0,0:0:0:0:
256,192,30677,1,8,0:0:0:0:
256,192,30977,1,8,0:0:0:0:
256,192,31277,1,0,0:0:0:0:
256,192,31877,1,8,0:0:0:0:
256,192,32177,1,0,0:0:0:0:
256,192,32327,1,8,0:0:0:0:
256,192,32477,1,0,0:0:0:0:
256,192,32777,1,8,0:0:0:0:
256,192,32927,1,0,0:0:0:0:
256,192,33077,1,8,0:0:0:0:
256,192,33377,1,8,0:0:0:0:
256,192,33677,1,4,0:0:0:0:
256,192,33977,1,8,0:0:0:0:
256,192,34127,1,0,0:0:0:0:
256,192,34427,1,0,0:0:0:0:
256,192,34577,1,8,0:0:0:0:
256,192,34877,1,8,0:0:0:0:
256,192,35177,1,8,0:0:0:0:
256,192,35327,1,0,0:0:0:0:
256,192,35627,1,0,0:0:0:0:
256,192,35777,1,8,0:0:0:0:
256,192,35927,1,0,0:0:0:0:
256,192,36077,1,8,0:0:0:0:
256,192,36377,1,8,0:0:0:0:
256,192,36527,1,0,0:0:0:0:
256,192,36677,1,0,0:0:0:0:
256,192,36977,1,8,0:0:0:0:
256,192,37277,1,0,0:0:0:0:
256,192,37577,1,8,0:0:0:0:
256,192,37727,1,0,0:0:0:0:
256,192,38027,1,0,0:0:0:0:
256,192,38177,1,8,0:0:0:0:
256,192,38477,1,0,0:0:0:0:
256,192,38627,1,8,0:0:0:0:
256,192,38777,1,0,0:0:0:0:
256,192,38927,1,0,0:0:0:0:
256,192,39077,1,8,0:0:0:0:
256,192,39377,1,8,0:0:0:0:
256,192,39527,1,0,0:0:0:0:
256,192,39677,1,0,0:0:0:0:
256,192,39827,1,8,0:0:0:0:
256,192,39977,1,8,0:0:0:0:
256,192,40127,1,0,0:0:0:0:
256,192,40277,1,8,0:0:0:0:
256,192,40577,1,8,0:0:0:0:
256,192,40727,1,8,0:0:0:0:
256,192,40877,1,0,0:0:0:0:
256,192,41177,1,0,0:0:0:0:
256,192,41477,1,8,0:0:0:0:
256,192,41627,1,0,0:0:0:0:
256,192,41777,1,8,0:0:0:0:
256,192,41927,1,8,0:0:0:0:
256,192,42077,1,0,0:0:0:0:
256,192,42227,1,0,0:0:0:0:
256,192,42377,1,0,0:0:0:0:
256,192,42527,1,0,0:0:0:0:
256,192,42677,1,4,0:0:0:0:
256,192,42977,1,12,0:0:0:0:
