osu file format v14

[General]
AudioFilename: audio.mp3
AudioLeadIn: 0
PreviewTime: 8027
Countdown: 0
SampleSet: Soft
StackLeniency: 0.7
Mode: 3
LetterboxInBreaks: 0
SpecialStyle: 0
WidescreenStoryboard: 1

[Editor]
DistanceSpacing: 0.8
BeatDivisor: 4
GridSize: 16
TimelineZoom: 1.94

[Metadata]
Title:220 - Kumano
TitleUnicode:220 - Kumano
Artist:saradisk
ArtistUnicode:saradisk
Creator:khairul anwar
Version:MX
Source:艦隊これくしょん -艦これ-
Tags:kancolle kantai collection Kayano- MasterHerobrine
BeatmapID:1128071
BeatmapSetID:532377

[Difficulty]
HPDrainRate:8
CircleSize:4
OverallDifficulty:8.5
ApproachRate:5
SliderMultiplier:1.40000000596046
SliderTickRate:1

[Events]
//Background and Video events
0,0,"lewd.jpg",0,0
//Break Periods
//Storyboard Layer 0 (Background)
//Storyboard Layer 1 (Fail)
//Storyboard Layer 2 (Pass)
//Storyboard Layer 3 (Foreground)
//Storyboard Sound Samples

[TimingPoints]
1277,300,4,2,0,30,1,0
8027,-66.6666666666667,4,2,0,30,0,0
8102,-133.333333333333,4,2,0,30,0,0
8177,-66.6666666666667,4,2,0,30,0,0
8252,-133.333333333333,4,2,0,30,0,0
8327,-66.6666666666667,4,2,0,30,0,0
8402,-133.333333333333,4,2,0,30,0,0
8477,-100,4,2,0,30,0,0
28877,-100,4,2,0,30,0,1
33677,-100,4,2,0,30,0,0
38477,-100,4,2,0,30,0,1
42677,-100,4,2,0,30,0,0

[HitObjects]
64,192,1277,5,0,0:0:0:0:
320,192,1277,1,0,0:0:0:0:
448,192,1427,1,0,0:0:0:0:
448,192,1577,1,0,0:0:0:0:
320,192,1877,1,0,0:0:0:0:
320,192,2027,1,0,0:0:0:0:
192,192,2327,1,0,0:0:0:0:
64,192,2627,1,0,0:0:0:0:
64,192,2777,1,0,0:0:0:0:
448,192,3077,1,0,0:0:0:0:
448,192,3227,1,0,0:0:0:0:
64,192,3677,1,0,0:0:0:0:
192,192,3727,1,0,0:0:0:0:
320,192,3777,1,0,0:0:0:0:
448,192,3827,1,0,0:0:0:0:
64,192,3877,1,0,0:0:0:0:
192,192,3927,1,0,0:0:0:0:
448,192,3977,1,0,0:0:0:0:
320,192,4027,1,0,0:0:0:0:
192,192,4077,1,0,0:0:0:0:
64,192,4127,1,0,0:0:0:0:
448,192,4177,1,0,0:0:0:0:
320,192,4227,1,0,0:0:0:0:
64,192,4277,1,0,0:0:0:0:
192,192,4327,1,0,0:0:0:0:
320,192,4377,1,0,0:0:0:0:
448,192,4427,1,0,0:0:0:0:
64,192,4477,1,0,0:0:0:0:
192,192,4527,1,0,0:0:0:0:
448,192,4577,1,0,0:0:0:0:
320,192,4627,1,0,0:0:0:0:
192,192,4677,1,0,0:0:0:0:
64,192,4727,1,0,0:0:0:0:
448,192,4777,1,0,0:0:0:0:
320,192,4827,1,0,0:0:0:0:
64,192,4877,1,0,0:0:0:0:
192,192,4927,1,0,0:0:0:0:
320,192,4977,1,0,0:0:0:0:
448,192,5027,1,0,0:0:0:0:
64,192,5077,1,0,0:0:0:0:
192,192,5127,1,0,0:0:0:0:
448,192,5177,1,0,0:0:0:0:
320,192,5227,1,0,0:0:0:0:
192,192,5277,1,0,0:0:0:0:
64,192,5327,1,0,0:0:0:0:
448,192,5377,1,0,0:0:0:0:
320,192,5427,1,0,0:0:0:0:
64,192,5477,1,0,0:0:0:0:
192,192,5527,1,0,0:0:0:0:
320,192,5577,1,0,0:0:0:0:
448,192,5627,1,0,0:0:0:0:
64,192,5677,1,0,0:0:0:0:
192,192,5727,1,0,0:0:0:0:
448,192,5777,1,0,0:0:0:0:
320,192,5827,1,0,0:0:0:0:
192,192,5877,1,0,0:0:0:0:
64,192,5927,1,0,0:0:0:0:
448,192,5977,1,0,0:0:0:0:
320,192,6027,1,0,0:0:0:0:
64,192,6077,1,0,0:0:0:0:
192,192,6127,1,0,0:0:0:0:
320,192,6177,1,0,0:0:0:0:
448,192,6227,1,0,0:0:0:0:
64,192,6277,1,0,0:0:0:0:
192,192,6327,1,0,0:0:0:0:
448,192,6377,1,0,0:0:0:0:
320,192,6427,1,0,0:0:0:0:
192,192,6477,1,0,0:0:0:0:
64,192,6527,1,0,0:0:0:0:
448,192,6577,1,0,0:0:0:0:
320,192,6627,1,0,0:0:0:0:
64,192,6677,1,0,0:0:0:0:
192,192,6727,1,0,0:0:0:0:
320,192,6777,1,0,0:0:0:0:
448,192,6827,1,0,0:0:0:0:
64,192,6877,1,0,0:0:0:0:
192,192,6927,1,0,0:0:0:0:
448,192,6977,1,0,0:0:0:0:
320,192,7027,1,0,0:0:0:0:
192,192,7077,1,0,0:0:0:0:
64,192,7127,1,0,0:0:0:0:
448,192,7177,1,0,0:0:0:0:
320,192,7227,1,0,0:0:0:0:
64,192,7277,1,0,0:0:0:0:
192,192,7327,1,0,0:0:0:0:
320,192,7377,1,0,0:0:0:0:
448,192,7427,1,0,0:0:0:0:
64,192,7477,1,0,0:0:0:0:
192,192,7527,1,0,0:0:0:0:
448,192,7577,1,0,0:0:0:0:
320,192,7627,1,0,0:0:0:0:
192,192,7677,1,0,0:0:0:0:
64,192,7727,1,0,0:0:0:0:
448,192,7777,1,0,0:0:0:0:
320,192,7827,1,0,0:0:0:0:
64,192,7877,1,0,0:0:0:0:
192,192,7927,1,0,0:0:0:0:
320,192,7977,1,0,0:0:0:0:
448,192,8027,1,0,0:0:0:0:
64,192,8027,1,0,0:0:0:0:
64,192,8177,1,0,0:0:0:0:
448,192,8177,1,0,0:0:0:0:
64,192,8327,1,0,0:0:0:0:
448,192,8327,1,0,0:0:0:0:
64,192,8477,1,0,0:0:0:0:
320,192,8477,1,0,0:0:0:0:
448,192,8477,1,0,0:0:0:0:
192,192,8627,1,0,0:0:0:0:
320,192,8702,1,0,0:0:0:0:
192,192,8777,1,0,0:0:0:0:
320,192,8927,1,0,0:0:0:0:
64,192,8927,1,0,0:0:0:0:
448,192,8927,1,0,0:0:0:0:
192,192,9077,1,0,0:0:0:0:
320,192,9152,1,0,0:0:0:0:
192,192,9227,1,0,0:0:0:0:
320,192,9377,1,0,0:0:0:0:
192,192,9377,1,0,0:0:0:0:
64,192,9377,1,0,0:0:0:0:
64,192,9527,1,0,0:0:0:0:
448,192,9527,1,0,0:0:0:0:
320,192,9527,1,0,0:0:0:0:
448,192,9677,1,0,0:0:0:0:
192,192,9677,1,0,0:0:0:0:
64,192,9677,1,0,0:0:0:0:
320,192,9827,1,0,0:0:0:0:
192,192,9902,1,0,0:0:0:0:
320,192,9977,1,0,0:0:0:0:
192,192,10127,1,0,0:0:0:0:
64,192,10127,1,0,0:0:0:0:
448,192,10127,1,0,0:0:0:0:
320,192,10277,1,0,0:0:0:0:
192,192,10352,1,0,0:0:0:0:
320,192,10427,1,0,0:0:0:0:
448,192,10577,1,0,0:0:0:0:
320,192,10577,1,0,0:0:0:0:
192,192,10652,1,0,0:0:0:0:
64,192,10652,1,0,0:0:0:0:
320,192,10727,1,0,0:0:0:0:
448,192,10727,1,0,0:0:0:0:
192,192,10802,1,0,0:0:0:0:
64,192,10802,1,0,0:0:0:0:
320,192,10877,1,0,0:0:0:0:
448,192,10877,1,0,0:0:0:0:
192,192,11027,1,0,0:0:0:0:
320,192,11102,1,0,0:0:0:0:
192,192,11177,1,0,0:0:0:0:
448,192,11327,1,0,0:0:0:0:
64,192,11327,1,0,0:0:0:0:
320,192,11327,1,0,0:0:0:0:
320,192,11477,1,0,0:0:0:0:
192,192,11552,1,0,0:0:0:0:
320,192,11627,1,0,0:0:0:0:
448,192,11777,1,0,0:0:0:0:
64,192,11777,1,0,0:0:0:0:
192,192,11777,1,0,0:0:0:0:
64,192,11927,1,0,0:0:0:0:
320,192,11927,1,0,0:0:0:0:
192,192,11927,1,0,0:0:0:0:
192,192,12077,1,0,0:0:0:0:
64,192,12077,1,0,0:0:0:0:
448,192,12077,1,0,0:0:0:0:
320,192,12077,128,0,12677:0:0:0:0:
64,192,12227,1,0,0:0:0:0:
192,192,12302,1,0,0:0:0:0:
64,192,12377,1,0,0:0:0:0:
192,192,12527,1,0,0:0:0:0:
448,192,12527,1,0,0:0:0:0:
448,192,12677,128,0,12977:0:0:0:0:
192,192,12827,1,0,0:0:0:0:
64,192,12977,1,0,0:0:0:0:
192,192,12977,1,0,0:0:0:0:
320,192,13052,1,0,0:0:0:0:
448,192,13052,1,0,0:0:0:0:
64,192,13127,1,0,0:0:0:0:
192,192,13127,1,0,0:0:0:0:
320,192,13202,1,0,0:0:0:0:
448,192,13202,1,0,0:0:0:0:
64,192,13277,1,0,0:0:0:0:
192,192,13277,1,0,0:0:0:0:
320,192,13427,1,0,0:0:0:0:
320,192,13577,1,0,0:0:0:0:
64,192,13727,1,0,0:0:0:0:
192,192,13727,1,0,0:0:0:0:
448,192,13727,1,0,0:0:0:0:
320,192,13877,1,0,0:0:0:0:
320,192,14027,1,0,0:0:0:0:
192,192,14177,1,0,0:0:0:0:
64,192,14177,1,0,0:0:0:0:
448,192,14177,1,0,0:0:0:0:
192,192,14327,1,0,0:0:0:0:
320,192,14327,1,0,0:0:0:0:
64,192,14327,1,0,0:0:0:0:
448,192,14477,1,0,0:0:0:0:
320,192,14477,1,0,0:0:0:0:
64,192,14477,1,0,0:0:0:0:
192,192,14627,1,0,0:0:0:0:
192,192,14777,1,0,0:0:0:0:
64,192,14927,1,0,0:0:0:0:
320,192,14927,1,0,0:0:0:0:
448,192,14927,1,0,0:0:0:0:
192,192,15077,1,0,0:0:0:0:
320,192,15227,1,0,0:0:0:0:
192,192,15377,1,0,0:0:0:0:
64,192,15377,1,0,0:0:0:0:
320,192,15452,1,0,0:0:0:0:
448,192,15452,1,0,0:0:0:0:
64,192,15527,1,0,0:0:0:0:
192,192,15527,1,0,0:0:0:0:
320,192,15602,1,0,0:0:0:0:
448,192,15602,1,0,0:0:0:0:
192,192,15677,1,0,0:0:0:0:
64,192,15677,1,0,0:0:0:0:
448,192,15827,1,0,0:0:0:0:
320,192,15902,1,0,0:0:0:0:
192,192,15977,1,0,0:0:0:0:
64,192,16127,1,0,0:0:0:0:
192,192,16127,1,0,0:0:0:0:
448,192,16127,1,0,0:0:0:0:
320,192,16277,1,0,0:0:0:0:
192,192,16352,1,0,0:0:0:0:
64,192,16427,1,0,0:0:0:0:
64,192,16577,1,0,0:0:0:0:
192,192,16577,1,0,0:0:0:0:
448,192,16577,1,0,0:0:0:0:
192,192,16727,1,0,0:0:0:0:
320,192,16727,1,0,0:0:0:0:
64,192,16727,1,0,0:0:0:0:
448,192,16877,1,0,0:0:0:0:
64,192,16877,1,0,0:0:0:0:
192,192,16952,1,0,0:0:0:0:
320,192,17027,1,0,0:0:0:0:
192,192,17102,1,0,0:0:0:0:
320,192,17177,1,0,0:0:0:0:
64,192,17327,1,0,0:0:0:0:
448,192,17327,1,0,0:0:0:0:
320,192,17402,1,0,0:0:0:0:
192,192,17477,1,0,0:0:0:0:
320,192,17552,1,0,0:0:0:0:
192,192,17627,1,0,0:0:0:0:
64,192,17777,1,0,0:0:0:0:
320,192,17777,1,0,0:0:0:0:
192,192,17852,1,0,0:0:0:0:
320,192,17927,1,0,0:0:0:0:
448,192,17927,1,0,0:0:0:0:
192,192,18002,1,0,0:0:0:0:
64,192,18002,1,0,0:0:0:0:
320,192,18077,1,0,0:0:0:0:
448,192,18077,128,0,18377:0:0:0:0:
192,192,18377,128,0,18452:0:0:0:0:
448,192,18527,128,0,18827:0:0:0:0:
320,192,18527,1,0,0:0:0:0:
192,192,18827,128,0,18902:0:0:0:0:
64,192,18977,128,0,19052:0:0:0:0:
448,192,18977,1,0,0:0:0:0:
64,192,19127,128,0,19202:0:0:0:0:
320,192,19127,1,0,0:0:0:0:
64,192,19277,128,0,19577:0:0:0:0:
192,192,19277,1,0,0:0:0:0:
192,192,19577,1,0,0:0:0:0:
320,192,19577,1,0,0:0:0:0:
320,192,19727,1,0,0:0:0:0:
192,192,19877,1,0,0:0:0:0:
64,192,19877,1,0,0:0:0:0:
448,192,19877,1,0,0:0:0:0:
320,192,20027,1,0,0:0:0:0:
448,192,20027,1,0,0:0:0:0:
192,192,20027,1,0,0:0:0:0:
192,192,20177,1,0,0:0:0:0:
64,192,20327,1,0,0:0:0:0:
320,192,20327,1,0,0:0:0:0:
192,192,20477,1,0,0:0:0:0:
64,192,20477,1,0,0:0:0:0:
448,192,20477,1,0,0:0:0:0:
192,192,20702,1,0,0:0:0:0:
320,192,20702,1,0,0:0:0:0:
64,192,20702,1,0,0:0:0:0:
448,192,20927,1,0,0:0:0:0:
192,192,20927,1,0,0:0:0:0:
192,192,21077,1,0,0:0:0:0:
64,192,21077,1,0,0:0:0:0:
320,192,21077,1,0,0:0:0:0:
448,192,21227,1,0,0:0:0:0:
192,192,21227,1,0,0:0:0:0:
320,192,21302,1,0,0:0:0:0:
64,192,21302,1,0,0:0:0:0:
192,192,21527,1,0,0:0:0:0:
64,192,21677,1,0,0:0:0:0:
192,192,21677,1,0,0:0:0:0:
448,192,21677,1,0,0:0:0:0:
320,192,21752,1,0,0:0:0:0:
192,192,21827,1,0,0:0:0:0:
320,192,21977,1,0,0:0:0:0:
64,192,22127,1,0,0:0:0:0:
320,192,22127,1,0,0:0:0:0:
448,192,22127,1,0,0:0:0:0:
192,192,22202,1,0,0:0:0:0:
320,192,22277,1,0,0:0:0:0:
192,192,22427,1,0,0:0:0:0:
320,192,22577,1,0,0:0:0:0:
448,192,22577,1,0,0:0:0:0:
192,192,22652,1,0,0:0:0:0:
64,192,22652,1,0,0:0:0:0:
320,192,22727,1,0,0:0:0:0:
448,192,22727,1,0,0:0:0:0:
192,192,22802,1,0,0:0:0:0:
64,192,22802,1,0,0:0:0:0:
320,192,22877,1,0,0:0:0:0:
448,192,22877,128,0,23177:0:0:0:0:
64,192,23177,1,0,0:0:0:0:
64,192,23327,1,0,0:0:0:0:
448,192,23477,128,0,23777:0:0:0:0:
320,192,23477,1,0,0:0:0:0:
64,192,23777,1,0,0:0:0:0:
192,192,23777,1,0,0:0:0:0:
64,192,24077,1,0,0:0:0:0:
448,192,24077,1,0,0:0:0:0:
320,192,24077,1,0,0:0:0:0:
192,192,24227,1,0,0:0:0:0:
320,192,24302,1,0,0:0:0:0:
448,192,24377,1,0,0:0:0:0:
192,192,24527,1,0,0:0:0:0:
64,192,24527,1,0,0:0:0:0:
320,192,24602,1,0,0:0:0:0:
448,192,24677,1,0,0:0:0:0:
64,192,24677,1,0,0:0:0:0:
192,192,24977,1,0,0:0:0:0:
64,192,24977,1,0,0:0:0:0:
192,192,25127,1,0,0:0:0:0:
448,192,25127,1,0,0:0:0:0:
320,192,25202,1,0,0:0:0:0:
192,192,25277,1,0,0:0:0:0:
64,192,25277,1,0,0:0:0:0:
448,192,25277,1,0,0:0:0:0:
320,192,25427,1,0,0:0:0:0:
192,192,25502,1,0,0:0:0:0:
64,192,25577,1,0,0:0:0:0:
448,192,25727,1,0,0:0:0:0:
320,192,25727,1,0,0:0:0:0:
192,192,25802,1,0,0:0:0:0:
64,192,25877,1,0,0:0:0:0:
448,192,25877,1,0,0:0:0:0:
64,192,26177,1,0,0:0:0:0:
192,192,26177,1,0,0:0:0:0:
64,192,26327,1,0,0:0:0:0:
448,192,26327,1,0,0:0:0:0:
320,192,26402,1,0,0:0:0:0:
192,192,26477,1,0,0:0:0:0:
64,192,26477,1,0,0:0:0:0:
448,192,26477,1,0,0:0:0:0:
320,192,26627,1,0,0:0:0:0:
192,192,26702,1,0,0:0:0:0:
64,192,26777,1,0,0:0:0:0:
320,192,26927,1,0,0:0:0:0:
448,192,26927,1,0,0:0:0:0:
192,192,27002,1,0,0:0:0:0:
320,192,27077,1,0,0:0:0:0:
448,192,27077,1,0,0:0:0:0:
192,192,27227,1,0,0:0:0:0:
320,192,27302,1,0,0:0:0:0:
448,192,27377,1,0,0:0:0:0:
64,192,27527,1,0,0:0:0:0:
192,192,27527,1,0,0:0:0:0:
320,192,27602,1,0,0:0:0:0:
192,192,27677,1,0,0:0:0:0:
64,192,27677,1,0,0:0:0:0:
448,192,27777,1,0,0:0:0:0:
448,192,27877,1,0,0:0:0:0:
64,192,27977,1,0,0:0:0:0:
192,192,27977,1,0,0:0:0:0:
320,192,28077,1,0,0:0:0:0:
320,192,28177,1,0,0:0:0:0:
192,192,28277,1,0,0:0:0:0:
448,192,28277,1,0,0:0:0:0:
192,192,28577,128,0,28727:0:0:0:0:
64,192,28727,1,0,0:0:0:0:
320,192,28877,1,0,0:0:0:0:
192,192,28877,1,0,0:0:0:0:
448,192,28877,1,0,0:0:0:0:
64,192,29027,1,0,0:0:0:0:
320,192,29177,1,0,0:0:0:0:
448,192,29177,1,0,0:0:0:0:
64,192,29177,1,0,0:0:0:0:
192,192,29327,1,0,0:0:0:0:
64,192,29477,1,0,0:0:0:0:
192,192,29477,1,0,0:0:0:0:
320,192,29477,1,0,0:0:0:0:
448,192,29627,1,0,0:0:0:0:
448,192,29777,1,0,0:0:0:0:
64,192,29777,1,0,0:0:0:0:
192,192,29777,1,0,0:0:0:0:
320,192,29927,1,0,0:0:0:0:
64,192,30077,1,0,0:0:0:0:
320,192,30077,1,0,0:0:0:0:
448,192,30077,1,0,0:0:0:0:
192,192,30227,1,0,0:0:0:0:
448,192,30377,1,0,0:0:0:0:
320,192,30377,1,0,0:0:0:0:
192,192,30377,1,0,0:0:0:0:
64,192,30527,1,0,0:0:0:0:
192,192,30677,1,0,0:0:0:0:
64,192,30677,1,0,0:0:0:0:
448,192,30677,1,0,0:0:0:0:
320,192,30827,1,0,0:0:0:0:
192,192,30977,1,0,0:0:0:0:
448,192,30977,1,0,0:0:0:0:
320,192,30977,128,0,31127:0:0:0:0:
64,192,31127,1,0,0:0:0:0:
64,192,31277,1,0,0:0:0:0:
192,192,31277,1,0,0:0:0:0:
448,192,31277,1,0,0:0:0:0:
320,192,31427,1,0,0:0:0:0:
192,192,31577,1,0,0:0:0:0:
64,192,31577,1,0,0:0:0:0:
320,192,31577,1,0,0:0:0:0:
448,192,31727,1,0,0:0:0:0:
320,192,31877,1,0,0:0:0:0:
192,192,31877,1,0,0:0:0:0:
448,192,31877,1,0,0:0:0:0:
64,192,32027,1,0,0:0:0:0:
448,192,32177,1,0,0:0:0:0:
320,192,32177,1,0,0:0:0:0:
64,192,32177,1,0,0:0:0:0:
192,192,32327,1,0,0:0:0:0:
64,192,32477,1,0,0:0:0:0:
192,192,32477,1,0,0:0:0:0:
448,192,32477,1,0,0:0:0:0:
320,192,32552,1,0,0:0:0:0:
192,192,32627,1,0,0:0:0:0:
64,192,32777,1,0,0:0:0:0:
320,192,32777,1,0,0:0:0:0:
448,192,32777,1,0,0:0:0:0:
192,192,32927,1,0,0:0:0:0:
320,192,33077,128,0,33377:0:0:0:0:
64,192,33077,1,0,0:0:0:0:
448,192,33077,1,0,0:0:0:0:
192,192,33227,1,0,0:0:0:0:
64,192,33377,128,0,33527:0:0:0:0:
448,192,33377,1,0,0:0:0:0:
192,192,33377,1,0,0:0:0:0:
192,192,33677,1,0,0:0:0:0:
64,192,33677,1,0,0:0:0:0:
448,192,33677,1,0,0:0:0:0:
320,192,33977,1,0,0:0:0:0:
64,192,33977,1,0,0:0:0:0:
192,192,34127,1,0,0:0:0:0:
448,192,34127,1,0,0:0:0:0:
64,192,34127,1,0,0:0:0:0:
320,192,34277,1,0,0:0:0:0:
192,192,34277,1,0,0:0:0:0:
448,192,34277,1,0,0:0:0:0:
64,192,34577,1,0,0:0:0:0:
192,192,34577,1,0,0:0:0:0:
320,192,34877,1,0,0:0:0:0:
448,192,34877,1,0,0:0:0:0:
64,192,34877,1,0,0:0:0:0:
64,192,35177,1,0,0:0:0:0:
448,192,35177,1,0,0:0:0:0:
320,192,35327,1,0,0:0:0:0:
192,192,35327,1,0,0:0:0:0:
448,192,35327,1,0,0:0:0:0:
64,192,35477,1,0,0:0:0:0:
64,192,35627,1,0,0:0:0:0:
320,192,35627,1,0,0:0:0:0:
448,192,35627,1,0,0:0:0:0:
192,192,35777,1,0,0:0:0:0:
64,192,35927,1,0,0:0:0:0:
192,192,36077,1,0,0:0:0:0:
448,192,36077,1,0,0:0:0:0:
320,192,36077,1,0,0:0:0:0:
64,192,36377,1,0,0:0:0:0:
192,192,36377,1,0,0:0:0:0:
320,192,36527,1,0,0:0:0:0:
64,192,36527,1,0,0:0:0:0:
448,192,36527,1,0,0:0:0:0:
64,192,36677,1,0,0:0:0:0:
192,192,36677,1,0,0:0:0:0:
448,192,36677,1,0,0:0:0:0:
192,192,36977,1,0,0:0:0:0:
320,192,36977,1,0,0:0:0:0:
192,192,37277,1,0,0:0:0:0:
64,192,37277,1,0,0:0:0:0:
448,192,37277,1,0,0:0:0:0:
64,192,37577,1,0,0:0:0:0:
320,192,37577,1,0,0:0:0:0:
192,192,37727,1,0,0:0:0:0:
64,192,37727,1,0,0:0:0:0:
448,192,37727,1,0,0:0:0:0:
320,192,37877,1,0,0:0:0:0:
64,192,38027,1,0,0:0:0:0:
192,192,38027,1,0,0:0:0:0:
320,192,38027,1,0,0:0:0:0:
448,192,38177,1,0,0:0:0:0:
192,192,38477,1,0,0:0:0:0:
448,192,38477,1,0,0:0:0:0:
64,192,38477,1,0,0:0:0:0:
192,192,38627,128,0,38777:0:0:0:0:
64,192,38777,1,0,0:0:0:0:
320,192,38777,1,0,0:0:0:0:
448,192,38777,1,0,0:0:0:0:
320,192,38927,128,0,39077:0:0:0:0:
192,192,39077,1,0,0:0:0:0:
64,192,39077,1,0,0:0:0:0:
448,192,39077,1,0,0:0:0:0:
448,192,39227,128,0,39377:0:0:0:0:
320,192,39377,1,0,0:0:0:0:
192,192,39377,1,0,0:0:0:0:
64,192,39377,1,0,0:0:0:0:
192,192,39527,128,0,39677:0:0:0:0:
64,192,39677,1,0,0:0:0:0:
320,192,39677,1,0,0:0:0:0:
448,192,39677,1,0,0:0:0:0:
64,192,39827,128,0,39977:0:0:0:0:
192,192,39977,1,0,0:0:0:0:
320,192,39977,1,0,0:0:0:0:
448,192,39977,1,0,0:0:0:0:
192,192,40127,128,0,40277:0:0:0:0:
448,192,40277,1,0,0:0:0:0:
320,192,40277,1,0,0:0:0:0:
64,192,40277,1,0,0:0:0:0:
320,192,40427,128,0,40577:0:0:0:0:
64,192,40577,1,0,0:0:0:0:
192,192,40577,1,0,0:0:0:0:
448,192,40577,1,0,0:0:0:0:
448,192,40727,128,0,40877:0:0:0:0:
320,192,40877,1,0,0:0:0:0:
64,192,40877,1,0,0:0:0:0:
192,192,40877,1,0,0:0:0:0:
192,192,41027,128,0,41177:0:0:0:0:
320,192,41177,1,0,0:0:0:0:
448,192,41177,1,0,0:0:0:0:
64,192,41177,1,0,0:0:0:0:
320,192,41327,128,0,41477:0:0:0:0:
64,192,41477,1,0,0:0:0:0:
192,192,41477,1,0,0:0:0:0:
448,192,41477,1,0,0:0:0:0:
64,192,41627,128,0,41777:0:0:0:0:
192,192,41777,1,0,0:0:0:0:
320,192,41777,1,0,0:0:0:0:
448,192,41777,1,0,0:0:0:0:
192,192,41927,128,0,42077:0:0:0:0:
448,192,42077,1,0,0:0:0:0:
64,192,42077,1,0,0:0:0:0:
320,192,42152,1,0,0:0:0:0:
64,192,42227,1,0,0:0:0:0:
192,192,42302,1,0,0:0:0:0:
448,192,42377,1,0,0:0:0:0:
64,192,42377,1,0,0:0:0:0:
320,192,42452,1,0,0:0:0:0:
64,192,42527,1,0,0:0:0:0:
192,192,42602,1,0,0:0:0:0:
64,192,42677,1,0,0:0:0:0:
448,192,42677,1,0,0:0:0:0:
320,192,42677,1,0,0:0:0:0:
192,192,42977,1,0,0:0:0:0:
320,192,42977,1,0,0:0:0:0:
