osu file format v14

[General]
AudioFilename: 220 - Kumano.mp3
AudioLeadIn: 0
PreviewTime: 8040
Countdown: 0
SampleSet: Soft
StackLeniency: 0.7
Mode: 3
LetterboxInBreaks: 0
SpecialStyle: 0
WidescreenStoryboard: 0

[Editor]
Bookmarks: 3690,8490,28590,33690,38490
DistanceSpacing: 0.8
BeatDivisor: 4
GridSize: 4
TimelineZoom: 1.8

[Metadata]
Title:220 - Kumano
TitleUnicode:220 - Kumano
Artist:saradisk
ArtistUnicode:saradisk
Creator:JesusMD24
Version:Normal
Source:艦隊これくしょん -艦これ-
Tags:kancolle kantai collection
BeatmapID:1189645
BeatmapSetID:562394

[Difficulty]
HPDrainRate:7
CircleSize:4
OverallDifficulty:7
ApproachRate:5
SliderMultiplier:1.4
SliderTickRate:1

[Events]
//Background and Video events
0,0,"Background.jpg",0,0
//Break Periods
//Storyboard Layer 0 (Background)
//Storyboard Layer 1 (Fail)
//Storyboard Layer 2 (Pass)
//Storyboard Layer 3 (Foreground)
//Storyboard Sound Samples

[TimingPoints]
1290,300,4,2,1,40,1,0
28890,-100,4,2,1,40,0,1
33690,-100,4,2,1,40,0,0
38490,-100,4,2,1,40,0,1
42690,-100,4,2,1,40,0,0

[HitObjects]
448,192,1290,5,4,2:2:0:0:
64,192,1290,1,2,2:2:0:0:
192,192,1440,1,0,2:2:0:0:
320,192,1590,1,0,2:2:0:0:
448,192,1890,1,0,2:2:0:0:
64,192,2040,1,0,2:2:0:0:
320,192,2340,1,0,2:2:0:0:
192,192,2640,1,0,2:2:0:0:
192,192,2790,1,0,2:2:0:0:
320,192,3090,1,0,2:2:0:0:
64,192,3240,1,0,2:2:0:0:
192,192,3690,128,0,3840:2:2:0:0:
448,192,3840,128,0,3990:2:2:0:0:
320,192,3990,128,0,4140:2:2:0:0:
64,192,4140,128,0,4290:2:2:0:0:
192,192,4290,128,0,4440:2:2:0:0:
320,192,4440,128,0,4590:2:2:0:0:
448,192,4590,128,0,4740:2:2:0:0:
192,192,4740,128,0,4890:2:2:0:0:
64,192,4890,128,0,5040:2:2:0:0:
448,192,5040,128,0,5190:2:2:0:0:
320,192,5190,128,0,5340:2:2:0:0:
192,192,5340,128,0,5490:2:2:0:0:
64,192,5490,128,0,5640:2:2:0:0:
320,192,5640,128,0,5790:2:2:0:0:
448,192,5790,128,0,5940:2:2:0:0:
64,192,5940,128,0,6090:2:2:0:0:
192,192,6090,128,0,6240:2:2:0:0:
448,192,6240,128,0,6390:2:2:0:0:
320,192,6390,128,0,6540:2:2:0:0:
192,192,6540,128,0,6690:2:2:0:0:
64,192,6690,128,0,6840:2:2:0:0:
320,192,6840,128,0,6990:2:2:0:0:
448,192,6990,128,0,7140:2:2:0:0:
64,192,7140,128,0,7290:2:2:0:0:
192,192,7290,128,0,7440:2:2:0:0:
320,192,7440,128,0,7590:2:2:0:0:
448,192,7590,128,0,7740:2:2:0:0:
192,192,7740,128,0,7890:2:2:0:0:
64,192,7890,128,0,8040:2:2:0:0:
320,192,8040,1,10,2:2:0:0:
448,192,8190,1,10,2:2:0:0:
192,192,8340,1,10,2:2:0:0:
448,192,8490,1,4,2:2:0:0:
64,192,8490,1,2,2:2:0:0:
320,192,8640,128,0,8790:2:2:0:0:
192,192,8790,1,10,2:2:0:0:
64,192,8940,1,2,2:2:0:0:
192,192,9090,128,0,9240:2:2:0:0:
448,192,9240,1,10,2:2:0:0:
320,192,9390,1,2,2:2:0:0:
64,192,9540,1,2,2:2:0:0:
448,192,9690,1,2,2:2:0:0:
192,192,9840,128,0,9990:2:2:0:0:
320,192,9990,1,10,2:2:0:0:
448,192,10140,1,2,2:2:0:0:
64,192,10290,128,0,10440:2:2:0:0:
320,192,10440,1,10,2:2:0:0:
192,192,10590,128,2,10890:2:2:0:0:
64,192,10890,1,2,2:2:0:0:
448,192,11040,128,0,11190:2:2:0:0:
192,192,11190,1,10,2:2:0:0:
320,192,11340,1,2,2:2:0:0:
64,192,11490,128,0,11640:2:2:0:0:
448,192,11640,1,10,2:2:0:0:
192,192,11790,1,2,2:2:0:0:
320,192,11940,1,2,2:2:0:0:
448,192,12090,1,2,2:2:0:0:
64,192,12240,128,0,12390:2:2:0:0:
192,192,12390,1,10,2:2:0:0:
448,192,12540,1,2,2:2:0:0:
320,192,12690,128,0,12840:2:2:0:0:
192,192,12840,1,10,2:2:0:0:
64,192,12990,1,2,2:2:0:0:
448,192,13140,1,2,2:2:0:0:
320,192,13290,1,2,2:2:0:0:
192,192,13440,128,0,13590:2:2:0:0:
448,192,13590,1,10,2:2:0:0:
320,192,13740,1,2,2:2:0:0:
64,192,13890,128,0,14040:2:2:0:0:
448,192,14040,1,10,2:2:0:0:
192,192,14190,1,2,2:2:0:0:
320,192,14340,1,2,2:2:0:0:
448,192,14490,1,2,2:2:0:0:
64,192,14640,128,0,14790:2:2:0:0:
192,192,14790,1,10,2:2:0:0:
320,192,14940,1,2,2:2:0:0:
64,192,15090,128,0,15240:2:2:0:0:
448,192,15240,1,10,2:2:0:0:
192,192,15390,128,2,15690:2:2:0:0:
320,192,15690,1,2,2:2:0:0:
448,192,15840,128,0,15990:2:2:0:0:
64,192,15990,1,10,2:2:0:0:
320,192,16140,1,2,2:2:0:0:
64,192,16290,128,0,16440:2:2:0:0:
448,192,16440,1,10,2:2:0:0:
320,192,16590,1,2,2:2:0:0:
192,192,16740,1,2,2:2:0:0:
320,192,16890,1,2,2:2:0:0:
448,192,17040,128,0,17190:2:2:0:0:
64,192,17190,1,10,2:2:0:0:
192,192,17340,1,2,2:2:0:0:
448,192,17490,128,0,17640:2:2:0:0:
320,192,17640,1,10,2:2:0:0:
64,192,17790,1,2,2:2:0:0:
448,192,17940,1,10,2:2:0:0:
320,192,18090,1,2,2:2:0:0:
64,192,18240,128,0,18390:2:2:0:0:
192,192,18390,1,10,2:2:0:0:
320,192,18540,1,2,2:2:0:0:
448,192,18690,128,0,18840:2:2:0:0:
64,192,18840,1,10,2:2:0:0:
320,192,18990,1,2,2:2:0:0:
192,192,19140,1,2,2:2:0:0:
320,192,19290,1,0,2:2:0:0:
448,192,19290,1,2,2:2:0:0:
64,192,19590,1,10,2:2:0:0:
192,192,19890,1,2,2:2:0:0:
448,192,20040,1,2,2:2:0:0:
320,192,20190,1,0,2:2:0:0:
64,192,20340,1,10,2:2:0:0:
192,192,20490,1,2,2:2:0:0:
448,192,20715,1,2,2:2:0:0:
64,192,20940,1,8,2:2:0:0:
192,192,20940,1,2,2:2:0:0:
320,192,21090,1,2,2:2:0:0:
64,192,21315,1,10,2:2:0:0:
192,192,21540,1,2,2:2:0:0:
320,192,21690,1,2,2:2:0:0:
448,192,21840,128,0,21990:2:2:0:0:
64,192,21990,1,10,2:2:0:0:
320,192,22140,1,2,2:2:0:0:
64,192,22290,128,0,22440:2:2:0:0:
448,192,22440,1,10,2:2:0:0:
320,192,22590,128,2,22890:2:2:0:0:
64,192,22890,1,2,2:2:0:0:
448,192,23190,1,0,2:2:0:0:
320,192,23340,1,0,2:2:0:0:
448,192,23490,1,2,2:2:0:0:
192,192,23490,1,0,2:2:0:0:
64,192,23790,1,8,2:2:0:0:
320,192,23790,1,2,2:2:0:0:
192,192,24090,1,2,2:2:0:0:
64,192,24090,1,4,2:2:0:0:
448,192,24390,1,0,2:2:0:0:
192,192,24540,1,2,2:2:0:0:
320,192,24690,1,10,2:2:0:0:
64,192,24990,1,0,2:2:0:0:
192,192,25140,1,10,2:2:0:0:
448,192,25290,1,4,2:2:0:0:
320,192,25290,1,2,2:2:0:0:
64,192,25590,1,2,2:2:0:0:
320,192,25740,1,2,2:2:0:0:
192,192,25890,1,10,2:2:0:0:
448,192,26190,1,0,2:2:0:0:
320,192,26340,1,10,2:2:0:0:
448,192,26490,1,4,2:2:0:0:
192,192,26490,1,2,2:2:0:0:
64,192,26790,1,0,2:2:0:0:
192,192,26940,1,2,2:2:0:0:
448,192,27090,1,4,2:2:0:0:
320,192,27090,1,2,2:2:0:0:
64,192,27390,1,2,2:2:0:0:
192,192,27540,1,2,2:2:0:0:
320,192,27690,1,2,2:2:0:0:
448,192,27690,1,4,2:2:0:0:
448,192,27990,1,4,2:2:0:0:
64,192,27990,1,2,2:2:0:0:
64,192,28290,1,0,2:2:0:0:
192,192,28290,1,2,2:2:0:0:
320,192,28590,1,2,2:2:0:0:
192,192,28740,1,2,2:2:0:0:
448,192,28890,1,4,2:2:0:0:
64,192,28890,1,2,2:2:0:0:
192,192,29190,1,2,2:2:0:0:
448,192,29190,1,8,2:2:0:0:
64,192,29490,1,2,2:2:0:0:
192,192,29490,1,8,2:2:0:0:
448,192,29790,1,2,2:2:0:0:
64,192,29790,1,8,2:2:0:0:
448,192,30090,1,8,2:2:0:0:
320,192,30090,1,2,2:2:0:0:
320,192,30390,1,8,2:2:0:0:
64,192,30390,1,2,2:2:0:0:
192,192,30690,1,2,2:2:0:0:
64,192,30690,1,8,2:2:0:0:
192,192,30990,1,8,2:2:0:0:
448,192,30990,1,2,2:2:0:0:
320,192,31290,1,2,2:2:0:0:
448,192,31290,1,8,2:2:0:0:
64,192,31590,1,2,2:2:0:0:
320,192,31590,1,8,2:2:0:0:
64,192,31890,1,8,2:2:0:0:
192,192,31890,1,2,2:2:0:0:
320,192,32190,1,2,2:2:0:0:
448,192,32190,1,8,2:2:0:0:
64,192,32490,1,2,2:2:0:0:
320,192,32490,1,8,2:2:0:0:
448,192,32790,1,2,2:2:0:0:
64,192,32790,1,8,2:2:0:0:
320,192,33090,1,2,2:2:0:0:
192,192,33090,1,8,2:2:0:0:
320,192,33390,1,2,2:2:0:0:
448,192,33390,1,8,2:2:0:0:
192,192,33690,1,4,2:2:0:0:
64,192,33690,1,2,2:2:0:0:
64,192,33990,1,2,2:2:0:0:
448,192,33990,1,0,2:2:0:40:plash.wav
192,192,34140,1,2,2:2:0:0:
320,192,34290,1,2,2:2:0:0:
192,192,34590,1,2,2:2:0:0:
448,192,34590,1,0,2:2:0:40:plash.wav
448,192,34890,1,2,2:2:0:0:
192,192,35190,1,2,2:2:0:0:
320,192,35190,1,0,2:2:0:40:plash.wav
64,192,35340,1,2,2:2:0:0:
192,192,35640,1,2,2:2:0:0:
448,192,35790,1,2,2:2:0:0:
320,192,35790,1,0,2:2:0:40:plash.wav
64,192,36090,1,2,2:2:0:0:
64,192,36390,1,2,2:2:0:0:
448,192,36390,1,0,2:2:0:40:plash.wav
320,192,36540,1,2,2:2:0:0:
192,192,36690,1,2,2:2:0:0:
64,192,36990,1,2,2:2:0:0:
320,192,36990,1,0,2:2:0:40:plash.wav
448,192,37290,1,2,2:2:0:0:
320,192,37590,1,2,2:2:0:0:
192,192,37590,1,0,2:2:0:40:plash.wav
64,192,37740,1,2,2:2:0:0:
192,192,38040,1,2,2:2:0:0:
320,192,38190,1,2,2:2:0:0:
448,192,38190,1,0,2:2:0:40:plash.wav
448,192,38490,1,4,2:2:0:0:
64,192,38490,1,2,2:2:0:0:
320,192,38790,1,2,2:2:0:0:
64,192,38790,1,8,2:2:0:0:
320,192,39090,1,8,2:2:0:0:
448,192,39090,1,2,2:2:0:0:
192,192,39390,1,8,2:2:0:0:
64,192,39390,1,2,2:2:0:0:
192,192,39690,1,2,2:2:0:0:
448,192,39690,1,8,2:2:0:0:
64,192,39990,1,8,2:2:0:0:
448,192,39990,1,2,2:2:0:0:
192,192,40290,1,2,2:2:0:0:
320,192,40290,1,8,2:2:0:0:
448,192,40590,1,2,2:2:0:0:
64,192,40590,1,8,2:2:0:0:
320,192,40740,1,8,2:2:0:0:
448,192,40890,1,8,2:2:0:0:
192,192,40890,1,2,2:2:0:0:
64,192,41040,1,8,2:2:0:0:
320,192,41190,1,2,2:2:0:0:
192,192,41190,1,8,2:2:0:0:
448,192,41340,1,8,2:2:0:0:
64,192,41490,1,2,2:2:0:0:
320,192,41490,1,8,2:2:0:0:
192,192,41640,1,8,2:2:0:0:
448,192,41790,1,2,2:2:0:0:
64,192,41790,1,8,2:2:0:0:
192,192,41940,1,8,2:2:0:0:
320,192,42090,1,2,2:2:0:0:
448,192,42090,128,8,42240:2:2:0:0:
192,192,42390,1,2,2:2:0:0:
64,192,42390,128,8,42540:2:2:0:0:
448,192,42690,1,8,2:2:0:0:
320,192,42690,128,2,42840:2:2:0:0:
192,192,42990,128,0,43290:2:2:0:0:
448,192,42990,1,0,2:2:0:0:
