osu file format v14

[General]
AudioFilename: 220 - Kumano.mp3
AudioLeadIn: 0
PreviewTime: 8040
Countdown: 0
SampleSet: Soft
StackLeniency: 0.7
Mode: 3
LetterboxInBreaks: 0
SpecialStyle: 0
WidescreenStoryboard: 0

[Editor]
Bookmarks: 3690,8490,28590,33690,38490
DistanceSpacing: 0.8
BeatDivisor: 4
GridSize: 4
TimelineZoom: 1.8

[Metadata]
Title:220 - Kumano
TitleUnicode:220 - Kumano
Artist:saradisk
ArtistUnicode:saradisk
Creator:JesusMD24
Version:Hard
Source:艦隊これくしょん -艦これ-
Tags:kancolle kantai collection
BeatmapID:1189644
BeatmapSetID:562394

[Difficulty]
HPDrainRate:7.5
CircleSize:4
OverallDifficulty:7.5
ApproachRate:5
SliderMultiplier:1.4
SliderTickRate:1

[Events]
//Background and Video events
0,0,"Background.jpg",0,0
//Break Periods
//Storyboard Layer 0 (Background)
//Storyboard Layer 1 (Fail)
//Storyboard Layer 2 (Pass)
//Storyboard Layer 3 (Foreground)
//Storyboard Sound Samples

[TimingPoints]
1290,300,4,2,1,40,1,0
28890,-100,4,2,1,40,0,1
33690,-100,4,2,1,40,0,0
38490,-100,4,2,1,40,0,1
42690,-100,4,2,1,40,0,0

[HitObjects]
64,192,1290,5,2,2:2:0:0:
448,192,1290,1,4,2:2:0:0:
320,192,1290,1,0,2:2:0:0:
192,192,1440,1,0,2:2:0:0:
320,192,1590,1,0,2:2:0:0:
448,192,1890,1,0,2:2:0:0:
64,192,2040,1,0,2:2:0:0:
320,192,2340,1,0,2:2:0:0:
192,192,2640,1,0,2:2:0:0:
192,192,2790,1,0,2:2:0:0:
320,192,3090,1,0,2:2:0:0:
64,192,3240,1,0,2:2:0:0:
64,192,3690,1,0,2:2:0:0:
192,192,3790,1,0,2:2:0:0:
320,192,3890,1,0,2:2:0:0:
448,192,3990,1,0,2:2:0:0:
192,192,4090,1,0,2:2:0:0:
64,192,4190,1,0,2:2:0:0:
320,192,4290,1,0,2:2:0:0:
192,192,4390,1,0,2:2:0:0:
64,192,4490,1,0,2:2:0:0:
320,192,4590,1,0,2:2:0:0:
448,192,4690,1,0,2:2:0:0:
192,192,4790,1,0,2:2:0:0:
64,192,4890,1,0,2:2:0:0:
448,192,4990,1,0,2:2:0:0:
320,192,5090,1,0,2:2:0:0:
192,192,5190,1,0,2:2:0:0:
64,192,5290,1,0,2:2:0:0:
320,192,5390,1,0,2:2:0:0:
448,192,5490,1,0,2:2:0:0:
192,192,5590,1,0,2:2:0:0:
320,192,5690,1,0,2:2:0:0:
448,192,5790,1,0,2:2:0:0:
192,192,5890,1,0,2:2:0:0:
64,192,5990,1,0,2:2:0:0:
320,192,6090,1,0,2:2:0:0:
448,192,6190,1,0,2:2:0:0:
64,192,6290,1,0,2:2:0:0:
192,192,6390,1,0,2:2:0:0:
320,192,6490,1,0,2:2:0:0:
448,192,6590,1,0,2:2:0:0:
192,192,6690,1,0,2:2:0:0:
64,192,6790,1,0,2:2:0:0:
320,192,6890,1,0,2:2:0:0:
192,192,6990,1,0,2:2:0:0:
64,192,7090,1,0,2:2:0:0:
320,192,7190,1,0,2:2:0:0:
448,192,7290,1,0,2:2:0:0:
192,192,7390,1,0,2:2:0:0:
64,192,7490,1,0,2:2:0:0:
448,192,7590,1,0,2:2:0:0:
320,192,7690,1,0,2:2:0:0:
192,192,7790,1,0,2:2:0:0:
64,192,7890,1,0,2:2:0:0:
448,192,8040,1,8,2:2:0:0:
320,192,8040,1,2,2:2:0:0:
448,192,8190,1,2,2:2:0:0:
320,192,8190,1,8,2:2:0:0:
192,192,8340,1,2,2:2:0:0:
64,192,8340,1,8,2:2:0:0:
320,192,8490,1,4,2:2:0:0:
448,192,8490,1,2,2:2:0:0:
64,192,8490,1,0,2:2:0:0:
192,192,8640,1,0,2:2:0:0:
320,192,8715,1,0,2:2:0:0:
448,192,8790,1,2,2:2:0:0:
64,192,8790,1,8,2:2:0:0:
320,192,8940,1,2,2:2:0:0:
64,192,9090,1,0,2:2:0:0:
192,192,9165,1,0,2:2:0:0:
320,192,9240,1,2,2:2:0:0:
448,192,9240,1,8,2:2:0:0:
192,192,9390,1,2,2:2:0:0:
192,192,9540,1,2,2:2:0:0:
320,192,9690,1,2,2:2:0:0:
448,192,9690,1,0,2:2:0:0:
192,192,9840,1,0,2:2:0:0:
448,192,9915,1,0,2:2:0:0:
320,192,9990,1,2,2:2:0:0:
64,192,9990,1,8,2:2:0:0:
192,192,10140,1,2,2:2:0:0:
448,192,10290,1,0,2:2:0:0:
320,192,10365,1,0,2:2:0:0:
64,192,10440,1,8,2:2:0:0:
448,192,10440,1,2,2:2:0:0:
192,192,10590,1,2,2:2:0:0:
320,192,10665,1,2,2:2:0:0:
192,192,10740,1,2,2:2:0:0:
320,192,10815,1,2,2:2:0:0:
448,192,10890,1,2,2:2:0:0:
64,192,10890,1,0,2:2:0:0:
320,192,11040,1,0,2:2:0:0:
448,192,11115,1,0,2:2:0:0:
192,192,11190,1,2,2:2:0:0:
64,192,11190,1,8,2:2:0:0:
320,192,11340,1,2,2:2:0:0:
192,192,11490,1,0,2:2:0:0:
64,192,11565,1,0,2:2:0:0:
192,192,11640,1,2,2:2:0:0:
448,192,11640,1,8,2:2:0:0:
320,192,11790,1,2,2:2:0:0:
320,192,11940,1,2,2:2:0:0:
448,192,12090,1,2,2:2:0:0:
192,192,12090,1,0,2:2:0:0:
64,192,12240,1,0,2:2:0:0:
192,192,12315,1,2,2:2:0:0:
320,192,12390,1,2,2:2:0:0:
448,192,12390,1,8,2:2:0:0:
192,192,12540,1,2,2:2:0:0:
448,192,12690,1,0,2:2:0:0:
320,192,12765,1,0,2:2:0:0:
192,192,12840,1,8,2:2:0:0:
64,192,12840,1,2,2:2:0:0:
448,192,12990,1,2,2:2:0:0:
64,192,13065,1,2,2:2:0:0:
448,192,13140,1,2,2:2:0:0:
64,192,13215,1,2,2:2:0:0:
192,192,13290,1,0,2:2:0:0:
320,192,13290,1,2,2:2:0:0:
448,192,13440,1,0,2:2:0:0:
192,192,13515,1,0,2:2:0:0:
64,192,13590,1,2,2:2:0:0:
448,192,13590,1,8,2:2:0:0:
320,192,13740,1,2,2:2:0:0:
64,192,13890,1,0,2:2:0:0:
192,192,13965,1,0,2:2:0:0:
320,192,14040,1,2,2:2:0:0:
448,192,14040,1,8,2:2:0:0:
192,192,14190,1,2,2:2:0:0:
192,192,14340,1,2,2:2:0:0:
320,192,14490,1,2,2:2:0:0:
64,192,14490,1,0,2:2:0:0:
448,192,14640,1,0,2:2:0:0:
320,192,14715,1,0,2:2:0:0:
192,192,14790,1,2,2:2:0:0:
64,192,14790,1,8,2:2:0:0:
320,192,14940,1,2,2:2:0:0:
192,192,15090,1,0,2:2:0:0:
64,192,15165,1,0,2:2:0:0:
320,192,15240,1,2,2:2:0:0:
448,192,15240,1,8,2:2:0:0:
192,192,15390,1,2,2:2:0:0:
320,192,15465,1,2,2:2:0:0:
192,192,15540,1,2,2:2:0:0:
320,192,15615,1,2,2:2:0:0:
64,192,15690,1,2,2:2:0:0:
448,192,15690,1,0,2:2:0:0:
448,192,15840,1,0,2:2:0:0:
320,192,15915,1,0,2:2:0:0:
192,192,15990,1,2,2:2:0:0:
64,192,15990,1,8,2:2:0:0:
448,192,16140,1,2,2:2:0:0:
64,192,16290,1,0,2:2:0:0:
192,192,16365,1,0,2:2:0:0:
320,192,16440,1,8,2:2:0:0:
448,192,16440,1,2,2:2:0:0:
64,192,16590,1,2,2:2:0:0:
320,192,16740,1,2,2:2:0:0:
320,192,16890,1,2,2:2:0:0:
64,192,16890,1,0,2:2:0:0:
192,192,17040,1,0,2:2:0:0:
320,192,17115,1,0,2:2:0:0:
64,192,17190,1,2,2:2:0:0:
448,192,17190,1,8,2:2:0:0:
192,192,17340,1,2,2:2:0:0:
320,192,17490,1,0,2:2:0:0:
448,192,17565,1,0,2:2:0:0:
64,192,17640,1,2,2:2:0:0:
192,192,17640,1,8,2:2:0:0:
320,192,17790,1,2,2:2:0:0:
192,192,17865,1,2,2:2:0:0:
448,192,17940,1,2,2:2:0:0:
320,192,17940,1,8,2:2:0:0:
64,192,18015,1,2,2:2:0:0:
192,192,18090,1,2,2:2:0:0:
448,192,18240,1,0,2:2:0:0:
320,192,18315,1,0,2:2:0:0:
192,192,18390,1,2,2:2:0:0:
448,192,18390,1,8,2:2:0:0:
64,192,18540,1,2,2:2:0:0:
448,192,18690,1,0,2:2:0:0:
192,192,18765,1,0,2:2:0:0:
320,192,18840,1,2,2:2:0:0:
448,192,18840,1,8,2:2:0:0:
64,192,18990,1,2,2:2:0:0:
192,192,18990,1,0,2:2:0:0:
192,192,19140,1,2,2:2:0:0:
64,192,19140,1,0,2:2:0:0:
448,192,19290,1,2,2:2:0:0:
320,192,19290,1,0,2:2:0:0:
64,192,19590,1,2,2:2:0:0:
448,192,19590,1,8,2:2:0:0:
320,192,19740,1,0,2:2:0:0:
64,192,19890,1,2,2:2:0:0:
192,192,19890,1,0,2:2:0:0:
320,192,20040,1,2,2:2:0:0:
448,192,20040,1,0,2:2:0:0:
192,192,20190,1,0,2:2:0:0:
320,192,20340,1,2,2:2:0:0:
64,192,20340,1,8,2:2:0:0:
192,192,20490,1,2,2:2:0:0:
448,192,20490,1,0,2:2:0:0:
448,192,20715,1,0,2:2:0:0:
320,192,20715,1,2,2:2:0:0:
192,192,20940,1,2,2:2:0:0:
64,192,20940,1,8,2:2:0:0:
320,192,21090,1,2,2:2:0:0:
448,192,21240,1,2,2:2:0:0:
320,192,21315,1,2,2:2:0:0:
64,192,21315,1,8,2:2:0:0:
192,192,21540,1,2,2:2:0:0:
320,192,21690,1,2,2:2:0:0:
64,192,21840,1,0,2:2:0:0:
320,192,21915,1,0,2:2:0:0:
448,192,21990,1,8,2:2:0:0:
192,192,21990,1,2,2:2:0:0:
320,192,22140,1,2,2:2:0:0:
448,192,22290,1,0,2:2:0:0:
192,192,22365,1,0,2:2:0:0:
320,192,22440,1,2,2:2:0:0:
64,192,22440,1,8,2:2:0:0:
448,192,22590,1,2,2:2:0:0:
192,192,22665,1,2,2:2:0:0:
448,192,22740,1,2,2:2:0:0:
192,192,22815,1,2,2:2:0:0:
448,192,22890,1,2,2:2:0:0:
320,192,22890,1,0,2:2:0:0:
448,192,23190,1,0,2:2:0:0:
320,192,23340,1,0,2:2:0:0:
192,192,23490,1,0,2:2:0:0:
448,192,23490,1,2,2:2:0:0:
64,192,23790,1,8,2:2:0:0:
320,192,23790,1,2,2:2:0:0:
64,192,24090,1,0,2:2:0:0:
192,192,24090,1,2,2:2:0:0:
448,192,24090,1,4,2:2:0:0:
320,192,24240,1,0,2:2:0:0:
448,192,24390,1,0,2:2:0:0:
192,192,24540,1,2,2:2:0:0:
64,192,24540,1,0,2:2:0:0:
448,192,24690,1,8,2:2:0:0:
320,192,24690,1,2,2:2:0:0:
320,192,24990,1,0,2:2:0:0:
448,192,25140,1,8,2:2:0:0:
192,192,25140,1,2,2:2:0:0:
448,192,25290,1,4,2:2:0:0:
64,192,25290,1,0,2:2:0:0:
320,192,25290,1,2,2:2:0:0:
192,192,25440,1,0,2:2:0:0:
64,192,25590,1,2,2:2:0:0:
320,192,25740,1,2,2:2:0:0:
448,192,25740,1,0,2:2:0:0:
192,192,25890,1,2,2:2:0:0:
64,192,25890,1,8,2:2:0:0:
448,192,26190,1,0,2:2:0:0:
192,192,26190,1,0,2:2:0:0:
64,192,26340,1,2,2:2:0:0:
320,192,26340,1,8,2:2:0:0:
64,192,26490,1,4,2:2:0:0:
448,192,26490,1,0,2:2:0:0:
192,192,26490,1,2,2:2:0:0:
320,192,26640,1,0,2:2:0:0:
64,192,26790,1,0,2:2:0:0:
192,192,26940,1,2,2:2:0:0:
448,192,27090,1,4,2:2:0:0:
320,192,27090,1,0,2:2:0:0:
64,192,27090,1,2,2:2:0:0:
192,192,27240,1,0,2:2:0:0:
448,192,27390,1,2,2:2:0:0:
64,192,27540,1,2,2:2:0:0:
448,192,27690,1,2,2:2:0:0:
320,192,27690,1,4,2:2:0:0:
192,192,27790,1,0,2:2:0:0:
320,192,27890,1,0,2:2:0:0:
448,192,27990,1,4,2:2:0:0:
64,192,27990,1,2,2:2:0:0:
192,192,28090,1,0,2:2:0:0:
320,192,28190,1,0,2:2:0:0:
64,192,28290,1,0,2:2:0:0:
192,192,28290,1,2,2:2:0:0:
192,192,28590,1,2,2:2:0:0:
192,192,28740,1,2,2:2:0:0:
448,192,28890,1,4,2:2:0:0:
320,192,28890,1,2,2:2:0:0:
64,192,28890,1,0,2:2:0:0:
192,192,29040,1,0,2:2:0:40:LR3_HiHat Normal.wav
448,192,29190,1,8,2:2:0:0:
64,192,29190,1,2,2:2:0:0:
320,192,29340,1,0,2:2:0:40:LR3_HiHat Normal.wav
64,192,29490,1,2,2:2:0:0:
192,192,29490,1,8,2:2:0:0:
448,192,29640,1,0,2:2:0:40:LR3_HiHat Normal.wav
320,192,29790,1,2,2:2:0:0:
192,192,29790,1,8,2:2:0:0:
64,192,29940,1,0,2:2:0:40:LR3_HiHat Normal.wav
320,192,30090,1,8,2:2:0:0:
448,192,30090,1,2,2:2:0:0:
192,192,30240,1,0,2:2:0:40:LR3_HiHat Normal.wav
64,192,30390,1,2,2:2:0:0:
320,192,30390,1,8,2:2:0:0:
448,192,30540,1,0,2:2:0:40:LR3_HiHat Normal.wav
64,192,30690,1,2,2:2:0:0:
192,192,30690,1,8,2:2:0:0:
320,192,30840,1,0,2:2:0:40:LR3_HiHat Normal.wav
448,192,30990,1,2,2:2:0:0:
192,192,30990,1,8,2:2:0:0:
64,192,31140,1,0,2:2:0:40:LR3_HiHat Normal.wav
448,192,31290,1,8,2:2:0:0:
320,192,31290,1,2,2:2:0:0:
192,192,31440,1,0,2:2:0:40:LR3_HiHat Normal.wav
448,192,31590,1,8,2:2:0:0:
64,192,31590,1,2,2:2:0:0:
320,192,31740,1,0,2:2:0:40:LR3_HiHat Normal.wav
64,192,31890,1,2,2:2:0:0:
192,192,31890,1,8,2:2:0:0:
448,192,32040,1,0,2:2:0:40:LR3_HiHat Normal.wav
320,192,32190,1,2,2:2:0:0:
192,192,32190,1,8,2:2:0:0:
64,192,32340,1,0,2:2:0:40:LR3_HiHat Normal.wav
448,192,32490,1,2,2:2:0:0:
192,192,32490,1,8,2:2:0:0:
320,192,32640,1,0,2:2:0:40:LR3_HiHat Normal.wav
64,192,32790,1,2,2:2:0:0:
448,192,32790,1,8,2:2:0:0:
192,192,32940,1,0,2:2:0:40:LR3_HiHat Normal.wav
320,192,33090,1,8,2:2:0:0:
448,192,33090,1,2,2:2:0:0:
192,192,33240,1,0,2:2:0:40:LR3_HiHat Normal.wav
64,192,33390,1,8,2:2:0:0:
448,192,33390,1,2,2:2:0:0:
320,192,33540,1,0,2:2:0:40:LR3_HiHat Normal.wav
192,192,33690,1,0,2:2:0:0:
64,192,33690,1,2,2:2:0:0:
448,192,33690,1,4,2:2:0:0:
192,192,33840,1,0,2:2:0:0:
64,192,33990,1,2,2:2:0:0:
448,192,33990,1,0,2:2:0:40:plash.wav
192,192,34140,1,2,2:2:0:0:
320,192,34140,1,0,2:2:0:0:
320,192,34290,1,2,2:2:0:0:
448,192,34290,1,0,2:2:0:0:
64,192,34440,1,0,2:2:0:0:
192,192,34590,1,2,2:2:0:0:
448,192,34590,1,0,2:2:0:40:plash.wav
320,192,34740,1,0,2:2:0:0:
64,192,34890,1,2,2:2:0:0:
192,192,34890,1,0,2:2:0:0:
320,192,35040,1,0,2:2:0:0:
448,192,35190,1,2,2:2:0:0:
64,192,35190,1,0,2:2:0:40:plash.wav
192,192,35340,1,2,2:2:0:0:
320,192,35340,1,0,2:2:0:0:
192,192,35640,1,2,2:2:0:0:
448,192,35640,1,0,2:2:0:0:
320,192,35790,1,2,2:2:0:0:
64,192,35790,1,0,2:2:0:40:plash.wav
192,192,35940,1,0,2:2:0:0:
448,192,36090,1,2,2:2:0:0:
64,192,36090,1,0,2:2:0:0:
320,192,36240,1,0,2:2:0:0:
192,192,36390,1,2,2:2:0:0:
64,192,36390,1,0,2:2:0:40:plash.wav
320,192,36540,1,2,2:2:0:0:
448,192,36540,1,0,2:2:0:0:
64,192,36690,1,2,2:2:0:0:
448,192,36690,1,0,2:2:0:0:
192,192,36840,1,0,2:2:0:0:
320,192,36990,1,2,2:2:0:0:
448,192,36990,1,0,2:2:0:40:plash.wav
64,192,37140,1,0,2:2:0:0:
320,192,37290,1,2,2:2:0:0:
192,192,37290,1,0,2:2:0:0:
448,192,37440,1,0,2:2:0:0:
192,192,37590,1,2,2:2:0:0:
64,192,37590,1,0,2:2:0:40:plash.wav
320,192,37740,1,2,2:2:0:0:
64,192,37740,1,0,2:2:0:0:
448,192,37890,1,0,2:2:0:0:
192,192,38040,1,2,2:2:0:0:
320,192,38040,1,0,2:2:0:0:
64,192,38190,1,2,2:2:0:0:
448,192,38190,1,0,2:2:0:40:plash.wav
320,192,38340,1,0,2:2:0:0:
192,192,38490,1,2,2:2:0:0:
64,192,38490,1,4,2:2:0:0:
448,192,38490,1,0,2:2:0:0:
320,192,38640,1,0,2:2:0:40:LR3_HiHat Normal.wav
64,192,38790,1,2,2:2:0:0:
448,192,38790,1,8,2:2:0:0:
192,192,38940,1,0,2:2:0:40:LR3_HiHat Normal.wav
448,192,39090,1,8,2:2:0:0:
320,192,39090,1,2,2:2:0:0:
64,192,39240,1,0,2:2:0:40:LR3_HiHat Normal.wav
192,192,39390,1,8,2:2:0:0:
320,192,39390,1,2,2:2:0:0:
448,192,39540,1,0,2:2:0:40:LR3_HiHat Normal.wav
320,192,39690,1,8,2:2:0:0:
64,192,39690,1,2,2:2:0:0:
192,192,39840,1,0,2:2:0:40:LR3_HiHat Normal.wav
64,192,39990,1,2,2:2:0:0:
448,192,39990,1,8,2:2:0:0:
320,192,40140,1,0,2:2:0:40:LR3_HiHat Normal.wav
448,192,40290,1,2,2:2:0:0:
192,192,40290,1,8,2:2:0:0:
64,192,40440,1,0,2:2:0:40:LR3_HiHat Normal.wav
192,192,40590,1,2,2:2:0:0:
320,192,40590,1,8,2:2:0:0:
448,192,40740,1,8,2:2:0:0:
448,192,40890,1,8,2:2:0:0:
192,192,40890,1,2,2:2:0:0:
64,192,41040,1,8,2:2:0:0:
64,192,41190,1,8,2:2:0:0:
320,192,41190,1,2,2:2:0:0:
448,192,41340,1,8,2:2:0:0:
320,192,41490,1,2,2:2:0:0:
192,192,41490,1,8,2:2:0:0:
64,192,41640,1,8,2:2:0:0:
448,192,41790,1,2,2:2:0:0:
192,192,41790,1,8,2:2:0:0:
320,192,41940,1,8,2:2:0:0:
448,192,42090,1,8,2:2:0:0:
64,192,42090,1,2,2:2:0:0:
192,192,42165,1,8,2:2:0:0:
320,192,42240,1,8,2:2:0:0:
64,192,42390,1,8,2:2:0:0:
448,192,42390,1,2,2:2:0:0:
320,192,42465,1,8,2:2:0:0:
192,192,42540,1,8,2:2:0:0:
448,192,42690,1,8,2:2:0:0:
64,192,42690,1,2,2:2:0:0:
192,192,42765,1,8,2:2:0:0:
320,192,42840,1,8,2:2:0:0:
448,192,42990,1,0,2:2:0:0:
192,192,42990,128,0,43290:2:2:0:0:
