osu file format v14

[General]
AudioFilename: 176 - ikazuchi.mp3
AudioLeadIn: 0
PreviewTime: 27456
Countdown: 0
SampleSet: Soft
StackLeniency: 0.7
Mode: 0
LetterboxInBreaks: 0
WidescreenStoryboard: 0

[Editor]
DistanceSpacing: 1.3
BeatDivisor: 4
GridSize: 4
TimelineZoom: 2

[Metadata]
Title:176 - ikazuchi
TitleUnicode:176 - ikazuchi
Artist:saradisk
ArtistUnicode:saradisk
Creator:Nozhomi
Version:Euny's Hard
Source:艦隊これくしょん -艦これ-
Tags:kantai collection kancolle remix okoratu aia enon euny ovoui
BeatmapID:795108
BeatmapSetID:360417

[Difficulty]
HPDrainRate:5.5
CircleSize:4
OverallDifficulty:6
ApproachRate:7
SliderMultiplier:1.6
SliderTickRate:1

[Events]
//Background and Video events
0,0,"moebg.jpg",0,0
//Break Periods
//Storyboard Layer 0 (Background)
//Storyboard Layer 1 (Fail)
//Storyboard Layer 2 (Pass)
//Storyboard Layer 3 (Foreground)
//Storyboard Sound Samples

[TimingPoints]
456,428.571428571429,4,2,1,80,1,0
12456,-100,4,2,1,70,0,0
14170,-100,4,2,1,80,0,0
27991,-100,4,2,1,90,0,0
41170,-100,4,2,1,80,0,0
41598,-83.3333333333333,4,2,1,80,0,1
41706,-83.3333333333333,4,2,1,100,0,1
48241,-83.3333333333333,4,2,1,100,0,0
48456,-83.3333333333333,4,2,1,100,0,1
54884,-100,4,2,1,100,0,0
55313,-100,4,2,2,100,0,0
55741,-100,4,2,2,80,0,0
56170,-100,4,2,2,60,0,0
56598,-100,4,2,2,40,0,0
57027,-100,4,2,2,20,0,0
57456,-100,4,2,2,10,0,0

[Colours]
Combo1 : 214,145,112
Combo2 : 128,255,255
Combo3 : 240,235,9
Combo4 : 231,99,102
Combo5 : 63,157,226

[HitObjects]
45,359,27,6,0,L|35:264,1,80,2|2,0:0|0:0,0:0:0:0:
14,177,456,6,0,P|48:195|88:195,1,80,0|0,0:0|0:0,0:0:0:0:
183,152,884,2,0,L|216:246,1,80,8|0,0:0|0:0,0:0:0:0:
248,324,1313,2,0,P|288:295|338:296,1,80,8|0,0:0|0:0,0:0:0:0:
365,310,1634,2,0,L|353:207,1,80,0|0,0:0|0:0,0:0:0:0:
347,178,1956,1,0,0:0:0:0:
255,120,2170,6,0,P|221:140|182:151,1,80,10|0,0:0|0:0,0:0:0:0:
100,87,2598,2,0,P|61:97|27:118,1,80,8|0,0:0|0:0,0:0:0:0:
66,215,3027,2,0,L|78:321,1,80,8|0,0:0|0:0,0:0:0:0:
86,344,3348,2,0,P|121:326|160:323,1,80,8|0,0:0|0:0,0:0:0:0:
209,341,3670,2,0,L|254:300,1,40,8|8,0:0|0:0,0:0:0:0:
283,288,3884,6,0,L|388:303,1,80,10|0,0:0|0:0,0:0:0:0:
456,344,4313,2,0,P|468:297|461:243,1,80,8|0,0:0|0:0,0:0:0:0:
439,165,4742,2,0,L|329:150,1,80,8|0,0:0|0:0,0:0:0:0:
309,165,5063,2,0,P|312:214|300:259,1,80,8|0,0:0|0:0,0:0:0:0:
283,288,5384,1,8,0:0:0:0:
283,288,5598,5,10,0:0:0:0:
280,107,7313,6,0,L|272:223,1,80,4|2,1:0|0:0,0:0:0:0:
260,289,7741,2,0,P|220:292|183:279,1,80,8|2,0:0|0:0,0:0:0:0:
144,182,8170,2,0,P|109:160|70:158,1,80,8|2,0:0|0:0,0:0:0:0:
23,179,8491,2,0,L|11:266,1,80,8|0,0:0|0:0,0:0:0:0:
5,310,8813,1,8,0:0:0:0:
99,353,9027,6,0,P|136:360|174:346,1,80,8|2,0:0|0:0,0:0:0:0:
260,289,9456,2,0,L|373:314,1,80,8|2,0:0|0:0,0:0:0:0:
441,305,9884,2,0,P|433:267|435:227,1,80,8|2,0:0|0:0,0:0:0:0:
452,176,10206,2,0,L|386:119,1,80,8|0,0:0|0:0,0:0:0:0:
349,93,10527,2,0,L|296:102,1,40,8|8,0:0|0:0,0:0:0:0:
257,111,10741,6,0,P|213:121|176:112,1,80,8|2,0:0|0:0,0:0:0:0:
77,93,11170,2,0,L|57:188,1,80,8|2,0:0|0:0,0:0:0:0:
32,271,11598,2,0,P|74:268|129:297,1,80,8|2,0:0|0:0,0:0:0:0:
140,322,11920,2,0,P|177:333|215:322,1,80,8|0,0:0|0:0,0:0:0:0:
257,291,12241,1,8,0:0:0:0:
193,208,12456,6,0,P|185:169|194:130,1,80,8|2,0:0|0:0,0:0:0:0:
279,73,12884,2,0,L|389:49,1,80,0|2,0:0|0:0,0:0:0:0:
458,32,13313,2,0,P|451:73|465:121,1,80,0|2,0:0|0:0,0:0:0:0:
505,202,13741,1,2,0:1:0:0:
505,202,13956,1,2,0:1:0:0:
466,298,14170,6,0,P|426:292|388:301,1,80,4|0,1:0|0:0,0:0:0:0:
306,366,14598,2,0,P|267:375|228:369,1,80,8|0,0:0|0:0,0:0:0:0:
140,314,15027,2,0,L|104:216,1,80,8|0,0:0|0:0,0:0:0:0:
89,191,15348,2,0,P|124:174|149:143,1,80,8|0,0:0|0:0,0:0:0:0:
178,100,15670,1,8,0:0:0:0:
252,27,15884,6,0,L|346:54,1,80,8|0,0:0|0:0,0:0:0:0:
353,150,16313,2,0,L|259:123,1,80,8|0,0:0|0:0,0:0:0:0:
178,100,16742,2,0,P|186:143|179:181,1,80,8|0,0:0|0:0,0:0:0:0:
159,225,17063,2,0,L|247:254,1,80,8|0,0:0|0:0,0:0:0:0:
280,275,17384,2,0,P|273:293|272:313,1,40,8|8,0:0|0:0,0:0:0:0:
297,359,17598,6,0,L|389:362,1,80,8|0,0:0|0:0,0:0:0:0:
481,359,18027,2,0,P|468:321|468:281,1,80,8|0,0:0|0:0,0:0:0:0:
497,180,18456,2,0,L|404:157,1,80,8|0,0:0|0:0,0:0:0:0:
369,145,18777,2,0,P|375:106|364:68,1,80,8|0,0:0|0:0,0:0:0:0:
332,27,19098,1,8,0:0:0:0:
236,68,19313,6,0,P|188:80|126:66,1,80,8|0,0:0|0:0,0:0:0:0:
61,38,19741,2,0,L|54:140,1,80,8|0,0:0|0:0,0:0:0:0:
48,221,20170,1,0,0:0:0:0:
99,321,20384,1,0,0:0:0:0:
153,232,20598,1,0,0:0:0:0:
99,321,20813,1,8,0:0:0:0:
99,321,20920,1,0,0:0:0:0:
99,321,21027,6,0,P|136:334|176:333,1,80,4|2,1:0|0:0,0:0:0:0:
275,303,21456,2,0,L|262:217,1,80,8|2,0:0|0:0,0:0:0:0:
248,121,21884,2,0,P|287:124|327:117,1,80,8|2,0:0|0:0,0:0:0:0:
371,88,22206,2,0,L|450:148,1,80,8|0,0:0|0:0,0:0:0:0:
473,170,22527,1,8,0:0:0:0:
468,273,22741,6,0,P|429:276|392:291,1,80,8|2,0:0|0:0,0:0:0:0:
299,338,23170,2,0,P|260:349|214:346,1,80,8|2,0:0|0:0,0:0:0:0:
118,332,23598,2,0,L|107:223,1,80,8|2,0:0|0:0,0:0:0:0:
101,200,23920,2,0,P|97:150|72:121,1,80,8|0,0:0|0:0,0:0:0:0:
77,75,24241,2,0,L|120:36,1,40,8|8,0:0|0:0,0:0:0:0:
160,46,24456,6,0,L|250:59,1,80,8|2,0:0|0:0,0:0:0:0:
340,73,24884,2,0,P|340:112|353:150,1,80,8|2,0:0|0:0,0:0:0:0:
414,235,25313,2,0,P|364:253|322:247,1,80,8|2,0:0|0:0,0:0:0:0:
286,249,25634,2,0,L|223:329,1,80,8|0,0:0|0:0,0:0:0:0:
197,346,25956,1,8,0:0:0:0:
197,346,26170,1,8,0:0:0:0:
153,236,26384,6,0,L|118:215,2,40,0|0|2,3:0|3:0|0:0,0:0:0:0:
252,270,26813,1,0,3:0:0:0:
289,173,27027,2,0,L|332:141,2,40,10|8|8,0:0|0:0|0:0,0:0:0:0:
191,135,27456,1,2,0:1:0:0:
191,135,27670,1,2,0:1:0:0:
141,42,27884,6,0,P|91:101|97:179,1,160,4|8,0:0|0:0,0:0:0:0:
237,41,28741,2,0,P|287:100|287:165,1,120,8|8,0:0|0:0,0:0:0:0:
262,182,29170,2,0,L|352:189,1,80,0|2,0:0|0:0,0:0:0:0:
444,200,29598,5,8,0:0:0:0:
444,200,29813,1,0,0:0:0:0:
453,96,30027,2,0,P|443:52|409:21,1,80,8|0,0:0|0:0,0:0:0:0:
316,31,30456,2,0,L|214:43,1,80,8|0,0:0|0:0,0:0:0:0:
189,61,30777,2,0,L|128:49,1,40,8|0,0:0|0:0,0:0:0:0:
48,28,31098,1,10,0:0:0:0:
48,28,31205,1,8,0:0:0:0:
48,28,31312,6,0,P|41:70|53:108,1,80,8|0,0:0|0:0,0:0:0:0:
140,160,31741,2,0,P|147:202|135:240,1,80,8|0,0:0|0:0,0:0:0:0:
38,272,32170,2,0,P|31:314|43:352,1,80,8|0,0:0|0:0,0:0:0:0:
81,382,32491,2,0,L|146:368,1,40,8|0,0:0|0:0,0:0:0:0:
222,351,32813,1,2,0:0:0:0:
318,311,33027,6,0,P|297:277|249:250,1,80,8|2,0:0|0:0,0:0:0:0:
161,238,33456,2,0,P|136:206|127:152,1,80,8|2,0:0|0:0,0:0:0:0:
162,70,33884,2,0,P|202:77|246:68,1,80,8|2,0:0|0:0,0:0:0:0:
290,53,34206,2,0,L|346:75,1,40,8|0,0:0|0:0,0:0:0:0:
418,118,34527,1,8,0:0:0:0:
418,118,34634,1,8,0:0:0:0:
418,118,34741,6,0,B|385:172|404:242|404:242|429:222,1,160,4|8,1:0|0:0,0:0:0:0:
511,159,35384,1,0,0:0:0:0:
418,118,35598,2,0,P|380:128|341:122,1,80,8|0,0:0|0:0,0:0:0:0:
288,130,35920,2,0,L|233:155,1,40,8|0,0:0|0:0,0:0:0:0:
157,190,36241,1,2,0:0:0:0:
97,105,36456,6,0,B|153:82|153:82|186:32,1,120,8|0,0:0|0:0,0:0:0:0:
186,32,36884,2,0,L|269:38,1,80,8|0,0:0|0:0,0:0:0:0:
368,57,37313,1,8,0:0:0:0:
467,28,37527,2,0,L|514:-5,2,40,0|8|0,0:0|0:0|0:0,0:0:0:0:
368,57,37956,1,8,0:0:0:0:
443,128,38170,5,8,0:0:0:0:
443,128,38384,1,2,0:0:0:0:
487,221,38598,2,0,P|435:221|402:236,1,80,8|2,0:0|0:0,0:0:0:0:
317,261,39027,2,0,P|280:248|249:209,1,80,8|2,0:0|0:0,0:0:0:0:
223,177,39348,2,0,L|166:199,1,40,8|0,0:0|0:0,0:0:0:0:
89,231,39670,1,8,0:0:0:0:
14,158,39884,6,0,P|33:96|74:45,2,120,8|8|8,0:0|0:0|0:0,0:0:0:0:
89,231,40741,2,0,P|64:256|35:278,2,40,8|8|8,0:0|0:0|0:0,0:0:0:0:
171,294,41170,2,0,P|156:337|156:384,1,80,2|0,0:1|0:0,0:0:0:0:
271,349,41598,6,0,L|399:328,1,95.9999970703126,4|0,0:0|0:0,0:0:0:0:
486,301,42027,2,0,P|451:270|438:225,1,95.9999970703126,8|0,0:0|0:0,0:0:0:0:
477,105,42456,2,0,L|368:97,1,95.9999970703126,8|0,0:0|0:0,0:0:0:0:
327,97,42777,1,8,0:0:0:0:
327,97,42884,2,0,P|316:52|343:1,1,95.9999970703126,0|2,0:0|0:0,0:0:0:0:
407,172,43313,6,0,P|414:224|390:277,1,95.9999970703126,8|0,0:0|0:0,0:0:0:0:
289,321,43741,1,8,0:0:0:0:
201,231,43956,1,0,0:0:0:0:
77,247,44170,2,0,P|83:192|112:142,1,95.9999970703126,8|0,0:0|0:0,0:0:0:0:
136,118,44491,2,0,P|162:107|184:86,1,47.9999985351563,8|0,0:0|0:0,0:0:0:0:
277,20,44813,1,10,0:0:0:0:
277,20,44920,1,8,0:0:0:0:
277,20,45027,6,0,L|395:51,1,95.9999970703126,8|0,0:0|0:0,0:0:0:0:
491,75,45456,1,8,0:0:0:0:
398,158,45670,1,0,0:0:0:0:
501,227,45884,2,0,P|497:280|497:333,1,95.9999970703126,8|0,0:0|0:0,0:0:0:0:
486,372,46206,2,0,P|460:362|430:356,1,47.9999985351563,8|0,0:0|0:0,0:0:0:0:
316,345,46527,1,2,0:0:0:0:
319,220,46741,6,0,P|334:170|320:112,1,95.9999970703126,8|2,0:0|0:0,0:0:0:0:
228,50,47170,2,0,P|179:55|122:42,1,95.9999970703126,8|2,0:0|0:0,0:0:0:0:
17,91,47598,2,0,L|16:186,1,95.9999970703126,8|2,0:0|0:0,0:0:0:0:
15,237,47920,2,0,L|39:288,1,47.9999985351563,8|0,0:0|0:0,0:0:0:0:
121,370,48241,2,0,L|172:335,1,47.9999985351563,8|8,0:0|0:0,0:0:0:0:
200,320,48456,6,0,L|306:333,1,95.9999970703126,4|0,1:0|0:0,0:0:0:0:
367,229,48884,2,0,L|271:217,1,95.9999970703126,8|0,0:0|0:0,0:0:0:0:
146,208,49313,2,0,P|122:160|117:96,1,95.9999970703126,8|0,0:0|0:0,0:0:0:0:
109,70,49634,2,0,L|166:50,1,47.9999985351563,8|0,0:0|0:0,0:0:0:0:
275,20,49956,1,2,0:0:0:0:
399,20,50170,6,0,B|413:85|491:106|491:106|464:12,1,191.999994140625,8|8,0:0|0:0,0:0:0:0:
422,163,50813,1,0,0:0:0:0:
362,273,51027,2,0,P|315:280|268:275,1,95.9999970703126,8|0,0:0|0:0,0:0:0:0:
220,259,51348,2,0,L|168:278,1,47.9999985351563,8|0,0:0|0:0,0:0:0:0:
51,295,51670,2,0,L|-1:288,2,47.9999985351563,2|8|8,0:0|0:0|0:0,0:0:0:0:
102,181,52098,5,0,0:0:0:0:
174,275,52313,1,8,0:0:0:0:
51,295,52527,1,0,0:0:0:0:
0,179,52741,2,0,P|12:126|41:94,1,95.9999970703126,8|0,0:0|0:0,0:0:0:0:
77,77,53063,2,0,L|216:129,1,143.999995605469,8|2,0:0|0:0,0:0:0:0:
313,200,53598,6,0,L|332:362,2,143.999995605469,0|0|0,3:0|3:0|3:0,0:0:0:0:
211,127,54456,2,0,L|181:192,2,47.9999985351563,8|8|8,0:0|0:0|0:0,0:0:0:0:
308,92,54884,5,2,0:1:0:0:
254,293,55313,1,4,0:0:0:0:
256,192,55420,12,0,57670,0:0:0:0:
