osu file format v14

[General]
AudioFilename: 176 - ikazuchi.mp3
AudioLeadIn: 0
PreviewTime: 27456
Countdown: 0
SampleSet: Soft
StackLeniency: 0.7
Mode: 0
LetterboxInBreaks: 0
WidescreenStoryboard: 0

[Editor]
DistanceSpacing: 1.3
BeatDivisor: 4
GridSize: 4
TimelineZoom: 1

[Metadata]
Title:176 - ikazuchi
TitleUnicode:176 - ikazuchi
Artist:saradisk
ArtistUnicode:saradisk
Creator:Nozhomi
Version:Aia's Extra
Source:艦隊これくしょん -艦これ-
Tags:kantai collection kancolle remix okoratu aia enon euny ovoui
BeatmapID:792408
BeatmapSetID:360417

[Difficulty]
HPDrainRate:6.6
CircleSize:4
OverallDifficulty:7.6
ApproachRate:9.2
SliderMultiplier:2.2
SliderTickRate:1

[Events]
//Background and Video events
0,0,"moebg.jpg",0,0
//Break Periods
//Storyboard Layer 0 (Background)
//Storyboard Layer 1 (Fail)
//Storyboard Layer 2 (Pass)
//Storyboard Layer 3 (Foreground)
//Storyboard Sound Samples

[TimingPoints]
456,428.571428571429,4,2,1,100,1,0
12456,-100,4,2,1,100,0,0
13741,-83.3333333333333,4,2,1,100,0,0
14170,-100,4,2,1,100,0,0
27456,-83.3333333333333,4,2,1,100,0,0
27884,-100,4,2,1,100,0,0
41170,-133.333333333333,4,2,1,100,0,0
41598,-83.3333333333333,4,2,1,100,0,1
48241,-83.3333333333333,4,2,1,100,0,0
48456,-83.3333333333333,4,2,1,100,0,1
54884,-100,4,2,1,100,0,0
55313,-100,4,2,1,100,0,0
55741,-100,4,2,1,100,0,0
56170,-100,4,2,1,100,0,0
56598,-100,4,2,1,100,0,0
57027,-100,4,2,1,100,0,0
57456,-100,4,2,1,10,0,0

[Colours]
Combo1 : 214,145,112
Combo2 : 128,255,255
Combo3 : 240,235,9
Combo4 : 231,99,102
Combo5 : 63,157,226

[HitObjects]
228,120,456,6,0,L|332:107,1,55,12|0,0:0|0:0,0:0:0:0:
360,104,670,1,0,0:0:0:0:
480,244,884,2,0,L|376:231,1,55,8|0,0:0|0:0,0:0:0:0:
308,312,1098,2,0,L|412:299,1,55,0|0,0:0|0:0,0:0:0:0:
356,172,1313,2,0,L|334:43,1,110,8|0,0:0|0:0,0:0:0:0:
209,211,1634,2,0,L|190:319,1,110
356,172,1956,2,0,L|284:163,1,55
144,32,2170,6,0,L|264:12,1,110,10|0,0:0|0:0,0:0:0:0:
424,92,2598,2,0,L|306:82,1,110,8|0,0:0|0:0,0:0:0:0:
99,220,3027,2,0,L|217:210,1,110,8|0,0:0|0:0,0:0:0:0:
260,232,3348,2,0,P|272:288|248:344,1,110,8|0,0:0|0:0,0:0:0:0:
99,220,3670,1,8,0:0:0:0:
92,216,3777,1,8,0:0:0:0:
86,213,3884,6,0,L|77:99,1,110,10|0,0:0|0:0,0:0:0:0:
192,140,4313,2,0,L|201:26,1,110,8|0,0:0|0:0,0:0:0:0:
312,108,4741,6,0,L|340:-2,1,110,8|0,0:0|0:0,0:0:0:0:
408,208,5063,2,0,B|363:218|363:218|285:211,1,110,8|0,0:0|0:0,0:0:0:0:
128,172,5384,2,0,B|133:234,1,55,8|0,0:0|0:0,0:0:0:0:
140,304,5598,5,10,0:0:0:0:
146,114,7313,6,0,P|174:108|220:127,1,55,4|0,1:0|0:0,0:0:0:0:
272,164,7527,1,2,0:0:0:0:
300,192,7741,6,0,L|308:72,1,110,8|2,0:0|0:0,0:0:0:0:
356,140,8063,1,0,0:0:0:0:
256,256,8170,2,0,P|196:264|140:248,1,110,8|2,0:0|0:0,0:0:0:0:
332,312,8491,2,0,P|392:304|448:320,1,110,8|0,0:0|0:0,0:0:0:0:
208,180,8813,2,0,L|213:105,1,55,8|0,0:0|0:0,0:0:0:0:
319,31,9027,6,0,L|330:149,1,110,8|2,0:0|0:0,0:0:0:0:
284,220,9348,1,0,0:0:0:0:
439,315,9456,2,0,L|459:169,1,110,8|2,0:0|0:0,0:0:0:0:
193,71,9884,2,0,L|207:179,1,110,8|2,0:0|0:0,0:0:0:0:
200,204,10206,2,0,P|151:219|88:204,1,110,8|0,0:0|0:0,0:0:0:0:
272,104,10527,1,8,0:0:0:0:
276,108,10634,1,8,0:0:0:0:
280,112,10741,6,0,B|346:116|346:116|408:88,1,110,8|2,0:0|0:0,0:0:0:0:
480,260,11170,2,0,B|414:256|414:256|352:284,1,110,8|2,0:0|0:0,0:0:0:0:
152,183,11598,2,0,P|196:216|281:219,1,110,8|2,0:0|0:0,0:0:0:0:
300,192,11920,2,0,L|280:332,1,110,8|0,0:0|0:0,0:0:0:0:
392,196,12241,2,0,L|380:140,1,55,8|0,0:0|0:0,0:0:0:0:
364,48,12456,5,8,0:0:0:0:
376,32,12670,1,0,0:0:0:0:
148,60,12884,5,0,0:0:0:0:
160,76,13098,1,0,0:0:0:0:
264,56,13313,5,0,0:0:0:0:
276,40,13527,1,0,0:0:0:0:
156,184,13741,6,0,P|159:219|184:260,1,65.9999979858399,2|0,0:1|0:0,0:0:0:0:
276,300,13956,2,0,P|289:270|292:237,1,65.9999979858399,2|0,0:1|0:0,0:0:0:0:
264,140,14170,5,4,1:0:0:0:
241,130,14277,1,0,0:0:0:0:
336,40,14384,2,0,L|344:112,1,55,0|0,0:0|0:0,0:0:0:0:
452,184,14598,2,0,B|457:142|446:113|452:74,1,110,8|0,0:0|0:0,0:0:0:0:
244,152,15027,2,0,L|256:224,1,55,8|0,0:0|0:0,0:0:0:0:
212,284,15241,1,0,0:0:0:0:
316,128,15348,2,0,P|280:83|208:87,1,110,8|0,0:0|0:0,0:0:0:0:
168,124,15670,1,8,0:0:0:0:
160,132,15884,6,0,L|184:260,1,110,8|0,0:0|0:0,0:0:0:0:
248,276,16206,1,0,0:0:0:0:
248,276,16313,2,0,P|216:308|136:304,1,110,8|0,0:0|0:0,0:0:0:0:
380,324,16741,2,0,L|372:212,1,110,8|0,0:0|0:0,0:0:0:0:
328,152,17063,1,8,0:0:0:0:
464,80,17277,1,0,0:0:0:0:
464,80,17384,2,0,P|437:67|418:39,1,55,8|8,0:0|0:0,0:0:0:0:
344,32,17598,6,0,P|283:35|231:82,1,110,8|0,0:0|0:0,0:0:0:0:
212,132,17920,1,0,0:0:0:0:
204,208,18027,2,0,B|176:168|176:168|106:135,1,110,8|0,0:0|0:0,0:0:0:0:
162,301,18456,2,0,P|215:313|270:284,1,110,8|0,0:0|0:0,0:0:0:0:
372,218,18777,2,0,L|384:330,1,110,8|0,0:0|0:0,0:0:0:0:
383,327,19098,1,8,0:0:0:0:
464,160,19313,5,8,0:0:0:0:
248,100,19527,1,0,0:0:0:0:
390,49,19741,1,8,0:0:0:0:
372,218,19956,1,0,0:0:0:0:
248,100,20170,2,0,P|230:151|236:208,1,110,0|0,0:0|0:0,0:0:0:0:
304,240,20491,1,8,0:0:0:0:
304,240,20598,2,0,P|311:207|300:166,1,55,0|0,0:0|0:0,0:0:0:0:
236,280,20813,2,0,P|252:304|291:318,1,55,8|0,0:0|0:0,0:0:0:0:
235,205,21027,6,0,L|104:195,1,110,4|2,1:0|0:0,0:0:0:0:
40,91,21456,2,0,L|176:71,1,110,8|2,0:0|0:0,0:0:0:0:
200,332,21884,2,0,L|64:312,1,110,8|2,0:0|0:0,0:0:0:0:
257,260,22206,2,0,P|288:305|275:386,1,110,8|0,0:0|0:0,0:0:0:0:
160,248,22527,2,0,B|152:183,1,55,8|0,0:0|0:0,0:0:0:0:
204,128,22741,6,0,P|259:114|315:135,1,110,8|2,0:0|0:0,0:0:0:0:
456,140,23170,2,0,B|405:91|405:91|389:38,1,110,8|2,0:0|0:0,0:0:0:0:
377,204,23598,2,0,P|386:260|359:315,1,110,8|2,0:0|0:0,0:0:0:0:
288,324,23920,2,0,L|168:305,1,110,8|0,0:0|0:0,0:0:0:0:
124,256,24241,1,8,0:0:0:0:
140,180,24348,1,8,0:0:0:0:
108,108,24456,6,0,L|220:100,1,110,8|2,0:0|0:0,0:0:0:0:
376,203,24884,2,0,B|314:214|314:214|267:196,1,110,8|2,0:0|0:0,0:0:0:0:
443,144,25313,2,0,P|465:196|443:260,1,110,8|2,0:0|0:0,0:0:0:0:
400,300,25634,2,0,L|290:303,1,110,8|0,0:0|0:0,0:0:0:0:
136,248,25956,2,0,L|154:320,1,55,8|0,0:0|0:0,0:0:0:0:
231,225,26170,5,8,0:0:0:0:
256,156,26277,1,0,0:0:0:0:
244,84,26384,1,0,3:0:0:0:
256,12,26491,1,0,3:0:0:0:
188,28,26598,2,0,L|112:40,1,55,2|0,0:0|0:0,0:0:0:0:
72,112,26813,2,0,L|148:124,1,55,0|0,3:0|3:0,0:0:0:0:
256,156,27027,5,10,0:0:0:0:
260,180,27134,1,8,0:0:0:0:
180,256,27241,1,8,0:0:0:0:
172,232,27348,1,8,0:0:0:0:
281,266,27456,6,0,L|272:332,1,65.9999979858399,2|0,0:1|0:0,0:0:0:0:
352,156,27670,2,0,L|342:90,1,65.9999979858399,2|0,0:1|0:0,0:0:0:0:
448,172,27884,6,0,P|430:249|471:351,1,165,4|0,0:0|0:0,0:0:0:0:
504,352,28313,1,8,0:0:0:0:
320,240,28527,1,0,0:0:0:0:
392,112,28741,2,0,P|402:58|388:4,1,110,8|0,0:0|0:0,0:0:0:0:
228,188,29063,2,0,P|218:242|232:296,1,110,8|0,0:0|0:0,0:0:0:0:
374,249,29384,2,0,L|320:240,1,55,2|0,0:0|0:0,0:0:0:0:
112,124,29598,6,0,L|255:92,1,110,8|0,0:0|0:0,0:0:0:0:
276,108,29920,1,0,0:0:0:0:
276,108,30027,2,0,P|288:137|291:180,1,55,8|0,0:0|0:0,0:0:0:0:
200,284,30241,2,0,P|188:255|185:212,1,55,0|0,0:0|0:0,0:0:0:0:
322,305,30456,2,0,L|474:289,1,110,8|0,0:0|0:0,0:0:0:0:
492,232,30777,1,8,0:0:0:0:
322,305,30884,2,0,P|319:333|324:361,1,55,0|0,0:0|0:0,0:0:0:0:
407,213,31098,2,0,P|409:184|405:157,1,55,10|8,0:0|0:0,0:0:0:0:
368,76,31313,6,0,P|424:77|484:52,1,110,8|0,0:0|0:0,0:0:0:0:
304,24,31634,1,0,0:0:0:0:
304,24,31741,2,0,P|285:77|306:137,1,110,8|0,0:0|0:0,0:0:0:0:
312,144,32170,2,0,L|198:153,1,110,8|0,0:0|0:0,0:0:0:0:
162,189,32491,2,0,B|171:230|161:262|161:262|166:307,1,110,8|0,0:0|0:0,0:0:0:0:
198,341,32813,2,0,P|170:349|134:341,1,55,2|0,0:0|0:0,0:0:0:0:
272,232,33027,6,0,B|311:236|311:236|340:231|340:231|401:239,1,110,8|2,0:0|0:0,0:0:0:0:
312,88,33456,2,0,B|273:86|273:86|244:89|244:89|183:81,1,110,8|2,0:0|0:0,0:0:0:0:
280,248,33884,2,0,B|317:253|317:253|348:247|348:247|409:255,1,110,8|2,0:0|0:0,0:0:0:0:
492,292,34206,1,8,0:0:0:0:
363,352,34313,2,0,P|336:352|307:348,1,55,0|0,0:0|0:0,0:0:0:0:
426,114,34527,2,0,P|433:145|429:174,1,55,8|8,0:0|0:0,0:0:0:0:
280,248,34741,6,0,B|230:249|230:249|172:240|112:240,1,165,4|0,1:0|0:0,0:0:0:0:
72,276,35170,1,8,0:0:0:0:
184,144,35384,1,0,0:0:0:0:
210,336,35598,2,0,B|239:346|239:346|337:339,1,110,8|0,0:0|0:0,0:0:0:0:
464,216,35920,2,0,B|440:212|440:212|356:232,1,110,8|0,0:0|0:0,0:0:0:0:
440,304,36241,2,0,P|468:309|508:302,1,55,2|0,0:0|0:0,0:0:0:0:
462,121,36456,6,0,P|435:116|408:120,1,55,8|0,0:0|0:0,0:0:0:0:
224,192,36670,2,0,P|221:224|232:264,1,55,0|0,0:0|0:0,0:0:0:0:
289,51,36884,2,0,L|179:45,1,110,8|0,0:0|0:0,0:0:0:0:
108,96,37206,1,0,0:0:0:0:
108,96,37313,2,0,P|104:156|108:200,1,55,8|0,0:0|0:0,0:0:0:0:
214,299,37527,1,0,0:0:0:0:
214,299,37634,2,0,P|229:244|209:157,1,110,8|0,0:0|0:0,0:0:0:0:
336,216,37956,2,0,P|327:183|328:129,1,55,8|8,0:0|0:0,0:0:0:0:
404,328,38170,6,0,P|352:342|293:338,1,110,8|2,0:0|0:0,0:0:0:0:
98,237,38598,1,8,0:0:0:0:
208,112,38813,1,2,0:0:0:0:
124,140,39027,1,8,0:0:0:0:
192,196,39241,1,2,0:0:0:0:
192,196,39348,2,0,P|249:189|286:148,1,110,8|0,0:0|0:0,0:0:0:0:
208,112,39670,2,0,P|178:111|141:124,1,55,8|0,0:0|0:0,0:0:0:0:
268,244,39884,6,0,P|298:245|335:232,1,55,8|0,0:0|0:0,0:0:0:0:
356,212,40098,1,0,0:0:0:0:
356,212,40206,1,8,0:0:0:0:
192,196,40313,2,0,P|176:228|179:267,1,55,0|0,0:0|0:0,0:0:0:0:
269,161,40527,2,0,P|253:134|216:117,1,55,8|0,0:0|0:0,0:0:0:0:
156,112,40741,5,8,0:0:0:0:
108,172,40848,1,8,0:0:0:0:
120,248,40956,1,8,0:0:0:0:
188,284,41063,1,8,0:0:0:0:
120,248,41170,6,0,P|79:240|38:248,1,82.5000031471254,2|0,0:1|0:0,0:0:0:0:
188,284,41598,6,0,P|196:219|132:169,1,131.99999597168,4|0,0:0|0:0,0:0:0:0:
120,248,41920,1,0,0:0:0:0:
248,332,42027,2,0,P|311:344|372:312,1,131.99999597168,8|0,0:0|0:0,0:0:0:0:
416,236,42348,1,0,0:0:0:0:
416,236,42456,2,0,L|324:200,1,65.9999979858399,8|0,0:0|0:0,0:0:0:0:
268,176,42670,1,0,0:0:0:0:
268,176,42777,1,8,0:0:0:0:
268,176,42884,2,0,P|263:210|277:258,1,65.9999979858399,0|0,0:0|0:0,0:0:0:0:
344,127,43098,2,0,P|319:99|274:86,1,65.9999979858399,2|0,0:0|0:0,0:0:0:0:
88,204,43313,6,0,L|168:204,1,65.9999979858399,8|0,0:0|0:0,0:0:0:0:
132,72,43527,1,0,0:0:0:0:
124,116,43634,1,0,0:0:0:0:
220,80,43741,2,0,L|212:12,1,65.9999979858399,8|0,0:0|0:0,0:0:0:0:
268,176,43956,2,0,L|260:241,1,65.9999979858399,0|0,0:0|0:0,0:0:0:0:
308,320,44170,6,0,B|403:309|403:309|456:256,1,131.99999597168,8|0,0:0|0:0,0:0:0:0:
268,176,44490,1,8,0:0:0:0:
188,240,44598,2,0,P|183:276|188:312,1,65.9999979858399,0|0,0:0|0:0,0:0:0:0:
268,176,44813,2,0,P|273:140|268:104,1,65.9999979858399,10|8,0:0|0:0,0:0:0:0:
216,36,45027,5,8,0:0:0:0:
216,36,45134,1,0,0:0:0:0:
216,36,45241,2,0,L|132:48,1,65.9999979858399,0|0,0:0|0:0,0:0:0:0:
90,127,45456,1,8,0:0:0:0:
90,127,45563,1,0,0:0:0:0:
90,127,45670,2,0,L|158:139,1,65.9999979858399,0|0,0:0|0:0,0:0:0:0:
228,212,45884,6,0,P|244:277|217:344,1,131.99999597168,8|0,0:0|0:0,0:0:0:0:
140,268,46206,1,8,0:0:0:0:
228,212,46313,2,0,L|312:200,1,65.9999979858399,0|0,0:0|0:0,0:0:0:0:
386,301,46527,2,0,L|302:289,1,65.9999979858399,2|0,0:0|0:0,0:0:0:0:
367,98,46741,6,0,L|375:182,1,65.9999979858399,8|0,0:0|0:0,0:0:0:0:
463,168,46956,2,0,L|445:238,1,65.9999979858399,2|0,0:0|0:0,0:0:0:0:
307,345,47170,2,0,L|299:261,1,65.9999979858399,8|0,0:0|0:0,0:0:0:0:
211,275,47385,2,0,L|229:205,1,65.9999979858399,2|0,0:0|0:0,0:0:0:0:
392,80,47598,6,0,L|400:164,1,65.9999979858399,8|0,0:0|0:0,0:0:0:0:
488,150,47813,2,0,L|470:220,1,65.9999979858399,2|8,0:0|0:0,0:0:0:0:
288,356,48027,2,0,L|280:272,1,65.9999979858399,0|0,0:0|0:0,0:0:0:0:
192,286,48242,2,0,L|210:216,1,65.9999979858399,8|0,0:0|0:0,0:0:0:0:
293,151,48456,6,0,P|244:115|169:123,1,131.99999597168,4|0,1:0|0:0,0:0:0:0:
96,188,48777,1,0,0:0:0:0:
192,286,48884,2,0,P|223:294|280:270,1,65.9999979858399,8|0,0:0|0:0,0:0:0:0:
404,232,49098,2,0,P|373:224|316:248,1,65.9999979858399,0|0,0:0|0:0,0:0:0:0:
468,328,49313,2,0,B|497:250|497:250|496:184,1,131.99999597168,8|0,0:0|0:0,0:0:0:0:
488,96,49634,1,8,0:0:0:0:
424,12,49741,2,0,L|352:20,1,65.9999979858399,0|0,0:0|0:0,0:0:0:0:
280,92,49956,1,2,0:0:0:0:
280,92,50063,1,0,0:0:0:0:
280,92,50170,6,0,L|208:100,1,65.9999979858399,8|0,0:0|0:0,0:0:0:0:
116,193,50384,2,0,L|188:201,1,65.9999979858399,0|0,0:0|0:0,0:0:0:0:
96,24,50598,2,0,P|77:55|72:100,1,65.9999979858399,8|0,0:0|0:0,0:0:0:0:
304,151,50813,2,0,P|296:118|279:91,1,65.9999979858399,0|0,0:0|0:0,0:0:0:0:
208,305,51027,2,0,B|254:316|293:319|293:319|388:309,1,131.99999597168,8|0,0:0|0:0,0:0:0:0:
468,256,51348,1,8,0:0:0:0:
304,151,51456,2,0,P|270:141|226:153,1,65.9999979858399,0|0,0:0|0:0,0:0:0:0:
116,193,51670,2,0,P|113:225|121:257,1,65.9999979858399,2|8,0:0|0:0,0:0:0:0:
160,68,51884,5,8,0:0:0:0:
160,68,51991,1,0,0:0:0:0:
160,68,52098,2,0,L|76:64,1,65.9999979858399,0|0,0:0|0:0,0:0:0:0:
208,305,52313,2,0,P|240:312|292:301,1,65.9999979858399,8|0,0:0|0:0,0:0:0:0:
384,188,52527,2,0,L|388:103,1,65.9999979858399,0|0,0:0|0:0,0:0:0:0:
116,193,52741,2,0,L|272:205,1,131.99999597168,8|0,0:0|0:0,0:0:0:0:
384,188,53063,2,0,P|415:246|380:304,1,131.99999597168,8|0,0:0|0:0,0:0:0:0:
240,120,53384,2,0,L|338:109,1,65.9999979858399,2|0,0:0|0:0,0:0:0:0:
380,36,53598,5,0,3:0:0:0:
380,36,53706,1,0,0:0:0:0:
380,36,53813,2,0,L|300:12,1,65.9999979858399,0|0,0:0|3:0,0:0:0:0:
116,193,54027,1,0,0:0:0:0:
116,193,54135,1,0,0:0:0:0:
116,193,54242,2,0,L|196:217,1,65.9999979858399,0|0,3:0|0:0,0:0:0:0:
373,252,54456,6,0,L|385:172,1,65.9999979858399,8|8,0:0|0:0,0:0:0:0:
128,52,54670,2,0,L|137:117,1,65.9999979858399,8|8,0:0|0:0,0:0:0:0:
398,286,54884,6,0,L|408:208,1,55,2|0,0:1|0:0,0:0:0:0:
308,92,55098,2,0,L|316:156,1,55,0|0,0:0|0:0,0:0:0:0:
380,36,55313,5,0,0:0:0:0:
256,192,55420,12,0,57670,0:0:0:0:
