osu file format v14

[General]
AudioFilename: 176 - ikazuchi.mp3
AudioLeadIn: 0
PreviewTime: 27348
Countdown: 0
SampleSet: Soft
StackLeniency: 0.7
Mode: 0
LetterboxInBreaks: 0
EpilepsyWarning: 1
WidescreenStoryboard: 1

[Editor]
DistanceSpacing: 0.7
BeatDivisor: 4
GridSize: 4
TimelineZoom: 2.4

[Metadata]
Title:176 - ikazuchi
TitleUnicode:176 - ikazuchi
Artist:saradisk
ArtistUnicode:saradisk
Creator:Marianna
Version:Uh!
Source:艦隊これくしょん -艦これ-
Tags:kantai collection kancolle remix iMega MkGuh Underforest Hoen Mercusheigan Ataraxia fabiojhon
BeatmapID:974841
BeatmapSetID:454715

[Difficulty]
HPDrainRate:7
CircleSize:4
OverallDifficulty:8.5
ApproachRate:9.5
SliderMultiplier:2
SliderTickRate:1

[Events]
//Background and Video events
0,0,"bg.jpg",0,0
//Break Periods
2,5798,6788
//Storyboard Layer 0 (Background)
//Storyboard Layer 1 (Fail)
//Storyboard Layer 2 (Pass)
//Storyboard Layer 3 (Foreground)
//Storyboard Sound Samples

[TimingPoints]
456,428.571428571429,4,2,1,60,1,0
7313,-100,4,2,1,80,0,0
12456,-100,4,2,2,70,0,0
13741,-100,4,2,3,70,0,0
14170,-90.9090909090909,4,2,1,80,0,0
19313,-90.9090909090909,4,2,1,70,0,0
21027,-90.9090909090909,4,2,1,80,0,0
26170,-90.9090909090909,4,2,3,35,0,0
26598,-90.9090909090909,4,2,3,45,0,0
27027,-90.9090909090909,4,2,1,80,0,0
27456,-90.9090909090909,4,2,3,80,0,0
27884,-66.6666666666667,4,2,1,85,0,1
41170,-200,4,2,3,70,0,0
41598,-62.5,4,2,1,85,0,1
54884,-83.3333333333333,4,2,3,70,0,0
54991,-83.3333333333333,4,2,1,70,0,0

[Colours]
Combo1 : 186,208,111
Combo2 : 255,128,192
Combo3 : 128,128,255
Combo4 : 255,255,128
Combo5 : 255,128,128
Combo6 : 203,224,158
Combo7 : 82,139,173
Combo8 : 216,202,169

[HitObjects]
88,60,456,6,0,B|68:108|68:108|88:152,1,100,4|8,0:3|0:0,0:0:0:0:
256,220,884,2,0,B|276:172|276:172|256:128,1,100,8|8,0:0|0:0,0:0:0:0:
204,300,1313,2,0,B|264:312|264:312|304:296,1,100,8|2,0:0|0:0,0:0:0:0:
352,125,1634,2,0,B|292:113|292:113|252:129,1,100,8|2,0:0|0:0,0:0:0:0:
172,168,1956,2,0,P|168:144|172:116,1,50,8|2,0:0|0:0,0:0:0:0:
412,76,2170,6,0,P|428:132|408:176,1,100,8|8,0:0|0:0,0:0:0:0:
173,261,2598,2,0,P|157:205|177:161,1,100,8|8,0:0|0:0,0:0:0:0:
344,220,3027,2,0,L|240:212,1,100,8|2,0:0|0:0,0:0:0:0:
168,92,3348,2,0,L|272:84,1,100,8|2,0:0|0:0,0:0:0:0:
348,40,3670,2,0,P|360:76|356:100,1,50,8|2,0:0|0:0,0:0:0:0:
232,256,3884,6,0,B|184:236|184:236|156:196,1,100,8|8,0:0|0:0,0:0:0:0:
283,28,4313,2,0,B|331:48|331:48|359:88,1,100,8|8,0:0|0:0,0:0:0:0:
252,232,4741,2,0,B|204:212|204:212|176:172,1,100,8|2,0:0|0:0,0:0:0:0:
264,48,5063,2,0,B|312:68|312:68|340:108,1,100,8|2,0:0|0:0,0:0:0:0:
328,196,5384,2,0,L|380:192,1,50,8|2,0:0|0:0,0:0:0:0:
180,204,5598,5,8,0:0:0:0:
180,204,7313,5,8,0:3:0:0:
328,72,7527,1,8,0:0:0:0:
104,108,7741,5,8,0:0:0:0:
380,156,7956,1,8,0:0:0:0:
136,40,8170,6,0,P|84:36|44:64,1,100,8|2,0:0|0:0,0:0:0:0:
72,176,8491,2,0,P|124:180|164:152,1,100,8|2,0:0|0:0,0:0:0:0:
212,80,8813,2,0,L|268:84,1,50,8|2,0:0|0:0,0:0:0:0:
432,96,9027,5,8,0:0:0:0:
300,188,9241,1,8,0:0:0:0:
356,8,9456,5,8,0:0:0:0:
392,280,9670,1,8,0:0:0:0:
268,76,9884,6,0,L|164:84,1,100,8|2,0:0|0:0,0:0:0:0:
40,184,10206,2,0,L|144:192,1,100,8|2,0:0|0:0,0:0:0:0:
216,236,10527,2,0,P|220:260|216:288,1,50,8|2,0:0|0:0,0:0:0:0:
216,156,10741,6,0,P|268:176|288:220,1,100,8|8,0:0|0:0,0:0:0:0:
96,144,11170,2,0,P|116:92|160:72,1,100,8|8,0:0|0:0,0:0:0:0:
132,296,11598,2,0,L|32:284,1,100,8|2,0:0|0:0,0:0:0:0:
187,225,11920,2,0,L|287:213,1,100,8|2,0:0|0:0,0:0:0:0:
372,120,12241,1,8,0:0:0:0:
384,140,12348,1,2,0:0:0:0:
396,160,12456,5,0,0:0:0:0:
296,316,12670,1,0,0:0:0:0:
408,184,12884,5,0,0:0:0:0:
184,280,13098,1,0,0:0:0:0:
424,216,13313,5,0,0:0:0:0:
104,208,13527,1,0,0:0:0:0:
304,128,13741,6,0,L|360:132,1,50,2|0,0:0|0:0,0:0:0:0:
200,72,13956,2,0,L|144:76,1,50,2|0,0:0|0:0,0:0:0:0:
412,176,14170,6,0,P|428:124|404:76,1,110.000003356934,8|8,0:3|0:0,0:0:0:0:
96,32,14598,2,0,P|80:84|104:132,1,110.000003356934,8|8,0:0|0:0,0:0:0:0:
160,216,14920,1,0,0:0:0:0:
160,216,15027,2,0,L|44:212,1,110.000003356934,8|2,0:0|0:0,0:0:0:0:
196,304,15348,2,0,L|80:300,1,110.000003356934,8|2,0:0|0:0,0:0:0:0:
272,328,15670,2,0,P|272:284|264:268,1,55.0000016784668,8|2,0:0|0:0,0:0:0:0:
340,120,15884,6,0,B|352:208|352:208|368:232,1,110.000003356934,8|8,0:0|0:0,0:0:0:0:
460,252,16206,1,0,0:0:0:0:
484,264,16313,2,0,B|472:176|472:176|456:152,1,110.000003356934,8|8,0:0|0:0,0:0:0:0:
300,72,16741,2,0,P|248:76|216:124,1,110.000003356934,8|2,0:0|0:0,0:0:0:0:
372,88,17063,2,0,P|368:36|320:4,1,110.000003356934,8|2,0:0|0:0,0:0:0:0:
288,148,17384,2,0,P|312:160|344:160,1,55.0000016784668,8|2,0:0|0:0,0:0:0:0:
472,136,17598,5,8,0:0:0:0:
204,284,17813,1,8,0:0:0:0:
368,68,18027,5,8,0:0:0:0:
380,332,18241,1,8,0:0:0:0:
256,60,18456,6,0,L|144:72,1,110.000003356934,8|2,0:0|0:0,0:0:0:0:
288,140,18777,2,0,L|176:152,1,110.000003356934,8|2,0:0|0:0,0:0:0:0:
84,124,19098,1,8,0:0:0:0:
60,148,19206,1,0,0:0:0:0:
40,172,19313,5,2,0:0:0:0:
256,56,19527,1,0,0:0:0:0:
24,196,19741,5,2,0:0:0:0:
320,128,19956,1,0,0:0:0:0:
12,224,20170,6,0,P|64:220|124:212,1,110.000003356934,8|2,0:0|0:0,0:0:0:0:
252,124,20491,2,0,P|200:120|140:112,1,110.000003356934,8|2,0:0|0:0,0:0:0:0:
48,80,20813,1,8,0:0:0:0:
80,44,20920,1,2,0:0:0:0:
124,192,21027,6,0,P|128:248|116:304,1,110.000003356934,4|8,0:3|0:0,0:0:0:0:
236,140,21456,2,0,P|232:84|244:28,1,110.000003356934,8|8,0:0|0:0,0:0:0:0:
356,192,21884,2,0,B|340:224|340:224|264:220,1,110.000003356934,8|2,0:0|0:0,0:0:0:0:
360,112,22206,2,0,B|394:103|394:103|440:164,1,110.000003356934,8|2,0:0|0:0,0:0:0:0:
288,144,22527,2,0,L|272:92,1,55.0000016784668,8|2,0:0|0:0,0:0:0:0:
80,44,22741,6,0,P|88:100|80:156,1,110.000003356934,8|8,0:0|0:0,0:0:0:0:
148,228,23063,1,0,0:0:0:0:
164,244,23170,2,0,P|156:188|164:132,1,110.000003356934,8|8,0:0|0:0,0:0:0:0:
344,56,23598,2,0,L|456:72,1,110.000003356934,8|2,0:0|0:0,0:0:0:0:
348,140,23920,2,0,L|460:156,1,110.000003356934,8|2,0:0|0:0,0:0:0:0:
508,240,24241,1,8,0:0:0:0:
484,276,24348,1,2,0:0:0:0:
464,304,24456,6,0,L|408:312,1,55.0000016784668,8|0,0:0|0:0,0:0:0:0:
280,260,24670,2,0,L|224:268,1,55.0000016784668,8|0,0:0|0:0,0:0:0:0:
393,231,24884,6,0,L|448:224,1,55.0000016784668,8|0,0:0|0:0,0:0:0:0:
264,180,25098,2,0,L|208:188,1,55.0000016784668,8|0,0:0|0:0,0:0:0:0:
381,151,25313,6,0,L|436:144,1,55.0000016784668,8|0,0:0|0:0,0:0:0:0:
252,100,25527,2,0,L|196:108,1,55.0000016784668,2|8,0:0|0:0,0:0:0:0:
72,36,25741,5,0,0:0:0:0:
60,68,25848,1,2,0:0:0:0:
60,100,25956,1,8,0:0:0:0:
72,132,26063,1,2,0:0:0:0:
132,192,26170,5,2,0:0:0:0:
141,217,26277,1,0,0:0:0:0:
143,245,26384,1,2,0:0:0:0:
139,272,26491,1,2,0:0:0:0:
60,280,26598,5,2,0:0:0:0:
50,305,26705,1,0,0:0:0:0:
48,333,26812,1,2,0:0:0:0:
52,360,26919,1,0,0:0:0:0:
160,376,27027,5,8,0:0:0:0:
212,356,27134,1,8,0:0:0:0:
264,336,27241,1,8,0:0:0:0:
316,316,27348,1,8,0:0:0:0:
392,284,27456,6,0,L|368:232,1,55.0000016784668,2|0,0:0|0:0,0:0:0:0:
384,100,27670,2,0,L|360:48,1,55.0000016784668,2|0,0:0|0:0,0:0:0:0:
228,28,27884,6,0,P|152:24|96:72,1,150.000005722046,4|8,0:3|0:0,0:0:0:0:
124,192,28206,1,0,0:0:0:0:
132,212,28313,2,0,P|208:216|264:168,1,150.000005722046,0|8,0:0|0:0,0:0:0:0:
316,108,28634,1,0,0:0:0:0:
316,108,28741,6,0,B|320:208|320:208|296:264,1,150.000005722046,8|2,0:0|0:0,0:0:0:0:
456,272,29063,2,0,B|371:325|371:325|310:332,1,150.000005722046,8|2,0:0|0:0,0:0:0:0:
164,304,29384,2,0,P|208:296|240:308,1,75.0000028610231,8|0,0:0|0:0,0:0:0:0:
104,360,29598,6,0,P|84:288|132:232,1,150.000005722046,8|8,0:0|0:0,0:0:0:0:
200,192,29920,1,0,0:0:0:0:
200,192,30027,2,0,L|52:160,1,150.000005722046,8|8,0:0|0:0,0:0:0:0:
77,76,30348,1,0,0:0:0:0:
77,76,30455,2,0,L|224:108,1,150.000005722046,8|2,0:0|0:0,0:0:0:0:
312,128,30777,2,0,P|300:56|228:20,1,150.000005722046,8|0,0:0|0:0,0:0:0:0:
256,200,31098,2,0,B|292:212|292:212|328:200,1,75.0000028610231,8|2,0:0|0:0,0:0:0:0:
440,140,31313,6,0,L|368:280,1,150.000005722046,8|8,0:0|0:0,0:0:0:0:
420,340,31634,1,0,0:0:0:0:
420,340,31741,2,0,P|368:288|296:304,1,150.000005722046,8|8,0:0|0:0,0:0:0:0:
220,324,32063,1,0,0:0:0:0:
220,324,32170,2,0,B|296:280|288:184,1,150.000005722046,8|2,0:0|0:0,0:0:0:0:
192,224,32491,2,0,B|191:136|104:95,1,150.000005722046,8|2,0:0|0:0,0:0:0:0:
104,208,32813,2,0,P|72:184|32:180,1,75.0000028610231,8|0,0:0|0:0,0:0:0:0:
56,292,33027,5,2,0:0:0:0:
376,124,33241,1,0,0:0:0:0:
196,344,33456,5,2,0:0:0:0:
212,32,33670,1,0,0:0:0:0:
316,332,33884,6,0,P|392:320|428:260,1,150.000005722046,2|0,0:0|0:0,0:0:0:0:
368,160,34206,1,0,0:0:0:0:
348,140,34313,2,0,P|272:152|236:212,1,150.000005722046,2|8,0:0|0:0,0:0:0:0:
320,220,34634,1,0,0:0:0:0:
320,220,34741,6,0,P|308:144|248:108,1,150.000005722046,8|8,0:0|0:0,0:0:0:0:
116,208,35170,2,0,P|128:284|188:320,1,150.000005722046,8|8,0:0|0:0,0:0:0:0:
256,276,35491,1,2,0:0:0:0:
256,276,35598,2,0,B|352:288|352:288|408:272,1,150.000005722046,8|2,0:0|0:0,0:0:0:0:
316,196,35920,2,0,B|374:118|374:118|388:62,1,150.000005722046,8|2,0:0|0:0,0:0:0:0:
316,24,36241,1,8,0:0:0:0:
188,192,36456,6,0,P|120:224|56:192,1,150.000005722046,8|8,0:0|0:0,0:0:0:0:
112,64,36884,2,0,P|180:32|244:64,1,150.000005722046,8|8,0:0|0:0,0:0:0:0:
300,120,37206,1,0,0:0:0:0:
300,120,37313,2,0,L|452:108,1,150.000005722046,8|2,0:0|0:0,0:0:0:0:
492,180,37634,2,0,L|342:191,1,150.000005722046,8|2,0:0|0:0,0:0:0:0:
292,124,37956,2,0,P|256:108|220:116,1,75.0000028610231,8|2,0:0|0:0,0:0:0:0:
116,192,38170,5,8,0:3:0:0:
132,208,38277,1,0,0:0:0:0:
148,224,38384,1,2,0:0:0:0:
164,240,38491,1,0,0:0:0:0:
216,184,38598,5,8,0:0:0:0:
260,200,38706,1,0,0:0:0:0:
304,212,38813,1,2,0:0:0:0:
348,224,38920,1,0,0:0:0:0:
292,124,39027,6,0,L|444:112,1,150.000005722046,8|2,0:0|0:0,0:0:0:0:
404,24,39348,2,0,L|254:35,1,150.000005722046,0|0,0:0|0:0,0:0:0:0:
160,56,39670,1,2,0:0:0:0:
176,68,39777,1,0,0:0:0:0:
152,200,39884,6,0,P|84:232|20:200,1,150.000005722046,8|2,0:0|0:0,0:0:0:0:
204,140,40206,2,0,P|236:208|204:272,1,150.000005722046,8|2,0:0|0:0,0:0:0:0:
152,352,40527,2,0,L|232:344,1,75.0000028610231,8|2,0:0|0:0,0:0:0:0:
344,244,40741,5,8,0:0:0:0:
372,248,40848,1,8,0:0:0:0:
404,252,40956,1,8,0:0:0:0:
432,256,41063,1,8,0:0:0:0:
456,260,41170,6,0,L|448:192,1,50,2|0,0:0|0:0,0:0:0:0:
448,60,41598,6,0,P|372:28|304:68,1,160,8|8,0:3|0:0,0:0:0:0:
256,124,41920,1,2,0:0:0:0:
203,62,42027,2,0,P|134:27|64:60,1,160,8|8,0:0|0:0,0:0:0:0:
132,104,42348,1,0,0:0:0:0:
172,172,42456,2,0,B|152:288|152:288|128:324,1,160,8|2,0:0|0:0,0:0:0:0:
256,296,42777,2,0,B|276:180|276:180|300:144,1,160,8|2,0:0|0:0,0:0:0:0:
376,120,43098,2,0,P|412:132|448:164,1,80,8|2,0:0|0:0,0:0:0:0:
348,196,43313,6,0,P|296:136|316:64,1,160,8|8,0:0|0:0,0:0:0:0:
388,32,43634,1,0,0:0:0:0:
388,32,43741,2,0,B|352:48|316:60|316:60|280:40|228:48,1,160,8|8,0:0|0:0,0:0:0:0:
160,68,44063,1,0,0:0:0:0:
160,68,44170,2,0,L|168:228,1,160,8|2,0:0|0:0,0:0:0:0:
72,92,44491,2,0,L|80:252,1,160,8|2,0:0|0:0,0:0:0:0:
148,296,44813,2,0,P|192:296|232:268,1,80,8|0,0:0|0:0,0:0:0:0:
344,168,45027,6,0,P|296:208|320:296,1,160,8|8,0:0|0:0,0:0:0:0:
388,332,45348,1,0,0:0:0:0:
388,332,45456,2,0,L|240:256,1,160,8|8,0:0|0:0,0:0:0:0:
176,220,45777,1,0,0:0:0:0:
176,220,45884,2,0,B|204:264|192:320|192:320|248:364,1,160,8|2,0:0|0:0,0:0:0:0:
112,316,46206,2,0,B|84:272|96:216|96:216|40:172,1,160,8|2,0:0|0:0,0:0:0:0:
24,104,46527,1,8,0:0:0:0:
80,96,46634,1,2,0:0:0:0:
136,88,46741,5,8,0:0:0:0:
172,104,46848,1,0,0:0:0:0:
200,132,46956,1,8,0:0:0:0:
212,172,47063,1,0,0:0:0:0:
208,212,47170,5,8,0:0:0:0:
244,192,47277,1,0,0:0:0:0:
284,184,47384,1,8,0:0:0:0:
324,188,47491,1,0,0:0:0:0:
356,212,47598,5,0,0:0:0:0:
348,172,47706,1,0,0:0:0:0:
340,132,47813,1,8,0:0:0:0:
332,92,47920,1,0,0:0:0:0:
320,56,48027,2,0,B|408:44,1,80,8|0,0:0|0:0,0:0:0:0:
256,136,48241,2,0,B|168:124,1,80,8|0,0:0|0:0,0:0:0:0:
64,48,48456,5,8,0:3:0:0:
76,104,48563,1,0,0:0:0:0:
80,160,48670,1,0,0:0:0:0:
52,208,48777,1,0,0:0:0:0:
20,256,48884,5,8,0:0:0:0:
72,236,48991,1,0,0:0:0:0:
128,232,49098,1,8,0:0:0:0:
180,252,49206,1,2,0:0:0:0:
220,288,49313,6,0,L|204:128,1,160,8|2,0:0|0:0,0:0:0:0:
296,252,49634,2,0,L|280:92,1,160,8|2,0:0|0:0,0:0:0:0:
368,156,49956,2,0,L|356:72,1,80,8|2,0:0|0:0,0:0:0:0:
208,12,50170,5,8,0:0:0:0:
128,28,50277,1,0,0:0:0:0:
84,96,50384,1,8,0:0:0:0:
116,168,50491,1,0,0:0:0:0:
128,188,50598,5,8,0:0:0:0:
128,212,50706,1,0,0:0:0:0:
120,236,50813,1,8,0:0:0:0:
104,256,50920,1,0,0:0:0:0:
92,276,51027,6,0,B|196:268|196:268|248:304,1,160,8|2,0:0|0:0,0:0:0:0:
304,160,51348,2,0,B|200:168|200:168|148:132,1,160,8|2,0:0|0:0,0:0:0:0:
72,100,51670,2,0,L|80:188,1,80,8|2,0:0|0:0,0:0:0:0:
160,40,51884,5,8,0:0:0:0:
216,32,51991,1,0,0:0:0:0:
272,24,52098,1,8,0:0:0:0:
328,20,52206,1,0,0:0:0:0:
396,44,52313,5,8,0:0:0:0:
440,100,52420,1,0,0:0:0:0:
436,172,52527,1,8,0:0:0:0:
392,228,52634,1,0,0:0:0:0:
320,228,52741,6,0,P|352:292|436:288,1,160,8|2,0:0|0:0,0:0:0:0:
352,160,53063,2,0,P|276:156|239:222,1,160,8|2,0:0|0:0,0:0:0:0:
244,312,53384,2,0,L|160:300,1,80,8|0,0:0|0:0,0:0:0:0:
24,132,53598,5,10,0:0:0:0:
72,144,53706,1,0,0:0:0:0:
120,136,53813,1,0,0:0:0:0:
160,112,53920,1,10,0:0:0:0:
204,80,54027,1,0,0:0:0:0:
260,72,54134,1,0,0:0:0:0:
312,88,54241,1,10,0:0:0:0:
336,140,54348,1,0,0:0:0:0:
304,272,54456,5,0,0:0:0:0:
272,268,54563,1,8,0:0:0:0:
240,264,54670,1,8,0:0:0:0:
208,256,54777,1,8,0:0:0:0:
168,248,54884,6,0,L|176:324,1,59.9999981689454,2|0,0:0|0:0,0:0:0:0:
104,144,55098,2,0,L|112:68,1,59.9999981689454,0|0,0:0|0:0,0:0:0:0:
304,24,55313,5,4,0:3:0:0:
