osu file format v14

[General]
AudioFilename: 401.mp3
AudioLeadIn: 0
PreviewTime: 19133
Countdown: 0
SampleSet: None
StackLeniency: 0.7
Mode: 1
LetterboxInBreaks: 0
WidescreenStoryboard: 1

[Editor]
Bookmarks: 21533,38482
DistanceSpacing: 0.5
BeatDivisor: 4
GridSize: 32
TimelineZoom: 2.2

[Metadata]
Title:168 - 401
TitleUnicode:168 - 401
Artist:saradisk
ArtistUnicode:saradisk
Creator:stu00608
Version:Taikoo6o8
Source:-艦これ-
Tags:
BeatmapID:983699
BeatmapSetID:459157

[Difficulty]
HPDrainRate:5
CircleSize:4.2
OverallDifficulty:6
ApproachRate:5
SliderMultiplier:1.4
SliderTickRate:1

[Events]
//Background and Video events
0,0,"401.jpg",0,0
//Break Periods
//Storyboard Layer 0 (Background)
//Storyboard Layer 1 (Fail)
//Storyboard Layer 2 (Pass)
//Storyboard Layer 3 (Foreground)
//Storyboard Sound Samples

[TimingPoints]
83,300,4,1,0,100,1,0
308,-100,4,1,0,90,0,0
533,-100,4,1,0,80,0,0
683,-100,4,1,0,70,0,0
9083,307.692307692308,4,1,0,70,1,0
9233,333.333333333333,4,1,0,70,1,0
9383,375,4,1,0,70,1,0
9533,428.571428571429,4,1,0,70,1,0
9683,300,4,1,0,70,1,0
19283,-100,4,1,0,90,0,1
21533,-25,4,1,0,90,0,1
21683,-100,4,1,0,90,0,1
40733,-117.647058823529,4,1,0,5,0,1
40808,-100,4,1,0,90,0,1
57383,-100,4,1,0,70,0,0
67283,-166.666666666667,4,1,0,50,0,0
76283,-25,4,1,0,5,0,0

[Colours]
Combo1 : 238,161,181
Combo2 : 247,146,78
Combo3 : 213,61,148
Combo4 : 89,174,215

[HitObjects]
256,192,83,5,12,0:0:0:0:
256,192,308,1,8,0:0:0:0:
256,192,383,1,0,0:0:0:0:
256,192,533,1,8,0:0:0:0:
256,192,683,1,0,0:0:0:0:
256,192,833,1,0,0:0:0:0:
256,192,983,1,0,0:0:0:0:
256,192,1133,1,0,0:0:0:0:
256,192,1283,1,0,0:0:0:0:
256,192,1433,1,8,0:0:0:0:
256,192,1508,1,0,0:0:0:0:
256,192,1583,1,0,0:0:0:0:
256,192,1733,1,8,0:0:0:0:
256,192,1808,1,0,0:0:0:0:
256,192,1883,1,8,0:0:0:0:
256,192,1958,1,0,0:0:0:0:
256,192,2033,1,8,0:0:0:0:
256,192,2108,1,8,0:0:0:0:
256,192,2183,1,0,0:0:0:0:
256,192,2333,1,8,0:0:0:0:
256,192,2483,1,12,0:0:0:0:
256,192,2708,1,8,0:0:0:0:
256,192,2783,1,0,0:0:0:0:
256,192,2933,1,8,0:0:0:0:
256,192,3083,1,0,0:0:0:0:
256,192,3233,1,0,0:0:0:0:
256,192,3383,1,0,0:0:0:0:
256,192,3533,1,0,0:0:0:0:
256,192,3683,1,0,0:0:0:0:
256,192,3833,1,8,0:0:0:0:
256,192,3908,1,0,0:0:0:0:
256,192,3983,1,0,0:0:0:0:
256,192,4058,1,8,0:0:0:0:
256,192,4133,1,0,0:0:0:0:
256,192,4208,1,8,0:0:0:0:
256,192,4283,1,0,0:0:0:0:
256,192,4358,1,0,0:0:0:0:
256,192,4433,1,8,0:0:0:0:
256,192,4508,1,0,0:0:0:0:
256,192,4583,1,0,0:0:0:0:
256,192,4658,1,8,0:0:0:0:
256,192,4733,1,8,0:0:0:0:
256,192,4808,1,8,0:0:0:0:
256,192,4883,1,0,0:0:0:0:
256,192,5108,1,0,0:0:0:0:
256,192,5183,1,8,0:0:0:0:
256,192,5333,1,0,0:0:0:0:
256,192,5483,1,8,0:0:0:0:
256,192,5633,1,0,0:0:0:0:
256,192,5783,1,0,0:0:0:0:
256,192,5933,1,0,0:0:0:0:
256,192,6083,1,0,0:0:0:0:
256,192,6158,1,0,0:0:0:0:
256,192,6233,1,8,0:0:0:0:
256,192,6308,1,8,0:0:0:0:
256,192,6383,1,0,0:0:0:0:
256,192,6533,1,8,0:0:0:0:
256,192,6608,1,8,0:0:0:0:
256,192,6683,1,8,0:0:0:0:
256,192,6833,1,8,0:0:0:0:
256,192,6908,1,8,0:0:0:0:
256,192,6983,1,0,0:0:0:0:
256,192,7133,1,8,0:0:0:0:
256,192,7283,1,0,0:0:0:0:
256,192,7508,1,0,0:0:0:0:
256,192,7583,1,8,0:0:0:0:
256,192,7733,1,0,0:0:0:0:
256,192,7883,1,8,0:0:0:0:
256,192,8033,1,0,0:0:0:0:
256,192,8183,1,0,0:0:0:0:
256,192,8333,1,0,0:0:0:0:
256,192,8483,1,0,0:0:0:0:
256,192,8558,1,0,0:0:0:0:
256,192,8633,1,8,0:0:0:0:
256,192,8708,1,8,0:0:0:0:
256,192,8783,1,0,0:0:0:0:
256,192,8858,1,8,0:0:0:0:
256,192,8933,1,0,0:0:0:0:
256,192,9008,1,0,0:0:0:0:
256,192,9083,1,8,0:0:0:0:
256,192,9683,1,12,0:0:0:0:
256,192,9833,1,0,0:0:0:0:
256,192,9908,1,0,0:0:0:0:
256,192,9983,1,8,0:0:0:0:
256,192,10133,1,8,0:0:0:0:
256,192,10283,1,8,0:0:0:0:
256,192,10433,1,8,0:0:0:0:
256,192,10583,1,0,0:0:0:0:
256,192,10733,1,0,0:0:0:0:
256,192,10883,1,8,0:0:0:0:
256,192,11033,1,8,0:0:0:0:
256,192,11108,1,0,0:0:0:0:
256,192,11183,1,0,0:0:0:0:
256,192,11333,1,8,0:0:0:0:
256,192,11483,1,8,0:0:0:0:
256,192,11558,1,0,0:0:0:0:
256,192,11633,1,8,0:0:0:0:
256,192,11708,1,8,0:0:0:0:
256,192,11783,1,0,0:0:0:0:
256,192,11933,1,8,0:0:0:0:
256,192,12083,1,4,0:0:0:0:
256,192,12233,1,8,0:0:0:0:
256,192,12308,1,8,0:0:0:0:
256,192,12383,1,0,0:0:0:0:
256,192,12533,1,0,0:0:0:0:
256,192,12683,1,0,0:0:0:0:
256,192,12833,1,0,0:0:0:0:
256,192,12983,1,0,0:0:0:0:
256,192,13133,1,0,0:0:0:0:
256,192,13283,1,0,0:0:0:0:
256,192,13358,1,8,0:0:0:0:
256,192,13433,1,8,0:0:0:0:
256,192,13583,1,0,0:0:0:0:
256,192,13808,1,0,0:0:0:0:
256,192,13883,1,8,0:0:0:0:
256,192,13958,1,0,0:0:0:0:
256,192,14033,1,8,0:0:0:0:
256,192,14083,1,8,0:0:0:0:
256,192,14133,1,8,0:0:0:0:
256,192,14183,1,0,0:0:0:0:
256,192,14333,1,8,0:0:0:0:
256,192,14483,1,4,0:0:0:0:
256,192,14708,1,8,0:0:0:0:
256,192,14783,1,0,0:0:0:0:
256,192,14933,1,8,0:0:0:0:
256,192,15083,1,0,0:0:0:0:
256,192,15233,1,0,0:0:0:0:
256,192,15383,1,0,0:0:0:0:
256,192,15533,1,0,0:0:0:0:
256,192,15683,1,0,0:0:0:0:
256,192,15758,1,0,0:0:0:0:
256,192,15833,1,8,0:0:0:0:
256,192,15908,1,8,0:0:0:0:
256,192,15983,1,0,0:0:0:0:
256,192,16058,1,0,0:0:0:0:
256,192,16133,1,8,0:0:0:0:
256,192,16208,1,8,0:0:0:0:
256,192,16283,1,0,0:0:0:0:
256,192,16358,1,0,0:0:0:0:
256,192,16433,1,8,0:0:0:0:
256,192,16508,1,8,0:0:0:0:
256,192,16583,1,0,0:0:0:0:
256,192,16658,1,0,0:0:0:0:
256,192,16733,1,8,0:0:0:0:
256,192,16808,1,8,0:0:0:0:
256,192,16883,1,0,0:0:0:0:
256,192,16958,1,0,0:0:0:0:
256,192,17033,1,0,0:0:0:0:
256,192,17108,1,0,0:0:0:0:
256,192,17183,1,0,0:0:0:0:
256,192,17258,1,0,0:0:0:0:
256,192,17333,1,0,0:0:0:0:
256,192,17408,1,0,0:0:0:0:
256,192,17483,1,0,0:0:0:0:
256,192,17558,1,0,0:0:0:0:
256,192,17633,1,0,0:0:0:0:
256,192,17708,1,0,0:0:0:0:
256,192,17783,1,0,0:0:0:0:
256,192,17858,1,0,0:0:0:0:
256,192,17933,1,0,0:0:0:0:
256,192,18008,1,0,0:0:0:0:
256,192,18083,1,0,0:0:0:0:
256,192,18233,1,0,0:0:0:0:
256,192,18383,1,0,0:0:0:0:
256,192,18458,1,0,0:0:0:0:
256,192,18608,1,0,0:0:0:0:
256,192,18683,1,8,0:0:0:0:
256,192,18983,1,12,0:0:0:0:
256,192,19283,1,8,0:0:0:0:
256,192,19433,1,8,0:0:0:0:
256,192,19508,1,8,0:0:0:0:
256,192,19583,1,0,0:0:0:0:
256,192,19733,1,8,0:0:0:0:
256,192,19883,1,8,0:0:0:0:
256,192,19958,1,8,0:0:0:0:
256,192,20033,1,0,0:0:0:0:
256,192,20183,1,8,0:0:0:0:
256,192,20333,1,0,0:0:0:0:
256,192,20483,1,8,0:0:0:0:
256,192,20633,1,8,0:0:0:0:
256,192,20708,1,8,0:0:0:0:
256,192,20783,1,0,0:0:0:0:
256,192,20933,1,8,0:0:0:0:
256,192,21083,1,0,0:0:0:0:
256,192,21158,1,8,0:0:0:0:
256,192,21233,1,8,0:0:0:0:
256,192,21308,1,0,0:0:0:0:
256,192,21383,1,8,0:0:0:0:
256,192,21533,1,0,0:0:0:0:
256,192,21683,1,8,0:0:0:0:
256,192,21833,1,8,0:0:0:0:
256,192,21908,1,8,0:0:0:0:
256,192,21983,1,0,0:0:0:0:
256,192,22133,1,8,0:0:0:0:
256,192,22283,1,8,0:0:0:0:
256,192,22358,1,8,0:0:0:0:
256,192,22433,1,0,0:0:0:0:
256,192,22583,1,8,0:0:0:0:
256,192,22733,1,0,0:0:0:0:
256,192,22808,1,0,0:0:0:0:
256,192,22883,1,8,0:0:0:0:
256,192,23033,1,8,0:0:0:0:
256,192,23108,1,8,0:0:0:0:
256,192,23183,1,0,0:0:0:0:
256,192,23333,1,8,0:0:0:0:
256,192,23483,1,0,0:0:0:0:
256,192,23558,1,0,0:0:0:0:
256,192,23633,1,0,0:0:0:0:
256,192,23708,1,0,0:0:0:0:
256,192,23783,1,0,0:0:0:0:
256,192,23933,1,8,0:0:0:0:
256,192,24083,1,8,0:0:0:0:
256,192,24233,1,8,0:0:0:0:
256,192,24308,1,8,0:0:0:0:
256,192,24383,1,0,0:0:0:0:
256,192,24533,1,8,0:0:0:0:
256,192,24683,1,8,0:0:0:0:
256,192,24758,1,8,0:0:0:0:
256,192,24833,1,0,0:0:0:0:
256,192,24983,1,8,0:0:0:0:
256,192,25133,1,0,0:0:0:0:
256,192,25283,1,8,0:0:0:0:
256,192,25433,1,8,0:0:0:0:
256,192,25508,1,8,0:0:0:0:
256,192,25583,1,0,0:0:0:0:
256,192,25733,1,8,0:0:0:0:
256,192,25883,1,0,0:0:0:0:
256,192,25958,1,8,0:0:0:0:
256,192,26033,1,8,0:0:0:0:
256,192,26108,1,0,0:0:0:0:
256,192,26183,1,8,0:0:0:0:
256,192,26333,1,8,0:0:0:0:
256,192,26483,1,8,0:0:0:0:
256,192,26558,1,0,0:0:0:0:
256,192,26633,1,0,0:0:0:0:
256,192,26708,1,0,0:0:0:0:
256,192,26783,1,0,0:0:0:0:
256,192,26858,1,0,0:0:0:0:
256,192,26933,1,8,0:0:0:0:
256,192,27008,1,0,0:0:0:0:
256,192,27083,1,0,0:0:0:0:
256,192,27158,1,0,0:0:0:0:
256,192,27233,1,0,0:0:0:0:
256,192,27308,1,0,0:0:0:0:
256,192,27383,1,8,0:0:0:0:
256,192,27458,1,0,0:0:0:0:
256,192,27533,1,0,0:0:0:0:
256,192,27608,1,0,0:0:0:0:
256,192,27683,1,8,0:0:0:0:
256,192,27758,1,0,0:0:0:0:
256,192,27833,1,0,0:0:0:0:
256,192,27908,1,8,0:0:0:0:
256,192,27983,1,0,0:0:0:0:
256,192,28058,1,0,0:0:0:0:
256,192,28133,1,8,0:0:0:0:
256,192,28208,1,8,0:0:0:0:
256,192,28283,1,0,0:0:0:0:
256,192,28583,1,4,0:0:0:0:
256,192,28883,1,8,0:0:0:0:
256,192,29033,1,0,0:0:0:0:
256,192,29108,1,8,0:0:0:0:
256,192,29183,1,0,0:0:0:0:
256,192,29333,1,8,0:0:0:0:
256,192,29483,1,0,0:0:0:0:
256,192,29558,1,8,0:0:0:0:
256,192,29633,1,0,0:0:0:0:
256,192,29783,1,8,0:0:0:0:
256,192,29933,1,0,0:0:0:0:
256,192,30083,1,8,0:0:0:0:
256,192,30233,1,0,0:0:0:0:
256,192,30308,1,8,0:0:0:0:
256,192,30383,1,0,0:0:0:0:
256,192,30533,1,8,0:0:0:0:
256,192,30683,1,0,0:0:0:0:
256,192,30758,1,0,0:0:0:0:
256,192,30833,1,8,0:0:0:0:
256,192,30908,1,8,0:0:0:0:
256,192,30983,1,0,0:0:0:0:
256,192,31133,1,8,0:0:0:0:
256,192,31283,1,8,0:0:0:0:
256,192,31433,1,0,0:0:0:0:
256,192,31508,1,8,0:0:0:0:
256,192,31583,1,0,0:0:0:0:
256,192,31733,1,8,0:0:0:0:
256,192,31883,1,0,0:0:0:0:
256,192,31958,1,8,0:0:0:0:
256,192,32033,1,0,0:0:0:0:
256,192,32183,1,8,0:0:0:0:
256,192,32333,1,0,0:0:0:0:
256,192,32408,1,0,0:0:0:0:
256,192,32483,1,8,0:0:0:0:
256,192,32558,1,0,0:0:0:0:
256,192,32633,1,0,0:0:0:0:
256,192,32708,1,8,0:0:0:0:
256,192,32783,1,0,0:0:0:0:
256,192,32933,1,8,0:0:0:0:
256,192,33083,1,0,0:0:0:0:
256,192,33158,1,0,0:0:0:0:
256,192,33233,1,0,0:0:0:0:
256,192,33308,1,0,0:0:0:0:
256,192,33383,1,0,0:0:0:0:
256,192,33533,1,8,0:0:0:0:
256,192,33683,1,8,0:0:0:0:
256,192,33833,1,0,0:0:0:0:
256,192,33908,1,8,0:0:0:0:
256,192,33983,1,0,0:0:0:0:
256,192,34133,1,8,0:0:0:0:
256,192,34283,1,0,0:0:0:0:
256,192,34358,1,8,0:0:0:0:
256,192,34433,1,0,0:0:0:0:
256,192,34583,1,8,0:0:0:0:
256,192,34733,1,0,0:0:0:0:
256,192,34883,1,8,0:0:0:0:
256,192,35033,1,0,0:0:0:0:
256,192,35108,1,8,0:0:0:0:
256,192,35183,1,0,0:0:0:0:
256,192,35333,1,8,0:0:0:0:
256,192,35483,1,0,0:0:0:0:
256,192,35558,1,8,0:0:0:0:
256,192,35633,1,0,0:0:0:0:
256,192,35708,1,0,0:0:0:0:
256,192,35783,1,8,0:0:0:0:
256,192,35933,1,8,0:0:0:0:
256,192,36083,1,8,0:0:0:0:
256,192,36158,1,0,0:0:0:0:
256,192,36233,1,0,0:0:0:0:
256,192,36308,1,0,0:0:0:0:
256,192,36383,1,0,0:0:0:0:
256,192,36458,1,0,0:0:0:0:
256,192,36533,1,8,0:0:0:0:
256,192,36608,1,0,0:0:0:0:
256,192,36683,1,0,0:0:0:0:
256,192,36758,1,0,0:0:0:0:
256,192,36833,1,0,0:0:0:0:
256,192,36908,1,0,0:0:0:0:
256,192,36983,1,8,0:0:0:0:
256,192,37058,1,0,0:0:0:0:
256,192,37133,1,8,0:0:0:0:
256,192,37208,1,0,0:0:0:0:
256,192,37283,1,8,0:0:0:0:
256,192,37358,1,0,0:0:0:0:
256,192,37433,1,0,0:0:0:0:
256,192,37508,1,8,0:0:0:0:
256,192,37583,1,0,0:0:0:0:
256,192,37658,1,0,0:0:0:0:
256,192,37733,1,0,0:0:0:0:
256,192,37808,1,0,0:0:0:0:
256,192,37883,1,8,0:0:0:0:
256,192,37958,1,0,0:0:0:0:
256,192,38033,1,0,0:0:0:0:
256,192,38108,1,0,0:0:0:0:
256,192,38183,1,8,0:0:0:0:
256,192,38333,1,8,0:0:0:0:
256,192,38483,1,8,0:0:0:0:
256,192,38558,1,0,0:0:0:0:
256,192,38633,1,0,0:0:0:0:
256,192,38783,1,8,0:0:0:0:
256,192,38933,1,0,0:0:0:0:
256,192,39008,1,0,0:0:0:0:
256,192,39083,1,8,0:0:0:0:
256,192,39233,1,8,0:0:0:0:
256,192,39383,1,0,0:0:0:0:
256,192,39533,1,8,0:0:0:0:
256,192,39608,1,0,0:0:0:0:
256,192,39683,1,0,0:0:0:0:
256,192,39833,1,8,0:0:0:0:
256,192,39983,1,8,0:0:0:0:
256,192,40058,1,0,0:0:0:0:
256,192,40133,1,8,0:0:0:0:
256,192,40208,1,0,0:0:0:0:
256,192,40283,1,0,0:0:0:0:
256,192,40358,1,8,0:0:0:0:
256,192,40433,1,8,0:0:0:0:
256,192,40508,1,0,0:0:0:0:
256,192,40583,1,8,0:0:0:0:
256,192,40658,1,0,0:0:0:0:
256,192,40733,1,0,0:0:0:0:
256,192,40883,1,8,0:0:0:0:
256,192,41033,1,0,0:0:0:0:
256,192,41108,1,0,0:0:0:0:
256,192,41183,1,8,0:0:0:0:
256,192,41333,1,0,0:0:0:0:
256,192,41408,1,0,0:0:0:0:
256,192,41483,1,8,0:0:0:0:
256,192,41558,1,0,0:0:0:0:
256,192,41633,1,8,0:0:0:0:
256,192,41708,1,0,0:0:0:0:
256,192,41783,1,0,0:0:0:0:
256,192,41933,1,0,0:0:0:0:
256,192,42083,1,8,0:0:0:0:
256,192,42233,1,8,0:0:0:0:
256,192,42308,1,0,0:0:0:0:
256,192,42383,1,8,0:0:0:0:
256,192,42458,1,0,0:0:0:0:
256,192,42533,1,0,0:0:0:0:
256,192,42683,1,4,0:0:0:0:
256,192,42758,1,0,0:0:0:0:
256,192,42833,1,0,0:0:0:0:
256,192,42908,1,0,0:0:0:0:
256,192,42983,1,0,0:0:0:0:
256,192,43133,1,12,0:0:0:0:
256,192,43283,1,8,0:0:0:0:
256,192,43433,1,8,0:0:0:0:
256,192,43508,1,0,0:0:0:0:
256,192,43583,1,8,0:0:0:0:
256,192,43733,1,0,0:0:0:0:
256,192,43883,1,8,0:0:0:0:
256,192,43958,1,8,0:0:0:0:
256,192,44033,1,0,0:0:0:0:
256,192,44183,1,0,0:0:0:0:
256,192,44333,1,0,0:0:0:0:
256,192,44408,1,0,0:0:0:0:
256,192,44483,1,0,0:0:0:0:
256,192,44633,1,8,0:0:0:0:
256,192,44708,1,0,0:0:0:0:
256,192,44783,1,8,0:0:0:0:
256,192,44933,1,8,0:0:0:0:
256,192,45008,1,0,0:0:0:0:
256,192,45083,1,8,0:0:0:0:
256,192,45158,1,8,0:0:0:0:
256,192,45233,1,8,0:0:0:0:
256,192,45383,1,0,0:0:0:0:
256,192,45533,1,8,0:0:0:0:
256,192,45683,1,8,0:0:0:0:
256,192,45758,1,0,0:0:0:0:
256,192,45833,1,0,0:0:0:0:
256,192,45908,1,0,0:0:0:0:
256,192,45983,1,8,0:0:0:0:
256,192,46058,1,0,0:0:0:0:
256,192,46133,1,0,0:0:0:0:
256,192,46208,1,0,0:0:0:0:
256,192,46283,1,8,0:0:0:0:
256,192,46358,1,0,0:0:0:0:
256,192,46433,1,8,0:0:0:0:
256,192,46508,1,0,0:0:0:0:
256,192,46583,1,0,0:0:0:0:
256,192,46658,1,0,0:0:0:0:
256,192,46733,1,8,0:0:0:0:
256,192,46808,1,0,0:0:0:0:
256,192,46883,1,0,0:0:0:0:
256,192,46958,1,8,0:0:0:0:
256,192,47033,1,8,0:0:0:0:
256,192,47108,1,8,0:0:0:0:
256,192,47183,1,8,0:0:0:0:
256,192,47258,1,8,0:0:0:0:
256,192,47333,1,8,0:0:0:0:
256,192,47408,1,8,0:0:0:0:
256,192,47483,1,0,0:0:0:0:
256,192,47783,1,12,0:0:0:0:
256,192,48083,1,8,0:0:0:0:
256,192,48233,1,0,0:0:0:0:
256,192,48308,1,8,0:0:0:0:
256,192,48383,1,0,0:0:0:0:
256,192,48458,1,8,0:0:0:0:
256,192,48533,1,8,0:0:0:0:
256,192,48608,1,0,0:0:0:0:
256,192,48683,1,0,0:0:0:0:
256,192,48758,1,8,0:0:0:0:
256,192,48833,1,0,0:0:0:0:
256,192,48908,1,8,0:0:0:0:
256,192,48983,1,8,0:0:0:0:
256,192,49133,1,0,0:0:0:0:
256,192,49283,1,8,0:0:0:0:
256,192,49358,1,0,0:0:0:0:
256,192,49433,1,0,0:0:0:0:
256,192,49508,1,8,0:0:0:0:
256,192,49583,1,0,0:0:0:0:
256,192,49658,1,8,0:0:0:0:
256,192,49733,1,8,0:0:0:0:
256,192,49808,1,0,0:0:0:0:
256,192,49883,1,0,0:0:0:0:
256,192,49958,1,0,0:0:0:0:
256,192,50033,1,8,0:0:0:0:
256,192,50108,1,8,0:0:0:0:
256,192,50183,1,0,0:0:0:0:
256,192,50333,1,8,0:0:0:0:
256,192,50483,1,8,0:0:0:0:
256,192,50633,1,0,0:0:0:0:
256,192,50708,1,8,0:0:0:0:
256,192,50783,1,0,0:0:0:0:
256,192,50858,1,8,0:0:0:0:
256,192,50933,1,8,0:0:0:0:
256,192,51008,1,0,0:0:0:0:
256,192,51083,1,0,0:0:0:0:
256,192,51158,1,8,0:0:0:0:
256,192,51233,1,0,0:0:0:0:
256,192,51308,1,8,0:0:0:0:
256,192,51383,1,8,0:0:0:0:
256,192,51533,1,0,0:0:0:0:
256,192,51608,1,0,0:0:0:0:
256,192,51683,1,8,0:0:0:0:
256,192,51758,1,0,0:0:0:0:
256,192,51833,1,0,0:0:0:0:
256,192,51908,1,8,0:0:0:0:
256,192,51983,1,0,0:0:0:0:
256,192,52058,1,0,0:0:0:0:
256,192,52133,1,8,0:0:0:0:
256,192,52283,1,0,0:0:0:0:
256,192,52358,1,0,0:0:0:0:
256,192,52433,1,0,0:0:0:0:
256,192,52508,1,0,0:0:0:0:
256,192,52583,1,0,0:0:0:0:
256,192,52733,1,8,0:0:0:0:
256,192,52883,1,8,0:0:0:0:
256,192,53033,1,0,0:0:0:0:
256,192,53108,1,8,0:0:0:0:
256,192,53183,1,0,0:0:0:0:
256,192,53258,1,0,0:0:0:0:
256,192,53333,1,8,0:0:0:0:
256,192,53408,1,8,0:0:0:0:
256,192,53483,1,0,0:0:0:0:
256,192,53558,1,8,0:0:0:0:
256,192,53633,1,0,0:0:0:0:
256,192,53708,1,0,0:0:0:0:
256,192,53783,1,8,0:0:0:0:
256,192,53933,1,0,0:0:0:0:
256,192,54083,1,8,0:0:0:0:
256,192,54158,1,8,0:0:0:0:
256,192,54233,1,0,0:0:0:0:
256,192,54308,1,8,0:0:0:0:
256,192,54383,1,0,0:0:0:0:
256,192,54458,1,0,0:0:0:0:
256,192,54533,1,8,0:0:0:0:
256,192,54608,1,8,0:0:0:0:
256,192,54683,1,0,0:0:0:0:
256,192,54758,1,8,0:0:0:0:
256,192,54833,1,0,0:0:0:0:
256,192,54908,1,0,0:0:0:0:
256,192,54983,1,8,0:0:0:0:
256,192,55133,1,8,0:0:0:0:
256,192,55283,1,8,0:0:0:0:
256,192,55358,1,0,0:0:0:0:
256,192,55433,1,0,0:0:0:0:
256,192,55508,1,0,0:0:0:0:
256,192,55583,1,0,0:0:0:0:
256,192,55658,1,0,0:0:0:0:
256,192,55733,1,8,0:0:0:0:
256,192,55808,1,0,0:0:0:0:
256,192,55883,1,0,0:0:0:0:
256,192,55958,1,0,0:0:0:0:
256,192,56033,1,0,0:0:0:0:
256,192,56108,1,0,0:0:0:0:
256,192,56183,1,8,0:0:0:0:
256,192,56258,1,0,0:0:0:0:
256,192,56333,1,8,0:0:0:0:
256,192,56408,1,0,0:0:0:0:
256,192,56483,1,8,0:0:0:0:
256,192,56558,1,0,0:0:0:0:
256,192,56633,1,0,0:0:0:0:
256,192,56708,1,8,0:0:0:0:
256,192,56783,1,0,0:0:0:0:
256,192,56858,1,0,0:0:0:0:
256,192,56933,1,0,0:0:0:0:
256,192,57008,1,0,0:0:0:0:
256,192,57083,1,8,0:0:0:0:
256,192,57158,1,8,0:0:0:0:
256,192,57233,1,8,0:0:0:0:
256,192,57308,1,8,0:0:0:0:
256,192,57383,1,0,0:0:0:0:
256,160,57533,1,8,0:0:0:0:
256,192,57683,1,0,0:0:0:0:
256,192,57833,1,0,0:0:0:0:
256,192,57983,1,8,0:0:0:0:
256,192,58133,1,0,0:0:0:0:
256,192,58208,1,8,0:0:0:0:
256,192,58283,1,0,0:0:0:0:
256,192,58433,1,0,0:0:0:0:
256,192,58583,1,8,0:0:0:0:
256,192,58733,1,8,0:0:0:0:
256,192,58808,1,8,0:0:0:0:
256,192,58883,1,0,0:0:0:0:
256,192,59033,1,8,0:0:0:0:
256,192,59183,1,0,0:0:0:0:
256,192,59258,1,0,0:0:0:0:
256,192,59333,1,8,0:0:0:0:
256,192,59483,1,0,0:0:0:0:
256,192,59783,1,0,0:0:0:0:
256,192,60083,1,0,0:0:0:0:
256,192,60233,1,0,0:0:0:0:
256,192,60383,1,8,0:0:0:0:
256,192,60533,1,0,0:0:0:0:
256,192,60608,1,8,0:0:0:0:
256,192,60683,1,0,0:0:0:0:
256,192,60833,1,0,0:0:0:0:
256,192,60983,1,8,0:0:0:0:
256,192,61133,1,8,0:0:0:0:
256,192,61208,1,8,0:0:0:0:
256,192,61283,1,0,0:0:0:0:
256,192,61433,1,0,0:0:0:0:
256,192,61583,1,0,0:0:0:0:
256,192,61733,1,8,0:0:0:0:
256,192,61883,1,8,0:0:0:0:
256,192,62033,1,0,0:0:0:0:
256,192,62183,1,8,0:0:0:0:
256,192,62333,1,0,0:0:0:0:
256,192,62483,1,0,0:0:0:0:
256,192,62633,1,0,0:0:0:0:
256,192,62783,1,8,0:0:0:0:
256,192,62933,1,0,0:0:0:0:
256,192,63008,1,8,0:0:0:0:
256,192,63083,1,0,0:0:0:0:
256,192,63233,1,0,0:0:0:0:
256,192,63383,1,8,0:0:0:0:
256,192,63533,1,8,0:0:0:0:
256,192,63608,1,8,0:0:0:0:
256,192,63683,1,0,0:0:0:0:
256,192,63833,1,8,0:0:0:0:
256,192,63908,1,8,0:0:0:0:
256,192,63983,1,0,0:0:0:0:
256,192,64133,1,8,0:0:0:0:
256,192,64283,1,0,0:0:0:0:
256,192,64583,1,8,0:0:0:0:
256,192,64883,1,0,0:0:0:0:
256,192,65033,1,0,0:0:0:0:
256,192,65183,1,8,0:0:0:0:
256,192,65333,1,0,0:0:0:0:
256,192,65408,1,8,0:0:0:0:
256,192,65483,1,0,0:0:0:0:
256,192,65633,1,0,0:0:0:0:
256,192,65783,1,8,0:0:0:0:
256,192,65933,1,8,0:0:0:0:
256,192,66008,1,8,0:0:0:0:
256,192,66083,1,0,0:0:0:0:
256,192,66233,1,8,0:0:0:0:
256,192,66383,1,0,0:0:0:0:
256,192,66533,1,8,0:0:0:0:
256,192,66683,1,0,0:0:0:0:
256,192,66983,1,0,0:0:0:0:
256,192,67283,1,0,0:0:0:0:
256,192,67433,1,0,0:0:0:0:
256,192,67583,1,8,0:0:0:0:
256,192,67733,1,0,0:0:0:0:
256,192,67808,1,0,0:0:0:0:
256,192,67883,1,8,0:0:0:0:
256,192,68033,1,0,0:0:0:0:
256,192,68183,1,8,0:0:0:0:
256,192,68333,1,0,0:0:0:0:
256,192,68408,1,8,0:0:0:0:
256,192,68483,1,0,0:0:0:0:
256,192,68633,1,0,0:0:0:0:
256,192,68783,1,0,0:0:0:0:
256,192,68933,1,8,0:0:0:0:
256,192,69083,1,8,0:0:0:0:
256,192,69233,1,8,0:0:0:0:
256,192,69308,1,8,0:0:0:0:
256,192,69383,1,0,0:0:0:0:
256,192,69458,1,0,0:0:0:0:
256,192,69533,1,0,0:0:0:0:
256,192,69683,1,0,0:0:0:0:
256,192,69833,1,0,0:0:0:0:
256,192,69908,1,0,0:0:0:0:
256,192,69983,1,8,0:0:0:0:
256,192,70133,1,0,0:0:0:0:
256,192,70283,1,8,0:0:0:0:
256,192,70433,1,8,0:0:0:0:
256,192,70508,1,0,0:0:0:0:
256,192,70583,1,0,0:0:0:0:
256,192,70733,1,8,0:0:0:0:
256,192,70808,1,8,0:0:0:0:
256,192,70883,1,0,0:0:0:0:
256,192,71033,1,8,0:0:0:0:
256,192,71183,1,0,0:0:0:0:
256,192,71258,1,0,0:0:0:0:
256,192,71333,1,8,0:0:0:0:
256,192,71483,1,4,0:0:0:0:
256,192,71633,1,8,0:0:0:0:
256,192,71708,1,8,0:0:0:0:
256,192,71783,1,0,0:0:0:0:
256,192,71858,1,0,0:0:0:0:
256,192,71933,1,0,0:0:0:0:
256,192,72083,1,0,0:0:0:0:
256,192,72233,1,0,0:0:0:0:
256,192,72383,1,8,0:0:0:0:
256,192,72533,1,0,0:0:0:0:
256,192,72608,1,0,0:0:0:0:
256,192,72683,1,8,0:0:0:0:
256,192,72833,1,8,0:0:0:0:
256,192,72983,1,8,0:0:0:0:
256,192,73058,1,0,0:0:0:0:
256,192,73133,1,0,0:0:0:0:
256,192,73208,1,0,0:0:0:0:
256,192,73283,1,8,0:0:0:0:
256,192,73433,1,0,0:0:0:0:
256,192,73583,1,0,0:0:0:0:
256,192,73733,1,8,0:0:0:0:
256,192,74033,1,8,0:0:0:0:
256,192,74183,1,8,0:0:0:0:
256,192,74333,1,0,0:0:0:0:
256,192,74483,1,8,0:0:0:0:
256,192,74633,1,0,0:0:0:0:
256,192,74708,1,0,0:0:0:0:
256,192,74783,1,8,0:0:0:0:
256,192,74933,1,0,0:0:0:0:
256,192,75083,1,8,0:0:0:0:
256,192,75158,1,0,0:0:0:0:
256,192,75233,1,0,0:0:0:0:
256,192,75308,1,0,0:0:0:0:
256,192,75383,1,8,0:0:0:0:
256,192,75533,1,0,0:0:0:0:
256,192,75608,1,0,0:0:0:0:
256,192,75683,1,0,0:0:0:0:
256,192,75833,1,8,0:0:0:0:
256,192,75983,1,0,0:0:0:0:
256,192,76133,1,8,0:0:0:0:
256,192,76283,12,0,76733,0:0:0:0:
