osu file format v14

[General]
AudioFilename: 401.mp3
AudioLeadIn: 0
PreviewTime: 0
Countdown: 0
SampleSet: None
StackLeniency: 0.7
Mode: 3
LetterboxInBreaks: 0
SpecialStyle: 0
WidescreenStoryboard: 0

[Editor]
DistanceSpacing: 0.8
BeatDivisor: 4
GridSize: 8
TimelineZoom: 1.400006

[Metadata]
Title:168 - 401
TitleUnicode:168 - 401
Artist:saradisk
ArtistUnicode:saradisk
Creator:AILK
Version:USG
Source:艦隊これくしょん -艦これ-
Tags:
BeatmapID:1359314
BeatmapSetID:640981

[Difficulty]
HPDrainRate:0
CircleSize:7
OverallDifficulty:0
ApproachRate:5
SliderMultiplier:1.4
SliderTickRate:1

[Events]
//Background and Video events
0,0,"401.jpg",0,0
//Break Periods
//Storyboard Layer 0 (Background)
//Storyboard Layer 1 (Fail)
//Storyboard Layer 2 (Pass)
//Storyboard Layer 3 (Foreground)
//Storyboard Sound Samples

[TimingPoints]
82,300,4,2,0,0,1,0
9082,1,4,2,0,0,1,0
9083,999999999,4,2,0,0,1,0
9382,300,1,2,0,0,1,0
9682,1,4,2,0,0,1,0
9683,999999999,4,2,0,0,1,0
9907,1,4,2,0,0,1,0
9908,999999999,4,2,0,0,1,0
10132,1,4,2,0,0,1,0
10133,999999999,4,2,0,0,1,0
10282,1,4,2,0,0,1,0
10283,999999999,4,2,0,0,1,0
10432,1,4,2,0,0,1,0
10433,999999999,4,2,0,0,1,0
10582,1,4,2,0,0,1,0
10583,999999999,4,2,0,0,1,0
10732,1,4,2,0,0,1,0
10733,999999999,4,2,0,0,1,0
10882,1,4,2,0,0,1,0
10883,999999999,4,2,0,0,1,0
11032,1,4,2,0,0,1,0
11033,999999999,4,2,0,0,1,0
11182,1,4,2,0,0,1,0
11183,999999999,4,2,0,0,1,0
11332,1,4,2,0,0,1,0
11333,999999999,4,2,0,0,1,0
11482,1,4,2,0,0,1,0
11483,999999999,4,2,0,0,1,0
11632,1,4,2,0,0,1,0
11633,999999999,4,2,0,0,1,0
11782,1,4,2,0,0,1,0
11783,999999999,4,2,0,0,1,0
11932,1,4,2,0,0,1,0
11933,999999999,4,2,0,0,1,0
12082,1,4,2,0,0,1,0
12083,999999999,4,2,0,0,1,0
12307,1,4,2,0,0,1,0
12308,999999999,4,2,0,0,1,0
12532,1,4,2,0,0,1,0
12533,999999999,4,2,0,0,1,0
12682,1,4,2,0,0,1,0
12683,999999999,4,2,0,0,1,0
12832,1,4,2,0,0,1,0
12833,999999999,4,2,0,0,1,0
12982,1,4,2,0,0,1,0
12983,999999999,4,2,0,0,1,0
13132,1,4,2,0,0,1,0
13133,999999999,4,2,0,0,1,0
13282,1,4,2,0,0,1,0
13283,999999999,4,2,0,0,1,0
13432,1,4,2,0,0,1,0
13433,999999999,4,2,0,0,1,0
13582,1,4,2,0,0,1,0
13583,999999999,4,2,0,0,1,0
13732,1,4,2,0,0,1,0
13733,999999999,4,2,0,0,1,0
13882,1,4,2,0,0,1,0
13883,999999999,4,2,0,0,1,0
14032,1,4,2,0,0,1,0
14033,999999999,4,2,0,0,1,0
14182,1,4,2,0,0,1,0
14183,999999999,4,2,0,0,1,0
14332,1,4,2,0,0,1,0
14333,999999999,4,2,0,0,1,0
14482,1,4,2,0,0,1,0
14483,999999999,4,2,0,0,1,0
14707,1,4,2,0,0,1,0
14708,999999999,4,2,0,0,1,0
14932,1,4,2,0,0,1,0
14933,999999999,4,2,0,0,1,0
15082,1,4,2,0,0,1,0
15083,999999999,4,2,0,0,1,0
15232,1,4,2,0,0,1,0
15233,999999999,4,2,0,0,1,0
15382,1,4,2,0,0,1,0
15383,999999999,4,2,0,0,1,0
15532,1,4,2,0,0,1,0
15533,999999999,4,2,0,0,1,0
15682,1,4,2,0,0,1,0
15683,999999999,4,2,0,0,1,0
15832,1,4,2,0,0,1,0
15833,999999999,4,2,0,0,1,0
15982,1,4,2,0,0,1,0
15983,999999999,4,2,0,0,1,0
16132,1,4,2,0,0,1,0
16133,999999999,4,2,0,0,1,0
16282,1,4,2,0,0,1,0
16283,999999999,4,2,0,0,1,0
16432,1,4,2,0,0,1,0
16433,999999999,4,2,0,0,1,0
16582,1,4,2,0,0,1,0
16583,999999999,4,2,0,0,1,0
16732,1,4,2,0,0,1,0
16733,999999999,4,2,0,0,1,0
16882,1,4,2,0,0,1,0
16883,999999999,4,2,0,0,1,0
17107,1,4,2,0,0,1,0
17108,999999999,4,2,0,0,1,0
17332,1,4,2,0,0,1,0
17333,999999999,4,2,0,0,1,0
17482,1,4,2,0,0,1,0
17483,999999999,4,2,0,0,1,0
17632,1,4,2,0,0,1,0
17633,999999999,4,2,0,0,1,0
17782,1,4,2,0,0,1,0
17783,999999999,4,2,0,0,1,0
17932,1,4,2,0,0,1,0
17933,999999999,4,2,0,0,1,0
18082,1,4,2,0,0,1,0
18083,999999999,4,2,0,0,1,0
18232,1,4,2,0,0,1,0
18233,999999999,4,2,0,0,1,0
18382,1,4,2,0,0,1,0
18383,999999999,4,2,0,0,1,0
18682,1,4,2,0,0,1,0
18683,999999999,4,2,0,0,1,0
18982,300,1,2,0,0,1,0
18982,-10,4,2,0,5,0,0
19057,-142.857142857143,4,2,0,5,0,0
19132,-125,4,2,0,5,0,0
19207,-111.111111111111,4,2,0,5,0,0
19282,300,4,2,0,0,1,0
19282,-100,4,2,0,5,0,0
21532,1,4,2,0,0,1,0
21533,999999999,4,2,0,0,1,0
21682,300,4,2,0,0,1,0
28282,1,4,2,0,0,1,0
28283,999999999,4,2,0,0,1,0
28582,300,1,2,0,0,1,0
28582,-10,4,2,0,5,0,0
28657,-142.857142857143,4,2,0,5,0,0
28732,-125,4,2,0,5,0,0
28807,-111.111111111111,4,2,0,5,0,0
28882,300,4,2,0,0,1,0
28882,-100,4,2,0,5,0,0
40732,1,4,2,0,0,1,0
40733,999999999,4,2,0,0,1,0
40882,300,4,2,0,0,1,0
47482,1,4,2,0,0,1,0
47483,999999999,4,2,0,0,1,0
47782,300,1,2,0,0,1,0
47782,-10,4,2,0,5,0,0
47857,-142.857142857143,4,2,0,5,0,0
47932,-125,4,2,0,5,0,0
48007,-111.111111111111,4,2,0,5,0,0
48082,300,4,2,0,0,1,0
48082,-100,4,2,0,5,0,0

[HitObjects]
36,192,82,128,0,232:0:0:0:0:
182,192,82,128,0,232:0:0:0:0:
329,192,82,128,0,232:0:0:0:0:
475,192,82,128,0,232:0:0:0:0:
256,192,82,128,0,1357:0:0:0:0:
109,192,82,128,0,607:0:0:0:0:
402,192,82,128,0,607:0:0:0:0:
36,192,307,128,0,457:0:0:0:0:
182,192,307,128,0,457:0:0:0:0:
329,192,307,128,0,457:0:0:0:0:
475,192,307,128,0,457:0:0:0:0:
475,192,532,128,0,1507:0:0:0:0:
329,192,532,128,0,907:0:0:0:0:
182,192,532,128,0,907:0:0:0:0:
36,192,532,128,0,1507:0:0:0:0:
109,192,682,128,0,757:0:0:0:0:
402,192,682,128,0,757:0:0:0:0:
109,192,832,128,0,1207:0:0:0:0:
402,192,832,128,0,1207:0:0:0:0:
329,192,982,128,0,1057:0:0:0:0:
182,192,982,128,0,1057:0:0:0:0:
182,192,1132,128,0,1807:0:0:0:0:
329,192,1132,128,0,1807:0:0:0:0:
402,192,1282,128,0,2407:0:0:0:0:
109,192,1282,128,0,2407:0:0:0:0:
256,192,1432,128,0,1657:0:0:0:0:
475,192,1582,128,0,2107:0:0:0:0:
36,192,1582,128,0,2107:0:0:0:0:
256,192,1732,128,0,1957:0:0:0:0:
329,192,1882,128,0,2407:0:0:0:0:
182,192,1882,128,0,2407:0:0:0:0:
256,192,2032,128,0,2257:0:0:0:0:
475,192,2182,128,0,3007:0:0:0:0:
36,192,2182,128,0,3007:0:0:0:0:
256,192,2332,128,0,3607:0:0:0:0:
109,192,2482,128,0,2632:0:0:0:0:
182,192,2482,128,0,2632:0:0:0:0:
329,192,2482,128,0,2632:0:0:0:0:
402,192,2482,128,0,2632:0:0:0:0:
109,192,2707,128,0,2857:0:0:0:0:
182,192,2707,128,0,2857:0:0:0:0:
402,192,2707,128,0,2857:0:0:0:0:
329,192,2707,128,0,2857:0:0:0:0:
182,192,2932,128,0,3307:0:0:0:0:
109,192,2932,128,0,3794:0:0:0:0:
329,192,2932,128,0,3307:0:0:0:0:
402,192,2932,128,0,3944:0:0:0:0:
36,192,3082,128,0,3157:0:0:0:0:
475,192,3082,128,0,3157:0:0:0:0:
36,192,3232,128,0,3757:0:0:0:0:
475,192,3232,128,0,3982:0:0:0:0:
182,192,3382,128,0,3457:0:0:0:0:
329,192,3382,128,0,3457:0:0:0:0:
182,192,3532,128,0,3832:0:0:0:0:
329,192,3532,128,0,3907:0:0:0:0:
256,192,3682,128,0,3869:0:0:0:0:
36,192,3832,128,0,4207:0:0:0:0:
109,192,3869,128,0,4169:0:0:0:0:
182,192,3907,128,0,4132:0:0:0:0:
256,192,3944,128,0,4094:0:0:0:0:
329,192,3982,128,0,4057:0:0:0:0:
402,192,4019,1,0,0:0:0:0:
475,192,4057,128,0,4432:0:0:0:0:
402,192,4094,128,0,4394:0:0:0:0:
329,192,4132,128,0,4357:0:0:0:0:
256,192,4169,128,0,4319:0:0:0:0:
182,192,4207,128,0,4282:0:0:0:0:
109,192,4244,1,0,0:0:0:0:
36,192,4282,128,0,4657:0:0:0:0:
109,192,4319,128,0,4619:0:0:0:0:
182,192,4357,128,0,4582:0:0:0:0:
256,192,4394,128,0,4544:0:0:0:0:
329,192,4432,128,0,4507:0:0:0:0:
402,192,4469,1,0,0:0:0:0:
475,192,4507,128,0,4807:0:0:0:0:
402,192,4544,128,0,4807:0:0:0:0:
329,192,4582,128,0,5407:0:0:0:0:
256,192,4619,128,0,4769:0:0:0:0:
182,192,4657,128,0,4732:0:0:0:0:
109,192,4694,1,0,0:0:0:0:
36,192,4732,128,0,4807:0:0:0:0:
109,192,4769,128,0,4807:0:0:0:0:
182,192,4807,128,0,5407:0:0:0:0:
256,192,4844,128,0,5707:0:0:0:0:
36,192,4882,128,0,5032:0:0:0:0:
109,192,4882,128,0,5032:0:0:0:0:
402,192,4882,128,0,5032:0:0:0:0:
475,192,4882,128,0,5032:0:0:0:0:
475,192,5107,128,0,5257:0:0:0:0:
402,192,5107,128,0,5257:0:0:0:0:
109,192,5107,128,0,5257:0:0:0:0:
36,192,5107,128,0,5257:0:0:0:0:
36,192,5332,128,0,6007:0:0:0:0:
109,192,5332,128,0,6307:0:0:0:0:
475,192,5332,128,0,6007:0:0:0:0:
402,192,5332,128,0,6307:0:0:0:0:
329,192,5482,128,0,5557:0:0:0:0:
182,192,5482,128,0,5557:0:0:0:0:
329,192,5632,128,0,6157:0:0:0:0:
182,192,5632,128,0,6157:0:0:0:0:
256,192,5782,128,0,5857:0:0:0:0:
256,192,5932,128,0,7207:0:0:0:0:
36,192,6082,128,0,6607:0:0:0:0:
475,192,6082,128,0,6607:0:0:0:0:
182,192,6232,128,0,6457:0:0:0:0:
329,192,6232,128,0,6457:0:0:0:0:
109,192,6382,128,0,6907:0:0:0:0:
402,192,6382,128,0,6907:0:0:0:0:
182,192,6532,128,0,6757:0:0:0:0:
329,192,6532,128,0,6757:0:0:0:0:
36,192,6682,128,0,7207:0:0:0:0:
475,192,6682,128,0,7207:0:0:0:0:
182,192,6832,128,0,7057:0:0:0:0:
329,192,6832,128,0,7057:0:0:0:0:
109,192,6982,128,0,7807:0:0:0:0:
402,192,6982,128,0,7807:0:0:0:0:
182,192,7132,128,0,7207:0:0:0:0:
329,192,7132,128,0,7207:0:0:0:0:
36,192,7282,128,0,7432:0:0:0:0:
182,192,7282,128,0,7432:0:0:0:0:
256,192,7282,128,0,7432:0:0:0:0:
329,192,7282,128,0,7432:0:0:0:0:
475,192,7282,128,0,7432:0:0:0:0:
36,192,7507,128,0,7657:0:0:0:0:
182,192,7507,128,0,7657:0:0:0:0:
256,192,7507,128,0,7657:0:0:0:0:
329,192,7507,128,0,7657:0:0:0:0:
475,192,7507,128,0,7657:0:0:0:0:
36,192,7732,128,0,8407:0:0:0:0:
182,192,7732,128,0,8107:0:0:0:0:
256,192,7732,128,0,8407:0:0:0:0:
329,192,7732,128,0,8107:0:0:0:0:
475,192,7732,128,0,8407:0:0:0:0:
109,192,7882,128,0,7957:0:0:0:0:
402,192,7882,128,0,7957:0:0:0:0:
109,192,8032,128,0,8407:0:0:0:0:
402,192,8032,128,0,8407:0:0:0:0:
182,192,8182,128,0,8257:0:0:0:0:
329,192,8182,128,0,8257:0:0:0:0:
182,192,8332,128,0,8407:0:0:0:0:
329,192,8332,128,0,8407:0:0:0:0:
36,192,8482,5,0,0:0:0:0:
109,192,8557,1,0,0:0:0:0:
182,192,8632,1,0,0:0:0:0:
256,192,8707,1,0,0:0:0:0:
475,192,8782,1,0,0:0:0:0:
402,192,8857,1,0,0:0:0:0:
329,192,8932,1,0,0:0:0:0:
256,192,9007,1,0,0:0:0:0:
36,192,9082,1,0,0:0:0:0:
109,192,9082,1,0,0:0:0:0:
182,192,9082,1,0,0:0:0:0:
329,192,9082,1,0,0:0:0:0:
402,192,9082,1,0,0:0:0:0:
475,192,9082,1,0,0:0:0:0:
36,192,9382,1,0,0:0:0:0:
109,192,9419,1,0,0:0:0:0:
182,192,9457,1,0,0:0:0:0:
256,192,9494,1,0,0:0:0:0:
329,192,9532,1,0,0:0:0:0:
402,192,9569,1,0,0:0:0:0:
475,192,9607,1,0,0:0:0:0:
109,192,9682,1,0,0:0:0:0:
182,192,9682,1,0,0:0:0:0:
256,192,9682,1,0,0:0:0:0:
36,192,9682,1,0,0:0:0:0:
36,192,9907,1,0,0:0:0:0:
109,192,9907,1,0,0:0:0:0:
182,192,9907,1,0,0:0:0:0:
256,192,9907,1,0,0:0:0:0:
36,192,10132,1,0,0:0:0:0:
109,192,10132,1,0,0:0:0:0:
182,192,10132,1,0,0:0:0:0:
256,192,10132,1,0,0:0:0:0:
109,192,10282,1,0,0:0:0:0:
182,192,10282,1,0,0:0:0:0:
256,192,10282,1,0,0:0:0:0:
329,192,10282,1,0,0:0:0:0:
329,192,10432,1,0,0:0:0:0:
256,192,10432,1,0,0:0:0:0:
182,192,10432,1,0,0:0:0:0:
109,192,10432,1,0,0:0:0:0:
182,192,10582,1,0,0:0:0:0:
256,192,10582,1,0,0:0:0:0:
329,192,10582,1,0,0:0:0:0:
402,192,10582,1,0,0:0:0:0:
402,192,10732,1,0,0:0:0:0:
329,192,10732,1,0,0:0:0:0:
256,192,10732,1,0,0:0:0:0:
182,192,10732,1,0,0:0:0:0:
256,192,10882,1,0,0:0:0:0:
329,192,10882,1,0,0:0:0:0:
402,192,10882,1,0,0:0:0:0:
475,192,10882,1,0,0:0:0:0:
475,192,11032,1,0,0:0:0:0:
402,192,11032,1,0,0:0:0:0:
329,192,11032,1,0,0:0:0:0:
256,192,11032,1,0,0:0:0:0:
402,192,11182,1,0,0:0:0:0:
329,192,11182,1,0,0:0:0:0:
256,192,11182,1,0,0:0:0:0:
182,192,11182,1,0,0:0:0:0:
182,192,11332,1,0,0:0:0:0:
256,192,11332,1,0,0:0:0:0:
402,192,11332,1,0,0:0:0:0:
329,192,11332,1,0,0:0:0:0:
329,192,11482,1,0,0:0:0:0:
256,192,11482,1,0,0:0:0:0:
182,192,11482,1,0,0:0:0:0:
109,192,11482,1,0,0:0:0:0:
109,192,11632,1,0,0:0:0:0:
182,192,11632,1,0,0:0:0:0:
256,192,11632,1,0,0:0:0:0:
329,192,11632,1,0,0:0:0:0:
36,192,11782,1,0,0:0:0:0:
109,192,11782,1,0,0:0:0:0:
182,192,11782,1,0,0:0:0:0:
256,192,11782,1,0,0:0:0:0:
256,192,11932,1,0,0:0:0:0:
182,192,11932,1,0,0:0:0:0:
109,192,11932,1,0,0:0:0:0:
36,192,11932,1,0,0:0:0:0:
475,192,12082,1,0,0:0:0:0:
402,192,12082,1,0,0:0:0:0:
329,192,12082,1,0,0:0:0:0:
256,192,12082,1,0,0:0:0:0:
256,192,12307,1,0,0:0:0:0:
329,192,12307,1,0,0:0:0:0:
402,192,12307,1,0,0:0:0:0:
475,192,12307,1,0,0:0:0:0:
475,192,12532,1,0,0:0:0:0:
402,192,12532,1,0,0:0:0:0:
329,192,12532,1,0,0:0:0:0:
256,192,12532,1,0,0:0:0:0:
402,192,12682,1,0,0:0:0:0:
329,192,12682,1,0,0:0:0:0:
256,192,12682,1,0,0:0:0:0:
182,192,12682,1,0,0:0:0:0:
182,192,12832,1,0,0:0:0:0:
256,192,12832,1,0,0:0:0:0:
329,192,12832,1,0,0:0:0:0:
402,192,12832,1,0,0:0:0:0:
329,192,12982,1,0,0:0:0:0:
256,192,12982,1,0,0:0:0:0:
182,192,12982,1,0,0:0:0:0:
109,192,12982,1,0,0:0:0:0:
109,192,13132,1,0,0:0:0:0:
182,192,13132,1,0,0:0:0:0:
256,192,13132,1,0,0:0:0:0:
329,192,13132,1,0,0:0:0:0:
256,192,13282,1,0,0:0:0:0:
182,192,13282,1,0,0:0:0:0:
109,192,13282,1,0,0:0:0:0:
36,192,13282,1,0,0:0:0:0:
109,192,13432,1,0,0:0:0:0:
182,192,13432,1,0,0:0:0:0:
36,192,13432,1,0,0:0:0:0:
256,192,13432,1,0,0:0:0:0:
109,192,13582,1,0,0:0:0:0:
182,192,13582,1,0,0:0:0:0:
256,192,13582,1,0,0:0:0:0:
329,192,13582,1,0,0:0:0:0:
329,192,13732,1,0,0:0:0:0:
256,192,13732,1,0,0:0:0:0:
109,192,13732,1,0,0:0:0:0:
182,192,13732,1,0,0:0:0:0:
182,192,13882,1,0,0:0:0:0:
256,192,13882,1,0,0:0:0:0:
329,192,13882,1,0,0:0:0:0:
402,192,13882,1,0,0:0:0:0:
402,192,14032,1,0,0:0:0:0:
329,192,14032,1,0,0:0:0:0:
256,192,14032,1,0,0:0:0:0:
182,192,14032,1,0,0:0:0:0:
256,192,14182,1,0,0:0:0:0:
329,192,14182,1,0,0:0:0:0:
402,192,14182,1,0,0:0:0:0:
475,192,14182,1,0,0:0:0:0:
475,192,14332,1,0,0:0:0:0:
402,192,14332,1,0,0:0:0:0:
329,192,14332,1,0,0:0:0:0:
256,192,14332,1,0,0:0:0:0:
36,192,14482,1,0,0:0:0:0:
109,192,14482,1,0,0:0:0:0:
182,192,14482,1,0,0:0:0:0:
256,192,14482,1,0,0:0:0:0:
256,192,14707,1,0,0:0:0:0:
182,192,14707,1,0,0:0:0:0:
109,192,14707,1,0,0:0:0:0:
36,192,14707,1,0,0:0:0:0:
256,192,14932,1,0,0:0:0:0:
182,192,14932,1,0,0:0:0:0:
109,192,14932,1,0,0:0:0:0:
36,192,14932,1,0,0:0:0:0:
329,192,15082,1,0,0:0:0:0:
256,192,15082,1,0,0:0:0:0:
182,192,15082,1,0,0:0:0:0:
109,192,15082,1,0,0:0:0:0:
109,192,15232,1,0,0:0:0:0:
182,192,15232,1,0,0:0:0:0:
256,192,15232,1,0,0:0:0:0:
329,192,15232,1,0,0:0:0:0:
402,192,15382,1,0,0:0:0:0:
329,192,15382,1,0,0:0:0:0:
256,192,15382,1,0,0:0:0:0:
182,192,15382,1,0,0:0:0:0:
182,192,15532,1,0,0:0:0:0:
256,192,15532,1,0,0:0:0:0:
329,192,15532,1,0,0:0:0:0:
402,192,15532,1,0,0:0:0:0:
475,192,15682,1,0,0:0:0:0:
402,192,15682,1,0,0:0:0:0:
329,192,15682,1,0,0:0:0:0:
256,192,15682,1,0,0:0:0:0:
256,192,15832,1,0,0:0:0:0:
329,192,15832,1,0,0:0:0:0:
402,192,15832,1,0,0:0:0:0:
475,192,15832,1,0,0:0:0:0:
182,192,15982,1,0,0:0:0:0:
256,192,15982,1,0,0:0:0:0:
329,192,15982,1,0,0:0:0:0:
402,192,15982,1,0,0:0:0:0:
402,192,16132,1,0,0:0:0:0:
329,192,16132,1,0,0:0:0:0:
256,192,16132,1,0,0:0:0:0:
182,192,16132,1,0,0:0:0:0:
329,192,16282,1,0,0:0:0:0:
256,192,16282,1,0,0:0:0:0:
182,192,16282,1,0,0:0:0:0:
109,192,16282,1,0,0:0:0:0:
109,192,16432,1,0,0:0:0:0:
182,192,16432,1,0,0:0:0:0:
256,192,16432,1,0,0:0:0:0:
329,192,16432,1,0,0:0:0:0:
256,192,16582,1,0,0:0:0:0:
182,192,16582,1,0,0:0:0:0:
109,192,16582,1,0,0:0:0:0:
36,192,16582,1,0,0:0:0:0:
36,192,16732,1,0,0:0:0:0:
109,192,16732,1,0,0:0:0:0:
182,192,16732,1,0,0:0:0:0:
256,192,16732,1,0,0:0:0:0:
475,192,16882,1,0,0:0:0:0:
402,192,16882,1,0,0:0:0:0:
329,192,16882,1,0,0:0:0:0:
256,192,16882,1,0,0:0:0:0:
256,192,17107,1,0,0:0:0:0:
329,192,17107,1,0,0:0:0:0:
402,192,17107,1,0,0:0:0:0:
475,192,17107,1,0,0:0:0:0:
475,192,17332,1,0,0:0:0:0:
402,192,17332,1,0,0:0:0:0:
329,192,17332,1,0,0:0:0:0:
256,192,17332,1,0,0:0:0:0:
402,192,17482,1,0,0:0:0:0:
329,192,17482,1,0,0:0:0:0:
256,192,17482,1,0,0:0:0:0:
182,192,17482,1,0,0:0:0:0:
182,192,17632,1,0,0:0:0:0:
256,192,17632,1,0,0:0:0:0:
329,192,17632,1,0,0:0:0:0:
402,192,17632,1,0,0:0:0:0:
329,192,17782,1,0,0:0:0:0:
256,192,17782,1,0,0:0:0:0:
182,192,17782,1,0,0:0:0:0:
109,192,17782,1,0,0:0:0:0:
109,192,17932,1,0,0:0:0:0:
182,192,17932,1,0,0:0:0:0:
256,192,17932,1,0,0:0:0:0:
329,192,17932,1,0,0:0:0:0:
36,192,18082,1,0,0:0:0:0:
109,192,18082,1,0,0:0:0:0:
182,192,18082,1,0,0:0:0:0:
256,192,18082,1,0,0:0:0:0:
475,192,18232,1,0,0:0:0:0:
402,192,18232,1,0,0:0:0:0:
329,192,18232,1,0,0:0:0:0:
256,192,18232,1,0,0:0:0:0:
36,192,18382,1,0,0:0:0:0:
109,192,18382,1,0,0:0:0:0:
182,192,18382,1,0,0:0:0:0:
256,192,18382,1,0,0:0:0:0:
475,192,18457,1,0,0:0:0:0:
402,192,18457,1,0,0:0:0:0:
329,192,18457,1,0,0:0:0:0:
256,192,18457,1,0,0:0:0:0:
182,192,18682,1,0,0:0:0:0:
109,192,18682,1,0,0:0:0:0:
36,192,18682,1,0,0:0:0:0:
329,192,18682,1,0,0:0:0:0:
402,192,18682,1,0,0:0:0:0:
475,192,18682,1,0,0:0:0:0:
256,192,18682,1,0,0:0:0:0:
36,192,18982,1,0,0:0:0:0:
109,192,18982,1,0,0:0:0:0:
182,192,18982,1,0,0:0:0:0:
256,192,18982,1,0,0:0:0:0:
329,192,18982,1,0,0:0:0:0:
402,192,18982,1,0,0:0:0:0:
475,192,18982,1,0,0:0:0:0:
475,192,19282,128,0,19432:0:0:0:0:
329,192,19282,1,0,0:0:0:0:
182,192,19282,1,0,0:0:0:0:
256,192,19357,1,0,0:0:0:0:
109,192,19357,1,0,0:0:0:0:
329,192,19432,1,0,0:0:0:0:
402,192,19432,1,0,0:0:0:0:
475,192,19507,128,0,19657:0:0:0:0:
182,192,19507,1,0,0:0:0:0:
36,192,19507,1,0,0:0:0:0:
109,192,19582,1,0,0:0:0:0:
256,192,19582,1,0,0:0:0:0:
402,192,19657,1,0,0:0:0:0:
182,192,19657,1,0,0:0:0:0:
475,192,19732,128,0,19807:0:0:0:0:
329,192,19732,1,0,0:0:0:0:
109,192,19732,1,0,0:0:0:0:
256,192,19807,1,0,0:0:0:0:
36,192,19807,1,0,0:0:0:0:
402,192,19882,128,0,19957:0:0:0:0:
109,192,19882,1,0,0:0:0:0:
182,192,19882,1,0,0:0:0:0:
329,192,19957,1,0,0:0:0:0:
475,192,19957,1,0,0:0:0:0:
402,192,20032,128,0,20107:0:0:0:0:
182,192,20032,1,0,0:0:0:0:
256,192,20032,1,0,0:0:0:0:
109,192,20107,1,0,0:0:0:0:
36,192,20107,1,0,0:0:0:0:
329,192,20182,128,0,20257:0:0:0:0:
256,192,20182,1,0,0:0:0:0:
475,192,20182,1,0,0:0:0:0:
402,192,20257,1,0,0:0:0:0:
182,192,20257,1,0,0:0:0:0:
329,192,20332,128,0,20407:0:0:0:0:
36,192,20332,1,0,0:0:0:0:
256,192,20332,1,0,0:0:0:0:
109,192,20407,1,0,0:0:0:0:
475,192,20407,1,0,0:0:0:0:
256,192,20482,128,0,20557:0:0:0:0:
402,192,20482,1,0,0:0:0:0:
182,192,20482,1,0,0:0:0:0:
36,192,20557,1,0,0:0:0:0:
329,192,20557,1,0,0:0:0:0:
256,192,20632,128,0,20707:0:0:0:0:
109,192,20632,1,0,0:0:0:0:
475,192,20632,1,0,0:0:0:0:
402,192,20707,1,0,0:0:0:0:
329,192,20707,1,0,0:0:0:0:
182,192,20782,128,0,20857:0:0:0:0:
475,192,20782,1,0,0:0:0:0:
36,192,20782,1,0,0:0:0:0:
256,192,20857,1,0,0:0:0:0:
402,192,20857,1,0,0:0:0:0:
182,192,20932,128,0,21007:0:0:0:0:
329,192,20932,1,0,0:0:0:0:
109,192,20932,1,0,0:0:0:0:
36,192,21007,1,0,0:0:0:0:
475,192,21007,1,0,0:0:0:0:
109,192,21082,128,0,21157:0:0:0:0:
402,192,21082,1,0,0:0:0:0:
256,192,21082,1,0,0:0:0:0:
329,192,21157,1,0,0:0:0:0:
182,192,21157,1,0,0:0:0:0:
109,192,21232,128,0,21307:0:0:0:0:
256,192,21232,1,0,0:0:0:0:
36,192,21232,1,0,0:0:0:0:
475,192,21307,1,0,0:0:0:0:
402,192,21307,1,0,0:0:0:0:
36,192,21382,128,0,21457:0:0:0:0:
329,192,21382,1,0,0:0:0:0:
256,192,21382,1,0,0:0:0:0:
109,192,21457,1,0,0:0:0:0:
182,192,21457,1,0,0:0:0:0:
256,192,21532,1,0,0:0:0:0:
36,192,21682,128,0,21832:0:0:0:0:
182,192,21682,1,0,0:0:0:0:
329,192,21682,1,0,0:0:0:0:
475,192,21757,1,0,0:0:0:0:
256,192,21757,1,0,0:0:0:0:
402,192,21832,1,0,0:0:0:0:
109,192,21832,1,0,0:0:0:0:
36,192,21907,128,0,22057:0:0:0:0:
182,192,21907,1,0,0:0:0:0:
256,192,21907,1,0,0:0:0:0:
329,192,21982,1,0,0:0:0:0:
475,192,21982,1,0,0:0:0:0:
402,192,22057,1,0,0:0:0:0:
182,192,22057,1,0,0:0:0:0:
36,192,22132,128,0,22207:0:0:0:0:
109,192,22132,1,0,0:0:0:0:
256,192,22132,1,0,0:0:0:0:
329,192,22207,1,0,0:0:0:0:
402,192,22207,1,0,0:0:0:0:
109,192,22282,128,0,22357:0:0:0:0:
475,192,22282,1,0,0:0:0:0:
182,192,22282,1,0,0:0:0:0:
256,192,22357,1,0,0:0:0:0:
329,192,22357,1,0,0:0:0:0:
109,192,22432,128,0,22507:0:0:0:0:
36,192,22432,1,0,0:0:0:0:
402,192,22432,1,0,0:0:0:0:
475,192,22507,1,0,0:0:0:0:
256,192,22507,1,0,0:0:0:0:
182,192,22582,128,0,22657:0:0:0:0:
329,192,22582,1,0,0:0:0:0:
402,192,22582,1,0,0:0:0:0:
36,192,22657,1,0,0:0:0:0:
475,192,22657,1,0,0:0:0:0:
182,192,22732,128,0,22807:0:0:0:0:
256,192,22732,1,0,0:0:0:0:
109,192,22732,1,0,0:0:0:0:
402,192,22807,1,0,0:0:0:0:
36,192,22807,1,0,0:0:0:0:
256,192,22882,128,0,22957:0:0:0:0:
329,192,22882,1,0,0:0:0:0:
475,192,22882,1,0,0:0:0:0:
109,192,22957,1,0,0:0:0:0:
402,192,22957,1,0,0:0:0:0:
256,192,23032,128,0,23107:0:0:0:0:
329,192,23032,1,0,0:0:0:0:
182,192,23032,1,0,0:0:0:0:
36,192,23107,1,0,0:0:0:0:
475,192,23107,1,0,0:0:0:0:
329,192,23182,128,0,23257:0:0:0:0:
402,192,23182,1,0,0:0:0:0:
109,192,23182,1,0,0:0:0:0:
182,192,23257,1,0,0:0:0:0:
256,192,23257,1,0,0:0:0:0:
329,192,23332,128,0,23407:0:0:0:0:
36,192,23332,1,0,0:0:0:0:
402,192,23332,1,0,0:0:0:0:
475,192,23407,1,0,0:0:0:0:
182,192,23407,1,0,0:0:0:0:
402,192,23482,128,0,23557:0:0:0:0:
36,192,23482,1,0,0:0:0:0:
109,192,23482,1,0,0:0:0:0:
256,192,23482,1,0,0:0:0:0:
109,192,23557,1,0,0:0:0:0:
36,192,23557,1,0,0:0:0:0:
329,192,23557,1,0,0:0:0:0:
402,192,23632,128,0,23707:0:0:0:0:
36,192,23632,1,0,0:0:0:0:
109,192,23632,1,0,0:0:0:0:
475,192,23632,1,0,0:0:0:0:
256,192,23632,1,0,0:0:0:0:
109,192,23707,1,0,0:0:0:0:
36,192,23707,1,0,0:0:0:0:
329,192,23707,1,0,0:0:0:0:
475,192,23782,128,0,23857:0:0:0:0:
36,192,23782,1,0,0:0:0:0:
109,192,23782,1,0,0:0:0:0:
402,192,23782,1,0,0:0:0:0:
182,192,23782,1,0,0:0:0:0:
256,192,23857,1,0,0:0:0:0:
329,192,23857,1,0,0:0:0:0:
475,192,23932,128,0,24007:0:0:0:0:
109,192,23932,1,0,0:0:0:0:
182,192,23932,1,0,0:0:0:0:
36,192,24007,1,0,0:0:0:0:
402,192,24007,1,0,0:0:0:0:
475,192,24082,128,0,24232:0:0:0:0:
329,192,24082,1,0,0:0:0:0:
109,192,24082,1,0,0:0:0:0:
256,192,24157,1,0,0:0:0:0:
402,192,24157,1,0,0:0:0:0:
182,192,24232,1,0,0:0:0:0:
36,192,24232,1,0,0:0:0:0:
475,192,24307,128,0,24457:0:0:0:0:
329,192,24307,1,0,0:0:0:0:
256,192,24307,1,0,0:0:0:0:
109,192,24382,1,0,0:0:0:0:
402,192,24382,1,0,0:0:0:0:
182,192,24457,1,0,0:0:0:0:
329,192,24457,1,0,0:0:0:0:
475,192,24532,128,0,24607:0:0:0:0:
256,192,24532,1,0,0:0:0:0:
36,192,24532,1,0,0:0:0:0:
109,192,24607,1,0,0:0:0:0:
182,192,24607,1,0,0:0:0:0:
402,192,24682,128,0,24757:0:0:0:0:
329,192,24682,1,0,0:0:0:0:
256,192,24682,1,0,0:0:0:0:
36,192,24757,1,0,0:0:0:0:
475,192,24757,1,0,0:0:0:0:
402,192,24832,128,0,24907:0:0:0:0:
329,192,24832,1,0,0:0:0:0:
182,192,24832,1,0,0:0:0:0:
109,192,24907,1,0,0:0:0:0:
256,192,24907,1,0,0:0:0:0:
329,192,24982,128,0,25057:0:0:0:0:
36,192,24982,1,0,0:0:0:0:
475,192,24982,1,0,0:0:0:0:
182,192,25057,1,0,0:0:0:0:
402,192,25057,1,0,0:0:0:0:
329,192,25132,128,0,25207:0:0:0:0:
109,192,25132,1,0,0:0:0:0:
256,192,25132,1,0,0:0:0:0:
475,192,25207,1,0,0:0:0:0:
36,192,25207,1,0,0:0:0:0:
256,192,25282,128,0,25357:0:0:0:0:
182,192,25282,1,0,0:0:0:0:
109,192,25282,1,0,0:0:0:0:
329,192,25357,1,0,0:0:0:0:
402,192,25357,1,0,0:0:0:0:
256,192,25432,128,0,25507:0:0:0:0:
475,192,25432,1,0,0:0:0:0:
36,192,25432,1,0,0:0:0:0:
109,192,25507,1,0,0:0:0:0:
329,192,25507,1,0,0:0:0:0:
182,192,25582,128,0,25657:0:0:0:0:
402,192,25582,1,0,0:0:0:0:
36,192,25582,1,0,0:0:0:0:
256,192,25657,1,0,0:0:0:0:
475,192,25657,1,0,0:0:0:0:
182,192,25732,128,0,25807:0:0:0:0:
329,192,25732,1,0,0:0:0:0:
109,192,25732,1,0,0:0:0:0:
402,192,25807,1,0,0:0:0:0:
256,192,25807,1,0,0:0:0:0:
109,192,25882,128,0,25957:0:0:0:0:
475,192,25882,1,0,0:0:0:0:
36,192,25882,1,0,0:0:0:0:
182,192,25957,1,0,0:0:0:0:
329,192,25957,1,0,0:0:0:0:
109,192,26032,128,0,26107:0:0:0:0:
256,192,26032,1,0,0:0:0:0:
402,192,26032,1,0,0:0:0:0:
475,192,26107,1,0,0:0:0:0:
182,192,26107,1,0,0:0:0:0:
36,192,26182,128,0,26257:0:0:0:0:
329,192,26182,1,0,0:0:0:0:
402,192,26182,1,0,0:0:0:0:
256,192,26257,1,0,0:0:0:0:
109,192,26257,1,0,0:0:0:0:
36,192,26332,128,0,26407:0:0:0:0:
475,192,26332,1,0,0:0:0:0:
329,192,26332,1,0,0:0:0:0:
182,192,26407,1,0,0:0:0:0:
109,192,26407,1,0,0:0:0:0:
256,192,26482,1,0,0:0:0:0:
329,192,26482,1,0,0:0:0:0:
402,192,26482,1,0,0:0:0:0:
475,192,26482,1,0,0:0:0:0:
256,192,26557,1,0,0:0:0:0:
36,192,26557,1,0,0:0:0:0:
109,192,26557,1,0,0:0:0:0:
182,192,26557,1,0,0:0:0:0:
256,192,26632,1,0,0:0:0:0:
475,192,26632,1,0,0:0:0:0:
402,192,26632,1,0,0:0:0:0:
329,192,26632,1,0,0:0:0:0:
256,192,26707,1,0,0:0:0:0:
182,192,26707,1,0,0:0:0:0:
109,192,26707,1,0,0:0:0:0:
36,192,26707,1,0,0:0:0:0:
256,192,26782,1,0,0:0:0:0:
329,192,26782,1,0,0:0:0:0:
402,192,26782,1,0,0:0:0:0:
475,192,26782,1,0,0:0:0:0:
256,192,26857,1,0,0:0:0:0:
36,192,26857,1,0,0:0:0:0:
109,192,26857,1,0,0:0:0:0:
182,192,26857,1,0,0:0:0:0:
256,192,26932,1,0,0:0:0:0:
475,192,26932,1,0,0:0:0:0:
402,192,26932,1,0,0:0:0:0:
329,192,26932,1,0,0:0:0:0:
256,192,27007,1,0,0:0:0:0:
182,192,27007,1,0,0:0:0:0:
109,192,27007,1,0,0:0:0:0:
36,192,27007,1,0,0:0:0:0:
256,192,27082,1,0,0:0:0:0:
329,192,27082,1,0,0:0:0:0:
402,192,27082,1,0,0:0:0:0:
475,192,27082,1,0,0:0:0:0:
256,192,27157,1,0,0:0:0:0:
36,192,27157,1,0,0:0:0:0:
109,192,27157,1,0,0:0:0:0:
182,192,27157,1,0,0:0:0:0:
256,192,27232,1,0,0:0:0:0:
475,192,27232,1,0,0:0:0:0:
402,192,27232,1,0,0:0:0:0:
329,192,27232,1,0,0:0:0:0:
256,192,27307,1,0,0:0:0:0:
182,192,27307,1,0,0:0:0:0:
109,192,27307,1,0,0:0:0:0:
36,192,27307,1,0,0:0:0:0:
256,192,27382,1,0,0:0:0:0:
329,192,27382,1,0,0:0:0:0:
402,192,27382,1,0,0:0:0:0:
475,192,27382,1,0,0:0:0:0:
256,192,27457,1,0,0:0:0:0:
36,192,27457,1,0,0:0:0:0:
109,192,27457,1,0,0:0:0:0:
182,192,27457,1,0,0:0:0:0:
256,192,27532,1,0,0:0:0:0:
475,192,27532,1,0,0:0:0:0:
402,192,27532,1,0,0:0:0:0:
329,192,27532,1,0,0:0:0:0:
256,192,27607,1,0,0:0:0:0:
182,192,27607,1,0,0:0:0:0:
109,192,27607,1,0,0:0:0:0:
36,192,27607,1,0,0:0:0:0:
475,192,27682,1,0,0:0:0:0:
402,192,27682,1,0,0:0:0:0:
329,192,27682,1,0,0:0:0:0:
256,192,27682,1,0,0:0:0:0:
256,192,27757,1,0,0:0:0:0:
36,192,27757,1,0,0:0:0:0:
109,192,27757,1,0,0:0:0:0:
182,192,27757,1,0,0:0:0:0:
256,192,27832,1,0,0:0:0:0:
329,192,27832,1,0,0:0:0:0:
402,192,27832,1,0,0:0:0:0:
475,192,27832,1,0,0:0:0:0:
256,192,27907,1,0,0:0:0:0:
182,192,27907,1,0,0:0:0:0:
109,192,27907,1,0,0:0:0:0:
36,192,27907,1,0,0:0:0:0:
256,192,27982,1,0,0:0:0:0:
475,192,27982,1,0,0:0:0:0:
402,192,27982,1,0,0:0:0:0:
329,192,27982,1,0,0:0:0:0:
256,192,28057,1,0,0:0:0:0:
36,192,28057,1,0,0:0:0:0:
109,192,28057,1,0,0:0:0:0:
182,192,28057,1,0,0:0:0:0:
256,192,28132,1,0,0:0:0:0:
329,192,28132,1,0,0:0:0:0:
402,192,28132,1,0,0:0:0:0:
475,192,28132,1,0,0:0:0:0:
256,192,28207,1,0,0:0:0:0:
182,192,28207,1,0,0:0:0:0:
109,192,28207,1,0,0:0:0:0:
36,192,28207,1,0,0:0:0:0:
256,192,28282,1,0,0:0:0:0:
329,192,28282,1,0,0:0:0:0:
402,192,28282,1,0,0:0:0:0:
475,192,28282,1,0,0:0:0:0:
109,192,28582,1,0,0:0:0:0:
182,192,28582,1,0,0:0:0:0:
256,192,28582,1,0,0:0:0:0:
329,192,28582,1,0,0:0:0:0:
402,192,28582,1,0,0:0:0:0:
475,192,28582,1,0,0:0:0:0:
36,192,28582,1,0,0:0:0:0:
475,192,28882,128,0,29032:0:0:0:0:
329,192,28882,1,0,0:0:0:0:
182,192,28882,1,0,0:0:0:0:
36,192,28882,1,0,0:0:0:0:
109,192,28957,1,0,0:0:0:0:
256,192,28957,1,0,0:0:0:0:
402,192,28957,1,0,0:0:0:0:
329,192,29032,1,0,0:0:0:0:
182,192,29032,1,0,0:0:0:0:
36,192,29032,1,0,0:0:0:0:
475,192,29107,128,0,29257:0:0:0:0:
109,192,29107,1,0,0:0:0:0:
256,192,29107,1,0,0:0:0:0:
402,192,29107,1,0,0:0:0:0:
329,192,29182,1,0,0:0:0:0:
182,192,29182,1,0,0:0:0:0:
36,192,29182,1,0,0:0:0:0:
109,192,29257,1,0,0:0:0:0:
256,192,29257,1,0,0:0:0:0:
402,192,29257,1,0,0:0:0:0:
475,192,29332,128,0,29407:0:0:0:0:
329,192,29332,1,0,0:0:0:0:
182,192,29332,1,0,0:0:0:0:
36,192,29332,1,0,0:0:0:0:
109,192,29407,1,0,0:0:0:0:
256,192,29407,1,0,0:0:0:0:
402,192,29407,1,0,0:0:0:0:
402,192,29482,128,0,29557:0:0:0:0:
329,192,29482,1,0,0:0:0:0:
182,192,29482,1,0,0:0:0:0:
36,192,29482,1,0,0:0:0:0:
475,192,29482,1,0,0:0:0:0:
256,192,29557,1,0,0:0:0:0:
109,192,29557,1,0,0:0:0:0:
402,192,29632,128,0,29707:0:0:0:0:
329,192,29632,1,0,0:0:0:0:
475,192,29632,1,0,0:0:0:0:
182,192,29632,1,0,0:0:0:0:
36,192,29632,1,0,0:0:0:0:
109,192,29707,1,0,0:0:0:0:
256,192,29707,1,0,0:0:0:0:
329,192,29782,128,0,29857:0:0:0:0:
475,192,29782,1,0,0:0:0:0:
182,192,29782,1,0,0:0:0:0:
36,192,29782,1,0,0:0:0:0:
109,192,29857,1,0,0:0:0:0:
256,192,29857,1,0,0:0:0:0:
402,192,29857,1,0,0:0:0:0:
329,192,29932,128,0,30007:0:0:0:0:
475,192,29932,1,0,0:0:0:0:
182,192,29932,1,0,0:0:0:0:
36,192,29932,1,0,0:0:0:0:
109,192,30007,1,0,0:0:0:0:
256,192,30007,1,0,0:0:0:0:
402,192,30007,1,0,0:0:0:0:
256,192,30082,128,0,30157:0:0:0:0:
475,192,30082,1,0,0:0:0:0:
329,192,30082,1,0,0:0:0:0:
182,192,30082,1,0,0:0:0:0:
36,192,30082,1,0,0:0:0:0:
109,192,30157,1,0,0:0:0:0:
402,192,30157,1,0,0:0:0:0:
256,192,30232,128,0,30307:0:0:0:0:
475,192,30232,1,0,0:0:0:0:
329,192,30232,1,0,0:0:0:0:
182,192,30232,1,0,0:0:0:0:
36,192,30232,1,0,0:0:0:0:
109,192,30307,1,0,0:0:0:0:
402,192,30307,1,0,0:0:0:0:
182,192,30382,128,0,30457:0:0:0:0:
475,192,30382,1,0,0:0:0:0:
329,192,30382,1,0,0:0:0:0:
36,192,30382,1,0,0:0:0:0:
109,192,30457,1,0,0:0:0:0:
256,192,30457,1,0,0:0:0:0:
402,192,30457,1,0,0:0:0:0:
182,192,30532,128,0,30607:0:0:0:0:
475,192,30532,1,0,0:0:0:0:
329,192,30532,1,0,0:0:0:0:
36,192,30532,1,0,0:0:0:0:
109,192,30607,1,0,0:0:0:0:
256,192,30607,1,0,0:0:0:0:
402,192,30607,1,0,0:0:0:0:
109,192,30682,128,0,30757:0:0:0:0:
475,192,30682,1,0,0:0:0:0:
329,192,30682,1,0,0:0:0:0:
182,192,30682,1,0,0:0:0:0:
36,192,30682,1,0,0:0:0:0:
256,192,30757,1,0,0:0:0:0:
402,192,30757,1,0,0:0:0:0:
109,192,30832,128,0,30907:0:0:0:0:
475,192,30832,1,0,0:0:0:0:
329,192,30832,1,0,0:0:0:0:
182,192,30832,1,0,0:0:0:0:
36,192,30832,1,0,0:0:0:0:
256,192,30907,1,0,0:0:0:0:
402,192,30907,1,0,0:0:0:0:
36,192,30982,128,0,31057:0:0:0:0:
475,192,30982,1,0,0:0:0:0:
329,192,30982,1,0,0:0:0:0:
182,192,30982,1,0,0:0:0:0:
109,192,31057,1,0,0:0:0:0:
256,192,31057,1,0,0:0:0:0:
402,192,31057,1,0,0:0:0:0:
36,192,31132,128,0,31207:0:0:0:0:
475,192,31132,1,0,0:0:0:0:
329,192,31132,1,0,0:0:0:0:
182,192,31132,1,0,0:0:0:0:
109,192,31207,1,0,0:0:0:0:
256,192,31207,1,0,0:0:0:0:
402,192,31207,1,0,0:0:0:0:
36,192,31282,128,0,31432:0:0:0:0:
475,192,31282,1,0,0:0:0:0:
329,192,31282,1,0,0:0:0:0:
182,192,31282,1,0,0:0:0:0:
109,192,31357,1,0,0:0:0:0:
256,192,31357,1,0,0:0:0:0:
402,192,31357,1,0,0:0:0:0:
475,192,31432,1,0,0:0:0:0:
329,192,31432,1,0,0:0:0:0:
182,192,31432,1,0,0:0:0:0:
36,192,31507,128,0,31657:0:0:0:0:
109,192,31507,1,0,0:0:0:0:
256,192,31507,1,0,0:0:0:0:
402,192,31507,1,0,0:0:0:0:
475,192,31582,1,0,0:0:0:0:
329,192,31582,1,0,0:0:0:0:
182,192,31582,1,0,0:0:0:0:
109,192,31657,1,0,0:0:0:0:
256,192,31657,1,0,0:0:0:0:
402,192,31657,1,0,0:0:0:0:
36,192,31732,128,0,31807:0:0:0:0:
475,192,31732,1,0,0:0:0:0:
329,192,31732,1,0,0:0:0:0:
182,192,31732,1,0,0:0:0:0:
109,192,31807,1,0,0:0:0:0:
256,192,31807,1,0,0:0:0:0:
402,192,31807,1,0,0:0:0:0:
109,192,31882,128,0,31957:0:0:0:0:
475,192,31882,1,0,0:0:0:0:
329,192,31882,1,0,0:0:0:0:
182,192,31882,1,0,0:0:0:0:
36,192,31882,1,0,0:0:0:0:
256,192,31957,1,0,0:0:0:0:
402,192,31957,1,0,0:0:0:0:
109,192,32032,128,0,32107:0:0:0:0:
475,192,32032,1,0,0:0:0:0:
329,192,32032,1,0,0:0:0:0:
182,192,32032,1,0,0:0:0:0:
36,192,32032,1,0,0:0:0:0:
256,192,32107,1,0,0:0:0:0:
402,192,32107,1,0,0:0:0:0:
182,192,32182,128,0,32257:0:0:0:0:
475,192,32182,1,0,0:0:0:0:
329,192,32182,1,0,0:0:0:0:
36,192,32182,1,0,0:0:0:0:
109,192,32257,1,0,0:0:0:0:
256,192,32257,1,0,0:0:0:0:
402,192,32257,1,0,0:0:0:0:
182,192,32332,128,0,32407:0:0:0:0:
475,192,32332,1,0,0:0:0:0:
329,192,32332,1,0,0:0:0:0:
36,192,32332,1,0,0:0:0:0:
109,192,32407,1,0,0:0:0:0:
256,192,32407,1,0,0:0:0:0:
402,192,32407,1,0,0:0:0:0:
256,192,32482,128,0,32557:0:0:0:0:
475,192,32482,1,0,0:0:0:0:
329,192,32482,1,0,0:0:0:0:
182,192,32482,1,0,0:0:0:0:
36,192,32482,1,0,0:0:0:0:
109,192,32557,1,0,0:0:0:0:
402,192,32557,1,0,0:0:0:0:
256,192,32632,128,0,32707:0:0:0:0:
475,192,32632,1,0,0:0:0:0:
329,192,32632,1,0,0:0:0:0:
182,192,32632,1,0,0:0:0:0:
36,192,32632,1,0,0:0:0:0:
109,192,32707,1,0,0:0:0:0:
402,192,32707,1,0,0:0:0:0:
329,192,32782,128,0,32857:0:0:0:0:
475,192,32782,1,0,0:0:0:0:
182,192,32782,1,0,0:0:0:0:
36,192,32782,1,0,0:0:0:0:
109,192,32857,1,0,0:0:0:0:
256,192,32857,1,0,0:0:0:0:
402,192,32857,1,0,0:0:0:0:
329,192,32932,128,0,33007:0:0:0:0:
475,192,32932,1,0,0:0:0:0:
182,192,32932,1,0,0:0:0:0:
36,192,32932,1,0,0:0:0:0:
109,192,33007,1,0,0:0:0:0:
256,192,33007,1,0,0:0:0:0:
402,192,33007,1,0,0:0:0:0:
402,192,33082,128,0,33157:0:0:0:0:
475,192,33082,1,0,0:0:0:0:
329,192,33082,1,0,0:0:0:0:
182,192,33082,1,0,0:0:0:0:
36,192,33082,1,0,0:0:0:0:
109,192,33157,1,0,0:0:0:0:
256,192,33157,1,0,0:0:0:0:
402,192,33232,128,0,33307:0:0:0:0:
475,192,33232,1,0,0:0:0:0:
329,192,33232,1,0,0:0:0:0:
182,192,33232,1,0,0:0:0:0:
36,192,33232,1,0,0:0:0:0:
109,192,33307,1,0,0:0:0:0:
256,192,33307,1,0,0:0:0:0:
475,192,33382,128,0,33457:0:0:0:0:
329,192,33382,1,0,0:0:0:0:
182,192,33382,1,0,0:0:0:0:
36,192,33382,1,0,0:0:0:0:
109,192,33457,1,0,0:0:0:0:
256,192,33457,1,0,0:0:0:0:
402,192,33457,1,0,0:0:0:0:
475,192,33532,128,0,33607:0:0:0:0:
329,192,33532,1,0,0:0:0:0:
182,192,33532,1,0,0:0:0:0:
36,192,33532,1,0,0:0:0:0:
109,192,33607,1,0,0:0:0:0:
256,192,33607,1,0,0:0:0:0:
402,192,33607,1,0,0:0:0:0:
475,192,33682,128,0,33832:0:0:0:0:
329,192,33682,1,0,0:0:0:0:
182,192,33682,1,0,0:0:0:0:
36,192,33682,1,0,0:0:0:0:
109,192,33757,1,0,0:0:0:0:
256,192,33757,1,0,0:0:0:0:
402,192,33757,1,0,0:0:0:0:
329,192,33832,1,0,0:0:0:0:
182,192,33832,1,0,0:0:0:0:
36,192,33832,1,0,0:0:0:0:
475,192,33907,128,0,34057:0:0:0:0:
109,192,33907,1,0,0:0:0:0:
256,192,33907,1,0,0:0:0:0:
402,192,33907,1,0,0:0:0:0:
329,192,33982,1,0,0:0:0:0:
182,192,33982,1,0,0:0:0:0:
36,192,33982,1,0,0:0:0:0:
109,192,34057,1,0,0:0:0:0:
256,192,34057,1,0,0:0:0:0:
402,192,34057,1,0,0:0:0:0:
475,192,34132,128,0,34207:0:0:0:0:
329,192,34132,1,0,0:0:0:0:
182,192,34132,1,0,0:0:0:0:
36,192,34132,1,0,0:0:0:0:
109,192,34207,1,0,0:0:0:0:
256,192,34207,1,0,0:0:0:0:
402,192,34207,1,0,0:0:0:0:
402,192,34282,128,0,34357:0:0:0:0:
329,192,34282,1,0,0:0:0:0:
182,192,34282,1,0,0:0:0:0:
36,192,34282,1,0,0:0:0:0:
475,192,34282,1,0,0:0:0:0:
109,192,34357,1,0,0:0:0:0:
256,192,34357,1,0,0:0:0:0:
402,192,34432,128,0,34507:0:0:0:0:
475,192,34432,1,0,0:0:0:0:
329,192,34432,1,0,0:0:0:0:
182,192,34432,1,0,0:0:0:0:
36,192,34432,1,0,0:0:0:0:
109,192,34507,1,0,0:0:0:0:
256,192,34507,1,0,0:0:0:0:
329,192,34582,128,0,34657:0:0:0:0:
475,192,34582,1,0,0:0:0:0:
182,192,34582,1,0,0:0:0:0:
36,192,34582,1,0,0:0:0:0:
109,192,34657,1,0,0:0:0:0:
256,192,34657,1,0,0:0:0:0:
402,192,34657,1,0,0:0:0:0:
329,192,34732,128,0,34807:0:0:0:0:
475,192,34732,1,0,0:0:0:0:
182,192,34732,1,0,0:0:0:0:
36,192,34732,1,0,0:0:0:0:
109,192,34807,1,0,0:0:0:0:
256,192,34807,1,0,0:0:0:0:
402,192,34807,1,0,0:0:0:0:
256,192,34882,128,0,34957:0:0:0:0:
475,192,34882,1,0,0:0:0:0:
329,192,34882,1,0,0:0:0:0:
182,192,34882,1,0,0:0:0:0:
36,192,34882,1,0,0:0:0:0:
109,192,34957,1,0,0:0:0:0:
402,192,34957,1,0,0:0:0:0:
256,192,35032,128,0,35107:0:0:0:0:
475,192,35032,1,0,0:0:0:0:
329,192,35032,1,0,0:0:0:0:
182,192,35032,1,0,0:0:0:0:
36,192,35032,1,0,0:0:0:0:
109,192,35107,1,0,0:0:0:0:
402,192,35107,1,0,0:0:0:0:
182,192,35182,128,0,35257:0:0:0:0:
475,192,35182,1,0,0:0:0:0:
329,192,35182,1,0,0:0:0:0:
36,192,35182,1,0,0:0:0:0:
109,192,35257,1,0,0:0:0:0:
256,192,35257,1,0,0:0:0:0:
402,192,35257,1,0,0:0:0:0:
182,192,35332,128,0,35407:0:0:0:0:
475,192,35332,1,0,0:0:0:0:
329,192,35332,1,0,0:0:0:0:
36,192,35332,1,0,0:0:0:0:
109,192,35407,1,0,0:0:0:0:
256,192,35407,1,0,0:0:0:0:
402,192,35407,1,0,0:0:0:0:
109,192,35482,128,0,35557:0:0:0:0:
475,192,35482,1,0,0:0:0:0:
329,192,35482,1,0,0:0:0:0:
182,192,35482,1,0,0:0:0:0:
36,192,35482,1,0,0:0:0:0:
256,192,35557,1,0,0:0:0:0:
402,192,35557,1,0,0:0:0:0:
109,192,35632,128,0,35707:0:0:0:0:
475,192,35632,1,0,0:0:0:0:
329,192,35632,1,0,0:0:0:0:
182,192,35632,1,0,0:0:0:0:
36,192,35632,1,0,0:0:0:0:
256,192,35707,1,0,0:0:0:0:
402,192,35707,1,0,0:0:0:0:
36,192,35782,128,0,35857:0:0:0:0:
475,192,35782,1,0,0:0:0:0:
329,192,35782,1,0,0:0:0:0:
182,192,35782,1,0,0:0:0:0:
109,192,35857,1,0,0:0:0:0:
256,192,35857,1,0,0:0:0:0:
402,192,35857,1,0,0:0:0:0:
36,192,35932,128,0,36007:0:0:0:0:
475,192,35932,1,0,0:0:0:0:
329,192,35932,1,0,0:0:0:0:
182,192,35932,1,0,0:0:0:0:
109,192,36007,1,0,0:0:0:0:
256,192,36007,1,0,0:0:0:0:
402,192,36007,1,0,0:0:0:0:
256,192,36082,1,0,0:0:0:0:
329,192,36082,1,0,0:0:0:0:
402,192,36082,1,0,0:0:0:0:
475,192,36082,1,0,0:0:0:0:
256,192,36157,1,0,0:0:0:0:
182,192,36157,1,0,0:0:0:0:
109,192,36157,1,0,0:0:0:0:
36,192,36157,1,0,0:0:0:0:
256,192,36232,1,0,0:0:0:0:
475,192,36232,1,0,0:0:0:0:
402,192,36232,1,0,0:0:0:0:
329,192,36232,1,0,0:0:0:0:
256,192,36307,1,0,0:0:0:0:
36,192,36307,1,0,0:0:0:0:
109,192,36307,1,0,0:0:0:0:
182,192,36307,1,0,0:0:0:0:
256,192,36382,1,0,0:0:0:0:
329,192,36382,1,0,0:0:0:0:
402,192,36382,1,0,0:0:0:0:
475,192,36382,1,0,0:0:0:0:
256,192,36457,1,0,0:0:0:0:
182,192,36457,1,0,0:0:0:0:
109,192,36457,1,0,0:0:0:0:
36,192,36457,1,0,0:0:0:0:
256,192,36532,1,0,0:0:0:0:
475,192,36532,1,0,0:0:0:0:
402,192,36532,1,0,0:0:0:0:
329,192,36532,1,0,0:0:0:0:
256,192,36607,1,0,0:0:0:0:
36,192,36607,1,0,0:0:0:0:
109,192,36607,1,0,0:0:0:0:
182,192,36607,1,0,0:0:0:0:
256,192,36682,1,0,0:0:0:0:
329,192,36682,1,0,0:0:0:0:
402,192,36682,1,0,0:0:0:0:
475,192,36682,1,0,0:0:0:0:
256,192,36757,1,0,0:0:0:0:
182,192,36757,1,0,0:0:0:0:
109,192,36757,1,0,0:0:0:0:
36,192,36757,1,0,0:0:0:0:
256,192,36832,1,0,0:0:0:0:
475,192,36832,1,0,0:0:0:0:
402,192,36832,1,0,0:0:0:0:
329,192,36832,1,0,0:0:0:0:
256,192,36907,1,0,0:0:0:0:
36,192,36907,1,0,0:0:0:0:
109,192,36907,1,0,0:0:0:0:
182,192,36907,1,0,0:0:0:0:
256,192,36982,1,0,0:0:0:0:
329,192,36982,1,0,0:0:0:0:
402,192,36982,1,0,0:0:0:0:
475,192,36982,1,0,0:0:0:0:
256,192,37057,1,0,0:0:0:0:
182,192,37057,1,0,0:0:0:0:
109,192,37057,1,0,0:0:0:0:
36,192,37057,1,0,0:0:0:0:
256,192,37132,1,0,0:0:0:0:
475,192,37132,1,0,0:0:0:0:
402,192,37132,1,0,0:0:0:0:
329,192,37132,1,0,0:0:0:0:
256,192,37207,1,0,0:0:0:0:
36,192,37207,1,0,0:0:0:0:
109,192,37207,1,0,0:0:0:0:
182,192,37207,1,0,0:0:0:0:
256,192,37282,1,0,0:0:0:0:
329,192,37282,1,0,0:0:0:0:
402,192,37282,1,0,0:0:0:0:
475,192,37282,1,0,0:0:0:0:
256,192,37357,1,0,0:0:0:0:
182,192,37357,1,0,0:0:0:0:
109,192,37357,1,0,0:0:0:0:
36,192,37357,1,0,0:0:0:0:
256,192,37432,1,0,0:0:0:0:
329,192,37432,1,0,0:0:0:0:
402,192,37432,1,0,0:0:0:0:
475,192,37432,1,0,0:0:0:0:
256,192,37507,1,0,0:0:0:0:
36,192,37507,1,0,0:0:0:0:
109,192,37507,1,0,0:0:0:0:
182,192,37507,1,0,0:0:0:0:
256,192,37582,1,0,0:0:0:0:
475,192,37582,1,0,0:0:0:0:
402,192,37582,1,0,0:0:0:0:
329,192,37582,1,0,0:0:0:0:
256,192,37657,1,0,0:0:0:0:
182,192,37657,1,0,0:0:0:0:
109,192,37657,1,0,0:0:0:0:
36,192,37657,1,0,0:0:0:0:
256,192,37732,1,0,0:0:0:0:
329,192,37732,1,0,0:0:0:0:
402,192,37732,1,0,0:0:0:0:
475,192,37732,1,0,0:0:0:0:
256,192,37807,1,0,0:0:0:0:
36,192,37807,1,0,0:0:0:0:
109,192,37807,1,0,0:0:0:0:
182,192,37807,1,0,0:0:0:0:
256,192,37882,1,0,0:0:0:0:
329,192,37882,1,0,0:0:0:0:
402,192,37882,1,0,0:0:0:0:
475,192,37882,1,0,0:0:0:0:
402,192,38032,1,0,0:0:0:0:
329,192,38032,1,0,0:0:0:0:
256,192,38032,1,0,0:0:0:0:
182,192,38032,1,0,0:0:0:0:
109,192,38182,1,0,0:0:0:0:
182,192,38182,1,0,0:0:0:0:
256,192,38182,1,0,0:0:0:0:
329,192,38182,1,0,0:0:0:0:
256,192,38332,1,0,0:0:0:0:
182,192,38332,1,0,0:0:0:0:
109,192,38332,1,0,0:0:0:0:
36,192,38332,1,0,0:0:0:0:
475,192,38482,128,0,38857:0:0:0:0:
402,192,38482,128,0,38632:0:0:0:0:
329,192,38482,128,0,38632:0:0:0:0:
256,192,38482,128,0,38632:0:0:0:0:
182,192,38482,128,0,38632:0:0:0:0:
109,192,38482,128,0,38632:0:0:0:0:
36,192,38482,128,0,38632:0:0:0:0:
402,192,38707,128,0,39007:0:0:0:0:
36,192,38707,128,0,38857:0:0:0:0:
109,192,38707,128,0,38857:0:0:0:0:
182,192,38707,128,0,38857:0:0:0:0:
256,192,38707,128,0,38857:0:0:0:0:
329,192,38707,128,0,38857:0:0:0:0:
329,192,38932,128,0,39157:0:0:0:0:
256,192,38932,128,0,39007:0:0:0:0:
182,192,38932,128,0,39007:0:0:0:0:
109,192,38932,128,0,39007:0:0:0:0:
36,192,38932,128,0,39007:0:0:0:0:
475,192,38932,128,0,39007:0:0:0:0:
256,192,39082,128,0,39307:0:0:0:0:
475,192,39082,128,0,39157:0:0:0:0:
402,192,39082,128,0,39157:0:0:0:0:
182,192,39082,128,0,39157:0:0:0:0:
109,192,39082,128,0,39157:0:0:0:0:
36,192,39082,128,0,39157:0:0:0:0:
182,192,39232,128,0,39457:0:0:0:0:
36,192,39232,128,0,39307:0:0:0:0:
109,192,39232,128,0,39307:0:0:0:0:
329,192,39232,128,0,39307:0:0:0:0:
402,192,39232,128,0,39307:0:0:0:0:
475,192,39232,128,0,39307:0:0:0:0:
109,192,39382,128,0,39607:0:0:0:0:
475,192,39382,128,0,39457:0:0:0:0:
402,192,39382,128,0,39457:0:0:0:0:
329,192,39382,128,0,39457:0:0:0:0:
256,192,39382,128,0,39457:0:0:0:0:
36,192,39382,128,0,39457:0:0:0:0:
36,192,39532,128,0,39757:0:0:0:0:
182,192,39532,128,0,39607:0:0:0:0:
256,192,39532,128,0,39607:0:0:0:0:
329,192,39532,128,0,39607:0:0:0:0:
402,192,39532,128,0,39607:0:0:0:0:
475,192,39532,128,0,39607:0:0:0:0:
475,192,39682,128,0,39907:0:0:0:0:
109,192,39682,128,0,39757:0:0:0:0:
182,192,39682,128,0,39757:0:0:0:0:
256,192,39682,128,0,39757:0:0:0:0:
329,192,39682,128,0,39757:0:0:0:0:
402,192,39682,128,0,39757:0:0:0:0:
36,192,39832,128,0,40057:0:0:0:0:
402,192,39832,128,0,39907:0:0:0:0:
329,192,39832,128,0,39907:0:0:0:0:
256,192,39832,128,0,39907:0:0:0:0:
182,192,39832,128,0,39907:0:0:0:0:
109,192,39832,128,0,39907:0:0:0:0:
329,192,39982,128,0,40207:0:0:0:0:
109,192,39982,128,0,40057:0:0:0:0:
182,192,39982,128,0,40057:0:0:0:0:
256,192,39982,128,0,40057:0:0:0:0:
402,192,39982,128,0,40057:0:0:0:0:
475,192,39982,128,0,40057:0:0:0:0:
182,192,40132,128,0,40357:0:0:0:0:
475,192,40132,128,0,40207:0:0:0:0:
402,192,40132,128,0,40207:0:0:0:0:
256,192,40132,128,0,40207:0:0:0:0:
109,192,40132,128,0,40207:0:0:0:0:
36,192,40132,128,0,40207:0:0:0:0:
402,192,40282,128,0,40507:0:0:0:0:
36,192,40282,128,0,40357:0:0:0:0:
109,192,40282,128,0,40357:0:0:0:0:
256,192,40282,128,0,40357:0:0:0:0:
329,192,40282,128,0,40357:0:0:0:0:
475,192,40282,128,0,40357:0:0:0:0:
109,192,40432,128,0,40657:0:0:0:0:
475,192,40432,128,0,40507:0:0:0:0:
329,192,40432,128,0,40507:0:0:0:0:
256,192,40432,128,0,40507:0:0:0:0:
182,192,40432,128,0,40507:0:0:0:0:
36,192,40432,128,0,40507:0:0:0:0:
36,192,40582,128,0,40657:0:0:0:0:
182,192,40582,128,0,40657:0:0:0:0:
256,192,40582,128,0,40657:0:0:0:0:
329,192,40582,128,0,40657:0:0:0:0:
402,192,40582,128,0,40657:0:0:0:0:
475,192,40582,128,0,40657:0:0:0:0:
256,192,40732,5,0,0:0:0:0:
36,192,40882,128,0,41257:0:0:0:0:
109,192,40882,128,0,41032:0:0:0:0:
182,192,40882,128,0,41032:0:0:0:0:
256,192,40882,128,0,41032:0:0:0:0:
329,192,40882,128,0,41032:0:0:0:0:
402,192,40882,128,0,41032:0:0:0:0:
475,192,40882,128,0,41032:0:0:0:0:
109,192,41107,128,0,41407:0:0:0:0:
475,192,41107,128,0,41257:0:0:0:0:
402,192,41107,128,0,41257:0:0:0:0:
329,192,41107,128,0,41257:0:0:0:0:
256,192,41107,128,0,41257:0:0:0:0:
182,192,41107,128,0,41257:0:0:0:0:
182,192,41332,128,0,41557:0:0:0:0:
36,192,41332,128,0,41407:0:0:0:0:
256,192,41332,128,0,41407:0:0:0:0:
329,192,41332,128,0,41407:0:0:0:0:
402,192,41332,128,0,41407:0:0:0:0:
475,192,41332,128,0,41407:0:0:0:0:
256,192,41482,128,0,41707:0:0:0:0:
475,192,41482,128,0,41557:0:0:0:0:
402,192,41482,128,0,41557:0:0:0:0:
329,192,41482,128,0,41557:0:0:0:0:
109,192,41482,128,0,41557:0:0:0:0:
36,192,41482,128,0,41557:0:0:0:0:
329,192,41632,128,0,41857:0:0:0:0:
36,192,41632,128,0,41707:0:0:0:0:
109,192,41632,128,0,41707:0:0:0:0:
182,192,41632,128,0,41707:0:0:0:0:
402,192,41632,128,0,41707:0:0:0:0:
475,192,41632,128,0,41707:0:0:0:0:
402,192,41782,128,0,42007:0:0:0:0:
475,192,41782,128,0,41857:0:0:0:0:
256,192,41782,128,0,41857:0:0:0:0:
182,192,41782,128,0,41857:0:0:0:0:
109,192,41782,128,0,41857:0:0:0:0:
36,192,41782,128,0,41857:0:0:0:0:
475,192,41932,128,0,42157:0:0:0:0:
36,192,41932,128,0,42007:0:0:0:0:
109,192,41932,128,0,42007:0:0:0:0:
182,192,41932,128,0,42007:0:0:0:0:
256,192,41932,128,0,42007:0:0:0:0:
329,192,41932,128,0,42007:0:0:0:0:
36,192,42082,128,0,42307:0:0:0:0:
109,192,42082,128,0,42157:0:0:0:0:
182,192,42082,128,0,42157:0:0:0:0:
256,192,42082,128,0,42157:0:0:0:0:
329,192,42082,128,0,42157:0:0:0:0:
402,192,42082,128,0,42157:0:0:0:0:
475,192,42232,128,0,42457:0:0:0:0:
402,192,42232,128,0,42307:0:0:0:0:
329,192,42232,128,0,42307:0:0:0:0:
256,192,42232,128,0,42307:0:0:0:0:
182,192,42232,128,0,42307:0:0:0:0:
109,192,42232,128,0,42307:0:0:0:0:
182,192,42382,128,0,42607:0:0:0:0:
109,192,42382,128,0,42457:0:0:0:0:
36,192,42382,128,0,42457:0:0:0:0:
256,192,42382,128,0,42457:0:0:0:0:
329,192,42382,128,0,42457:0:0:0:0:
402,192,42382,128,0,42457:0:0:0:0:
329,192,42532,128,0,42757:0:0:0:0:
475,192,42532,128,0,42607:0:0:0:0:
402,192,42532,128,0,42607:0:0:0:0:
256,192,42532,128,0,42607:0:0:0:0:
109,192,42532,128,0,42607:0:0:0:0:
36,192,42532,128,0,42607:0:0:0:0:
109,192,42682,128,0,42907:0:0:0:0:
36,192,42682,128,0,42757:0:0:0:0:
182,192,42682,128,0,42757:0:0:0:0:
256,192,42682,128,0,42757:0:0:0:0:
402,192,42682,128,0,42757:0:0:0:0:
475,192,42682,128,0,42757:0:0:0:0:
402,192,42832,128,0,43057:0:0:0:0:
475,192,42832,128,0,42907:0:0:0:0:
329,192,42832,128,0,42907:0:0:0:0:
256,192,42832,128,0,42907:0:0:0:0:
182,192,42832,128,0,42907:0:0:0:0:
36,192,42832,128,0,42907:0:0:0:0:
182,192,42982,128,0,43207:0:0:0:0:
36,192,42982,128,0,43057:0:0:0:0:
109,192,42982,128,0,43057:0:0:0:0:
256,192,42982,128,0,43057:0:0:0:0:
329,192,42982,128,0,43057:0:0:0:0:
475,192,42982,128,0,43057:0:0:0:0:
329,192,43132,128,0,43432:0:0:0:0:
475,192,43132,128,0,43207:0:0:0:0:
402,192,43132,128,0,43207:0:0:0:0:
256,192,43132,128,0,43207:0:0:0:0:
109,192,43132,128,0,43207:0:0:0:0:
36,192,43132,128,0,43207:0:0:0:0:
475,192,43282,128,0,43657:0:0:0:0:
402,192,43282,128,0,43432:0:0:0:0:
256,192,43282,128,0,43432:0:0:0:0:
182,192,43282,128,0,43432:0:0:0:0:
109,192,43282,128,0,43432:0:0:0:0:
36,192,43282,128,0,43432:0:0:0:0:
402,192,43507,128,0,43807:0:0:0:0:
36,192,43507,128,0,43657:0:0:0:0:
109,192,43507,128,0,43657:0:0:0:0:
182,192,43507,128,0,43657:0:0:0:0:
256,192,43507,128,0,43657:0:0:0:0:
329,192,43507,128,0,43657:0:0:0:0:
329,192,43732,128,0,43957:0:0:0:0:
475,192,43732,128,0,43807:0:0:0:0:
256,192,43732,128,0,43807:0:0:0:0:
182,192,43732,128,0,43807:0:0:0:0:
109,192,43732,128,0,43807:0:0:0:0:
36,192,43732,128,0,43807:0:0:0:0:
256,192,43882,128,0,44107:0:0:0:0:
36,192,43882,128,0,43957:0:0:0:0:
109,192,43882,128,0,43957:0:0:0:0:
182,192,43882,128,0,43957:0:0:0:0:
402,192,43882,128,0,43957:0:0:0:0:
475,192,43882,128,0,43957:0:0:0:0:
182,192,44032,128,0,44257:0:0:0:0:
475,192,44032,128,0,44107:0:0:0:0:
402,192,44032,128,0,44107:0:0:0:0:
329,192,44032,128,0,44107:0:0:0:0:
109,192,44032,128,0,44107:0:0:0:0:
36,192,44032,128,0,44107:0:0:0:0:
109,192,44182,128,0,44407:0:0:0:0:
36,192,44182,128,0,44257:0:0:0:0:
256,192,44182,128,0,44257:0:0:0:0:
329,192,44182,128,0,44257:0:0:0:0:
402,192,44182,128,0,44257:0:0:0:0:
475,192,44182,128,0,44257:0:0:0:0:
36,192,44332,128,0,44557:0:0:0:0:
475,192,44332,128,0,44407:0:0:0:0:
402,192,44332,128,0,44407:0:0:0:0:
329,192,44332,128,0,44407:0:0:0:0:
256,192,44332,128,0,44407:0:0:0:0:
182,192,44332,128,0,44407:0:0:0:0:
475,192,44482,128,0,44707:0:0:0:0:
109,192,44482,128,0,44557:0:0:0:0:
182,192,44482,128,0,44557:0:0:0:0:
256,192,44482,128,0,44557:0:0:0:0:
329,192,44482,128,0,44557:0:0:0:0:
402,192,44482,128,0,44557:0:0:0:0:
36,192,44632,128,0,44857:0:0:0:0:
402,192,44632,128,0,44707:0:0:0:0:
329,192,44632,128,0,44707:0:0:0:0:
256,192,44632,128,0,44707:0:0:0:0:
182,192,44632,128,0,44707:0:0:0:0:
109,192,44632,128,0,44707:0:0:0:0:
329,192,44782,128,0,45007:0:0:0:0:
109,192,44782,128,0,44857:0:0:0:0:
182,192,44782,128,0,44857:0:0:0:0:
256,192,44782,128,0,44857:0:0:0:0:
402,192,44782,128,0,44857:0:0:0:0:
475,192,44782,128,0,44857:0:0:0:0:
182,192,44932,128,0,45157:0:0:0:0:
475,192,44932,128,0,45007:0:0:0:0:
402,192,44932,128,0,45007:0:0:0:0:
256,192,44932,128,0,45007:0:0:0:0:
109,192,44932,128,0,45007:0:0:0:0:
36,192,44932,128,0,45007:0:0:0:0:
402,192,45082,128,0,45307:0:0:0:0:
36,192,45082,128,0,45157:0:0:0:0:
109,192,45082,128,0,45157:0:0:0:0:
256,192,45082,128,0,45157:0:0:0:0:
329,192,45082,128,0,45157:0:0:0:0:
475,192,45082,128,0,45157:0:0:0:0:
109,192,45232,128,0,45457:0:0:0:0:
475,192,45232,128,0,45307:0:0:0:0:
329,192,45232,128,0,45307:0:0:0:0:
256,192,45232,128,0,45307:0:0:0:0:
182,192,45232,128,0,45307:0:0:0:0:
36,192,45232,128,0,45307:0:0:0:0:
329,192,45382,128,0,45607:0:0:0:0:
36,192,45382,128,0,45457:0:0:0:0:
182,192,45382,128,0,45457:0:0:0:0:
256,192,45382,128,0,45457:0:0:0:0:
402,192,45382,128,0,45457:0:0:0:0:
475,192,45382,128,0,45457:0:0:0:0:
182,192,45532,128,0,45607:0:0:0:0:
475,192,45532,128,0,45607:0:0:0:0:
402,192,45532,128,0,45607:0:0:0:0:
256,192,45532,128,0,45607:0:0:0:0:
109,192,45532,128,0,45607:0:0:0:0:
36,192,45532,128,0,45607:0:0:0:0:
256,192,45682,1,0,0:0:0:0:
329,192,45682,1,0,0:0:0:0:
402,192,45682,1,0,0:0:0:0:
475,192,45682,1,0,0:0:0:0:
256,192,45757,1,0,0:0:0:0:
182,192,45757,1,0,0:0:0:0:
109,192,45757,1,0,0:0:0:0:
36,192,45757,1,0,0:0:0:0:
256,192,45832,1,0,0:0:0:0:
475,192,45832,1,0,0:0:0:0:
402,192,45832,1,0,0:0:0:0:
329,192,45832,1,0,0:0:0:0:
256,192,45907,1,0,0:0:0:0:
36,192,45907,1,0,0:0:0:0:
109,192,45907,1,0,0:0:0:0:
182,192,45907,1,0,0:0:0:0:
256,192,45982,1,0,0:0:0:0:
329,192,45982,1,0,0:0:0:0:
402,192,45982,1,0,0:0:0:0:
475,192,45982,1,0,0:0:0:0:
256,192,46057,1,0,0:0:0:0:
182,192,46057,1,0,0:0:0:0:
109,192,46057,1,0,0:0:0:0:
36,192,46057,1,0,0:0:0:0:
256,192,46132,1,0,0:0:0:0:
475,192,46132,1,0,0:0:0:0:
402,192,46132,1,0,0:0:0:0:
329,192,46132,1,0,0:0:0:0:
256,192,46207,1,0,0:0:0:0:
36,192,46207,1,0,0:0:0:0:
109,192,46207,1,0,0:0:0:0:
182,192,46207,1,0,0:0:0:0:
256,192,46282,1,0,0:0:0:0:
329,192,46282,1,0,0:0:0:0:
402,192,46282,1,0,0:0:0:0:
475,192,46282,1,0,0:0:0:0:
256,192,46357,1,0,0:0:0:0:
182,192,46357,1,0,0:0:0:0:
109,192,46357,1,0,0:0:0:0:
36,192,46357,1,0,0:0:0:0:
256,192,46432,1,0,0:0:0:0:
475,192,46432,1,0,0:0:0:0:
402,192,46432,1,0,0:0:0:0:
329,192,46432,1,0,0:0:0:0:
256,192,46507,1,0,0:0:0:0:
36,192,46507,1,0,0:0:0:0:
109,192,46507,1,0,0:0:0:0:
182,192,46507,1,0,0:0:0:0:
256,192,46582,1,0,0:0:0:0:
329,192,46582,1,0,0:0:0:0:
402,192,46582,1,0,0:0:0:0:
475,192,46582,1,0,0:0:0:0:
256,192,46657,1,0,0:0:0:0:
182,192,46657,1,0,0:0:0:0:
109,192,46657,1,0,0:0:0:0:
36,192,46657,1,0,0:0:0:0:
256,192,46732,1,0,0:0:0:0:
475,192,46732,1,0,0:0:0:0:
402,192,46732,1,0,0:0:0:0:
329,192,46732,1,0,0:0:0:0:
256,192,46807,1,0,0:0:0:0:
36,192,46807,1,0,0:0:0:0:
109,192,46807,1,0,0:0:0:0:
182,192,46807,1,0,0:0:0:0:
256,192,46882,1,0,0:0:0:0:
329,192,46882,1,0,0:0:0:0:
402,192,46882,1,0,0:0:0:0:
475,192,46882,1,0,0:0:0:0:
256,192,46957,1,0,0:0:0:0:
182,192,46957,1,0,0:0:0:0:
109,192,46957,1,0,0:0:0:0:
36,192,46957,1,0,0:0:0:0:
256,192,47032,1,0,0:0:0:0:
475,192,47032,1,0,0:0:0:0:
402,192,47032,1,0,0:0:0:0:
329,192,47032,1,0,0:0:0:0:
256,192,47107,1,0,0:0:0:0:
36,192,47107,1,0,0:0:0:0:
109,192,47107,1,0,0:0:0:0:
182,192,47107,1,0,0:0:0:0:
256,192,47182,1,0,0:0:0:0:
329,192,47182,1,0,0:0:0:0:
402,192,47182,1,0,0:0:0:0:
475,192,47182,1,0,0:0:0:0:
256,192,47257,1,0,0:0:0:0:
182,192,47257,1,0,0:0:0:0:
109,192,47257,1,0,0:0:0:0:
36,192,47257,1,0,0:0:0:0:
256,192,47332,1,0,0:0:0:0:
475,192,47332,1,0,0:0:0:0:
402,192,47332,1,0,0:0:0:0:
329,192,47332,1,0,0:0:0:0:
256,192,47407,1,0,0:0:0:0:
36,192,47407,1,0,0:0:0:0:
109,192,47407,1,0,0:0:0:0:
182,192,47407,1,0,0:0:0:0:
256,192,47482,1,0,0:0:0:0:
329,192,47482,1,0,0:0:0:0:
402,192,47482,1,0,0:0:0:0:
475,192,47482,1,0,0:0:0:0:
36,192,47782,1,0,0:0:0:0:
109,192,47782,1,0,0:0:0:0:
182,192,47782,1,0,0:0:0:0:
256,192,47782,1,0,0:0:0:0:
329,192,47782,1,0,0:0:0:0:
402,192,47782,1,0,0:0:0:0:
475,192,47782,1,0,0:0:0:0:
36,192,48082,128,0,48232:0:0:0:0:
182,192,48082,1,0,0:0:0:0:
256,192,48082,1,0,0:0:0:0:
402,192,48082,1,0,0:0:0:0:
329,192,48157,1,0,0:0:0:0:
475,192,48157,1,0,0:0:0:0:
182,192,48232,1,0,0:0:0:0:
109,192,48232,1,0,0:0:0:0:
256,192,48232,1,0,0:0:0:0:
36,192,48307,128,0,48457:0:0:0:0:
402,192,48307,1,0,0:0:0:0:
475,192,48307,1,0,0:0:0:0:
329,192,48382,1,0,0:0:0:0:
109,192,48382,1,0,0:0:0:0:
182,192,48382,1,0,0:0:0:0:
256,192,48457,1,0,0:0:0:0:
402,192,48457,1,0,0:0:0:0:
36,192,48532,128,0,48607:0:0:0:0:
475,192,48532,1,0,0:0:0:0:
329,192,48532,1,0,0:0:0:0:
109,192,48532,1,0,0:0:0:0:
182,192,48607,1,0,0:0:0:0:
256,192,48607,1,0,0:0:0:0:
109,192,48682,128,0,48757:0:0:0:0:
329,192,48682,1,0,0:0:0:0:
402,192,48682,1,0,0:0:0:0:
475,192,48682,1,0,0:0:0:0:
182,192,48757,1,0,0:0:0:0:
36,192,48757,1,0,0:0:0:0:
109,192,48832,128,0,48907:0:0:0:0:
256,192,48832,1,0,0:0:0:0:
402,192,48832,1,0,0:0:0:0:
475,192,48832,1,0,0:0:0:0:
329,192,48907,1,0,0:0:0:0:
36,192,48907,1,0,0:0:0:0:
109,192,48982,128,0,49057:0:0:0:0:
182,192,48982,1,0,0:0:0:0:
256,192,48982,1,0,0:0:0:0:
402,192,48982,1,0,0:0:0:0:
475,192,49057,1,0,0:0:0:0:
329,192,49057,1,0,0:0:0:0:
109,192,49132,128,0,49207:0:0:0:0:
256,192,49132,1,0,0:0:0:0:
182,192,49132,1,0,0:0:0:0:
36,192,49132,1,0,0:0:0:0:
402,192,49207,1,0,0:0:0:0:
475,192,49207,1,0,0:0:0:0:
36,192,49282,128,0,49357:0:0:0:0:
329,192,49282,1,0,0:0:0:0:
182,192,49282,1,0,0:0:0:0:
109,192,49282,1,0,0:0:0:0:
402,192,49357,1,0,0:0:0:0:
256,192,49357,1,0,0:0:0:0:
256,192,49432,128,0,49507:0:0:0:0:
109,192,49432,1,0,0:0:0:0:
36,192,49432,1,0,0:0:0:0:
329,192,49432,1,0,0:0:0:0:
182,192,49507,1,0,0:0:0:0:
475,192,49507,1,0,0:0:0:0:
36,192,49582,128,0,49657:0:0:0:0:
402,192,49582,1,0,0:0:0:0:
329,192,49582,1,0,0:0:0:0:
109,192,49582,1,0,0:0:0:0:
256,192,49657,1,0,0:0:0:0:
475,192,49657,1,0,0:0:0:0:
329,192,49732,128,0,49807:0:0:0:0:
402,192,49732,1,0,0:0:0:0:
182,192,49732,1,0,0:0:0:0:
36,192,49732,1,0,0:0:0:0:
109,192,49807,1,0,0:0:0:0:
256,192,49807,1,0,0:0:0:0:
36,192,49882,128,0,49957:0:0:0:0:
182,192,49882,1,0,0:0:0:0:
329,192,49882,1,0,0:0:0:0:
475,192,49882,1,0,0:0:0:0:
109,192,49957,1,0,0:0:0:0:
402,192,49957,1,0,0:0:0:0:
402,192,50032,128,0,50107:0:0:0:0:
329,192,50032,1,0,0:0:0:0:
256,192,50032,1,0,0:0:0:0:
182,192,50032,1,0,0:0:0:0:
36,192,50032,1,0,0:0:0:0:
475,192,50032,1,0,0:0:0:0:
36,192,50182,128,0,50257:0:0:0:0:
109,192,50182,1,0,0:0:0:0:
256,192,50182,1,0,0:0:0:0:
329,192,50182,1,0,0:0:0:0:
402,192,50257,1,0,0:0:0:0:
182,192,50257,1,0,0:0:0:0:
475,192,50332,128,0,50407:0:0:0:0:
109,192,50332,1,0,0:0:0:0:
256,192,50332,1,0,0:0:0:0:
36,192,50332,1,0,0:0:0:0:
182,192,50407,1,0,0:0:0:0:
329,192,50407,1,0,0:0:0:0:
256,192,50482,128,0,50632:0:0:0:0:
402,192,50482,1,0,0:0:0:0:
109,192,50482,1,0,0:0:0:0:
475,192,50482,1,0,0:0:0:0:
329,192,50557,1,0,0:0:0:0:
36,192,50557,1,0,0:0:0:0:
182,192,50632,1,0,0:0:0:0:
402,192,50632,1,0,0:0:0:0:
475,192,50632,1,0,0:0:0:0:
256,192,50707,128,0,50857:0:0:0:0:
109,192,50707,1,0,0:0:0:0:
36,192,50707,1,0,0:0:0:0:
182,192,50782,1,0,0:0:0:0:
329,192,50782,1,0,0:0:0:0:
402,192,50782,1,0,0:0:0:0:
475,192,50857,1,0,0:0:0:0:
109,192,50857,1,0,0:0:0:0:
256,192,50932,128,0,51007:0:0:0:0:
36,192,50932,1,0,0:0:0:0:
182,192,50932,1,0,0:0:0:0:
329,192,50932,1,0,0:0:0:0:
402,192,51007,1,0,0:0:0:0:
475,192,51007,1,0,0:0:0:0:
329,192,51082,128,0,51157:0:0:0:0:
109,192,51082,1,0,0:0:0:0:
36,192,51082,1,0,0:0:0:0:
256,192,51082,1,0,0:0:0:0:
182,192,51157,1,0,0:0:0:0:
402,192,51157,1,0,0:0:0:0:
329,192,51232,128,0,51307:0:0:0:0:
475,192,51232,1,0,0:0:0:0:
256,192,51232,1,0,0:0:0:0:
36,192,51232,1,0,0:0:0:0:
109,192,51307,1,0,0:0:0:0:
182,192,51307,1,0,0:0:0:0:
329,192,51382,128,0,51457:0:0:0:0:
256,192,51382,1,0,0:0:0:0:
402,192,51382,1,0,0:0:0:0:
475,192,51382,1,0,0:0:0:0:
109,192,51457,1,0,0:0:0:0:
36,192,51457,1,0,0:0:0:0:
329,192,51532,128,0,51607:0:0:0:0:
182,192,51532,1,0,0:0:0:0:
402,192,51532,1,0,0:0:0:0:
475,192,51532,1,0,0:0:0:0:
256,192,51607,1,0,0:0:0:0:
36,192,51607,1,0,0:0:0:0:
402,192,51682,128,0,51757:0:0:0:0:
109,192,51682,1,0,0:0:0:0:
182,192,51682,1,0,0:0:0:0:
329,192,51682,1,0,0:0:0:0:
256,192,51757,1,0,0:0:0:0:
475,192,51757,1,0,0:0:0:0:
402,192,51832,128,0,51907:0:0:0:0:
109,192,51832,1,0,0:0:0:0:
36,192,51832,1,0,0:0:0:0:
329,192,51832,1,0,0:0:0:0:
182,192,51907,1,0,0:0:0:0:
475,192,51907,1,0,0:0:0:0:
402,192,51982,128,0,52057:0:0:0:0:
329,192,51982,1,0,0:0:0:0:
256,192,51982,1,0,0:0:0:0:
109,192,51982,1,0,0:0:0:0:
36,192,52057,1,0,0:0:0:0:
182,192,52057,1,0,0:0:0:0:
402,192,52132,128,0,52207:0:0:0:0:
256,192,52132,1,0,0:0:0:0:
475,192,52132,1,0,0:0:0:0:
109,192,52132,1,0,0:0:0:0:
36,192,52207,1,0,0:0:0:0:
329,192,52207,1,0,0:0:0:0:
475,192,52282,128,0,52357:0:0:0:0:
256,192,52282,1,0,0:0:0:0:
182,192,52282,1,0,0:0:0:0:
402,192,52282,1,0,0:0:0:0:
329,192,52357,1,0,0:0:0:0:
109,192,52357,1,0,0:0:0:0:
475,192,52432,128,0,52507:0:0:0:0:
36,192,52432,1,0,0:0:0:0:
182,192,52432,1,0,0:0:0:0:
402,192,52432,1,0,0:0:0:0:
256,192,52507,1,0,0:0:0:0:
109,192,52507,1,0,0:0:0:0:
475,192,52582,128,0,52657:0:0:0:0:
36,192,52582,1,0,0:0:0:0:
182,192,52582,1,0,0:0:0:0:
329,192,52582,1,0,0:0:0:0:
402,192,52657,1,0,0:0:0:0:
256,192,52657,1,0,0:0:0:0:
475,192,52732,128,0,52807:0:0:0:0:
182,192,52732,1,0,0:0:0:0:
36,192,52732,1,0,0:0:0:0:
109,192,52732,1,0,0:0:0:0:
329,192,52807,1,0,0:0:0:0:
402,192,52807,1,0,0:0:0:0:
109,192,52882,128,0,53032:0:0:0:0:
256,192,52882,1,0,0:0:0:0:
36,192,52882,1,0,0:0:0:0:
475,192,52882,1,0,0:0:0:0:
182,192,52957,1,0,0:0:0:0:
329,192,52957,1,0,0:0:0:0:
256,192,53032,1,0,0:0:0:0:
402,192,53032,1,0,0:0:0:0:
475,192,53032,1,0,0:0:0:0:
109,192,53107,128,0,53257:0:0:0:0:
182,192,53107,1,0,0:0:0:0:
36,192,53107,1,0,0:0:0:0:
256,192,53182,1,0,0:0:0:0:
402,192,53182,1,0,0:0:0:0:
329,192,53182,1,0,0:0:0:0:
475,192,53257,1,0,0:0:0:0:
36,192,53257,1,0,0:0:0:0:
109,192,53332,128,0,53407:0:0:0:0:
182,192,53332,1,0,0:0:0:0:
329,192,53332,1,0,0:0:0:0:
402,192,53332,1,0,0:0:0:0:
256,192,53407,1,0,0:0:0:0:
475,192,53407,1,0,0:0:0:0:
182,192,53482,128,0,53557:0:0:0:0:
329,192,53482,1,0,0:0:0:0:
109,192,53482,1,0,0:0:0:0:
36,192,53482,1,0,0:0:0:0:
256,192,53557,1,0,0:0:0:0:
402,192,53557,1,0,0:0:0:0:
182,192,53632,128,0,53707:0:0:0:0:
36,192,53632,1,0,0:0:0:0:
109,192,53632,1,0,0:0:0:0:
475,192,53632,1,0,0:0:0:0:
329,192,53707,1,0,0:0:0:0:
402,192,53707,1,0,0:0:0:0:
182,192,53782,128,0,53857:0:0:0:0:
256,192,53782,1,0,0:0:0:0:
36,192,53782,1,0,0:0:0:0:
475,192,53782,1,0,0:0:0:0:
109,192,53857,1,0,0:0:0:0:
329,192,53857,1,0,0:0:0:0:
182,192,53932,128,0,54007:0:0:0:0:
475,192,53932,1,0,0:0:0:0:
256,192,53932,1,0,0:0:0:0:
402,192,53932,1,0,0:0:0:0:
109,192,54007,1,0,0:0:0:0:
36,192,54007,1,0,0:0:0:0:
36,192,54082,128,0,54157:0:0:0:0:
256,192,54082,1,0,0:0:0:0:
402,192,54082,1,0,0:0:0:0:
329,192,54082,1,0,0:0:0:0:
182,192,54157,1,0,0:0:0:0:
475,192,54157,1,0,0:0:0:0:
256,192,54232,128,0,54307:0:0:0:0:
109,192,54232,1,0,0:0:0:0:
329,192,54232,1,0,0:0:0:0:
402,192,54232,1,0,0:0:0:0:
182,192,54307,1,0,0:0:0:0:
475,192,54307,1,0,0:0:0:0:
36,192,54382,128,0,54457:0:0:0:0:
329,192,54382,1,0,0:0:0:0:
109,192,54382,1,0,0:0:0:0:
256,192,54382,1,0,0:0:0:0:
402,192,54457,1,0,0:0:0:0:
475,192,54457,1,0,0:0:0:0:
329,192,54532,128,0,54607:0:0:0:0:
256,192,54532,1,0,0:0:0:0:
182,192,54532,1,0,0:0:0:0:
109,192,54532,1,0,0:0:0:0:
402,192,54607,1,0,0:0:0:0:
36,192,54607,1,0,0:0:0:0:
36,192,54682,128,0,54757:0:0:0:0:
329,192,54682,1,0,0:0:0:0:
256,192,54682,1,0,0:0:0:0:
475,192,54682,1,0,0:0:0:0:
109,192,54757,1,0,0:0:0:0:
182,192,54757,1,0,0:0:0:0:
402,192,54832,128,0,54907:0:0:0:0:
329,192,54832,1,0,0:0:0:0:
475,192,54832,1,0,0:0:0:0:
36,192,54832,1,0,0:0:0:0:
109,192,54907,1,0,0:0:0:0:
256,192,54907,1,0,0:0:0:0:
36,192,54982,128,0,55057:0:0:0:0:
182,192,54982,1,0,0:0:0:0:
329,192,54982,1,0,0:0:0:0:
475,192,54982,1,0,0:0:0:0:
402,192,55057,1,0,0:0:0:0:
256,192,55057,1,0,0:0:0:0:
475,192,55132,128,0,55207:0:0:0:0:
329,192,55132,1,0,0:0:0:0:
182,192,55132,1,0,0:0:0:0:
109,192,55132,1,0,0:0:0:0:
36,192,55207,1,0,0:0:0:0:
256,192,55207,1,0,0:0:0:0:
256,192,55282,1,0,0:0:0:0:
329,192,55282,1,0,0:0:0:0:
402,192,55282,1,0,0:0:0:0:
475,192,55282,1,0,0:0:0:0:
256,192,55357,1,0,0:0:0:0:
182,192,55357,1,0,0:0:0:0:
109,192,55357,1,0,0:0:0:0:
36,192,55357,1,0,0:0:0:0:
256,192,55432,1,0,0:0:0:0:
475,192,55432,1,0,0:0:0:0:
402,192,55432,1,0,0:0:0:0:
329,192,55432,1,0,0:0:0:0:
256,192,55507,1,0,0:0:0:0:
36,192,55507,1,0,0:0:0:0:
109,192,55507,1,0,0:0:0:0:
182,192,55507,1,0,0:0:0:0:
256,192,55582,1,0,0:0:0:0:
329,192,55582,1,0,0:0:0:0:
402,192,55582,1,0,0:0:0:0:
475,192,55582,1,0,0:0:0:0:
256,192,55657,1,0,0:0:0:0:
182,192,55657,1,0,0:0:0:0:
109,192,55657,1,0,0:0:0:0:
36,192,55657,1,0,0:0:0:0:
256,192,55732,1,0,0:0:0:0:
475,192,55732,1,0,0:0:0:0:
402,192,55732,1,0,0:0:0:0:
329,192,55732,1,0,0:0:0:0:
256,192,55807,1,0,0:0:0:0:
36,192,55807,1,0,0:0:0:0:
109,192,55807,1,0,0:0:0:0:
182,192,55807,1,0,0:0:0:0:
256,192,55882,1,0,0:0:0:0:
329,192,55882,1,0,0:0:0:0:
402,192,55882,1,0,0:0:0:0:
475,192,55882,1,0,0:0:0:0:
256,192,55957,1,0,0:0:0:0:
182,192,55957,1,0,0:0:0:0:
109,192,55957,1,0,0:0:0:0:
36,192,55957,1,0,0:0:0:0:
256,192,56032,1,0,0:0:0:0:
475,192,56032,1,0,0:0:0:0:
402,192,56032,1,0,0:0:0:0:
329,192,56032,1,0,0:0:0:0:
256,192,56107,1,0,0:0:0:0:
36,192,56107,1,0,0:0:0:0:
109,192,56107,1,0,0:0:0:0:
182,192,56107,1,0,0:0:0:0:
256,192,56182,1,0,0:0:0:0:
329,192,56182,1,0,0:0:0:0:
402,192,56182,1,0,0:0:0:0:
475,192,56182,1,0,0:0:0:0:
256,192,56257,1,0,0:0:0:0:
182,192,56257,1,0,0:0:0:0:
109,192,56257,1,0,0:0:0:0:
36,192,56257,1,0,0:0:0:0:
256,192,56332,1,0,0:0:0:0:
475,192,56332,1,0,0:0:0:0:
402,192,56332,1,0,0:0:0:0:
329,192,56332,1,0,0:0:0:0:
256,192,56407,1,0,0:0:0:0:
36,192,56407,1,0,0:0:0:0:
109,192,56407,1,0,0:0:0:0:
182,192,56407,1,0,0:0:0:0:
256,192,56482,1,0,0:0:0:0:
329,192,56482,1,0,0:0:0:0:
402,192,56482,1,0,0:0:0:0:
475,192,56482,1,0,0:0:0:0:
256,192,56557,1,0,0:0:0:0:
182,192,56557,1,0,0:0:0:0:
109,192,56557,1,0,0:0:0:0:
36,192,56557,1,0,0:0:0:0:
256,192,56632,1,0,0:0:0:0:
329,192,56632,1,0,0:0:0:0:
402,192,56632,1,0,0:0:0:0:
475,192,56632,1,0,0:0:0:0:
256,192,56707,1,0,0:0:0:0:
36,192,56707,1,0,0:0:0:0:
109,192,56707,1,0,0:0:0:0:
182,192,56707,1,0,0:0:0:0:
256,192,56782,1,0,0:0:0:0:
475,192,56782,1,0,0:0:0:0:
402,192,56782,1,0,0:0:0:0:
329,192,56782,1,0,0:0:0:0:
256,192,56857,1,0,0:0:0:0:
182,192,56857,1,0,0:0:0:0:
109,192,56857,1,0,0:0:0:0:
36,192,56857,1,0,0:0:0:0:
256,192,56932,1,0,0:0:0:0:
329,192,56932,1,0,0:0:0:0:
402,192,56932,1,0,0:0:0:0:
475,192,56932,1,0,0:0:0:0:
256,192,57007,1,0,0:0:0:0:
36,192,57007,1,0,0:0:0:0:
109,192,57007,1,0,0:0:0:0:
182,192,57007,1,0,0:0:0:0:
475,192,57082,1,0,0:0:0:0:
402,192,57082,1,0,0:0:0:0:
329,192,57082,1,0,0:0:0:0:
256,192,57082,1,0,0:0:0:0:
182,192,57157,1,0,0:0:0:0:
109,192,57232,1,0,0:0:0:0:
36,192,57307,1,0,0:0:0:0:
109,192,57382,1,0,0:0:0:0:
182,192,57382,1,0,0:0:0:0:
256,192,57382,1,0,0:0:0:0:
329,192,57457,1,0,0:0:0:0:
402,192,57532,1,0,0:0:0:0:
475,192,57607,1,0,0:0:0:0:
256,192,57682,128,0,57832:0:0:0:0:
36,192,57682,128,0,57757:0:0:0:0:
182,192,57682,128,0,57757:0:0:0:0:
402,192,57682,128,0,57757:0:0:0:0:
109,192,57757,128,0,57832:0:0:0:0:
475,192,57757,128,0,57832:0:0:0:0:
329,192,57832,128,0,57982:0:0:0:0:
402,192,57832,128,0,57907:0:0:0:0:
182,192,57832,128,0,57907:0:0:0:0:
109,192,57907,128,0,57982:0:0:0:0:
36,192,57907,128,0,57982:0:0:0:0:
256,192,57982,128,0,58132:0:0:0:0:
475,192,57982,128,0,58057:0:0:0:0:
402,192,57982,128,0,58057:0:0:0:0:
329,192,58057,128,0,58132:0:0:0:0:
36,192,58057,128,0,58132:0:0:0:0:
182,192,58132,128,0,58357:0:0:0:0:
109,192,58132,128,0,58207:0:0:0:0:
475,192,58132,128,0,58207:0:0:0:0:
402,192,58207,128,0,58282:0:0:0:0:
329,192,58207,128,0,58282:0:0:0:0:
256,192,58282,128,0,58357:0:0:0:0:
36,192,58282,128,0,58357:0:0:0:0:
109,192,58357,128,0,58432:0:0:0:0:
402,192,58357,128,0,58432:0:0:0:0:
182,192,58432,128,0,58582:0:0:0:0:
475,192,58432,128,0,58507:0:0:0:0:
329,192,58432,128,0,58507:0:0:0:0:
256,192,58507,128,0,58582:0:0:0:0:
36,192,58507,128,0,58582:0:0:0:0:
109,192,58582,128,0,58732:0:0:0:0:
402,192,58582,128,0,58657:0:0:0:0:
475,192,58582,128,0,58657:0:0:0:0:
329,192,58657,128,0,58732:0:0:0:0:
256,192,58657,128,0,58732:0:0:0:0:
182,192,58732,128,0,58882:0:0:0:0:
36,192,58732,128,0,58807:0:0:0:0:
402,192,58732,128,0,58807:0:0:0:0:
475,192,58807,128,0,58882:0:0:0:0:
329,192,58807,128,0,58882:0:0:0:0:
36,192,58882,128,0,59032:0:0:0:0:
256,192,58882,128,0,58957:0:0:0:0:
109,192,58882,128,0,58957:0:0:0:0:
182,192,58957,128,0,59032:0:0:0:0:
475,192,58957,128,0,59032:0:0:0:0:
109,192,59032,128,0,59182:0:0:0:0:
402,192,59032,128,0,59107:0:0:0:0:
329,192,59032,128,0,59107:0:0:0:0:
256,192,59107,128,0,59182:0:0:0:0:
36,192,59107,128,0,59182:0:0:0:0:
182,192,59182,128,0,59332:0:0:0:0:
475,192,59182,128,0,59257:0:0:0:0:
402,192,59182,128,0,59257:0:0:0:0:
329,192,59257,128,0,59332:0:0:0:0:
109,192,59257,128,0,59332:0:0:0:0:
256,192,59332,128,0,59482:0:0:0:0:
36,192,59332,128,0,59407:0:0:0:0:
475,192,59332,128,0,59407:0:0:0:0:
402,192,59407,128,0,59482:0:0:0:0:
182,192,59407,128,0,59482:0:0:0:0:
109,192,59482,128,0,59557:0:0:0:0:
329,192,59482,128,0,59557:0:0:0:0:
475,192,59557,128,0,59632:0:0:0:0:
36,192,59557,128,0,59632:0:0:0:0:
329,192,59632,128,0,59782:0:0:0:0:
182,192,59632,128,0,59707:0:0:0:0:
256,192,59632,128,0,59707:0:0:0:0:
402,192,59707,128,0,59782:0:0:0:0:
109,192,59707,128,0,59782:0:0:0:0:
36,192,59782,128,0,59857:0:0:0:0:
475,192,59782,128,0,59857:0:0:0:0:
402,192,59857,128,0,59932:0:0:0:0:
182,192,59857,128,0,59932:0:0:0:0:
109,192,59932,128,0,60007:0:0:0:0:
256,192,59932,128,0,60007:0:0:0:0:
36,192,60007,128,0,60082:0:0:0:0:
182,192,60007,128,0,60082:0:0:0:0:
329,192,60082,128,0,60232:0:0:0:0:
402,192,60082,128,0,60157:0:0:0:0:
475,192,60082,128,0,60157:0:0:0:0:
256,192,60157,128,0,60232:0:0:0:0:
109,192,60157,128,0,60232:0:0:0:0:
402,192,60232,128,0,60382:0:0:0:0:
182,192,60232,128,0,60307:0:0:0:0:
36,192,60232,128,0,60307:0:0:0:0:
475,192,60307,128,0,60382:0:0:0:0:
256,192,60307,128,0,60382:0:0:0:0:
329,192,60382,128,0,60532:0:0:0:0:
109,192,60382,128,0,60457:0:0:0:0:
182,192,60382,128,0,60457:0:0:0:0:
36,192,60457,128,0,60532:0:0:0:0:
402,192,60457,128,0,60532:0:0:0:0:
256,192,60532,128,0,60757:0:0:0:0:
475,192,60532,128,0,60607:0:0:0:0:
109,192,60532,128,0,60607:0:0:0:0:
182,192,60607,128,0,60682:0:0:0:0:
329,192,60607,128,0,60682:0:0:0:0:
402,192,60682,128,0,60757:0:0:0:0:
36,192,60682,128,0,60757:0:0:0:0:
109,192,60757,128,0,60832:0:0:0:0:
475,192,60757,128,0,60832:0:0:0:0:
256,192,60832,128,0,60982:0:0:0:0:
329,192,60832,128,0,60907:0:0:0:0:
402,192,60832,128,0,60907:0:0:0:0:
36,192,60907,128,0,60982:0:0:0:0:
109,192,60907,128,0,60982:0:0:0:0:
182,192,60982,128,0,61132:0:0:0:0:
475,192,60982,128,0,61057:0:0:0:0:
329,192,60982,128,0,61057:0:0:0:0:
402,192,61057,128,0,61132:0:0:0:0:
36,192,61057,128,0,61132:0:0:0:0:
256,192,61132,128,0,61282:0:0:0:0:
109,192,61132,128,0,61207:0:0:0:0:
475,192,61132,128,0,61207:0:0:0:0:
329,192,61207,128,0,61282:0:0:0:0:
182,192,61207,128,0,61282:0:0:0:0:
109,192,61282,128,0,61432:0:0:0:0:
36,192,61282,128,0,61357:0:0:0:0:
402,192,61282,128,0,61357:0:0:0:0:
256,192,61357,128,0,61432:0:0:0:0:
475,192,61357,128,0,61432:0:0:0:0:
182,192,61432,128,0,61582:0:0:0:0:
329,192,61432,128,0,61507:0:0:0:0:
402,192,61432,128,0,61507:0:0:0:0:
109,192,61507,128,0,61582:0:0:0:0:
36,192,61507,128,0,61582:0:0:0:0:
256,192,61582,128,0,61732:0:0:0:0:
329,192,61582,128,0,61657:0:0:0:0:
475,192,61582,128,0,61657:0:0:0:0:
402,192,61657,128,0,61732:0:0:0:0:
182,192,61657,128,0,61732:0:0:0:0:
329,192,61732,128,0,61882:0:0:0:0:
109,192,61732,128,0,61807:0:0:0:0:
475,192,61732,128,0,61807:0:0:0:0:
256,192,61807,128,0,61882:0:0:0:0:
36,192,61807,128,0,61882:0:0:0:0:
182,192,61882,128,0,61957:0:0:0:0:
402,192,61882,128,0,61957:0:0:0:0:
109,192,61957,128,0,62032:0:0:0:0:
256,192,61957,128,0,62032:0:0:0:0:
402,192,62032,128,0,62407:0:0:0:0:
329,192,62032,128,0,62107:0:0:0:0:
475,192,62032,128,0,62107:0:0:0:0:
36,192,62107,128,0,62182:0:0:0:0:
182,192,62107,128,0,62182:0:0:0:0:
256,192,62182,128,0,62257:0:0:0:0:
329,192,62182,128,0,62257:0:0:0:0:
109,192,62257,128,0,62332:0:0:0:0:
475,192,62257,128,0,62332:0:0:0:0:
182,192,62332,128,0,62407:0:0:0:0:
256,192,62332,128,0,62407:0:0:0:0:
329,192,62407,128,0,62482:0:0:0:0:
36,192,62407,128,0,62482:0:0:0:0:
402,192,62482,128,0,62632:0:0:0:0:
109,192,62482,128,0,62557:0:0:0:0:
182,192,62482,128,0,62557:0:0:0:0:
256,192,62557,128,0,62632:0:0:0:0:
329,192,62557,128,0,62632:0:0:0:0:
475,192,62632,128,0,62782:0:0:0:0:
36,192,62632,128,0,62707:0:0:0:0:
109,192,62632,128,0,62707:0:0:0:0:
182,192,62707,128,0,62782:0:0:0:0:
256,192,62707,128,0,62782:0:0:0:0:
402,192,62782,128,0,62932:0:0:0:0:
329,192,62782,128,0,62857:0:0:0:0:
36,192,62782,128,0,62857:0:0:0:0:
109,192,62857,128,0,62932:0:0:0:0:
475,192,62857,128,0,62932:0:0:0:0:
329,192,62932,128,0,63157:0:0:0:0:
256,192,62932,128,0,63007:0:0:0:0:
182,192,62932,128,0,63007:0:0:0:0:
36,192,63007,128,0,63082:0:0:0:0:
402,192,63007,128,0,63082:0:0:0:0:
109,192,63082,128,0,63157:0:0:0:0:
182,192,63082,128,0,63157:0:0:0:0:
256,192,63157,128,0,63232:0:0:0:0:
475,192,63157,128,0,63232:0:0:0:0:
329,192,63232,128,0,63382:0:0:0:0:
402,192,63232,128,0,63307:0:0:0:0:
109,192,63232,128,0,63307:0:0:0:0:
36,192,63307,128,0,63382:0:0:0:0:
182,192,63307,128,0,63382:0:0:0:0:
256,192,63382,128,0,63532:0:0:0:0:
475,192,63382,128,0,63457:0:0:0:0:
402,192,63382,128,0,63457:0:0:0:0:
109,192,63457,128,0,63532:0:0:0:0:
182,192,63457,128,0,63532:0:0:0:0:
329,192,63532,128,0,63682:0:0:0:0:
36,192,63532,128,0,63607:0:0:0:0:
475,192,63532,128,0,63607:0:0:0:0:
402,192,63607,128,0,63682:0:0:0:0:
109,192,63607,128,0,63682:0:0:0:0:
182,192,63682,128,0,63832:0:0:0:0:
256,192,63682,128,0,63757:0:0:0:0:
36,192,63682,128,0,63757:0:0:0:0:
475,192,63757,128,0,63832:0:0:0:0:
329,192,63757,128,0,63832:0:0:0:0:
256,192,63832,128,0,63982:0:0:0:0:
402,192,63832,128,0,63907:0:0:0:0:
109,192,63832,128,0,63907:0:0:0:0:
36,192,63907,128,0,63982:0:0:0:0:
182,192,63907,128,0,63982:0:0:0:0:
329,192,63982,128,0,64132:0:0:0:0:
109,192,63982,128,0,64057:0:0:0:0:
475,192,63982,128,0,64057:0:0:0:0:
256,192,64057,128,0,64132:0:0:0:0:
182,192,64057,128,0,64132:0:0:0:0:
402,192,64132,128,0,64432:0:0:0:0:
36,192,64132,128,0,64207:0:0:0:0:
475,192,64132,128,0,64207:0:0:0:0:
329,192,64207,128,0,64282:0:0:0:0:
256,192,64207,128,0,64282:0:0:0:0:
182,192,64282,128,0,64357:0:0:0:0:
109,192,64282,128,0,64357:0:0:0:0:
329,192,64357,128,0,64432:0:0:0:0:
36,192,64357,128,0,64432:0:0:0:0:
475,192,64432,128,0,64582:0:0:0:0:
256,192,64432,128,0,64507:0:0:0:0:
182,192,64432,128,0,64507:0:0:0:0:
402,192,64507,128,0,64582:0:0:0:0:
109,192,64507,128,0,64582:0:0:0:0:
36,192,64582,128,0,64657:0:0:0:0:
329,192,64582,128,0,64657:0:0:0:0:
256,192,64657,128,0,64732:0:0:0:0:
475,192,64657,128,0,64732:0:0:0:0:
402,192,64732,128,0,64807:0:0:0:0:
109,192,64732,128,0,64807:0:0:0:0:
182,192,64807,128,0,64882:0:0:0:0:
36,192,64807,128,0,64882:0:0:0:0:
329,192,64882,128,0,65032:0:0:0:0:
256,192,64882,128,0,64957:0:0:0:0:
475,192,64882,128,0,64957:0:0:0:0:
109,192,64957,128,0,65032:0:0:0:0:
182,192,64957,128,0,65032:0:0:0:0:
402,192,65032,128,0,65182:0:0:0:0:
36,192,65032,128,0,65107:0:0:0:0:
256,192,65032,128,0,65107:0:0:0:0:
475,192,65107,128,0,65182:0:0:0:0:
109,192,65107,128,0,65182:0:0:0:0:
329,192,65182,128,0,65332:0:0:0:0:
182,192,65182,128,0,65257:0:0:0:0:
36,192,65182,128,0,65257:0:0:0:0:
402,192,65257,128,0,65332:0:0:0:0:
475,192,65257,128,0,65332:0:0:0:0:
256,192,65332,128,0,65557:0:0:0:0:
109,192,65332,128,0,65407:0:0:0:0:
182,192,65332,128,0,65407:0:0:0:0:
36,192,65407,128,0,65482:0:0:0:0:
329,192,65407,128,0,65482:0:0:0:0:
475,192,65482,128,0,65557:0:0:0:0:
109,192,65482,128,0,65557:0:0:0:0:
182,192,65557,128,0,65632:0:0:0:0:
402,192,65557,128,0,65632:0:0:0:0:
256,192,65632,128,0,65782:0:0:0:0:
36,192,65632,128,0,65707:0:0:0:0:
329,192,65632,128,0,65707:0:0:0:0:
475,192,65707,128,0,65782:0:0:0:0:
402,192,65707,128,0,65782:0:0:0:0:
182,192,65782,128,0,65932:0:0:0:0:
109,192,65782,128,0,65857:0:0:0:0:
36,192,65782,128,0,65857:0:0:0:0:
329,192,65857,128,0,65932:0:0:0:0:
475,192,65857,128,0,65932:0:0:0:0:
256,192,65932,128,0,66082:0:0:0:0:
402,192,65932,128,0,66007:0:0:0:0:
109,192,65932,128,0,66007:0:0:0:0:
182,192,66007,128,0,66082:0:0:0:0:
329,192,66007,128,0,66082:0:0:0:0:
109,192,66082,128,0,66232:0:0:0:0:
36,192,66082,128,0,66157:0:0:0:0:
475,192,66082,128,0,66157:0:0:0:0:
402,192,66157,128,0,66232:0:0:0:0:
256,192,66157,128,0,66232:0:0:0:0:
182,192,66232,128,0,66382:0:0:0:0:
329,192,66232,128,0,66307:0:0:0:0:
475,192,66232,128,0,66307:0:0:0:0:
402,192,66307,128,0,66382:0:0:0:0:
36,192,66307,128,0,66382:0:0:0:0:
256,192,66382,128,0,66532:0:0:0:0:
109,192,66382,128,0,66457:0:0:0:0:
329,192,66382,128,0,66457:0:0:0:0:
475,192,66457,128,0,66532:0:0:0:0:
182,192,66457,128,0,66532:0:0:0:0:
329,192,66532,128,0,66682:0:0:0:0:
36,192,66532,128,0,66607:0:0:0:0:
402,192,66532,128,0,66607:0:0:0:0:
109,192,66607,128,0,66682:0:0:0:0:
256,192,66607,128,0,66682:0:0:0:0:
182,192,66682,128,0,66757:0:0:0:0:
402,192,66682,128,0,66757:0:0:0:0:
36,192,66757,128,0,66832:0:0:0:0:
256,192,66757,128,0,66832:0:0:0:0:
475,192,66832,128,0,66982:0:0:0:0:
329,192,66832,128,0,66907:0:0:0:0:
109,192,66832,128,0,66907:0:0:0:0:
182,192,66907,128,0,66982:0:0:0:0:
402,192,66907,128,0,66982:0:0:0:0:
256,192,67282,128,0,67807:0:0:0:0:
329,192,67282,128,0,67657:0:0:0:0:
182,192,67282,128,0,67657:0:0:0:0:
475,192,67432,128,0,68032:0:0:0:0:
36,192,67432,128,0,68032:0:0:0:0:
402,192,67582,128,0,68107:0:0:0:0:
109,192,67582,128,0,68107:0:0:0:0:
329,192,67732,128,0,67957:0:0:0:0:
182,192,67732,128,0,67957:0:0:0:0:
256,192,67882,128,0,68257:0:0:0:0:
329,192,68032,128,0,68257:0:0:0:0:
182,192,68032,128,0,68257:0:0:0:0:
475,192,68107,128,0,68407:0:0:0:0:
36,192,68107,128,0,68407:0:0:0:0:
402,192,68182,128,0,68707:0:0:0:0:
109,192,68182,128,0,68707:0:0:0:0:
256,192,68332,128,0,68707:0:0:0:0:
329,192,68332,128,0,68557:0:0:0:0:
182,192,68332,128,0,68557:0:0:0:0:
475,192,68482,128,0,68857:0:0:0:0:
36,192,68482,128,0,68857:0:0:0:0:
329,192,68632,128,0,69607:0:0:0:0:
182,192,68632,128,0,69607:0:0:0:0:
256,192,68782,128,0,69007:0:0:0:0:
402,192,68782,128,0,69907:0:0:0:0:
109,192,68782,128,0,69907:0:0:0:0:
475,192,68932,128,0,69157:0:0:0:0:
36,192,68932,128,0,69157:0:0:0:0:
256,192,69082,128,0,69607:0:0:0:0:
475,192,69232,128,0,69757:0:0:0:0:
36,192,69232,128,0,69757:0:0:0:0:
256,192,69682,128,0,70207:0:0:0:0:
329,192,69682,128,0,70057:0:0:0:0:
182,192,69682,128,0,70057:0:0:0:0:
475,192,69832,128,0,70432:0:0:0:0:
36,192,69832,128,0,70432:0:0:0:0:
402,192,69982,128,0,70507:0:0:0:0:
109,192,69982,128,0,70507:0:0:0:0:
329,192,70132,128,0,70357:0:0:0:0:
182,192,70132,128,0,70357:0:0:0:0:
256,192,70282,128,0,70657:0:0:0:0:
329,192,70432,128,0,70657:0:0:0:0:
182,192,70432,128,0,70657:0:0:0:0:
475,192,70507,128,0,70807:0:0:0:0:
36,192,70507,128,0,70807:0:0:0:0:
402,192,70582,128,0,71107:0:0:0:0:
109,192,70582,128,0,71107:0:0:0:0:
256,192,70732,128,0,71107:0:0:0:0:
329,192,70732,128,0,70957:0:0:0:0:
182,192,70732,128,0,70957:0:0:0:0:
475,192,70882,128,0,71257:0:0:0:0:
36,192,70882,128,0,71257:0:0:0:0:
182,192,71032,128,0,72007:0:0:0:0:
329,192,71032,128,0,72007:0:0:0:0:
256,192,71182,128,0,71407:0:0:0:0:
402,192,71182,128,0,71557:0:0:0:0:
109,192,71182,128,0,71557:0:0:0:0:
475,192,71332,128,0,72157:0:0:0:0:
36,192,71332,128,0,72157:0:0:0:0:
256,192,71482,128,0,72007:0:0:0:0:
402,192,71632,128,0,72307:0:0:0:0:
109,192,71632,128,0,72307:0:0:0:0:
256,192,72082,128,0,72607:0:0:0:0:
329,192,72082,128,0,72457:0:0:0:0:
182,192,72082,128,0,72457:0:0:0:0:
475,192,72232,128,0,72832:0:0:0:0:
36,192,72232,128,0,72832:0:0:0:0:
402,192,72382,128,0,72907:0:0:0:0:
109,192,72382,128,0,72907:0:0:0:0:
329,192,72532,128,0,72757:0:0:0:0:
182,192,72532,128,0,72757:0:0:0:0:
256,192,72682,128,0,73057:0:0:0:0:
329,192,72832,128,0,73057:0:0:0:0:
182,192,72832,128,0,73057:0:0:0:0:
475,192,72907,128,0,73207:0:0:0:0:
36,192,72907,128,0,73207:0:0:0:0:
402,192,72982,128,0,73507:0:0:0:0:
109,192,72982,128,0,73507:0:0:0:0:
256,192,73132,128,0,73507:0:0:0:0:
329,192,73132,128,0,73357:0:0:0:0:
182,192,73132,128,0,73357:0:0:0:0:
475,192,73282,128,0,73657:0:0:0:0:
36,192,73282,128,0,73657:0:0:0:0:
329,192,73432,128,0,73957:0:0:0:0:
182,192,73432,128,0,73957:0:0:0:0:
256,192,73582,128,0,73807:0:0:0:0:
402,192,73582,128,0,74707:0:0:0:0:
109,192,73582,128,0,74707:0:0:0:0:
475,192,73732,128,0,74557:0:0:0:0:
36,192,73732,128,0,74557:0:0:0:0:
256,192,73882,128,0,74407:0:0:0:0:
329,192,74032,128,0,74407:0:0:0:0:
182,192,74032,128,0,74407:0:0:0:0:
256,192,74482,128,0,75007:0:0:0:0:
329,192,74482,128,0,74857:0:0:0:0:
182,192,74482,128,0,74857:0:0:0:0:
475,192,74632,128,0,75232:0:0:0:0:
36,192,74632,128,0,75232:0:0:0:0:
402,192,74782,128,0,75307:0:0:0:0:
109,192,74782,128,0,75307:0:0:0:0:
329,192,74932,128,0,75157:0:0:0:0:
182,192,74932,128,0,75157:0:0:0:0:
256,192,75082,128,0,75457:0:0:0:0:
329,192,75232,128,0,75457:0:0:0:0:
182,192,75232,128,0,75457:0:0:0:0:
475,192,75307,128,0,75607:0:0:0:0:
36,192,75307,128,0,75607:0:0:0:0:
402,192,75382,128,0,75907:0:0:0:0:
109,192,75382,128,0,75907:0:0:0:0:
256,192,75532,128,0,75907:0:0:0:0:
329,192,75532,128,0,75757:0:0:0:0:
182,192,75532,128,0,75757:0:0:0:0:
475,192,75682,128,0,76057:0:0:0:0:
36,192,75682,128,0,76057:0:0:0:0:
329,192,75832,128,0,76357:0:0:0:0:
182,192,75832,128,0,76357:0:0:0:0:
256,192,75982,128,0,76207:0:0:0:0:
402,192,75982,128,0,76732:0:0:0:0:
109,192,75982,128,0,76732:0:0:0:0:
475,192,76132,128,0,76732:0:0:0:0:
36,192,76132,128,0,76732:0:0:0:0:
256,192,76282,128,0,76732:0:0:0:0:
329,192,76432,128,0,76732:0:0:0:0:
182,192,76432,128,0,76732:0:0:0:0:
