osu file format v14

[General]
AudioFilename: Sayonara, Hana Dorobo-San.mp3
AudioLeadIn: 0
PreviewTime: 1524
Countdown: 0
SampleSet: Soft
StackLeniency: 0.7
Mode: 0
LetterboxInBreaks: 0
WidescreenStoryboard: 0

[Editor]
Bookmarks: 4524,25879,34171,48467,59762,82348,90818,102113,135995,158583,167054,172701,195289,226348,250701,262171
DistanceSpacing: 0.5
BeatDivisor: 4
GridSize: 4
TimelineZoom: 1.7

[Metadata]
Title:Sayonara, Hana Dorobo-san
TitleUnicode:さようなら、花泥棒さん
Artist:sana
ArtistUnicode:鎖那
Creator:Azure
Version:Sayonara
Source:
Tags:
BeatmapID:1133115
BeatmapSetID:534928

[Difficulty]
HPDrainRate:7
CircleSize:4
OverallDifficulty:8
ApproachRate:9
SliderMultiplier:1.8
SliderTickRate:1

[Events]
//Background and Video events
0,0,"BG.jpg",0,0
//Break Periods
//Storyboard Layer 0 (Background)
//Storyboard Layer 1 (Fail)
//Storyboard Layer 2 (Pass)
//Storyboard Layer 3 (Foreground)
//Storyboard Sound Samples

[TimingPoints]
466,352.941176470588,4,2,1,60,1,0
36818,-125,4,2,1,60,0,0
37171,-100,4,2,1,60,0,0
58348,-200,4,2,1,60,0,0
58877,-142.857142857143,4,2,1,60,0,0
59671,-142.857142857143,4,2,1,5,0,0
59760,-100,4,2,1,60,0,1
59762,-100,4,2,1,60,0,1
82348,-100,4,2,1,60,0,0
89407,-142.857142857143,4,2,1,60,0,0
89760,-100,4,2,1,60,0,0
135995,-100,4,2,1,60,0,1
158583,-100,4,2,1,60,0,0
195289,-100,4,2,1,60,0,1
217877,-100,4,2,1,60,0,0
226348,-100,4,2,1,60,0,1
226436,-100,4,2,1,60,0,0

[Colours]
Combo1 : 243,145,144
Combo2 : 179,179,179
Combo3 : 231,99,123
Combo4 : 218,40,74
Combo5 : 200,116,116
Combo6 : 199,171,169

[HitObjects]
128,108,466,5,2,1:0:0:0:
128,108,818,5,2,1:0:0:0:
128,108,1171,5,2,1:0:0:0:
92,212,1348,1,2,1:0:0:0:
128,108,1524,1,2,1:0:0:0:
128,108,1877,5,2,1:0:0:0:
180,328,2054,1,0,1:0:0:0:
283,357,2230,1,0,1:0:0:0:
313,253,2407,1,0,1:0:0:0:
180,328,2760,5,0,3:0:0:0:
313,253,2936,1,2,1:3:0:0:
313,253,3289,6,0,P|384:204|384:116,1,180,4|0,3:2|1:0,0:0:0:0:
312,36,3818,1,0,0:0:0:0:
208,60,3995,2,0,L|104:52,1,90,0|0,3:0|0:0,0:0:0:0:
8,168,4348,1,0,1:0:0:0:
28,196,4524,2,0,L|224:180,1,180,0|0,3:0|3:0,0:0:0:0:
444,184,5054,2,0,P|452:228|436:280,1,90,0|0,1:0|1:0,0:0:0:0:
280,264,5407,2,0,P|314:235|367:222,1,90,0|0,3:0|0:0,0:0:0:0:
432,368,5760,2,0,P|389:352|352:313,1,90,0|0,1:0|0:0,0:0:0:0:
196,216,6113,6,0,P|272:160|356:132,1,180,0|0,3:0|1:0,0:0:0:0:
468,44,6642,2,0,L|480:156,1,90
284,136,6995,1,0,0:0:0:0:
256,116,7171,2,0,L|246:26,1,90,0|0,1:0|3:0,0:0:0:0:
120,17,7524,1,0,0:0:0:0:
17,50,7701,1,0,3:0:0:0:
17,158,7877,1,0,1:0:0:0:
120,192,8054,1,0,1:0:0:0:
183,104,8230,2,0,P|132:98|80:96,1,90
248,188,8583,2,0,P|298:182|351:180,1,90,0|0,1:0|0:0,0:0:0:0:
212,310,8936,6,0,P|127:268|135:164,1,180,4|0,3:2|1:0,0:0:0:0:
184,104,9465,1,0,1:0:0:0:
32,160,9642,2,0,P|40:252|40:352,1,180,0|0,3:0|1:0,0:0:0:0:
12,360,10171,1,0,3:0:0:0:
212,310,10348,2,0,P|208:272|216:216,1,90,0|0,0:0|3:0,0:0:0:0:
332,288,10701,2,0,P|332:338|328:382,1,90,0|0,1:0|1:0,0:0:0:0:
452,236,11054,2,0,P|452:286|456:330,1,90,0|0,3:0|0:0,0:0:0:0:
356,184,11407,2,0,P|356:134|352:90,1,90,0|0,1:0|0:0,0:0:0:0:
496,24,11760,5,0,3:0:0:0:
460,128,11936,1,0,0:0:0:0:
364,52,12113,1,0,1:0:0:0:
308,220,12289,1,0,1:0:0:0:
260,124,12465,2,0,P|272:36|364:8,1,180,0|0,3:0|1:0,0:0:0:0:
308,220,12995,1,0,3:0:0:0:
200,216,13171,6,0,L|104:212,1,90,0|0,0:0|3:0,0:0:0:0:
0,332,13524,1,0,1:0:0:0:
0,332,13701,1,0,1:0:0:0:
36,176,13877,2,0,P|36:132|32:80,1,90,0|0,3:0|1:0,0:0:0:0:
200,8,14230,1,0,1:0:0:0:
200,36,14318,1,0,1:0:0:0:
204,64,14407,1,0,1:0:0:0:
208,92,14495,1,0,1:0:0:0:
212,120,14583,6,0,B|216:168|200:216|200:216|208:272|264:288,1,180,4|0,3:2|1:0,0:0:0:0:
332,212,15113,1,0,1:0:0:0:
128,160,15289,2,0,B|56:168|8:158|8:158|68:140,1,180,0|0,3:0|1:0,0:0:0:0:
200,36,15818,1,0,3:0:0:0:
292,92,15995,2,0,L|284:196,1,90,0|0,0:0|3:0,0:0:0:0:
380,8,16348,2,0,L|399:110,1,90,0|0,1:0|1:0,0:0:0:0:
500,128,16701,2,0,L|508:232,1,90,0|0,3:0|0:0,0:0:0:0:
388,352,17054,2,0,L|376:200,1,135,0|0,1:0|0:0,0:0:0:0:
336,160,17407,6,0,P|256:144|184:224,1,180,0|0,3:0|1:0,0:0:0:0:
284,256,17936,1,0,1:0:0:0:
464,232,18113,2,0,L|472:36,1,180,0|0,3:0|1:0,0:0:0:0:
336,160,18642,1,0,3:0:0:0:
219,31,18818,1,0,0:0:0:0:
237,205,18995,1,0,3:0:0:0:
165,124,19171,2,0,P|117:119|64:120,1,90,0|0,1:0|1:0,0:0:0:0:
336,160,19524,2,0,P|383:155|437:156,1,90,0|0,3:0|0:0,0:0:0:0:
237,205,19877,2,0,P|189:209|136:209,1,90,0|0,1:0|0:0,0:0:0:0:
224,336,20230,6,0,P|256:252|344:244,1,180,4|0,3:2|1:0,0:0:0:0:
420,312,20760,1,0,1:0:0:0:
237,205,20936,2,0,P|222:116|294:65,1,180,0|0,3:0|1:0,0:0:0:0:
388,24,21465,1,0,3:0:0:0:
468,96,21642,2,0,P|468:144|472:200,1,90,0|0,0:0|3:0,0:0:0:0:
420,312,21995,1,0,1:0:0:0:
420,312,22171,1,0,1:0:0:0:
316,288,22348,2,0,P|247:291|172:296,1,135,0|0,3:0|0:0,0:0:0:0:
164,304,22701,2,0,P|192:204|144:140,1,180,0|0,1:0|3:0,0:0:0:0:
76,292,23230,5,0,0:0:0:0:
57,117,23407,1,0,1:0:0:0:
173,247,23583,1,0,1:0:0:0:
3,211,23760,2,0,P|20:120|24:32,1,180,0|0,3:0|1:0,0:0:0:0:
0,12,24289,1,0,3:0:0:0:
132,44,24465,2,0,P|176:44|232:40,1,90,0|0,0:0|3:0,0:0:0:0:
180,160,24818,2,0,P|218:138|264:106,1,90,0|0,1:0|1:0,0:0:0:0:
292,236,25171,2,0,P|313:197|338:147,1,90,0|0,3:0|1:0,0:0:0:0:
460,32,25524,1,0,1:0:0:0:
464,60,25613,1,0,1:0:0:0:
468,88,25701,1,0,1:0:0:0:
468,116,25789,1,0,1:0:0:0:
464,144,25877,6,0,B|460:200|432:232|432:232|420:276|448:324,1,180,4|0,3:2|1:0,0:0:0:0:
372,160,26407,1,0,3:0:0:0:
292,236,26583,2,0,P|245:233|192:240,1,90,0|0,3:0|0:0,0:0:0:0:
28,364,26936,1,0,1:0:0:0:
108,280,27112,2,0,P|105:233|112:180,1,90,0|0,3:0|0:0,0:0:0:0:
188,112,27465,2,0,P|191:65|184:12,1,90,0|0,3:0|1:0,0:0:0:0:
109,190,27818,1,0,3:0:0:0:
216,216,27995,2,0,L|200:352,1,135,0|0,3:0|0:0,0:0:0:0:
216,372,28348,2,0,P|260:364|320:376,1,90,0|0,1:0|0:0,0:0:0:0:
488,304,28701,6,0,P|444:312|380:208,1,180,0|0,3:0|1:0,0:0:0:0:
472,156,29230,2,0,P|488:116|504:64,1,90,0|0,3:0|3:0,0:0:0:0:
492,36,29583,1,0,0:0:0:0:
378,213,29760,1,0,1:0:0:0:
376,104,29936,2,0,L|368:8,1,90,0|0,3:0|0:0,0:0:0:0:
280,168,30289,2,0,L|287:257,1,90,0|0,3:0|1:0,0:0:0:0:
304,292,30642,1,0,3:0:0:0:
188,344,30818,2,0,L|40:328,1,135,0|0,3:0|0:0,0:0:0:0:
44,316,31171,2,0,P|60:268|48:212,1,90,0|2,1:0|2:3,0:0:0:0:
128,56,31524,6,0,P|112:156|156:224,1,180,0|0,3:0|1:0,0:0:0:0:
276,284,32054,1,0,3:0:0:0:
224,168,32230,2,0,P|204:132|216:80,1,90,0|0,3:0|0:0,0:0:0:0:
308,32,32583,2,0,P|328:68|316:120,1,90,0|0,1:0|3:0,0:0:0:0:
224,168,32936,1,0,0:0:0:0:
340,132,33113,1,0,3:0:0:0:
136,108,33289,2,0,P|88:104|36:104,1,90,0|0,1:0|3:0,0:0:0:0:
252,88,33642,1,0,3:0:0:0:
124,124,33818,1,0,0:0:0:0:
252,88,33995,1,0,1:0:0:0:
380,128,34171,1,0,0:0:0:0:
380,128,34260,1,0,0:0:0:0:
408,152,34348,6,0,L|392:348,1,180,0|0,3:0|1:0,0:0:0:0:
216,372,34877,1,0,0:0:0:0:
244,352,35054,2,0,L|258:172,1,180,0|0,3:0|1:0,0:0:0:0:
248,28,35583,1,0,3:0:0:0:
156,72,35760,2,0,L|106:70|56:68,1,90,0|0,0:0|3:0,0:0:0:0:
264,40,36113,2,0,P|313:41|364:44,1,90,0|0,1:0|3:0,0:0:0:0:
432,200,36465,1,0,1:0:0:0:
380,68,36642,1,0,3:0:0:0:
248,28,36818,6,0,B|240:84|240:84|252:144,1,108,0|0,1:0|0:0,0:0:0:0:
260,152,37171,6,0,P|212:144|152:148,1,90,4|0,3:2|0:0,0:0:0:0:
24,168,37524,2,0,P|28:120|20:56,1,90,0|0,1:0|3:0,0:0:0:0:
108,204,37877,2,0,P|104:252|112:316,1,90,0|0,3:0|0:0,0:0:0:0:
88,324,38230,1,0,1:0:0:0:
240,244,38407,2,0,B|284:220|328:244|328:244|368:264|412:244,1,180,0|0,3:0|3:0,0:0:0:0:
272,352,38936,2,0,P|232:332|181:333,1,90,0|0,1:0|3:0,0:0:0:0:
440,336,39289,2,0,P|477:311|501:266,1,90,0|0,3:0|0:0,0:0:0:0:
388,160,39642,2,0,P|390:204|417:248,1,90,0|0,1:0|0:0,0:0:0:0:
460,48,39995,5,0,3:0:0:0:
460,48,40348,2,0,L|360:40,1,90,0|0,1:0|3:0,0:0:0:0:
284,104,40701,2,0,L|184:96,1,90,0|0,3:0|0:0,0:0:0:0:
100,152,41054,2,0,P|96:200|60:240,1,90,0|0,1:0|3:0,0:0:0:0:
176,76,41407,2,0,P|192:30|237:1,1,90,0|0,0:0|3:0,0:0:0:0:
284,104,41760,1,0,1:0:0:0:
100,152,41936,1,0,3:0:0:0:
304,132,42113,1,0,3:0:0:0:
84,64,42289,1,0,0:0:0:0:
44,216,42465,2,0,L|48:328,1,90,0|2,1:0|2:3,0:0:0:0:
36,340,42818,6,0,P|112:324|212:348,1,180,0|0,3:0|1:0,0:0:0:0:
236,372,43348,1,0,3:0:0:0:
332,316,43524,2,0,P|436:300|456:228,1,180,0|0,3:0|1:0,0:0:0:0:
476,132,44054,2,0,L|464:28,1,90,0|0,3:0|0:0,0:0:0:0:
360,144,44407,2,0,L|370:233,1,90,0|0,3:0|1:0,0:0:0:0:
220,288,44760,1,0,3:0:0:0:
131,226,44936,1,0,3:0:0:0:
163,122,45113,1,0,0:0:0:0:
271,120,45289,1,0,1:0:0:0:
220,288,45465,1,0,0:0:0:0:
220,288,45554,1,0,0:0:0:0:
196,312,45642,6,0,B|84:320|84:320|44:320|8:288,1,180,0|0,3:0|1:0,0:0:0:0:
0,144,46171,1,0,0:0:0:0:
48,48,46348,2,0,B|160:40|160:40|200:40|236:72,1,180,0|0,3:0|1:0,0:0:0:0:
256,48,46877,1,0,3:0:0:0:
272,156,47054,2,0,L|284:256,1,90,0|0,0:0|3:0,0:0:0:0:
360,84,47407,2,0,L|452:123,1,90,0|0,1:0|0:0,0:0:0:0:
420,312,47760,5,0,1:0:0:0:
351,289,47936,1,8,3:0:0:0:
351,217,48113,1,4,3:0:0:0:
420,195,48289,1,4,3:0:0:0:
462,253,48465,6,0,B|350:289|350:289|316:296|272:276,1,180,4|0,3:2|1:0,0:0:0:0:
260,260,48995,1,0,1:0:0:0:
164,312,49171,2,0,B|112:308|112:308|64:320,1,90,0|2,3:0|0:0,0:0:0:0:
4,192,49524,2,0,B|56:196|56:196|104:184,1,90,0|2,1:0|3:2,0:0:0:0:
40,28,49877,2,0,P|32:76|48:124,1,90,0|2,0:0|3:2,0:0:0:0:
180,228,50230,2,0,P|188:180|172:132,1,90,0|2,1:0|1:2,0:0:0:0:
224,36,50583,2,0,B|276:40|276:40|324:28,1,90,0|2,3:0|0:0,0:0:0:0:
384,156,50936,2,0,B|332:152|332:152|284:164,1,90,0|0,1:0|0:0,0:0:0:0:
344,320,51289,6,0,P|352:272|336:224,1,90,0|0,3:0|0:0,0:0:0:0:
204,120,51642,2,0,P|196:168|212:216,1,90,0|0,1:0|1:0,0:0:0:0:
124,296,51995,2,0,P|184:328|256:320,1,135,0|0,3:0|0:0,0:0:0:0:
264,312,52348,1,0,1:0:0:0:
344,240,52524,2,0,B|384:236|384:236|448:248,1,90,0|0,3:0|0:0,0:0:0:0:
468,256,52877,5,0,3:0:0:0:
440,152,53054,2,0,L|424:48,1,90,0|0,1:0|1:0,0:0:0:0:
292,21,53407,1,0,3:0:0:0:
189,162,53583,1,0,0:0:0:0:
189,54,53760,1,0,1:0:0:0:
355,108,53936,1,0,0:0:0:0:
189,162,54113,6,0,L|40:176,1,135,4|0,3:2|0:0,0:0:0:0:
48,192,54465,2,0,L|40:296,1,90,0|0,1:0|1:0,0:0:0:0:
252,232,54818,2,0,P|280:156|248:88,1,135,0|0,3:0|0:0,0:0:0:0:
248,96,55171,1,0,1:0:0:0:
360,244,55348,1,0,3:0:0:0:
448,184,55524,2,0,L|454:94,1,90,0|0,0:0|3:0,0:0:0:0:
366,333,55877,2,0,L|359:243,1,90,0|0,1:0|1:0,0:0:0:0:
252,232,56230,2,0,P|204:264|132:248,1,135,0|0,3:0|0:0,0:0:0:0:
124,232,56583,2,0,L|28:240,1,90,0|0,1:0|0:0,0:0:0:0:
184,152,56936,5,0,1:0:0:0:
184,152,57289,5,0,1:0:0:0:
184,152,57642,5,0,1:0:0:0:
364,68,57818,1,0,1:0:0:0:
193,53,57995,1,0,0:0:0:0:
355,167,58171,1,0,1:0:0:0:
283,11,58348,6,0,B|273:32|273:32|280:56|280:56|272:80|272:80|284:112|264:156,1,135,0|2,1:0|0:0,0:0:0:0:
267,155,58965,1,2,0:0:0:0:
264,168,59054,6,2,P|300:240|432:224,1,220.499993270874,2|2,2:1|2:1,2:1:0:0:
440,220,59760,6,0,L|452:112,1,90,4|0,3:2|0:0,0:0:0:0:
340,232,60113,2,0,L|330:321,1,90,0|0,1:0|0:0,0:0:0:0:
264,168,60465,2,0,L|276:60,1,90,0|0,3:0|0:0,0:0:0:0:
164,180,60818,2,0,L|154:269,1,90,0|0,1:0|0:0,0:0:0:0:
88,360,61171,5,0,3:0:0:0:
55,173,61348,1,0,0:0:0:0:
191,305,61524,1,0,1:0:0:0:
3,278,61701,1,0,0:0:0:0:
170,189,61877,5,0,3:0:0:0:
259,93,62054,1,0,0:0:0:0:
244,224,62230,1,0,1:0:0:0:
180,109,62407,1,0,0:0:0:0:
299,164,62583,6,0,L|408:176,1,90,0|0,3:0|0:0,0:0:0:0:
244,224,62936,2,0,L|154:214,1,90,0|0,1:0|0:0,0:0:0:0:
314,33,63289,2,0,L|423:45,1,90,0|0,3:0|0:0,0:0:0:0:
259,93,63642,2,0,L|169:83,1,90,0|0,1:0|0:0,0:0:0:0:
2,121,63995,5,0,3:0:0:0:
152,31,64171,1,0,0:0:0:0:
84,192,64348,1,0,1:0:0:0:
44,21,64524,1,0,0:0:0:0:
176,136,64701,5,0,3:0:0:0:
255,72,64877,1,0,0:0:0:0:
229,171,65054,1,0,1:0:0:0:
192,75,65231,1,0,1:0:0:0:
277,131,65407,6,0,P|331:145|368:216,1,135,4|0,3:2|0:0,0:0:0:0:
384,220,65760,2,0,L|352:324,1,90,0|0,1:0|0:0,0:0:0:0:
80,372,66113,2,0,P|156:324|216:344,1,135,0|0,3:0|0:0,0:0:0:0:
212,340,66465,2,0,P|280:352|348:340,1,135,0|0,1:0|0:0,0:0:0:0:
360,336,66818,2,0,P|452:344|472:248,1,180,0|0,3:0|1:0,0:0:0:0:
428,180,67348,1,0,1:0:0:0:
428,180,67436,1,0,1:0:0:0:
392,188,67524,2,0,P|388:88|320:56,1,180,0|0,3:0|1:0,0:0:0:0:
228,204,68054,1,0,0:0:0:0:
128,164,68230,6,0,P|83:170|24:172,1,90,0|0,3:0|0:0,0:0:0:0:
144,272,68583,2,0,P|99:278|40:280,2,90,0|0|0,1:0|0:0|3:0,0:0:0:0:
228,204,69113,1,0,0:0:0:0:
324,248,69289,2,0,P|368:241|428:240,1,90,0|0,1:0|0:0,0:0:0:0:
308,140,69642,2,0,P|352:133|412:132,2,90,0|0|0,3:0|0:0|1:0,0:0:0:0:
228,204,70171,1,0,0:0:0:0:
228,204,70348,1,0,3:0:0:0:
174,99,70524,1,0,0:0:0:0:
238,1,70701,1,0,1:0:0:0:
354,7,70877,1,0,1:0:0:0:
354,7,70965,1,0,1:0:0:0:
384,28,71054,6,0,L|408:128,1,90,4|0,3:2|0:0,0:0:0:0:
356,264,71407,2,0,L|334:176,1,90,0|0,1:0|0:0,0:0:0:0:
260,24,71760,2,0,L|284:124,1,90,0|0,3:0|0:0,0:0:0:0:
232,260,72113,2,0,L|210:172,1,90,0|0,1:0|0:0,0:0:0:0:
74,17,72465,5,0,3:0:0:0:
16,108,72642,1,0,0:0:0:0:
179,45,72818,1,0,1:0:0:0:
84,192,72995,1,0,0:0:0:0:
184,153,73171,5,0,3:0:0:0:
185,235,73348,1,0,0:0:0:0:
260,127,73524,1,0,1:0:0:0:
262,258,73700,1,0,0:0:0:0:
309,192,73877,6,0,L|408:184,1,90,0|0,3:0|0:0,0:0:0:0:
512,100,74230,2,0,L|422:107,1,90,0|0,1:0|0:0,0:0:0:0:
252,104,74583,2,0,L|351:96,1,90,0|0,3:0|0:0,0:0:0:0:
455,12,74936,2,0,L|365:19,1,90,0|0,1:0|0:0,0:0:0:0:
81,141,75289,5,0,3:0:0:0:
92,33,75465,1,0,0:0:0:0:
180,184,75642,1,0,1:0:0:0:
198,11,75818,1,0,0:0:0:0:
252,104,75995,5,0,3:0:0:0:
330,79,76171,1,0,0:0:0:0:
252,185,76348,1,0,1:0:0:0:
377,145,76524,1,0,0:0:0:0:
330,211,76701,6,0,P|340:300|436:336,1,180,4|0,3:2|1:0,0:0:0:0:
440,232,77230,1,0,0:0:0:0:
276,344,77407,2,0,P|231:338|180:336,1,90,0|0,3:0|0:0,0:0:0:0:
8,280,77760,2,0,P|52:273|102:262,1,90,0|0,1:0|0:0,0:0:0:0:
52,68,78113,2,0,P|16:84|60:196,1,180,0|0,3:0|1:0,0:0:0:0:
148,228,78642,1,0,0:0:0:0:
240,172,78818,2,0,P|284:168|344:168,2,90,0|0|0,3:0|0:0|1:0,0:0:0:0:
144,120,79348,1,0,1:0:0:0:
144,120,79436,1,0,1:0:0:0:
164,92,79524,6,0,L|160:0,1,90,0|0,3:0|0:0,0:0:0:0:
240,172,79877,2,0,L|243:261,2,90,0|0|0,1:0|0:0|3:0,0:0:0:0:
316,336,80406,1,0,0:0:0:0:
316,336,80494,1,0,0:0:0:0:
344,360,80583,2,0,L|444:356,1,90,0|0,1:0|1:0,0:0:0:0:
216,356,80936,2,0,L|116:360,1,90,0|0,3:0|0:0,0:0:0:0:
160,256,81289,2,0,L|62:233,1,90,0|0,1:0|0:0,0:0:0:0:
192,224,81642,1,0,3:0:0:0:
130,113,81818,1,0,0:0:0:0:
241,52,81995,1,0,1:0:0:0:
302,162,82171,1,0,1:0:0:0:
302,162,82260,1,0,1:0:0:0:
332,184,82348,6,0,B|344:296|344:296|364:340|424:332,1,180,4|0,3:2|1:0,0:0:0:0:
484,272,82877,1,0,1:0:0:0:
260,288,83054,2,0,L|156:300,1,90,0|0,3:0|0:0,0:0:0:0:
16,232,83407,1,0,1:0:0:0:
36,204,83583,2,0,L|125:193,1,90,0|0,3:0|0:0,0:0:0:0:
176,96,83936,2,0,L|265:85,1,90,0|0,3:0|1:0,0:0:0:0:
296,104,84289,1,0,1:0:0:0:
408,204,84465,1,0,3:0:0:0:
490,121,84642,1,0,0:0:0:0:
408,38,84818,1,0,1:0:0:0:
325,121,84995,1,0,0:0:0:0:
296,104,85171,6,0,B|260:80|212:96|212:96|168:116|124:88,1,180,0|0,3:0|1:0,0:0:0:0:
36,24,85701,1,0,1:0:0:0:
248,176,85877,2,0,L|240:276,1,90,0|0,3:0|0:0,0:0:0:0:
244,300,86230,1,0,1:0:0:0:
296,104,86407,2,0,L|213:47,1,90,0|0,3:0|0:0,0:0:0:0:
336,184,86760,2,0,L|426:140,1,90,0|0,3:0|1:0,0:0:0:0:
248,176,87113,2,0,P|200:180|160:160,1,90,0|0,1:0|3:0,0:0:0:0:
152,148,87377,1,0,0:0:0:0:
152,148,87465,2,0,L|52:144,1,90,0|0,0:0|1:0,0:0:0:0:
296,104,87818,1,0,0:0:0:0:
176,244,87995,6,0,L|180:344,1,90,0|0,3:2|0:0,0:0:0:0:
76,364,88348,1,0,1:0:0:0:
216,348,88524,1,0,1:0:0:0:
216,348,88613,1,0,0:0:0:0:
248,364,88701,2,0,P|292:372|340:364,1,90,0|0,3:0|1:0,0:0:0:0:
388,204,89054,2,0,P|344:196|296:204,1,90,0|8,1:0|1:3,0:0:0:0:
280,92,89407,6,0,P|341:81|403:93,1,125.999996154785,0|0,3:0|3:0,0:0:0:0:
236,167,90113,5,0,1:0:0:0:
205,135,90201,1,0,1:0:0:0:
193,93,90290,1,0,1:0:0:0:
205,51,90378,1,0,1:0:0:0:
236,20,90466,1,0,1:0:0:0:
278,8,90554,1,0,1:0:0:0:
320,20,90643,1,0,1:0:0:0:
352,51,90731,1,0,1:0:0:0:
363,93,90818,6,0,L|380:280,1,180,4|0,3:2|1:0,0:0:0:0:
