osu file format v14

[General]
AudioFilename: sana_-_Miraizu.mp3
AudioLeadIn: 0
PreviewTime: 151454
Countdown: 0
SampleSet: Normal
StackLeniency: 0.7
Mode: 3
LetterboxInBreaks: 0
SpecialStyle: 0
WidescreenStoryboard: 1

[Editor]
DistanceSpacing: 0.9
BeatDivisor: 4
GridSize: 8
TimelineZoom: 2.4

[Metadata]
Title:Miraizu
TitleUnicode:未来図
Artist:sana
ArtistUnicode:sana
Creator:Akary
Version:Forever
Source:
Tags:好きになるその瞬間を。 suki ni naru shunkan wo. honeyworks
BeatmapID:1024757
BeatmapSetID:479957

[Difficulty]
HPDrainRate:8
CircleSize:7
OverallDifficulty:0
ApproachRate:5
SliderMultiplier:1.4
SliderTickRate:1

[Events]
//Background and Video events
0,0,"bg.jpg",0,0
//Break Periods
//Storyboard Layer 0 (Background)
//Storyboard Layer 1 (Fail)
//Storyboard Layer 2 (Pass)
//Storyboard Layer 3 (Foreground)
//Storyboard Sound Samples

[TimingPoints]
443,337.078651685393,4,1,0,6,1,0
443,-111.111111111111,4,1,0,6,0,0
11229,-100,4,1,0,6,0,0
58420,-100,4,1,0,6,0,1
79993,-100,4,1,0,6,0,0
89431,-125,4,1,0,6,0,0
105611,-117.647058823529,4,1,0,6,0,0
106959,-111.111111111111,4,1,0,6,0,0
108645,-105.263157894737,4,1,0,6,0,0
110330,-100,4,1,0,6,0,0
111004,-100,4,1,0,6,0,1
132577,-100,4,1,0,6,0,0
151454,-100,4,1,0,6,0,1
173027,-100,4,1,0,6,0,0
175723,-100,4,1,0,6,0,1
178083,-105.263157894737,4,1,0,6,0,1
178420,-111.111111111111,4,1,0,6,0,1
179263,-117.647058823529,4,1,0,6,0,1
179600,-125,4,1,0,6,0,1
179768,-100,4,1,0,6,0,0
179770,-133.333333333333,4,1,0,6,0,0

[HitObjects]
36,192,358,5,0,0:0:0:0:
182,192,400,1,0,0:0:0:0:
329,192,443,1,0,0:0:0:0:
475,192,443,1,0,0:0:0:0:
109,192,611,1,0,0:0:0:0:
256,192,780,1,0,0:0:0:0:
402,192,948,1,0,0:0:0:0:
36,192,1117,1,0,0:0:0:0:
182,192,1285,1,0,0:0:0:0:
329,192,1454,1,0,0:0:0:0:
475,192,1622,1,0,0:0:0:0:
256,192,1791,1,0,0:0:0:0:
402,192,1959,1,0,0:0:0:0:
182,192,2128,1,0,0:0:0:0:
329,192,2296,1,0,0:0:0:0:
109,192,2465,1,0,0:0:0:0:
256,192,2634,1,0,0:0:0:0:
36,192,2802,1,0,0:0:0:0:
182,192,2971,1,0,0:0:0:0:
109,192,3139,1,0,0:0:0:0:
329,192,3139,1,0,0:0:0:0:
475,192,3139,128,0,4487:0:0:0:0:
36,192,3308,1,0,0:0:0:0:
182,192,3476,1,0,0:0:0:0:
109,192,3645,1,0,0:0:0:0:
256,192,3813,1,0,0:0:0:0:
182,192,3982,1,0,0:0:0:0:
329,192,4150,1,0,0:0:0:0:
256,192,4319,1,0,0:0:0:0:
402,192,4487,1,0,0:0:0:0:
182,192,4487,128,0,5162:0:0:0:0:
329,192,4656,1,0,0:0:0:0:
475,192,4825,1,0,0:0:0:0:
402,192,4993,1,0,0:0:0:0:
36,192,5162,128,0,6510:0:0:0:0:
329,192,5162,1,0,0:0:0:0:
256,192,5330,1,0,0:0:0:0:
182,192,5499,1,0,0:0:0:0:
109,192,5667,1,0,0:0:0:0:
182,192,5836,128,0,6510:0:0:0:0:
475,192,5836,1,0,0:0:0:0:
329,192,5836,1,0,0:0:0:0:
402,192,6004,1,0,0:0:0:0:
256,192,6173,1,0,0:0:0:0:
475,192,6341,1,0,0:0:0:0:
402,192,6510,128,0,7521:0:0:0:0:
329,192,6510,1,0,0:0:0:0:
182,192,6678,1,0,0:0:0:0:
36,192,6847,1,0,0:0:0:0:
256,192,7016,1,0,0:0:0:0:
109,192,7184,128,0,7521:0:0:0:0:
475,192,7184,1,0,0:0:0:0:
182,192,7353,1,0,0:0:0:0:
329,192,7521,1,0,0:0:0:0:
109,192,7690,1,0,0:0:0:0:
36,192,7858,128,0,9207:0:0:0:0:
256,192,7858,1,0,0:0:0:0:
402,192,8027,1,0,0:0:0:0:
182,192,8195,1,0,0:0:0:0:
329,192,8364,1,0,0:0:0:0:
182,192,8532,128,0,9207:0:0:0:0:
475,192,8532,1,0,0:0:0:0:
402,192,8701,1,0,0:0:0:0:
329,192,8869,1,0,0:0:0:0:
109,192,9038,128,0,11145:0:0:0:0:
256,192,9038,1,0,0:0:0:0:
475,192,9207,128,0,10218:0:0:0:0:
329,192,9207,1,0,0:0:0:0:
402,192,9375,1,0,0:0:0:0:
182,192,9544,1,0,0:0:0:0:
36,192,9544,128,0,9881:0:0:0:0:
256,192,9712,1,0,0:0:0:0:
256,192,9881,128,0,10218:0:0:0:0:
402,192,9881,128,0,11145:0:0:0:0:
182,192,9881,1,0,0:0:0:0:
329,192,9881,1,0,0:0:0:0:
256,192,10555,128,0,11145:0:0:0:0:
36,192,11229,128,0,12577:0:0:0:0:
475,192,11229,128,0,11566:0:0:0:0:
402,192,11229,1,0,0:0:0:0:
109,192,11229,1,0,0:0:0:0:
256,192,11229,1,0,0:0:0:0:
329,192,11566,128,0,11903:0:0:0:0:
182,192,11566,1,0,0:0:0:0:
182,192,11903,128,0,12240:0:0:0:0:
402,192,11903,128,0,12577:0:0:0:0:
475,192,11903,1,0,0:0:0:0:
109,192,12240,128,0,12409:0:0:0:0:
256,192,12240,1,0,0:0:0:0:
256,192,12409,128,0,12577:0:0:0:0:
182,192,12409,1,0,0:0:0:0:
475,192,12577,128,0,13841:0:0:0:0:
109,192,12577,1,0,0:0:0:0:
256,192,12746,128,0,12914:0:0:0:0:
402,192,12746,1,0,0:0:0:0:
182,192,12914,128,0,13083:0:0:0:0:
329,192,12914,128,0,13083:0:0:0:0:
36,192,12914,1,0,0:0:0:0:
109,192,13083,1,0,0:0:0:0:
109,192,13251,128,0,13420:0:0:0:0:
256,192,13251,128,0,13420:0:0:0:0:
402,192,13251,1,0,0:0:0:0:
36,192,13420,1,0,0:0:0:0:
329,192,13420,1,0,0:0:0:0:
36,192,13589,128,0,13926:0:0:0:0:
329,192,13589,128,0,13841:0:0:0:0:
182,192,13589,1,0,0:0:0:0:
329,192,13926,128,0,14010:0:0:0:0:
475,192,13926,128,0,14010:0:0:0:0:
182,192,13926,128,0,14263:0:0:0:0:
109,192,13926,1,0,0:0:0:0:
402,192,13926,1,0,0:0:0:0:
329,192,14094,128,0,14178:0:0:0:0:
475,192,14094,128,0,14178:0:0:0:0:
36,192,14094,1,0,0:0:0:0:
36,192,14263,128,0,14600:0:0:0:0:
109,192,14263,128,0,14347:0:0:0:0:
256,192,14263,128,0,14347:0:0:0:0:
475,192,14263,1,0,0:0:0:0:
329,192,14263,1,0,0:0:0:0:
109,192,14431,128,0,14516:0:0:0:0:
256,192,14431,128,0,14516:0:0:0:0:
402,192,14431,1,0,0:0:0:0:
402,192,14600,128,0,15105:0:0:0:0:
475,192,14600,128,0,14684:0:0:0:0:
182,192,14600,128,0,14684:0:0:0:0:
329,192,14600,1,0,0:0:0:0:
109,192,14600,1,0,0:0:0:0:
475,192,14768,128,0,14853:0:0:0:0:
182,192,14768,128,0,14853:0:0:0:0:
256,192,14768,1,0,0:0:0:0:
36,192,14768,1,0,0:0:0:0:
109,192,14768,1,0,0:0:0:0:
256,192,15105,128,0,15442:0:0:0:0:
329,192,15105,128,0,15190:0:0:0:0:
36,192,15105,128,0,15190:0:0:0:0:
182,192,15105,128,0,15190:0:0:0:0:
475,192,15105,128,0,15864:0:0:0:0:
36,192,15442,1,0,0:0:0:0:
402,192,15442,1,0,0:0:0:0:
109,192,15527,1,0,0:0:0:0:
329,192,15527,1,0,0:0:0:0:
182,192,15611,1,0,0:0:0:0:
402,192,15611,1,0,0:0:0:0:
109,192,15695,1,0,0:0:0:0:
329,192,15695,1,0,0:0:0:0:
402,192,15780,1,0,0:0:0:0:
36,192,15780,1,0,0:0:0:0:
109,192,15864,1,0,0:0:0:0:
329,192,15864,1,0,0:0:0:0:
182,192,15948,1,0,0:0:0:0:
256,192,15948,1,0,0:0:0:0:
36,192,15948,128,0,16538:0:0:0:0:
475,192,15948,1,0,0:0:0:0:
402,192,16032,1,0,0:0:0:0:
109,192,16032,1,0,0:0:0:0:
182,192,16117,1,0,0:0:0:0:
475,192,16117,1,0,0:0:0:0:
109,192,16201,1,0,0:0:0:0:
402,192,16201,1,0,0:0:0:0:
329,192,16285,1,0,0:0:0:0:
182,192,16285,1,0,0:0:0:0:
402,192,16369,1,0,0:0:0:0:
109,192,16369,1,0,0:0:0:0:
475,192,16454,128,0,16622:0:0:0:0:
329,192,16454,1,0,0:0:0:0:
182,192,16454,1,0,0:0:0:0:
109,192,16538,1,0,0:0:0:0:
256,192,16538,1,0,0:0:0:0:
329,192,16622,128,0,16959:0:0:0:0:
182,192,16622,1,0,0:0:0:0:
402,192,16622,1,0,0:0:0:0:
36,192,16622,1,0,0:0:0:0:
475,192,16791,1,0,0:0:0:0:
36,192,16791,1,0,0:0:0:0:
182,192,16959,128,0,17296:0:0:0:0:
402,192,16959,128,0,17128:0:0:0:0:
109,192,16959,1,0,0:0:0:0:
256,192,16959,1,0,0:0:0:0:
475,192,17128,1,0,0:0:0:0:
36,192,17128,1,0,0:0:0:0:
36,192,17296,128,0,17971:0:0:0:0:
475,192,17296,128,0,17381:0:0:0:0:
329,192,17296,128,0,17381:0:0:0:0:
109,192,17296,1,0,0:0:0:0:
402,192,17465,128,0,17549:0:0:0:0:
256,192,17465,128,0,17549:0:0:0:0:
109,192,17465,128,0,17634:0:0:0:0:
182,192,17465,1,0,0:0:0:0:
329,192,17634,128,0,17718:0:0:0:0:
182,192,17634,128,0,17718:0:0:0:0:
475,192,17634,128,0,17802:0:0:0:0:
256,192,17634,1,0,0:0:0:0:
256,192,17802,128,0,17886:0:0:0:0:
109,192,17802,128,0,17886:0:0:0:0:
329,192,17802,1,0,0:0:0:0:
475,192,17971,128,0,18055:0:0:0:0:
329,192,17971,128,0,18055:0:0:0:0:
256,192,17971,1,0,0:0:0:0:
109,192,17971,1,0,0:0:0:0:
402,192,17971,128,0,19319:0:0:0:0:
182,192,18055,1,0,0:0:0:0:
36,192,18139,1,0,0:0:0:0:
329,192,18139,1,0,0:0:0:0:
109,192,18139,1,0,0:0:0:0:
256,192,18139,128,0,18223:0:0:0:0:
109,192,18308,128,0,18392:0:0:0:0:
256,192,18308,1,0,0:0:0:0:
475,192,18308,1,0,0:0:0:0:
182,192,18308,1,0,0:0:0:0:
109,192,18476,1,0,0:0:0:0:
475,192,18476,1,0,0:0:0:0:
36,192,18560,1,0,0:0:0:0:
182,192,18645,128,0,19319:0:0:0:0:
256,192,18645,128,0,18729:0:0:0:0:
109,192,18645,1,0,0:0:0:0:
329,192,18645,1,0,0:0:0:0:
109,192,18813,128,0,18898:0:0:0:0:
256,192,18813,1,0,0:0:0:0:
36,192,18813,1,0,0:0:0:0:
475,192,18982,128,0,19066:0:0:0:0:
109,192,18982,1,0,0:0:0:0:
329,192,18982,1,0,0:0:0:0:
329,192,19150,128,0,19235:0:0:0:0:
36,192,19150,1,0,0:0:0:0:
475,192,19150,1,0,0:0:0:0:
36,192,19319,128,0,20667:0:0:0:0:
256,192,19319,128,0,21931:0:0:0:0:
475,192,19319,1,0,0:0:0:0:
402,192,19403,1,0,0:0:0:0:
329,192,19487,1,0,0:0:0:0:
109,192,19487,1,0,0:0:0:0:
475,192,19656,128,0,19740:0:0:0:0:
109,192,19656,128,0,19740:0:0:0:0:
402,192,19656,1,0,0:0:0:0:
182,192,19656,1,0,0:0:0:0:
475,192,19825,1,0,0:0:0:0:
109,192,19825,1,0,0:0:0:0:
182,192,19993,1,0,0:0:0:0:
329,192,19993,1,0,0:0:0:0:
402,192,20162,128,0,20246:0:0:0:0:
182,192,20162,128,0,20246:0:0:0:0:
109,192,20162,1,0,0:0:0:0:
475,192,20162,1,0,0:0:0:0:
475,192,20330,1,0,0:0:0:0:
329,192,20330,1,0,0:0:0:0:
402,192,20499,1,0,0:0:0:0:
182,192,20499,1,0,0:0:0:0:
475,192,20667,128,0,21341:0:0:0:0:
329,192,20667,128,0,20751:0:0:0:0:
109,192,20667,128,0,20751:0:0:0:0:
402,192,20667,1,0,0:0:0:0:
182,192,20667,1,0,0:0:0:0:
109,192,20836,1,0,0:0:0:0:
329,192,20836,1,0,0:0:0:0:
402,192,21004,1,0,0:0:0:0:
182,192,21004,1,0,0:0:0:0:
36,192,21004,1,0,0:0:0:0:
329,192,21089,1,0,0:0:0:0:
402,192,21173,1,0,0:0:0:0:
329,192,21257,1,0,0:0:0:0:
36,192,21341,128,0,21931:0:0:0:0:
182,192,21341,1,0,0:0:0:0:
402,192,21341,1,0,0:0:0:0:
475,192,21454,1,0,0:0:0:0:
109,192,21454,1,0,0:0:0:0:
329,192,21566,1,0,0:0:0:0:
182,192,21566,1,0,0:0:0:0:
475,192,21678,1,0,0:0:0:0:
109,192,21678,1,0,0:0:0:0:
329,192,21791,1,0,0:0:0:0:
182,192,21791,1,0,0:0:0:0:
475,192,21903,1,0,0:0:0:0:
109,192,21903,1,0,0:0:0:0:
182,192,22016,1,0,0:0:0:0:
256,192,22016,1,0,0:0:0:0:
402,192,22016,128,0,22100:0:0:0:0:
36,192,22016,128,0,22100:0:0:0:0:
109,192,22353,128,0,22437:0:0:0:0:
475,192,22353,128,0,22437:0:0:0:0:
329,192,22353,1,0,0:0:0:0:
329,192,22690,128,0,22774:0:0:0:0:
36,192,22690,128,0,22774:0:0:0:0:
182,192,22690,1,0,0:0:0:0:
402,192,23027,128,0,23532:0:0:0:0:
36,192,23027,1,0,0:0:0:0:
256,192,23027,1,0,0:0:0:0:
109,192,23195,128,0,23532:0:0:0:0:
475,192,23364,1,0,0:0:0:0:
36,192,23532,128,0,23617:0:0:0:0:
329,192,23532,1,0,0:0:0:0:
182,192,23532,1,0,0:0:0:0:
182,192,23701,128,0,23785:0:0:0:0:
109,192,23701,1,0,0:0:0:0:
256,192,23701,1,0,0:0:0:0:
329,192,23869,128,0,23954:0:0:0:0:
402,192,23869,1,0,0:0:0:0:
256,192,23869,1,0,0:0:0:0:
475,192,24038,128,0,24375:0:0:0:0:
36,192,24038,1,0,0:0:0:0:
182,192,24038,1,0,0:0:0:0:
256,192,24150,1,0,0:0:0:0:
402,192,24150,1,0,0:0:0:0:
182,192,24263,1,0,0:0:0:0:
36,192,24263,1,0,0:0:0:0:
256,192,24375,1,0,0:0:0:0:
402,192,24375,1,0,0:0:0:0:
109,192,24375,1,0,0:0:0:0:
36,192,24712,128,0,24965:0:0:0:0:
475,192,24712,128,0,24796:0:0:0:0:
402,192,24712,1,0,0:0:0:0:
329,192,24712,1,0,0:0:0:0:
182,192,24712,1,0,0:0:0:0:
402,192,24881,128,0,24965:0:0:0:0:
256,192,24881,1,0,0:0:0:0:
109,192,24881,1,0,0:0:0:0:
256,192,25049,128,0,25386:0:0:0:0:
329,192,25049,128,0,25134:0:0:0:0:
182,192,25049,1,0,0:0:0:0:
475,192,25049,1,0,0:0:0:0:
36,192,25049,1,0,0:0:0:0:
109,192,25218,1,0,0:0:0:0:
475,192,25218,1,0,0:0:0:0:
402,192,25218,1,0,0:0:0:0:
36,192,25218,1,0,0:0:0:0:
475,192,25386,128,0,25639:0:0:0:0:
402,192,25555,1,0,0:0:0:0:
329,192,25555,1,0,0:0:0:0:
182,192,25555,1,0,0:0:0:0:
109,192,25555,1,0,0:0:0:0:
256,192,25723,1,0,0:0:0:0:
36,192,25723,1,0,0:0:0:0:
475,192,25723,1,0,0:0:0:0:
36,192,25892,1,0,0:0:0:0:
475,192,25892,1,0,0:0:0:0:
256,192,25892,1,0,0:0:0:0:
329,192,25892,1,0,0:0:0:0:
182,192,25892,128,0,27409:0:0:0:0:
109,192,26229,1,0,0:0:0:0:
402,192,26229,1,0,0:0:0:0:
475,192,26398,128,0,26482:0:0:0:0:
36,192,26398,128,0,26482:0:0:0:0:
329,192,26398,128,0,26482:0:0:0:0:
256,192,26398,1,0,0:0:0:0:
256,192,26566,128,0,26650:0:0:0:0:
109,192,26566,128,0,26650:0:0:0:0:
402,192,26566,128,0,26650:0:0:0:0:
36,192,26735,128,0,26819:0:0:0:0:
329,192,26735,128,0,26819:0:0:0:0:
475,192,26735,128,0,26819:0:0:0:0:
109,192,26903,128,0,26987:0:0:0:0:
256,192,26903,128,0,26987:0:0:0:0:
402,192,26903,128,0,26987:0:0:0:0:
475,192,27072,128,0,27156:0:0:0:0:
36,192,27072,1,0,0:0:0:0:
329,192,27072,128,0,27156:0:0:0:0:
256,192,27072,1,0,0:0:0:0:
402,192,27072,1,0,0:0:0:0:
256,192,27240,1,0,0:0:0:0:
329,192,27325,1,0,0:0:0:0:
475,192,27409,1,0,0:0:0:0:
36,192,27409,128,0,27493:0:0:0:0:
256,192,27409,128,0,27493:0:0:0:0:
109,192,27577,128,0,27662:0:0:0:0:
329,192,27577,128,0,27662:0:0:0:0:
475,192,27577,1,0,0:0:0:0:
402,192,27746,1,0,0:0:0:0:
182,192,27746,1,0,0:0:0:0:
475,192,27914,128,0,28083:0:0:0:0:
329,192,27914,128,0,28083:0:0:0:0:
256,192,27914,1,0,0:0:0:0:
36,192,27914,1,0,0:0:0:0:
109,192,28083,1,0,0:0:0:0:
402,192,28083,1,0,0:0:0:0:
402,192,28251,128,0,28420:0:0:0:0:
256,192,28251,128,0,28420:0:0:0:0:
182,192,28251,1,0,0:0:0:0:
36,192,28251,1,0,0:0:0:0:
475,192,28420,1,0,0:0:0:0:
109,192,28420,1,0,0:0:0:0:
329,192,28589,128,0,29094:0:0:0:0:
182,192,28589,128,0,29094:0:0:0:0:
36,192,28589,1,0,0:0:0:0:
256,192,28589,1,0,0:0:0:0:
475,192,28589,1,0,0:0:0:0:
402,192,28757,1,0,0:0:0:0:
109,192,28757,1,0,0:0:0:0:
402,192,28926,128,0,29094:0:0:0:0:
109,192,28926,128,0,29094:0:0:0:0:
36,192,28926,1,0,0:0:0:0:
475,192,28926,1,0,0:0:0:0:
475,192,29094,128,0,29263:0:0:0:0:
36,192,29094,128,0,29263:0:0:0:0:
182,192,29263,128,0,29431:0:0:0:0:
402,192,29263,1,0,0:0:0:0:
109,192,29263,1,0,0:0:0:0:
329,192,29431,128,0,29600:0:0:0:0:
36,192,29431,1,0,0:0:0:0:
475,192,29431,1,0,0:0:0:0:
475,192,29600,128,0,29768:0:0:0:0:
109,192,29600,1,0,0:0:0:0:
256,192,29600,1,0,0:0:0:0:
109,192,29768,128,0,30442:0:0:0:0:
402,192,29768,1,0,0:0:0:0:
36,192,29768,1,0,0:0:0:0:
329,192,29768,1,0,0:0:0:0:
256,192,29937,128,0,30105:0:0:0:0:
475,192,29937,1,0,0:0:0:0:
182,192,29937,1,0,0:0:0:0:
402,192,30105,128,0,30274:0:0:0:0:
36,192,30105,1,0,0:0:0:0:
475,192,30105,1,0,0:0:0:0:
182,192,30274,1,0,0:0:0:0:
329,192,30274,1,0,0:0:0:0:
475,192,30442,128,0,31117:0:0:0:0:
36,192,30442,1,0,0:0:0:0:
256,192,30442,1,0,0:0:0:0:
402,192,30442,1,0,0:0:0:0:
329,192,30611,128,0,30780:0:0:0:0:
182,192,30611,128,0,30780:0:0:0:0:
36,192,30611,1,0,0:0:0:0:
402,192,30611,1,0,0:0:0:0:
109,192,30780,1,0,0:0:0:0:
256,192,30780,1,0,0:0:0:0:
256,192,30948,128,0,31117:0:0:0:0:
109,192,30948,128,0,31117:0:0:0:0:
402,192,30948,1,0,0:0:0:0:
36,192,30948,1,0,0:0:0:0:
329,192,31032,1,0,0:0:0:0:
182,192,31117,1,0,0:0:0:0:
402,192,31117,1,0,0:0:0:0:
36,192,31285,1,0,0:0:0:0:
402,192,31285,1,0,0:0:0:0:
182,192,31369,1,0,0:0:0:0:
329,192,31454,1,0,0:0:0:0:
109,192,31454,1,0,0:0:0:0:
475,192,31454,128,0,32128:0:0:0:0:
36,192,31454,1,0,0:0:0:0:
182,192,31622,1,0,0:0:0:0:
402,192,31622,1,0,0:0:0:0:
329,192,31791,128,0,32128:0:0:0:0:
36,192,31791,1,0,0:0:0:0:
109,192,31959,1,0,0:0:0:0:
36,192,32128,128,0,32296:0:0:0:0:
182,192,32128,1,0,0:0:0:0:
402,192,32128,1,0,0:0:0:0:
182,192,32296,128,0,32802:0:0:0:0:
329,192,32296,1,0,0:0:0:0:
475,192,32465,1,0,0:0:0:0:
329,192,32634,128,0,32802:0:0:0:0:
402,192,32634,1,0,0:0:0:0:
475,192,32802,1,0,0:0:0:0:
36,192,32802,1,0,0:0:0:0:
182,192,32971,1,0,0:0:0:0:
329,192,33139,1,0,0:0:0:0:
36,192,33139,1,0,0:0:0:0:
109,192,33308,128,0,33392:0:0:0:0:
402,192,33308,128,0,33392:0:0:0:0:
475,192,33308,1,0,0:0:0:0:
329,192,33392,1,0,0:0:0:0:
182,192,33476,1,0,0:0:0:0:
36,192,33560,1,0,0:0:0:0:
182,192,33645,128,0,33729:0:0:0:0:
329,192,33645,128,0,33729:0:0:0:0:
402,192,33645,1,0,0:0:0:0:
256,192,33729,1,0,0:0:0:0:
109,192,33813,1,0,0:0:0:0:
475,192,33813,1,0,0:0:0:0:
329,192,33813,1,0,0:0:0:0:
256,192,33982,1,0,0:0:0:0:
402,192,34066,1,0,0:0:0:0:
36,192,34150,128,0,34487:0:0:0:0:
182,192,34150,1,0,0:0:0:0:
329,192,34150,1,0,0:0:0:0:
109,192,34319,1,0,0:0:0:0:
256,192,34319,1,0,0:0:0:0:
182,192,34487,128,0,34825:0:0:0:0:
475,192,34487,1,0,0:0:0:0:
329,192,34487,1,0,0:0:0:0:
109,192,34487,1,0,0:0:0:0:
256,192,34656,1,0,0:0:0:0:
402,192,34825,128,0,34993:0:0:0:0:
36,192,34825,1,0,0:0:0:0:
475,192,34825,1,0,0:0:0:0:
256,192,34993,128,0,35162:0:0:0:0:
182,192,34993,1,0,0:0:0:0:
329,192,35162,1,0,0:0:0:0:
109,192,35162,1,0,0:0:0:0:
475,192,35330,128,0,36004:0:0:0:0:
256,192,35330,1,0,0:0:0:0:
36,192,35499,128,0,35667:0:0:0:0:
402,192,35499,1,0,0:0:0:0:
329,192,35583,1,0,0:0:0:0:
182,192,35667,128,0,35836:0:0:0:0:
256,192,35667,1,0,0:0:0:0:
329,192,35836,128,0,36004:0:0:0:0:
109,192,35836,1,0,0:0:0:0:
109,192,36004,128,0,36341:0:0:0:0:
36,192,36004,128,0,36173:0:0:0:0:
182,192,36004,1,0,0:0:0:0:
329,192,36089,1,0,0:0:0:0:
475,192,36173,128,0,36341:0:0:0:0:
402,192,36173,1,0,0:0:0:0:
256,192,36173,1,0,0:0:0:0:
256,192,36341,128,0,36510:0:0:0:0:
329,192,36341,1,0,0:0:0:0:
182,192,36341,1,0,0:0:0:0:
109,192,36426,1,0,0:0:0:0:
475,192,36426,1,0,0:0:0:0:
402,192,36510,128,0,36678:0:0:0:0:
182,192,36510,1,0,0:0:0:0:
36,192,36510,1,0,0:0:0:0:
329,192,36510,1,0,0:0:0:0:
256,192,36678,1,0,0:0:0:0:
36,192,36678,1,0,0:0:0:0:
475,192,36847,128,0,36931:0:0:0:0:
329,192,36847,128,0,37268:0:0:0:0:
182,192,36847,128,0,36931:0:0:0:0:
109,192,36847,128,0,36931:0:0:0:0:
36,192,37016,128,0,37100:0:0:0:0:
256,192,37016,128,0,37100:0:0:0:0:
109,192,37184,128,0,37268:0:0:0:0:
182,192,37184,128,0,37605:0:0:0:0:
402,192,37184,128,0,37268:0:0:0:0:
475,192,37184,128,0,37268:0:0:0:0:
329,192,37353,128,0,37437:0:0:0:0:
475,192,37353,128,0,37437:0:0:0:0:
402,192,37521,128,0,37942:0:0:0:0:
256,192,37521,128,0,37605:0:0:0:0:
109,192,37521,128,0,37605:0:0:0:0:
36,192,37521,128,0,37605:0:0:0:0:
182,192,37690,128,0,37774:0:0:0:0:
329,192,37690,128,0,37774:0:0:0:0:
475,192,37858,128,0,37942:0:0:0:0:
256,192,37858,128,0,37942:0:0:0:0:
109,192,37858,128,0,38280:0:0:0:0:
36,192,37858,128,0,37942:0:0:0:0:
182,192,38027,128,0,38111:0:0:0:0:
329,192,38027,128,0,38111:0:0:0:0:
475,192,38195,128,0,38617:0:0:0:0:
256,192,38195,128,0,38280:0:0:0:0:
402,192,38195,128,0,38280:0:0:0:0:
36,192,38195,128,0,38280:0:0:0:0:
109,192,38364,128,0,38448:0:0:0:0:
329,192,38364,128,0,38448:0:0:0:0:
36,192,38532,128,0,38954:0:0:0:0:
182,192,38532,128,0,38617:0:0:0:0:
402,192,38532,128,0,38617:0:0:0:0:
256,192,38532,128,0,38617:0:0:0:0:
402,192,38701,128,0,38785:0:0:0:0:
109,192,38701,128,0,38785:0:0:0:0:
109,192,38869,128,0,38954:0:0:0:0:
256,192,38869,128,0,39291:0:0:0:0:
329,192,38869,128,0,38954:0:0:0:0:
475,192,38869,128,0,38954:0:0:0:0:
329,192,39038,128,0,39122:0:0:0:0:
182,192,39038,128,0,39122:0:0:0:0:
402,192,39207,128,0,39628:0:0:0:0:
109,192,39207,128,0,39291:0:0:0:0:
475,192,39207,128,0,39291:0:0:0:0:
36,192,39207,128,0,39291:0:0:0:0:
475,192,39375,128,0,39459:0:0:0:0:
36,192,39375,128,0,39459:0:0:0:0:
329,192,39544,128,0,39628:0:0:0:0:
256,192,39544,128,0,39628:0:0:0:0:
109,192,39544,128,0,39965:0:0:0:0:
36,192,39544,128,0,39628:0:0:0:0:
182,192,39712,128,0,39796:0:0:0:0:
402,192,39712,128,0,39796:0:0:0:0:
475,192,39881,128,0,39965:0:0:0:0:
329,192,39881,128,0,40302:0:0:0:0:
256,192,39881,128,0,39965:0:0:0:0:
36,192,39881,128,0,39965:0:0:0:0:
109,192,40049,128,0,40134:0:0:0:0:
402,192,40049,128,0,40134:0:0:0:0:
36,192,40218,128,0,40302:0:0:0:0:
182,192,40218,128,0,40639:0:0:0:0:
402,192,40218,128,0,40302:0:0:0:0:
475,192,40218,128,0,40302:0:0:0:0:
109,192,40386,128,0,40471:0:0:0:0:
329,192,40386,128,0,40471:0:0:0:0:
109,192,40555,128,0,40639:0:0:0:0:
36,192,40555,128,0,40639:0:0:0:0:
256,192,40555,128,0,40639:0:0:0:0:
475,192,40555,128,0,40892:0:0:0:0:
402,192,40555,1,0,0:0:0:0:
329,192,40639,1,0,0:0:0:0:
402,192,40723,128,0,40892:0:0:0:0:
256,192,40723,1,0,0:0:0:0:
182,192,40808,1,0,0:0:0:0:
36,192,40892,128,0,41398:0:0:0:0:
109,192,40892,1,0,0:0:0:0:
329,192,40892,1,0,0:0:0:0:
256,192,40892,1,0,0:0:0:0:
402,192,41060,1,0,0:0:0:0:
109,192,41060,1,0,0:0:0:0:
182,192,41145,1,0,0:0:0:0:
329,192,41145,1,0,0:0:0:0:
109,192,41229,1,0,0:0:0:0:
256,192,41229,1,0,0:0:0:0:
402,192,41229,1,0,0:0:0:0:
256,192,41398,128,0,41566:0:0:0:0:
402,192,41566,128,0,41903:0:0:0:0:
329,192,41566,1,0,0:0:0:0:
182,192,41566,1,0,0:0:0:0:
109,192,41678,1,0,0:0:0:0:
36,192,41678,1,0,0:0:0:0:
329,192,41791,1,0,0:0:0:0:
256,192,41791,1,0,0:0:0:0:
182,192,41903,1,0,0:0:0:0:
36,192,41903,1,0,0:0:0:0:
475,192,41903,128,0,42240:0:0:0:0:
109,192,42016,1,0,0:0:0:0:
256,192,42016,1,0,0:0:0:0:
329,192,42128,1,0,0:0:0:0:
182,192,42128,1,0,0:0:0:0:
402,192,42240,128,0,42409:0:0:0:0:
36,192,42240,1,0,0:0:0:0:
256,192,42240,1,0,0:0:0:0:
182,192,42409,1,0,0:0:0:0:
256,192,42577,128,0,42746:0:0:0:0:
36,192,42577,1,0,0:0:0:0:
475,192,42577,1,0,0:0:0:0:
329,192,42577,1,0,0:0:0:0:
182,192,42746,1,0,0:0:0:0:
109,192,42914,128,0,43083:0:0:0:0:
329,192,42914,1,0,0:0:0:0:
475,192,43083,1,0,0:0:0:0:
475,192,43251,128,0,43420:0:0:0:0:
329,192,43251,1,0,0:0:0:0:
182,192,43420,1,0,0:0:0:0:
329,192,43589,128,0,43757:0:0:0:0:
36,192,43589,1,0,0:0:0:0:
256,192,43589,1,0,0:0:0:0:
475,192,43589,1,0,0:0:0:0:
182,192,43757,1,0,0:0:0:0:
402,192,43926,128,0,44094:0:0:0:0:
36,192,43926,1,0,0:0:0:0:
329,192,43926,1,0,0:0:0:0:
475,192,43926,1,0,0:0:0:0:
182,192,44094,1,0,0:0:0:0:
256,192,44263,128,0,44431:0:0:0:0:
475,192,44263,128,0,44937:0:0:0:0:
329,192,44263,1,0,0:0:0:0:
36,192,44263,1,0,0:0:0:0:
109,192,44263,1,0,0:0:0:0:
182,192,44431,1,0,0:0:0:0:
329,192,44600,128,0,44768:0:0:0:0:
36,192,44600,1,0,0:0:0:0:
182,192,44768,1,0,0:0:0:0:
36,192,44937,128,0,45105:0:0:0:0:
256,192,44937,128,0,45274:0:0:0:0:
329,192,44937,1,0,0:0:0:0:
109,192,44937,1,0,0:0:0:0:
475,192,45105,1,0,0:0:0:0:
109,192,45274,128,0,45442:0:0:0:0:
329,192,45274,1,0,0:0:0:0:
182,192,45274,1,0,0:0:0:0:
36,192,45274,1,0,0:0:0:0:
475,192,45442,1,0,0:0:0:0:
182,192,45611,128,0,45780:0:0:0:0:
329,192,45611,1,0,0:0:0:0:
475,192,45780,1,0,0:0:0:0:
256,192,45948,128,0,46117:0:0:0:0:
329,192,45948,1,0,0:0:0:0:
182,192,46117,1,0,0:0:0:0:
182,192,46285,128,0,46454:0:0:0:0:
475,192,46285,128,0,46959:0:0:0:0:
36,192,46285,1,0,0:0:0:0:
329,192,46285,1,0,0:0:0:0:
402,192,46454,1,0,0:0:0:0:
109,192,46622,128,0,46791:0:0:0:0:
256,192,46622,1,0,0:0:0:0:
36,192,46622,1,0,0:0:0:0:
329,192,46622,1,0,0:0:0:0:
402,192,46791,1,0,0:0:0:0:
36,192,46959,128,0,47128:0:0:0:0:
329,192,46959,128,0,47634:0:0:0:0:
256,192,46959,1,0,0:0:0:0:
182,192,46959,1,0,0:0:0:0:
109,192,47128,1,0,0:0:0:0:
256,192,47296,1,0,0:0:0:0:
109,192,47465,1,0,0:0:0:0:
475,192,47634,128,0,47802:0:0:0:0:
182,192,47634,128,0,47971:0:0:0:0:
256,192,47634,1,0,0:0:0:0:
36,192,47634,1,0,0:0:0:0:
402,192,47802,1,0,0:0:0:0:
329,192,47971,128,0,48139:0:0:0:0:
256,192,47971,1,0,0:0:0:0:
475,192,47971,1,0,0:0:0:0:
36,192,47971,1,0,0:0:0:0:
109,192,48139,1,0,0:0:0:0:
182,192,48308,128,0,48476:0:0:0:0:
256,192,48308,1,0,0:0:0:0:
402,192,48476,1,0,0:0:0:0:
36,192,48645,128,0,48813:0:0:0:0:
256,192,48645,1,0,0:0:0:0:
109,192,48813,1,0,0:0:0:0:
402,192,48982,128,0,49150:0:0:0:0:
182,192,48982,128,0,49656:0:0:0:0:
36,192,48982,1,0,0:0:0:0:
475,192,48982,1,0,0:0:0:0:
109,192,49150,1,0,0:0:0:0:
256,192,49319,128,0,49487:0:0:0:0:
36,192,49319,1,0,0:0:0:0:
329,192,49319,1,0,0:0:0:0:
475,192,49319,1,0,0:0:0:0:
109,192,49487,1,0,0:0:0:0:
109,192,49656,128,0,49825:0:0:0:0:
329,192,49656,128,0,50330:0:0:0:0:
36,192,49656,1,0,0:0:0:0:
402,192,49656,1,0,0:0:0:0:
256,192,49825,1,0,0:0:0:0:
36,192,49993,128,0,50330:0:0:0:0:
109,192,49993,1,0,0:0:0:0:
182,192,50162,128,0,50330:0:0:0:0:
256,192,50162,1,0,0:0:0:0:
402,192,50330,1,0,0:0:0:0:
109,192,50330,1,0,0:0:0:0:
475,192,50330,128,0,51004:0:0:0:0:
182,192,50499,1,0,0:0:0:0:
256,192,50667,128,0,51341:0:0:0:0:
402,192,50667,1,0,0:0:0:0:
109,192,50667,1,0,0:0:0:0:
182,192,50780,1,0,0:0:0:0:
329,192,50780,1,0,0:0:0:0:
109,192,50892,1,0,0:0:0:0:
402,192,50892,1,0,0:0:0:0:
36,192,51004,128,0,51678:0:0:0:0:
182,192,51004,1,0,0:0:0:0:
329,192,51004,1,0,0:0:0:0:
402,192,51173,1,0,0:0:0:0:
402,192,51341,128,0,52016:0:0:0:0:
475,192,51341,1,0,0:0:0:0:
109,192,51341,1,0,0:0:0:0:
182,192,51454,1,0,0:0:0:0:
329,192,51454,1,0,0:0:0:0:
256,192,51566,1,0,0:0:0:0:
475,192,51566,1,0,0:0:0:0:
109,192,51678,128,0,52353:0:0:0:0:
329,192,51678,1,0,0:0:0:0:
182,192,51678,1,0,0:0:0:0:
256,192,51847,1,0,0:0:0:0:
256,192,52016,128,0,52353:0:0:0:0:
36,192,52016,1,0,0:0:0:0:
475,192,52016,1,0,0:0:0:0:
402,192,52128,1,0,0:0:0:0:
182,192,52128,1,0,0:0:0:0:
475,192,52240,1,0,0:0:0:0:
36,192,52240,1,0,0:0:0:0:
402,192,52353,1,0,0:0:0:0:
182,192,52353,1,0,0:0:0:0:
329,192,52353,128,0,53027:0:0:0:0:
109,192,52521,1,0,0:0:0:0:
475,192,52521,1,0,0:0:0:0:
256,192,52521,1,0,0:0:0:0:
402,192,52690,1,0,0:0:0:0:
182,192,52690,1,0,0:0:0:0:
36,192,52690,1,0,0:0:0:0:
109,192,52858,1,0,0:0:0:0:
256,192,52858,1,0,0:0:0:0:
475,192,52858,1,0,0:0:0:0:
402,192,52942,1,0,0:0:0:0:
182,192,52942,1,0,0:0:0:0:
36,192,53027,128,0,53701:0:0:0:0:
109,192,53027,1,0,0:0:0:0:
475,192,53027,128,0,53701:0:0:0:0:
402,192,53195,1,0,0:0:0:0:
256,192,53195,1,0,0:0:0:0:
182,192,53701,128,0,54375:0:0:0:0:
402,192,53701,128,0,54038:0:0:0:0:
256,192,54038,128,0,54375:0:0:0:0:
402,192,54375,128,0,54712:0:0:0:0:
109,192,54375,128,0,55049:0:0:0:0:
475,192,54375,1,0,0:0:0:0:
36,192,54375,1,0,0:0:0:0:
329,192,54586,1,0,0:0:0:0:
182,192,54586,1,0,0:0:0:0:
256,192,55049,128,0,55386:0:0:0:0:
402,192,55049,128,0,55723:0:0:0:0:
182,192,55049,1,0,0:0:0:0:
329,192,55049,1,0,0:0:0:0:
475,192,55260,1,0,0:0:0:0:
36,192,55260,1,0,0:0:0:0:
109,192,55723,128,0,56735:0:0:0:0:
182,192,55723,1,0,0:0:0:0:
256,192,55723,1,0,0:0:0:0:
36,192,55723,1,0,0:0:0:0:
256,192,55892,1,0,0:0:0:0:
329,192,55892,1,0,0:0:0:0:
36,192,55892,1,0,0:0:0:0:
329,192,56060,1,0,0:0:0:0:
402,192,56060,1,0,0:0:0:0:
36,192,56060,1,0,0:0:0:0:
402,192,56229,1,0,0:0:0:0:
475,192,56229,1,0,0:0:0:0:
36,192,56229,1,0,0:0:0:0:
402,192,56398,1,0,0:0:0:0:
329,192,56398,1,0,0:0:0:0:
36,192,56398,1,0,0:0:0:0:
329,192,56566,1,0,0:0:0:0:
256,192,56566,1,0,0:0:0:0:
36,192,56566,1,0,0:0:0:0:
256,192,56735,1,0,0:0:0:0:
182,192,56735,1,0,0:0:0:0:
36,192,56735,1,0,0:0:0:0:
475,192,56903,128,0,57914:0:0:0:0:
109,192,56903,1,0,0:0:0:0:
402,192,56903,1,0,0:0:0:0:
329,192,57072,128,0,57914:0:0:0:0:
109,192,58420,1,0,0:0:0:0:
329,192,58420,1,0,0:0:0:0:
475,192,58420,1,0,0:0:0:0:
36,192,58420,128,0,59010:0:0:0:0:
256,192,58504,1,0,0:0:0:0:
402,192,58589,1,0,0:0:0:0:
182,192,58589,1,0,0:0:0:0:
329,192,58673,1,0,0:0:0:0:
182,192,58757,128,0,59094:0:0:0:0:
475,192,58757,1,0,0:0:0:0:
109,192,58757,1,0,0:0:0:0:
256,192,58757,1,0,0:0:0:0:
402,192,58841,1,0,0:0:0:0:
329,192,58926,1,0,0:0:0:0:
475,192,58926,1,0,0:0:0:0:
256,192,59010,1,0,0:0:0:0:
402,192,59094,128,0,59431:0:0:0:0:
329,192,59094,1,0,0:0:0:0:
109,192,59094,1,0,0:0:0:0:
36,192,59094,1,0,0:0:0:0:
182,192,59178,1,0,0:0:0:0:
475,192,59263,1,0,0:0:0:0:
36,192,59263,1,0,0:0:0:0:
329,192,59347,1,0,0:0:0:0:
109,192,59431,128,0,59684:0:0:0:0:
182,192,59431,1,0,0:0:0:0:
36,192,59431,1,0,0:0:0:0:
475,192,59431,1,0,0:0:0:0:
329,192,59516,1,0,0:0:0:0:
256,192,59600,128,0,59768:0:0:0:0:
182,192,59600,1,0,0:0:0:0:
475,192,59600,1,0,0:0:0:0:
402,192,59684,1,0,0:0:0:0:
402,192,59768,128,0,60105:0:0:0:0:
182,192,59768,128,0,59853:0:0:0:0:
329,192,59768,1,0,0:0:0:0:
109,192,59768,1,0,0:0:0:0:
36,192,59853,128,0,59937:0:0:0:0:
256,192,59937,128,0,60021:0:0:0:0:
475,192,59937,1,0,0:0:0:0:
109,192,60021,128,0,60105:0:0:0:0:
475,192,60105,128,0,60442:0:0:0:0:
329,192,60105,128,0,60190:0:0:0:0:
182,192,60105,1,0,0:0:0:0:
36,192,60105,1,0,0:0:0:0:
182,192,60190,128,0,60274:0:0:0:0:
402,192,60274,128,0,60358:0:0:0:0:
109,192,60274,1,0,0:0:0:0:
256,192,60358,128,0,60442:0:0:0:0:
329,192,60442,128,0,60780:0:0:0:0:
36,192,60442,1,0,0:0:0:0:
182,192,60442,1,0,0:0:0:0:
402,192,60527,1,0,0:0:0:0:
475,192,60611,1,0,0:0:0:0:
109,192,60611,1,0,0:0:0:0:
402,192,60695,1,0,0:0:0:0:
182,192,60780,128,0,61117:0:0:0:0:
36,192,60780,1,0,0:0:0:0:
475,192,60780,1,0,0:0:0:0:
256,192,60780,1,0,0:0:0:0:
402,192,60948,1,0,0:0:0:0:
109,192,60948,1,0,0:0:0:0:
36,192,61117,128,0,61791:0:0:0:0:
475,192,61117,1,0,0:0:0:0:
329,192,61117,1,0,0:0:0:0:
256,192,61117,1,0,0:0:0:0:
109,192,61117,1,0,0:0:0:0:
182,192,61285,1,0,0:0:0:0:
402,192,61285,1,0,0:0:0:0:
329,192,61285,1,0,0:0:0:0:
256,192,61454,128,0,61707:0:0:0:0:
402,192,61454,1,0,0:0:0:0:
475,192,61454,1,0,0:0:0:0:
109,192,61454,1,0,0:0:0:0:
182,192,61622,1,0,0:0:0:0:
329,192,61622,1,0,0:0:0:0:
475,192,61622,1,0,0:0:0:0:
109,192,61791,1,0,0:0:0:0:
475,192,61791,1,0,0:0:0:0:
402,192,61791,1,0,0:0:0:0:
256,192,61791,1,0,0:0:0:0:
36,192,61959,1,0,0:0:0:0:
109,192,61959,1,0,0:0:0:0:
402,192,61959,1,0,0:0:0:0:
475,192,61959,1,0,0:0:0:0:
36,192,62296,1,0,0:0:0:0:
256,192,62296,1,0,0:0:0:0:
402,192,62296,1,0,0:0:0:0:
475,192,62296,1,0,0:0:0:0:
109,192,62296,128,0,62634:0:0:0:0:
182,192,62465,1,0,0:0:0:0:
329,192,62465,1,0,0:0:0:0:
256,192,62634,128,0,62802:0:0:0:0:
402,192,62634,1,0,0:0:0:0:
36,192,62634,1,0,0:0:0:0:
402,192,62802,128,0,62971:0:0:0:0:
109,192,62802,1,0,0:0:0:0:
475,192,62802,1,0,0:0:0:0:
182,192,62971,128,0,63139:0:0:0:0:
36,192,62971,1,0,0:0:0:0:
256,192,62971,1,0,0:0:0:0:
329,192,63139,128,0,63308:0:0:0:0:
109,192,63139,1,0,0:0:0:0:
475,192,63139,1,0,0:0:0:0:
109,192,63308,128,0,63476:0:0:0:0:
475,192,63308,128,0,63476:0:0:0:0:
36,192,63308,1,0,0:0:0:0:
402,192,63308,1,0,0:0:0:0:
182,192,63392,1,0,0:0:0:0:
256,192,63476,128,0,63645:0:0:0:0:
402,192,63476,128,0,63645:0:0:0:0:
329,192,63476,1,0,0:0:0:0:
36,192,63560,1,0,0:0:0:0:
36,192,63645,128,0,63813:0:0:0:0:
475,192,63645,128,0,63813:0:0:0:0:
182,192,63645,1,0,0:0:0:0:
329,192,63729,1,0,0:0:0:0:
182,192,63813,128,0,63982:0:0:0:0:
402,192,63813,128,0,64150:0:0:0:0:
109,192,63813,1,0,0:0:0:0:
256,192,63813,1,0,0:0:0:0:
475,192,63898,1,0,0:0:0:0:
36,192,63982,1,0,0:0:0:0:
329,192,63982,1,0,0:0:0:0:
182,192,64066,1,0,0:0:0:0:
256,192,64150,128,0,64487:0:0:0:0:
36,192,64150,1,0,0:0:0:0:
329,192,64150,1,0,0:0:0:0:
475,192,64150,1,0,0:0:0:0:
109,192,64235,1,0,0:0:0:0:
475,192,64319,1,0,0:0:0:0:
329,192,64319,1,0,0:0:0:0:
402,192,64403,1,0,0:0:0:0:
109,192,64487,128,0,64825:0:0:0:0:
36,192,64487,1,0,0:0:0:0:
182,192,64487,1,0,0:0:0:0:
329,192,64487,1,0,0:0:0:0:
402,192,64572,1,0,0:0:0:0:
256,192,64656,1,0,0:0:0:0:
475,192,64656,1,0,0:0:0:0:
329,192,64740,1,0,0:0:0:0:
475,192,64825,128,0,65162:0:0:0:0:
36,192,64825,1,0,0:0:0:0:
182,192,64825,1,0,0:0:0:0:
402,192,64825,1,0,0:0:0:0:
256,192,64909,1,0,0:0:0:0:
329,192,64993,128,0,65162:0:0:0:0:
109,192,64993,1,0,0:0:0:0:
402,192,64993,1,0,0:0:0:0:
182,192,65077,1,0,0:0:0:0:
36,192,65162,128,0,65414:0:0:0:0:
182,192,65162,128,0,65246:0:0:0:0:
402,192,65162,1,0,0:0:0:0:
256,192,65162,1,0,0:0:0:0:
475,192,65246,1,0,0:0:0:0:
109,192,65330,128,0,65583:0:0:0:0:
256,192,65330,128,0,65414:0:0:0:0:
402,192,65414,1,0,0:0:0:0:
182,192,65499,128,0,65751:0:0:0:0:
329,192,65499,128,0,65583:0:0:0:0:
475,192,65499,1,0,0:0:0:0:
36,192,65583,1,0,0:0:0:0:
256,192,65667,128,0,65920:0:0:0:0:
402,192,65667,128,0,65751:0:0:0:0:
109,192,65751,1,0,0:0:0:0:
329,192,65836,128,0,66089:0:0:0:0:
475,192,65836,128,0,65920:0:0:0:0:
182,192,65920,1,0,0:0:0:0:
36,192,66004,1,0,0:0:0:0:
475,192,66004,1,0,0:0:0:0:
256,192,66089,1,0,0:0:0:0:
36,192,66173,128,0,66510:0:0:0:0:
109,192,66173,1,0,0:0:0:0:
475,192,66173,1,0,0:0:0:0:
402,192,66173,1,0,0:0:0:0:
329,192,66257,1,0,0:0:0:0:
182,192,66341,1,0,0:0:0:0:
475,192,66341,1,0,0:0:0:0:
402,192,66426,1,0,0:0:0:0:
475,192,66510,128,0,66847:0:0:0:0:
256,192,66510,1,0,0:0:0:0:
109,192,66510,1,0,0:0:0:0:
329,192,66510,1,0,0:0:0:0:
182,192,66594,1,0,0:0:0:0:
109,192,66678,1,0,0:0:0:0:
402,192,66678,1,0,0:0:0:0:
329,192,66763,1,0,0:0:0:0:
109,192,66847,128,0,67184:0:0:0:0:
256,192,66847,1,0,0:0:0:0:
402,192,66847,1,0,0:0:0:0:
36,192,66847,1,0,0:0:0:0:
475,192,66931,1,0,0:0:0:0:
182,192,67016,1,0,0:0:0:0:
329,192,67016,1,0,0:0:0:0:
475,192,67100,1,0,0:0:0:0:
402,192,67184,128,0,67521:0:0:0:0:
256,192,67184,1,0,0:0:0:0:
36,192,67184,1,0,0:0:0:0:
182,192,67268,1,0,0:0:0:0:
109,192,67353,1,0,0:0:0:0:
329,192,67353,1,0,0:0:0:0:
256,192,67437,1,0,0:0:0:0:
182,192,67521,128,0,67690:0:0:0:0:
36,192,67521,1,0,0:0:0:0:
329,192,67521,1,0,0:0:0:0:
475,192,67521,1,0,0:0:0:0:
109,192,67605,1,0,0:0:0:0:
329,192,67690,128,0,67858:0:0:0:0:
475,192,67690,1,0,0:0:0:0:
256,192,67690,1,0,0:0:0:0:
402,192,67774,1,0,0:0:0:0:
36,192,67858,128,0,68364:0:0:0:0:
475,192,67858,1,0,0:0:0:0:
109,192,67858,1,0,0:0:0:0:
256,192,67858,1,0,0:0:0:0:
402,192,67942,1,0,0:0:0:0:
182,192,67942,1,0,0:0:0:0:
475,192,68027,1,0,0:0:0:0:
256,192,68027,1,0,0:0:0:0:
329,192,68111,1,0,0:0:0:0:
109,192,68111,1,0,0:0:0:0:
256,192,68195,1,0,0:0:0:0:
475,192,68195,1,0,0:0:0:0:
402,192,68280,1,0,0:0:0:0:
182,192,68280,1,0,0:0:0:0:
329,192,68364,1,0,0:0:0:0:
109,192,68364,1,0,0:0:0:0:
475,192,68364,1,0,0:0:0:0:
36,192,68448,1,0,0:0:0:0:
256,192,68448,1,0,0:0:0:0:
329,192,68532,1,0,0:0:0:0:
109,192,68532,1,0,0:0:0:0:
475,192,68532,1,0,0:0:0:0:
402,192,68617,1,0,0:0:0:0:
182,192,68617,1,0,0:0:0:0:
256,192,68701,1,0,0:0:0:0:
475,192,68701,1,0,0:0:0:0:
329,192,68785,1,0,0:0:0:0:
36,192,68785,1,0,0:0:0:0:
109,192,68869,1,0,0:0:0:0:
256,192,68869,1,0,0:0:0:0:
402,192,68869,1,0,0:0:0:0:
475,192,68869,128,0,69122:0:0:0:0:
182,192,68954,1,0,0:0:0:0:
329,192,68954,1,0,0:0:0:0:
402,192,69038,1,0,0:0:0:0:
109,192,69038,1,0,0:0:0:0:
256,192,69038,1,0,0:0:0:0:
329,192,69122,1,0,0:0:0:0:
182,192,69122,1,0,0:0:0:0:
475,192,69207,1,0,0:0:0:0:
256,192,69207,1,0,0:0:0:0:
402,192,69207,1,0,0:0:0:0:
109,192,69207,1,0,0:0:0:0:
36,192,69207,128,0,69544:0:0:0:0:
182,192,69291,1,0,0:0:0:0:
475,192,69375,1,0,0:0:0:0:
329,192,69375,1,0,0:0:0:0:
402,192,69459,1,0,0:0:0:0:
182,192,69544,128,0,69881:0:0:0:0:
475,192,69544,1,0,0:0:0:0:
256,192,69544,1,0,0:0:0:0:
109,192,69544,1,0,0:0:0:0:
402,192,69628,1,0,0:0:0:0:
329,192,69712,1,0,0:0:0:0:
36,192,69712,1,0,0:0:0:0:
402,192,69796,1,0,0:0:0:0:
109,192,69881,128,0,70218:0:0:0:0:
256,192,69881,1,0,0:0:0:0:
475,192,69881,1,0,0:0:0:0:
36,192,69881,1,0,0:0:0:0:
402,192,69965,1,0,0:0:0:0:
329,192,70049,1,0,0:0:0:0:
182,192,70049,1,0,0:0:0:0:
402,192,70134,1,0,0:0:0:0:
475,192,70218,128,0,70892:0:0:0:0:
182,192,70218,1,0,0:0:0:0:
329,192,70218,1,0,0:0:0:0:
36,192,70218,1,0,0:0:0:0:
256,192,70302,1,0,0:0:0:0:
329,192,70386,128,0,70892:0:0:0:0:
182,192,70386,1,0,0:0:0:0:
402,192,70386,1,0,0:0:0:0:
109,192,70471,1,0,0:0:0:0:
256,192,70555,1,0,0:0:0:0:
182,192,70555,1,0,0:0:0:0:
36,192,70555,1,0,0:0:0:0:
109,192,70639,1,0,0:0:0:0:
182,192,70723,1,0,0:0:0:0:
402,192,70723,1,0,0:0:0:0:
256,192,70808,1,0,0:0:0:0:
109,192,70892,128,0,71229:0:0:0:0:
36,192,70892,1,0,0:0:0:0:
182,192,70892,1,0,0:0:0:0:
402,192,70892,1,0,0:0:0:0:
329,192,70976,1,0,0:0:0:0:
475,192,71060,1,0,0:0:0:0:
256,192,71060,1,0,0:0:0:0:
402,192,71145,1,0,0:0:0:0:
256,192,71229,128,0,71566:0:0:0:0:
36,192,71229,1,0,0:0:0:0:
329,192,71229,1,0,0:0:0:0:
475,192,71229,1,0,0:0:0:0:
182,192,71229,128,0,71313:0:0:0:0:
109,192,71313,1,0,0:0:0:0:
402,192,71398,1,0,0:0:0:0:
36,192,71398,1,0,0:0:0:0:
329,192,71398,128,0,71482:0:0:0:0:
109,192,71482,1,0,0:0:0:0:
36,192,71566,1,0,0:0:0:0:
402,192,71566,1,0,0:0:0:0:
475,192,71566,1,0,0:0:0:0:
182,192,71566,128,0,71650:0:0:0:0:
329,192,71650,1,0,0:0:0:0:
36,192,71735,1,0,0:0:0:0:
256,192,71735,1,0,0:0:0:0:
475,192,71735,1,0,0:0:0:0:
109,192,71903,128,0,72240:0:0:0:0:
402,192,71903,128,0,72072:0:0:0:0:
182,192,71903,1,0,0:0:0:0:
329,192,71903,1,0,0:0:0:0:
256,192,72072,128,0,72240:0:0:0:0:
475,192,72072,1,0,0:0:0:0:
329,192,72156,1,0,0:0:0:0:
329,192,72240,128,0,72577:0:0:0:0:
36,192,72240,128,0,72409:0:0:0:0:
182,192,72240,1,0,0:0:0:0:
475,192,72240,1,0,0:0:0:0:
182,192,72409,128,0,72577:0:0:0:0:
109,192,72409,1,0,0:0:0:0:
256,192,72493,1,0,0:0:0:0:
36,192,72577,128,0,72914:0:0:0:0:
475,192,72577,128,0,72746:0:0:0:0:
402,192,72577,1,0,0:0:0:0:
109,192,72577,1,0,0:0:0:0:
329,192,72746,128,0,72914:0:0:0:0:
109,192,72746,1,0,0:0:0:0:
256,192,72746,1,0,0:0:0:0:
402,192,72746,1,0,0:0:0:0:
182,192,72914,1,0,0:0:0:0:
475,192,72914,1,0,0:0:0:0:
402,192,73083,128,0,73589:0:0:0:0:
182,192,73083,128,0,73420:0:0:0:0:
329,192,73083,1,0,0:0:0:0:
36,192,73083,1,0,0:0:0:0:
109,192,73420,1,0,0:0:0:0:
256,192,73420,1,0,0:0:0:0:
475,192,73420,1,0,0:0:0:0:
36,192,73420,128,0,73589:0:0:0:0:
182,192,73589,1,0,0:0:0:0:
329,192,73589,1,0,0:0:0:0:
109,192,73589,128,0,73757:0:0:0:0:
182,192,73757,128,0,73926:0:0:0:0:
256,192,73757,1,0,0:0:0:0:
402,192,73757,1,0,0:0:0:0:
36,192,73926,128,0,74010:0:0:0:0:
109,192,73926,128,0,74010:0:0:0:0:
329,192,73926,128,0,74010:0:0:0:0:
475,192,73926,128,0,74094:0:0:0:0:
256,192,73926,128,0,74010:0:0:0:0:
36,192,74094,128,0,74263:0:0:0:0:
109,192,74094,128,0,74178:0:0:0:0:
182,192,74094,128,0,74178:0:0:0:0:
256,192,74094,128,0,74178:0:0:0:0:
329,192,74094,128,0,74178:0:0:0:0:
109,192,74263,128,0,74431:0:0:0:0:
182,192,74263,128,0,74347:0:0:0:0:
256,192,74263,128,0,74347:0:0:0:0:
329,192,74263,128,0,74347:0:0:0:0:
402,192,74263,128,0,74347:0:0:0:0:
182,192,74431,128,0,74600:0:0:0:0:
256,192,74431,128,0,74516:0:0:0:0:
329,192,74431,128,0,74516:0:0:0:0:
402,192,74431,128,0,74516:0:0:0:0:
475,192,74431,128,0,74516:0:0:0:0:
256,192,74600,128,0,74768:0:0:0:0:
329,192,74600,128,0,74684:0:0:0:0:
402,192,74600,128,0,74684:0:0:0:0:
475,192,74600,128,0,74684:0:0:0:0:
36,192,74600,128,0,74768:0:0:0:0:
475,192,74768,128,0,74937:0:0:0:0:
182,192,74768,128,0,74937:0:0:0:0:
329,192,74768,1,0,0:0:0:0:
109,192,74937,128,0,75105:0:0:0:0:
402,192,74937,128,0,75105:0:0:0:0:
256,192,74937,1,0,0:0:0:0:
182,192,75105,1,0,0:0:0:0:
329,192,75105,1,0,0:0:0:0:
36,192,75274,128,0,75442:0:0:0:0:
182,192,75274,128,0,75358:0:0:0:0:
402,192,75274,128,0,75358:0:0:0:0:
475,192,75274,128,0,75358:0:0:0:0:
329,192,75274,128,0,75358:0:0:0:0:
475,192,75442,128,0,75611:0:0:0:0:
402,192,75442,128,0,75527:0:0:0:0:
329,192,75442,128,0,75527:0:0:0:0:
256,192,75442,128,0,75527:0:0:0:0:
182,192,75442,128,0,75527:0:0:0:0:
402,192,75611,128,0,75780:0:0:0:0:
329,192,75611,128,0,75695:0:0:0:0:
256,192,75611,128,0,75695:0:0:0:0:
182,192,75611,128,0,75695:0:0:0:0:
109,192,75611,128,0,75695:0:0:0:0:
329,192,75780,128,0,75948:0:0:0:0:
256,192,75780,128,0,75864:0:0:0:0:
182,192,75780,128,0,75864:0:0:0:0:
109,192,75780,128,0,75864:0:0:0:0:
36,192,75780,128,0,75864:0:0:0:0:
256,192,75948,128,0,76117:0:0:0:0:
182,192,75948,128,0,76032:0:0:0:0:
109,192,75948,128,0,76032:0:0:0:0:
36,192,75948,128,0,76032:0:0:0:0:
475,192,75948,128,0,76117:0:0:0:0:
329,192,76117,128,0,76285:0:0:0:0:
36,192,76117,128,0,76285:0:0:0:0:
182,192,76117,1,0,0:0:0:0:
402,192,76285,128,0,76454:0:0:0:0:
109,192,76285,128,0,76454:0:0:0:0:
256,192,76285,1,0,0:0:0:0:
182,192,76454,128,0,76622:0:0:0:0:
475,192,76454,128,0,76622:0:0:0:0:
329,192,76454,1,0,0:0:0:0:
36,192,76622,128,0,78645:0:0:0:0:
402,192,76622,1,0,0:0:0:0:
256,192,76622,1,0,0:0:0:0:
329,192,76791,1,0,0:0:0:0:
182,192,76791,1,0,0:0:0:0:
109,192,76959,1,0,0:0:0:0:
475,192,76959,1,0,0:0:0:0:
256,192,76959,1,0,0:0:0:0:
182,192,77128,1,0,0:0:0:0:
402,192,77128,1,0,0:0:0:0:
256,192,77296,128,0,78645:0:0:0:0:
329,192,77296,1,0,0:0:0:0:
475,192,77296,1,0,0:0:0:0:
109,192,77296,1,0,0:0:0:0:
182,192,77465,1,0,0:0:0:0:
109,192,77634,1,0,0:0:0:0:
475,192,77634,1,0,0:0:0:0:
329,192,77634,1,0,0:0:0:0:
182,192,77802,1,0,0:0:0:0:
402,192,77802,1,0,0:0:0:0:
475,192,77971,1,0,0:0:0:0:
109,192,77971,1,0,0:0:0:0:
329,192,77971,1,0,0:0:0:0:
402,192,78139,1,0,0:0:0:0:
182,192,78139,1,0,0:0:0:0:
109,192,78308,1,0,0:0:0:0:
475,192,78308,1,0,0:0:0:0:
402,192,78476,1,0,0:0:0:0:
182,192,78476,1,0,0:0:0:0:
475,192,78645,128,0,79319:0:0:0:0:
329,192,78645,1,0,0:0:0:0:
109,192,78645,1,0,0:0:0:0:
182,192,78687,1,0,0:0:0:0:
256,192,78729,1,0,0:0:0:0:
36,192,78982,1,0,0:0:0:0:
256,192,78982,1,0,0:0:0:0:
402,192,78982,1,0,0:0:0:0:
329,192,79150,1,0,0:0:0:0:
109,192,79150,1,0,0:0:0:0:
256,192,79319,128,0,79656:0:0:0:0:
402,192,79319,1,0,0:0:0:0:
182,192,79319,1,0,0:0:0:0:
475,192,79487,1,0,0:0:0:0:
36,192,79487,1,0,0:0:0:0:
329,192,79572,1,0,0:0:0:0:
182,192,79572,1,0,0:0:0:0:
402,192,79656,128,0,79825:0:0:0:0:
475,192,79656,1,0,0:0:0:0:
36,192,79656,1,0,0:0:0:0:
256,192,79825,1,0,0:0:0:0:
109,192,79825,128,0,79993:0:0:0:0:
182,192,79909,1,0,0:0:0:0:
329,192,79909,1,0,0:0:0:0:
36,192,79993,5,0,0:0:0:0:
256,192,79993,1,0,0:0:0:0:
402,192,79993,1,0,0:0:0:0:
475,192,79993,1,0,0:0:0:0:
182,192,80330,1,0,0:0:0:0:
329,192,80667,1,0,0:0:0:0:
109,192,81004,1,0,0:0:0:0:
402,192,81173,1,0,0:0:0:0:
182,192,81510,1,0,0:0:0:0:
329,192,81678,1,0,0:0:0:0:
475,192,81847,1,0,0:0:0:0:
36,192,82016,1,0,0:0:0:0:
475,192,82016,1,0,0:0:0:0:
256,192,82016,1,0,0:0:0:0:
109,192,82128,1,0,0:0:0:0:
182,192,82128,1,0,0:0:0:0:
402,192,82240,1,0,0:0:0:0:
329,192,82240,1,0,0:0:0:0:
256,192,82353,1,0,0:0:0:0:
475,192,82353,1,0,0:0:0:0:
36,192,82353,1,0,0:0:0:0:
475,192,82690,128,0,83027:0:0:0:0:
36,192,82690,128,0,82858:0:0:0:0:
109,192,82690,1,0,0:0:0:0:
402,192,82690,1,0,0:0:0:0:
109,192,82858,128,0,83027:0:0:0:0:
182,192,82858,1,0,0:0:0:0:
329,192,82858,1,0,0:0:0:0:
36,192,83027,128,0,83195:0:0:0:0:
256,192,83027,1,0,0:0:0:0:
402,192,83027,1,0,0:0:0:0:
475,192,83195,128,0,83364:0:0:0:0:
109,192,83195,128,0,83364:0:0:0:0:
182,192,83195,1,0,0:0:0:0:
329,192,83195,1,0,0:0:0:0:
329,192,83364,128,0,83532:0:0:0:0:
402,192,83364,1,0,0:0:0:0:
256,192,83364,1,0,0:0:0:0:
36,192,83532,128,0,83869:0:0:0:0:
182,192,83532,128,0,83701:0:0:0:0:
109,192,83532,1,0,0:0:0:0:
475,192,83532,1,0,0:0:0:0:
256,192,83701,1,0,0:0:0:0:
402,192,83701,1,0,0:0:0:0:
256,192,83869,128,0,84122:0:0:0:0:
109,192,83869,128,0,85218:0:0:0:0:
182,192,83869,1,0,0:0:0:0:
475,192,83869,1,0,0:0:0:0:
329,192,83869,1,0,0:0:0:0:
402,192,84038,1,0,0:0:0:0:
182,192,84207,128,0,84375:0:0:0:0:
256,192,84207,1,0,0:0:0:0:
475,192,84207,1,0,0:0:0:0:
475,192,84375,128,0,84544:0:0:0:0:
329,192,84375,1,0,0:0:0:0:
36,192,84375,1,0,0:0:0:0:
329,192,84544,128,0,84712:0:0:0:0:
256,192,84544,1,0,0:0:0:0:
475,192,84628,1,0,0:0:0:0:
182,192,84712,128,0,84881:0:0:0:0:
402,192,84712,1,0,0:0:0:0:
36,192,84712,1,0,0:0:0:0:
402,192,84881,128,0,85049:0:0:0:0:
329,192,84881,1,0,0:0:0:0:
475,192,84881,1,0,0:0:0:0:
256,192,85049,128,0,85218:0:0:0:0:
36,192,85049,1,0,0:0:0:0:
182,192,85049,1,0,0:0:0:0:
475,192,85218,128,0,85386:0:0:0:0:
402,192,85218,1,0,0:0:0:0:
329,192,85302,1,0,0:0:0:0:
109,192,85386,128,0,85555:0:0:0:0:
256,192,85386,1,0,0:0:0:0:
36,192,85386,1,0,0:0:0:0:
402,192,85555,128,0,85723:0:0:0:0:
182,192,85555,1,0,0:0:0:0:
329,192,85555,1,0,0:0:0:0:
256,192,85723,1,0,0:0:0:0:
475,192,85723,1,0,0:0:0:0:
36,192,85892,128,0,86060:0:0:0:0:
182,192,85892,128,0,86060:0:0:0:0:
402,192,85892,1,0,0:0:0:0:
329,192,85976,1,0,0:0:0:0:
256,192,86060,1,0,0:0:0:0:
475,192,86060,1,0,0:0:0:0:
402,192,86145,1,0,0:0:0:0:
109,192,86229,128,0,86398:0:0:0:0:
256,192,86229,128,0,86398:0:0:0:0:
329,192,86229,1,0,0:0:0:0:
36,192,86229,1,0,0:0:0:0:
402,192,86398,1,0,0:0:0:0:
182,192,86398,1,0,0:0:0:0:
475,192,86566,128,0,87072:0:0:0:0:
36,192,86566,128,0,87072:0:0:0:0:
329,192,86566,128,0,86735:0:0:0:0:
182,192,86566,128,0,86735:0:0:0:0:
256,192,86566,1,0,0:0:0:0:
109,192,86735,1,0,0:0:0:0:
402,192,86735,1,0,0:0:0:0:
329,192,86903,1,0,0:0:0:0:
182,192,86903,1,0,0:0:0:0:
402,192,87072,128,0,87240:0:0:0:0:
256,192,87072,1,0,0:0:0:0:
109,192,87072,1,0,0:0:0:0:
256,192,87240,128,0,87409:0:0:0:0:
36,192,87240,1,0,0:0:0:0:
182,192,87325,1,0,0:0:0:0:
109,192,87409,128,0,87577:0:0:0:0:
329,192,87409,1,0,0:0:0:0:
329,192,87577,128,0,87746:0:0:0:0:
475,192,87577,1,0,0:0:0:0:
182,192,87577,1,0,0:0:0:0:
36,192,87746,128,0,88083:0:0:0:0:
182,192,87746,128,0,87914:0:0:0:0:
402,192,87746,1,0,0:0:0:0:
109,192,87746,1,0,0:0:0:0:
475,192,87914,128,0,88083:0:0:0:0:
329,192,87914,1,0,0:0:0:0:
182,192,87999,1,0,0:0:0:0:
402,192,88083,128,0,88251:0:0:0:0:
256,192,88083,128,0,88251:0:0:0:0:
109,192,88083,1,0,0:0:0:0:
329,192,88083,1,0,0:0:0:0:
109,192,88251,128,0,88420:0:0:0:0:
475,192,88251,1,0,0:0:0:0:
36,192,88251,1,0,0:0:0:0:
256,192,88420,1,0,0:0:0:0:
402,192,88420,1,0,0:0:0:0:
329,192,88589,128,0,88926:0:0:0:0:
182,192,88589,128,0,88757:0:0:0:0:
36,192,88589,1,0,0:0:0:0:
109,192,88757,1,0,0:0:0:0:
402,192,88757,1,0,0:0:0:0:
475,192,88926,128,0,89263:0:0:0:0:
36,192,88926,128,0,89263:0:0:0:0:
182,192,88926,1,0,0:0:0:0:
329,192,89010,1,0,0:0:0:0:
256,192,89263,1,0,0:0:0:0:
36,192,89431,1,0,0:0:0:0:
475,192,89431,1,0,0:0:0:0:
182,192,89431,1,0,0:0:0:0:
329,192,89431,128,0,90105:0:0:0:0:
182,192,90105,128,0,90780:0:0:0:0:
402,192,90105,1,0,0:0:0:0:
36,192,90780,128,0,91454:0:0:0:0:
256,192,90780,1,0,0:0:0:0:
402,192,91454,128,0,92802:0:0:0:0:
109,192,91454,1,0,0:0:0:0:
256,192,91454,1,0,0:0:0:0:
256,192,91791,128,0,92802:0:0:0:0:
182,192,91791,1,0,0:0:0:0:
329,192,91791,1,0,0:0:0:0:
36,192,92128,1,0,0:0:0:0:
475,192,92128,1,0,0:0:0:0:
182,192,92465,1,0,0:0:0:0:
109,192,92802,128,0,93476:0:0:0:0:
475,192,92802,1,0,0:0:0:0:
36,192,92802,1,0,0:0:0:0:
256,192,93139,1,0,0:0:0:0:
402,192,93139,1,0,0:0:0:0:
329,192,93476,128,0,94150:0:0:0:0:
36,192,93476,1,0,0:0:0:0:
475,192,93476,1,0,0:0:0:0:
182,192,93813,1,0,0:0:0:0:
182,192,94150,128,0,95499:0:0:0:0:
475,192,94150,1,0,0:0:0:0:
36,192,94150,1,0,0:0:0:0:
36,192,94487,128,0,95499:0:0:0:0:
109,192,94487,1,0,0:0:0:0:
402,192,94487,1,0,0:0:0:0:
475,192,94825,1,0,0:0:0:0:
256,192,94825,1,0,0:0:0:0:
402,192,95162,1,0,0:0:0:0:
109,192,95499,1,0,0:0:0:0:
329,192,95499,1,0,0:0:0:0:
256,192,95836,1,0,0:0:0:0:
475,192,95836,1,0,0:0:0:0:
36,192,96173,1,0,0:0:0:0:
329,192,96173,1,0,0:0:0:0:
475,192,96510,128,0,96847:0:0:0:0:
329,192,96847,128,0,97184:0:0:0:0:
36,192,96847,1,0,0:0:0:0:
402,192,96847,1,0,0:0:0:0:
182,192,97184,128,0,97521:0:0:0:0:
109,192,97184,1,0,0:0:0:0:
475,192,97184,1,0,0:0:0:0:
402,192,97479,1,0,0:0:0:0:
36,192,97521,128,0,97858:0:0:0:0:
329,192,97521,1,0,0:0:0:0:
182,192,97858,1,0,0:0:0:0:
109,192,98195,1,0,0:0:0:0:
256,192,98195,1,0,0:0:0:0:
475,192,98532,1,0,0:0:0:0:
36,192,98532,1,0,0:0:0:0:
182,192,98532,128,0,98869:0:0:0:0:
402,192,98701,128,0,98785:0:0:0:0:
256,192,98785,128,0,98869:0:0:0:0:
109,192,98869,128,0,98954:0:0:0:0:
475,192,98869,128,0,99544:0:0:0:0:
36,192,99038,128,0,99207:0:0:0:0:
182,192,99207,128,0,99375:0:0:0:0:
329,192,99375,128,0,99544:0:0:0:0:
182,192,99544,128,0,99712:0:0:0:0:
36,192,99544,128,0,99881:0:0:0:0:
256,192,99544,1,0,0:0:0:0:
109,192,99544,1,0,0:0:0:0:
402,192,99712,128,0,99881:0:0:0:0:
256,192,99881,128,0,100049:0:0:0:0:
109,192,99881,128,0,100218:0:0:0:0:
182,192,99881,1,0,0:0:0:0:
329,192,99881,1,0,0:0:0:0:
475,192,100049,128,0,100218:0:0:0:0:
182,192,100218,128,0,102914:0:0:0:0:
329,192,100218,128,0,100892:0:0:0:0:
475,192,100892,128,0,101566:0:0:0:0:
402,192,100892,1,0,0:0:0:0:
36,192,100892,1,0,0:0:0:0:
329,192,101229,1,0,0:0:0:0:
109,192,101229,1,0,0:0:0:0:
256,192,101566,128,0,102240:0:0:0:0:
402,192,101566,1,0,0:0:0:0:
109,192,102240,128,0,102914:0:0:0:0:
36,192,102240,1,0,0:0:0:0:
402,192,102240,1,0,0:0:0:0:
402,192,102577,128,0,103589:0:0:0:0:
329,192,102577,1,0,0:0:0:0:
475,192,102577,1,0,0:0:0:0:
256,192,102914,128,0,105611:0:0:0:0:
36,192,102914,1,0,0:0:0:0:
475,192,103589,1,0,0:0:0:0:
329,192,103589,1,0,0:0:0:0:
182,192,103926,1,0,0:0:0:0:
36,192,103926,1,0,0:0:0:0:
36,192,104263,128,0,104937:0:0:0:0:
402,192,104263,1,0,0:0:0:0:
329,192,104600,1,0,0:0:0:0:
109,192,104937,128,0,105611:0:0:0:0:
475,192,104937,1,0,0:0:0:0:
402,192,104937,1,0,0:0:0:0:
475,192,105274,1,0,0:0:0:0:
329,192,105274,1,0,0:0:0:0:
402,192,105611,128,0,106959:0:0:0:0:
329,192,105611,128,0,105948:0:0:0:0:
36,192,105611,1,0,0:0:0:0:
182,192,105611,1,0,0:0:0:0:
182,192,105948,128,0,106285:0:0:0:0:
36,192,106285,128,0,106622:0:0:0:0:
109,192,106285,1,0,0:0:0:0:
256,192,106285,1,0,0:0:0:0:
256,192,106622,128,0,106959:0:0:0:0:
182,192,106622,1,0,0:0:0:0:
329,192,106622,1,0,0:0:0:0:
109,192,106959,1,0,0:0:0:0:
475,192,107296,128,0,107634:0:0:0:0:
256,192,107296,1,0,0:0:0:0:
256,192,107634,128,0,107971:0:0:0:0:
402,192,107634,1,0,0:0:0:0:
109,192,107634,1,0,0:0:0:0:
36,192,107971,128,0,108308:0:0:0:0:
475,192,107971,1,0,0:0:0:0:
182,192,107971,1,0,0:0:0:0:
475,192,108139,1,0,0:0:0:0:
402,192,108139,1,0,0:0:0:0:
256,192,108223,1,0,0:0:0:0:
329,192,108223,1,0,0:0:0:0:
109,192,108308,1,0,0:0:0:0:
182,192,108308,1,0,0:0:0:0:
329,192,108645,128,0,108982:0:0:0:0:
109,192,108645,1,0,0:0:0:0:
256,192,108645,1,0,0:0:0:0:
182,192,108813,1,0,0:0:0:0:
36,192,108813,1,0,0:0:0:0:
182,192,108982,128,0,109319:0:0:0:0:
329,192,109150,1,0,0:0:0:0:
475,192,109150,1,0,0:0:0:0:
36,192,109319,128,0,109656:0:0:0:0:
402,192,109319,1,0,0:0:0:0:
256,192,109319,1,0,0:0:0:0:
256,192,109656,1,0,0:0:0:0:
109,192,109656,1,0,0:0:0:0:
329,192,109740,1,0,0:0:0:0:
475,192,109740,1,0,0:0:0:0:
36,192,109825,1,0,0:0:0:0:
402,192,109825,1,0,0:0:0:0:
182,192,109825,1,0,0:0:0:0:
329,192,109993,1,0,0:0:0:0:
182,192,109993,1,0,0:0:0:0:
475,192,109993,1,0,0:0:0:0:
109,192,110162,1,0,0:0:0:0:
256,192,110162,1,0,0:0:0:0:
329,192,110246,1,0,0:0:0:0:
475,192,110246,1,0,0:0:0:0:
402,192,110330,1,0,0:0:0:0:
182,192,110330,1,0,0:0:0:0:
36,192,110330,1,0,0:0:0:0:
402,192,110499,1,0,0:0:0:0:
256,192,110583,1,0,0:0:0:0:
109,192,110667,1,0,0:0:0:0:
475,192,110751,1,0,0:0:0:0:
329,192,110836,1,0,0:0:0:0:
182,192,110920,1,0,0:0:0:0:
36,192,111004,128,0,111341:0:0:0:0:
109,192,111004,1,0,0:0:0:0:
256,192,111004,1,0,0:0:0:0:
475,192,111004,1,0,0:0:0:0:
182,192,111089,1,0,0:0:0:0:
329,192,111173,1,0,0:0:0:0:
475,192,111173,1,0,0:0:0:0:
182,192,111257,1,0,0:0:0:0:
256,192,111341,128,0,111678:0:0:0:0:
109,192,111341,1,0,0:0:0:0:
475,192,111341,1,0,0:0:0:0:
402,192,111341,1,0,0:0:0:0:
182,192,111426,1,0,0:0:0:0:
36,192,111510,1,0,0:0:0:0:
329,192,111510,1,0,0:0:0:0:
109,192,111594,1,0,0:0:0:0:
475,192,111678,128,0,112016:0:0:0:0:
402,192,111678,1,0,0:0:0:0:
182,192,111678,1,0,0:0:0:0:
36,192,111678,1,0,0:0:0:0:
329,192,111763,1,0,0:0:0:0:
256,192,111847,1,0,0:0:0:0:
36,192,111847,1,0,0:0:0:0:
402,192,111931,1,0,0:0:0:0:
109,192,112016,128,0,112184:0:0:0:0:
36,192,112016,1,0,0:0:0:0:
182,192,112016,1,0,0:0:0:0:
329,192,112016,1,0,0:0:0:0:
402,192,112100,1,0,0:0:0:0:
402,192,112184,128,0,112690:0:0:0:0:
256,192,112184,1,0,0:0:0:0:
475,192,112184,1,0,0:0:0:0:
109,192,112268,1,0,0:0:0:0:
36,192,112353,1,0,0:0:0:0:
182,192,112353,1,0,0:0:0:0:
475,192,112353,1,0,0:0:0:0:
329,192,112437,1,0,0:0:0:0:
109,192,112521,1,0,0:0:0:0:
256,192,112521,1,0,0:0:0:0:
36,192,112605,1,0,0:0:0:0:
182,192,112690,128,0,113027:0:0:0:0:
109,192,112690,1,0,0:0:0:0:
329,192,112690,1,0,0:0:0:0:
475,192,112690,1,0,0:0:0:0:
36,192,112774,1,0,0:0:0:0:
256,192,112858,1,0,0:0:0:0:
402,192,112858,1,0,0:0:0:0:
475,192,112942,1,0,0:0:0:0:
329,192,113027,128,0,113364:0:0:0:0:
109,192,113027,1,0,0:0:0:0:
402,192,113027,1,0,0:0:0:0:
36,192,113027,1,0,0:0:0:0:
475,192,113111,1,0,0:0:0:0:
36,192,113195,1,0,0:0:0:0:
256,192,113195,1,0,0:0:0:0:
109,192,113280,1,0,0:0:0:0:
36,192,113364,128,0,113701:0:0:0:0:
256,192,113364,1,0,0:0:0:0:
402,192,113364,1,0,0:0:0:0:
182,192,113364,1,0,0:0:0:0:
475,192,113448,1,0,0:0:0:0:
109,192,113532,1,0,0:0:0:0:
329,192,113532,1,0,0:0:0:0:
182,192,113617,1,0,0:0:0:0:
475,192,113701,128,0,114038:0:0:0:0:
256,192,113701,1,0,0:0:0:0:
402,192,113701,1,0,0:0:0:0:
109,192,113701,1,0,0:0:0:0:
36,192,113785,1,0,0:0:0:0:
329,192,113869,1,0,0:0:0:0:
182,192,113869,1,0,0:0:0:0:
36,192,113954,1,0,0:0:0:0:
182,192,114038,128,0,114628:0:0:0:0:
402,192,114038,1,0,0:0:0:0:
109,192,114038,1,0,0:0:0:0:
256,192,114038,1,0,0:0:0:0:
329,192,114038,1,0,0:0:0:0:
256,192,114207,1,0,0:0:0:0:
36,192,114207,1,0,0:0:0:0:
475,192,114207,1,0,0:0:0:0:
109,192,114207,1,0,0:0:0:0:
329,192,114375,128,0,114459:0:0:0:0:
36,192,114375,128,0,114459:0:0:0:0:
109,192,114375,128,0,114459:0:0:0:0:
256,192,114375,128,0,114459:0:0:0:0:
475,192,114375,128,0,114459:0:0:0:0:
329,192,114544,128,0,114628:0:0:0:0:
256,192,114544,128,0,114628:0:0:0:0:
475,192,114544,128,0,114628:0:0:0:0:
109,192,114544,128,0,114628:0:0:0:0:
36,192,114544,128,0,114628:0:0:0:0:
36,192,114881,128,0,115892:0:0:0:0:
256,192,114881,128,0,114965:0:0:0:0:
182,192,114881,128,0,115049:0:0:0:0:
109,192,114881,128,0,115134:0:0:0:0:
256,192,115049,1,0,0:0:0:0:
402,192,115049,1,0,0:0:0:0:
475,192,115218,128,0,115723:0:0:0:0:
182,192,115218,1,0,0:0:0:0:
329,192,115218,1,0,0:0:0:0:
402,192,115386,128,0,115723:0:0:0:0:
109,192,115386,1,0,0:0:0:0:
256,192,115386,1,0,0:0:0:0:
329,192,115555,128,0,115723:0:0:0:0:
182,192,115555,1,0,0:0:0:0:
109,192,115723,1,0,0:0:0:0:
256,192,115723,1,0,0:0:0:0:
475,192,115808,1,0,0:0:0:0:
329,192,115808,1,0,0:0:0:0:
402,192,115892,128,0,116060:0:0:0:0:
182,192,115892,1,0,0:0:0:0:
36,192,115976,1,0,0:0:0:0:
256,192,116060,128,0,116229:0:0:0:0:
475,192,116060,1,0,0:0:0:0:
109,192,116060,1,0,0:0:0:0:
329,192,116145,1,0,0:0:0:0:
109,192,116229,128,0,116398:0:0:0:0:
182,192,116229,1,0,0:0:0:0:
475,192,116229,1,0,0:0:0:0:
36,192,116313,1,0,0:0:0:0:
329,192,116398,128,0,116735:0:0:0:0:
402,192,116398,1,0,0:0:0:0:
256,192,116398,1,0,0:0:0:0:
182,192,116398,1,0,0:0:0:0:
475,192,116482,1,0,0:0:0:0:
109,192,116566,1,0,0:0:0:0:
182,192,116566,1,0,0:0:0:0:
256,192,116650,1,0,0:0:0:0:
402,192,116735,128,0,117072:0:0:0:0:
475,192,116735,1,0,0:0:0:0:
36,192,116735,1,0,0:0:0:0:
109,192,116735,1,0,0:0:0:0:
182,192,116819,1,0,0:0:0:0:
329,192,116903,1,0,0:0:0:0:
109,192,116903,1,0,0:0:0:0:
256,192,116987,1,0,0:0:0:0:
475,192,117072,128,0,117409:0:0:0:0:
36,192,117072,1,0,0:0:0:0:
182,192,117072,1,0,0:0:0:0:
329,192,117072,1,0,0:0:0:0:
109,192,117156,1,0,0:0:0:0:
182,192,117240,1,0,0:0:0:0:
402,192,117240,1,0,0:0:0:0:
329,192,117325,1,0,0:0:0:0:
36,192,117409,128,0,117577:0:0:0:0:
256,192,117409,1,0,0:0:0:0:
109,192,117409,1,0,0:0:0:0:
402,192,117409,1,0,0:0:0:0:
329,192,117493,1,0,0:0:0:0:
182,192,117577,128,0,118589:0:0:0:0:
256,192,117577,1,0,0:0:0:0:
475,192,117577,1,0,0:0:0:0:
402,192,117662,1,0,0:0:0:0:
36,192,117746,1,0,0:0:0:0:
475,192,117746,1,0,0:0:0:0:
256,192,117746,128,0,117788:0:0:0:0:
329,192,117746,128,0,117788:0:0:0:0:
109,192,117914,1,0,0:0:0:0:
256,192,117914,1,0,0:0:0:0:
402,192,117914,128,0,117957:0:0:0:0:
475,192,117914,128,0,117957:0:0:0:0:
475,192,118083,1,0,0:0:0:0:
36,192,118083,1,0,0:0:0:0:
329,192,118083,128,0,118125:0:0:0:0:
256,192,118083,128,0,118125:0:0:0:0:
256,192,118251,1,0,0:0:0:0:
109,192,118251,1,0,0:0:0:0:
402,192,118251,128,0,118294:0:0:0:0:
475,192,118251,128,0,118294:0:0:0:0:
329,192,118420,1,0,0:0:0:0:
256,192,118420,1,0,0:0:0:0:
109,192,118420,128,0,118462:0:0:0:0:
36,192,118420,128,0,118462:0:0:0:0:
402,192,118589,128,0,118757:0:0:0:0:
475,192,118589,1,0,0:0:0:0:
36,192,118589,1,0,0:0:0:0:
329,192,118589,1,0,0:0:0:0:
36,192,118757,128,0,118926:0:0:0:0:
109,192,118757,1,0,0:0:0:0:
475,192,118757,1,0,0:0:0:0:
256,192,118757,1,0,0:0:0:0:
329,192,118926,128,0,119094:0:0:0:0:
402,192,118926,1,0,0:0:0:0:
475,192,118926,1,0,0:0:0:0:
182,192,118926,1,0,0:0:0:0:
182,192,119094,128,0,119431:0:0:0:0:
36,192,119094,1,0,0:0:0:0:
475,192,119094,1,0,0:0:0:0:
256,192,119094,1,0,0:0:0:0:
402,192,119178,1,0,0:0:0:0:
329,192,119263,1,0,0:0:0:0:
109,192,119263,1,0,0:0:0:0:
256,192,119347,1,0,0:0:0:0:
475,192,119431,128,0,119768:0:0:0:0:
36,192,119431,1,0,0:0:0:0:
329,192,119431,1,0,0:0:0:0:
402,192,119431,1,0,0:0:0:0:
109,192,119516,1,0,0:0:0:0:
182,192,119600,1,0,0:0:0:0:
402,192,119600,1,0,0:0:0:0:
256,192,119684,1,0,0:0:0:0:
36,192,119768,128,0,120105:0:0:0:0:
109,192,119768,1,0,0:0:0:0:
329,192,119768,1,0,0:0:0:0:
402,192,119768,1,0,0:0:0:0:
182,192,119853,1,0,0:0:0:0:
256,192,119937,1,0,0:0:0:0:
475,192,119937,1,0,0:0:0:0:
182,192,120021,1,0,0:0:0:0:
402,192,120105,128,0,120274:0:0:0:0:
475,192,120105,1,0,0:0:0:0:
109,192,120105,1,0,0:0:0:0:
329,192,120105,1,0,0:0:0:0:
256,192,120190,1,0,0:0:0:0:
109,192,120274,128,0,120948:0:0:0:0:
182,192,120274,1,0,0:0:0:0:
329,192,120274,1,0,0:0:0:0:
256,192,120358,1,0,0:0:0:0:
182,192,120442,1,0,0:0:0:0:
475,192,120442,1,0,0:0:0:0:
36,192,120442,1,0,0:0:0:0:
402,192,120527,1,0,0:0:0:0:
36,192,120611,1,0,0:0:0:0:
329,192,120611,1,0,0:0:0:0:
182,192,120695,1,0,0:0:0:0:
475,192,120780,1,0,0:0:0:0:
256,192,120780,1,0,0:0:0:0:
36,192,120780,1,0,0:0:0:0:
329,192,120864,1,0,0:0:0:0:
256,192,120948,128,0,121285:0:0:0:0:
182,192,120948,1,0,0:0:0:0:
402,192,120948,1,0,0:0:0:0:
109,192,121032,1,0,0:0:0:0:
475,192,121117,1,0,0:0:0:0:
329,192,121117,1,0,0:0:0:0:
36,192,121117,1,0,0:0:0:0:
109,192,121201,1,0,0:0:0:0:
475,192,121285,128,0,121369:0:0:0:0:
182,192,121285,1,0,0:0:0:0:
36,192,121285,1,0,0:0:0:0:
329,192,121369,128,0,121454:0:0:0:0:
182,192,121454,128,0,121538:0:0:0:0:
402,192,121454,1,0,0:0:0:0:
109,192,121454,1,0,0:0:0:0:
256,192,121454,1,0,0:0:0:0:
36,192,121538,128,0,121622:0:0:0:0:
402,192,121622,128,0,121791:0:0:0:0:
329,192,121622,1,0,0:0:0:0:
182,192,121622,1,0,0:0:0:0:
475,192,121791,1,0,0:0:0:0:
329,192,121791,128,0,122381:0:0:0:0:
182,192,121791,128,0,121875:0:0:0:0:
109,192,121875,128,0,121959:0:0:0:0:
36,192,121959,128,0,122044:0:0:0:0:
256,192,121959,128,0,122044:0:0:0:0:
182,192,122044,128,0,122128:0:0:0:0:
402,192,122128,128,0,122212:0:0:0:0:
475,192,122128,128,0,122212:0:0:0:0:
109,192,122128,128,0,122212:0:0:0:0:
36,192,122212,128,0,122296:0:0:0:0:
182,192,122296,128,0,122381:0:0:0:0:
402,192,122296,128,0,122381:0:0:0:0:
475,192,122296,128,0,122886:0:0:0:0:
109,192,122381,128,0,122465:0:0:0:0:
36,192,122465,128,0,122549:0:0:0:0:
256,192,122465,128,0,122549:0:0:0:0:
402,192,122465,128,0,122549:0:0:0:0:
182,192,122549,128,0,122634:0:0:0:0:
109,192,122634,128,0,122718:0:0:0:0:
36,192,122634,128,0,122718:0:0:0:0:
256,192,122718,128,0,122802:0:0:0:0:
109,192,122802,128,0,123392:0:0:0:0:
36,192,122802,128,0,122886:0:0:0:0:
182,192,122802,128,0,122886:0:0:0:0:
329,192,122802,128,0,122886:0:0:0:0:
402,192,122886,128,0,122971:0:0:0:0:
475,192,122971,128,0,123055:0:0:0:0:
256,192,122971,128,0,123055:0:0:0:0:
36,192,123055,128,0,123139:0:0:0:0:
329,192,123139,128,0,123223:0:0:0:0:
475,192,123139,128,0,123223:0:0:0:0:
182,192,123139,128,0,123223:0:0:0:0:
402,192,123223,128,0,123308:0:0:0:0:
256,192,123308,128,0,123729:0:0:0:0:
329,192,123308,128,0,123392:0:0:0:0:
36,192,123308,128,0,123392:0:0:0:0:
475,192,123392,128,0,123476:0:0:0:0:
182,192,123476,128,0,123560:0:0:0:0:
109,192,123476,128,0,123560:0:0:0:0:
402,192,123476,128,0,123560:0:0:0:0:
329,192,123560,128,0,123645:0:0:0:0:
36,192,123645,128,0,124150:0:0:0:0:
182,192,123645,128,0,123729:0:0:0:0:
475,192,123645,128,0,123729:0:0:0:0:
402,192,123729,128,0,123813:0:0:0:0:
109,192,123813,128,0,123898:0:0:0:0:
475,192,123813,128,0,123898:0:0:0:0:
329,192,123813,128,0,123898:0:0:0:0:
256,192,123898,128,0,123982:0:0:0:0:
182,192,123982,128,0,124066:0:0:0:0:
402,192,123982,128,0,124066:0:0:0:0:
256,192,124066,128,0,124150:0:0:0:0:
109,192,124150,128,0,124319:0:0:0:0:
329,192,124150,128,0,124235:0:0:0:0:
475,192,124150,128,0,124235:0:0:0:0:
182,192,124150,128,0,124235:0:0:0:0:
182,192,124319,128,0,124487:0:0:0:0:
475,192,124319,128,0,124403:0:0:0:0:
256,192,124319,128,0,124403:0:0:0:0:
402,192,124319,128,0,124403:0:0:0:0:
475,192,124487,128,0,124572:0:0:0:0:
329,192,124487,128,0,124572:0:0:0:0:
36,192,124487,128,0,124572:0:0:0:0:
109,192,124487,128,0,124572:0:0:0:0:
256,192,124487,128,0,124656:0:0:0:0:
402,192,124656,128,0,124740:0:0:0:0:
36,192,124656,128,0,124740:0:0:0:0:
475,192,124656,128,0,124740:0:0:0:0:
182,192,124656,128,0,124740:0:0:0:0:
329,192,124656,128,0,124740:0:0:0:0:
329,192,124825,1,0,0:0:0:0:
475,192,124825,1,0,0:0:0:0:
182,192,124825,1,0,0:0:0:0:
402,192,124993,128,0,125077:0:0:0:0:
36,192,124993,128,0,125077:0:0:0:0:
475,192,124993,128,0,125077:0:0:0:0:
182,192,124993,128,0,125077:0:0:0:0:
256,192,124993,128,0,125077:0:0:0:0:
109,192,125162,1,0,0:0:0:0:
256,192,125162,1,0,0:0:0:0:
402,192,125162,1,0,0:0:0:0:
109,192,125330,128,0,125414:0:0:0:0:
182,192,125330,128,0,125414:0:0:0:0:
402,192,125330,128,0,125414:0:0:0:0:
329,192,125330,128,0,125414:0:0:0:0:
36,192,125330,1,0,0:0:0:0:
475,192,125330,128,0,125414:0:0:0:0:
256,192,125414,1,0,0:0:0:0:
475,192,125499,1,0,0:0:0:0:
475,192,125667,128,0,125751:0:0:0:0:
402,192,125667,128,0,125751:0:0:0:0:
109,192,125667,128,0,125751:0:0:0:0:
36,192,125667,128,0,125751:0:0:0:0:
256,192,125667,128,0,125836:0:0:0:0:
402,192,125836,1,0,0:0:0:0:
475,192,125836,1,0,0:0:0:0:
109,192,125836,1,0,0:0:0:0:
36,192,125836,1,0,0:0:0:0:
109,192,126004,1,0,0:0:0:0:
256,192,126004,1,0,0:0:0:0:
402,192,126004,1,0,0:0:0:0:
36,192,126173,128,0,126510:0:0:0:0:
256,192,126173,1,0,0:0:0:0:
329,192,126173,128,0,126257:0:0:0:0:
182,192,126173,128,0,126257:0:0:0:0:
475,192,126173,128,0,126257:0:0:0:0:
109,192,126341,1,0,0:0:0:0:
402,192,126341,1,0,0:0:0:0:
475,192,126510,128,0,126678:0:0:0:0:
402,192,126510,1,0,0:0:0:0:
329,192,126510,128,0,126594:0:0:0:0:
329,192,126678,128,0,126847:0:0:0:0:
256,192,126678,1,0,0:0:0:0:
182,192,126678,128,0,126763:0:0:0:0:
475,192,126763,1,0,0:0:0:0:
182,192,126847,128,0,127016:0:0:0:0:
109,192,126847,1,0,0:0:0:0:
36,192,126847,128,0,126931:0:0:0:0:
402,192,126847,1,0,0:0:0:0:
329,192,126931,1,0,0:0:0:0:
36,192,127016,128,0,127184:0:0:0:0:
475,192,127016,1,0,0:0:0:0:
256,192,127016,1,0,0:0:0:0:
182,192,127100,1,0,0:0:0:0:
475,192,127184,128,0,127521:0:0:0:0:
109,192,127184,1,0,0:0:0:0:
402,192,127184,1,0,0:0:0:0:
329,192,127184,128,0,127353:0:0:0:0:
256,192,127353,1,0,0:0:0:0:
36,192,127353,1,0,0:0:0:0:
109,192,127521,128,0,127605:0:0:0:0:
329,192,127521,1,0,0:0:0:0:
182,192,127521,1,0,0:0:0:0:
256,192,127605,128,0,127690:0:0:0:0:
402,192,127690,128,0,127774:0:0:0:0:
475,192,127690,1,0,0:0:0:0:
256,192,127774,1,0,0:0:0:0:
402,192,127858,1,0,0:0:0:0:
109,192,127858,1,0,0:0:0:0:
36,192,127858,128,0,128027:0:0:0:0:
182,192,128027,128,0,128195:0:0:0:0:
475,192,128027,128,0,128195:0:0:0:0:
329,192,128027,128,0,128195:0:0:0:0:
256,192,128195,1,0,0:0:0:0:
109,192,128195,1,0,0:0:0:0:
402,192,128195,128,0,128364:0:0:0:0:
36,192,128364,128,0,129881:0:0:0:0:
182,192,128364,1,0,0:0:0:0:
329,192,128448,1,0,0:0:0:0:
475,192,128532,1,0,0:0:0:0:
256,192,128532,1,0,0:0:0:0:
109,192,128532,1,0,0:0:0:0:
402,192,128553,1,0,0:0:0:0:
329,192,128575,1,0,0:0:0:0:
402,192,128701,128,0,128869:0:0:0:0:
182,192,128701,128,0,128869:0:0:0:0:
475,192,128785,128,0,128954:0:0:0:0:
256,192,128785,128,0,128954:0:0:0:0:
329,192,128869,128,0,129122:0:0:0:0:
109,192,128869,128,0,129122:0:0:0:0:
402,192,128954,128,0,129038:0:0:0:0:
182,192,128954,128,0,129038:0:0:0:0:
475,192,129038,128,0,129207:0:0:0:0:
256,192,129038,128,0,129207:0:0:0:0:
182,192,129122,128,0,129291:0:0:0:0:
402,192,129122,128,0,129291:0:0:0:0:
109,192,129207,128,0,129375:0:0:0:0:
329,192,129207,128,0,129375:0:0:0:0:
475,192,129291,128,0,129544:0:0:0:0:
256,192,129291,128,0,129544:0:0:0:0:
182,192,129375,128,0,129459:0:0:0:0:
402,192,129375,128,0,129459:0:0:0:0:
109,192,129459,128,0,129628:0:0:0:0:
329,192,129459,128,0,129628:0:0:0:0:
182,192,129544,128,0,129712:0:0:0:0:
402,192,129544,128,0,129712:0:0:0:0:
256,192,129628,128,0,129796:0:0:0:0:
475,192,129628,128,0,129796:0:0:0:0:
329,192,129712,1,0,0:0:0:0:
109,192,129712,1,0,0:0:0:0:
402,192,129796,1,0,0:0:0:0:
182,192,129796,1,0,0:0:0:0:
475,192,129881,128,0,131229:0:0:0:0:
256,192,129881,1,0,0:0:0:0:
329,192,129881,1,0,0:0:0:0:
402,192,130049,128,0,130218:0:0:0:0:
36,192,130049,1,0,0:0:0:0:
182,192,130049,1,0,0:0:0:0:
256,192,130218,128,0,130386:0:0:0:0:
109,192,130218,1,0,0:0:0:0:
329,192,130218,1,0,0:0:0:0:
182,192,130386,1,0,0:0:0:0:
402,192,130386,1,0,0:0:0:0:
36,192,130555,128,0,130723:0:0:0:0:
329,192,130555,1,0,0:0:0:0:
256,192,130555,1,0,0:0:0:0:
109,192,130723,128,0,130892:0:0:0:0:
329,192,130723,1,0,0:0:0:0:
402,192,130723,1,0,0:0:0:0:
182,192,130892,128,0,131060:0:0:0:0:
329,192,130892,1,0,0:0:0:0:
256,192,130892,1,0,0:0:0:0:
36,192,130892,1,0,0:0:0:0:
109,192,131060,1,0,0:0:0:0:
402,192,131060,1,0,0:0:0:0:
36,192,131229,128,0,131903:0:0:0:0:
256,192,131229,1,0,0:0:0:0:
182,192,131250,1,0,0:0:0:0:
109,192,131271,1,0,0:0:0:0:
475,192,131398,1,0,0:0:0:0:
329,192,131398,1,0,0:0:0:0:
109,192,131566,1,0,0:0:0:0:
256,192,131566,1,0,0:0:0:0:
402,192,131566,1,0,0:0:0:0:
182,192,131735,1,0,0:0:0:0:
329,192,131735,1,0,0:0:0:0:
475,192,131903,128,0,132240:0:0:0:0:
256,192,131903,1,0,0:0:0:0:
109,192,131903,1,0,0:0:0:0:
402,192,132128,1,0,0:0:0:0:
329,192,132128,1,0,0:0:0:0:
36,192,132240,128,0,132577:0:0:0:0:
256,192,132240,1,0,0:0:0:0:
109,192,132240,1,0,0:0:0:0:
329,192,132353,1,0,0:0:0:0:
182,192,132353,1,0,0:0:0:0:
475,192,132409,128,0,132577:0:0:0:0:
402,192,132465,1,0,0:0:0:0:
256,192,132465,1,0,0:0:0:0:
329,192,132577,1,0,0:0:0:0:
109,192,132577,128,0,132746:0:0:0:0:
182,192,132577,1,0,0:0:0:0:
475,192,132746,1,0,0:0:0:0:
256,192,132914,128,0,133083:0:0:0:0:
329,192,132914,1,0,0:0:0:0:
182,192,132914,1,0,0:0:0:0:
36,192,132914,1,0,0:0:0:0:
475,192,133083,1,0,0:0:0:0:
402,192,133251,128,0,133420:0:0:0:0:
329,192,133251,1,0,0:0:0:0:
182,192,133420,1,0,0:0:0:0:
182,192,133589,128,0,133757:0:0:0:0:
36,192,133589,1,0,0:0:0:0:
256,192,133757,1,0,0:0:0:0:
256,192,133926,128,0,134094:0:0:0:0:
109,192,133926,1,0,0:0:0:0:
329,192,133926,1,0,0:0:0:0:
475,192,133926,1,0,0:0:0:0:
36,192,134094,1,0,0:0:0:0:
329,192,134263,128,0,134431:0:0:0:0:
109,192,134263,1,0,0:0:0:0:
402,192,134263,1,0,0:0:0:0:
256,192,134263,1,0,0:0:0:0:
36,192,134431,1,0,0:0:0:0:
182,192,134600,128,0,134768:0:0:0:0:
475,192,134600,128,0,135274:0:0:0:0:
109,192,134600,1,0,0:0:0:0:
329,192,134600,1,0,0:0:0:0:
402,192,134768,1,0,0:0:0:0:
36,192,134937,128,0,135105:0:0:0:0:
256,192,134937,1,0,0:0:0:0:
109,192,135105,1,0,0:0:0:0:
329,192,135274,128,0,135948:0:0:0:0:
109,192,135274,128,0,135442:0:0:0:0:
402,192,135274,1,0,0:0:0:0:
256,192,135274,1,0,0:0:0:0:
475,192,135442,1,0,0:0:0:0:
256,192,135611,128,0,135780:0:0:0:0:
402,192,135611,1,0,0:0:0:0:
182,192,135611,1,0,0:0:0:0:
36,192,135611,1,0,0:0:0:0:
475,192,135780,1,0,0:0:0:0:
36,192,135948,128,0,136117:0:0:0:0:
109,192,135948,1,0,0:0:0:0:
256,192,136117,1,0,0:0:0:0:
182,192,136285,128,0,136454:0:0:0:0:
402,192,136285,1,0,0:0:0:0:
256,192,136454,1,0,0:0:0:0:
475,192,136622,128,0,136791:0:0:0:0:
109,192,136622,128,0,137296:0:0:0:0:
182,192,136622,1,0,0:0:0:0:
36,192,136622,1,0,0:0:0:0:
256,192,136791,1,0,0:0:0:0:
329,192,136959,128,0,137128:0:0:0:0:
36,192,136959,1,0,0:0:0:0:
475,192,136959,1,0,0:0:0:0:
402,192,136959,1,0,0:0:0:0:
182,192,137128,1,0,0:0:0:0:
256,192,137296,128,0,137971:0:0:0:0:
475,192,137296,128,0,137465:0:0:0:0:
36,192,137296,1,0,0:0:0:0:
329,192,137296,1,0,0:0:0:0:
182,192,137465,1,0,0:0:0:0:
36,192,137634,1,0,0:0:0:0:
182,192,137802,1,0,0:0:0:0:
402,192,137971,128,0,138645:0:0:0:0:
109,192,137971,128,0,138139:0:0:0:0:
329,192,137971,1,0,0:0:0:0:
36,192,137971,1,0,0:0:0:0:
182,192,138139,1,0,0:0:0:0:
256,192,138308,128,0,138476:0:0:0:0:
329,192,138308,1,0,0:0:0:0:
109,192,138308,1,0,0:0:0:0:
36,192,138308,1,0,0:0:0:0:
475,192,138476,1,0,0:0:0:0:
36,192,138645,128,0,138813:0:0:0:0:
329,192,138645,1,0,0:0:0:0:
182,192,138813,1,0,0:0:0:0:
475,192,138982,128,0,139150:0:0:0:0:
256,192,138982,1,0,0:0:0:0:
329,192,139150,1,0,0:0:0:0:
109,192,139319,128,0,139487:0:0:0:0:
329,192,139319,128,0,139993:0:0:0:0:
402,192,139319,1,0,0:0:0:0:
36,192,139319,1,0,0:0:0:0:
475,192,139487,1,0,0:0:0:0:
182,192,139656,128,0,139825:0:0:0:0:
402,192,139656,1,0,0:0:0:0:
256,192,139656,1,0,0:0:0:0:
109,192,139656,1,0,0:0:0:0:
475,192,139825,1,0,0:0:0:0:
402,192,139993,128,0,140667:0:0:0:0:
256,192,139993,128,0,140162:0:0:0:0:
36,192,139993,1,0,0:0:0:0:
109,192,139993,1,0,0:0:0:0:
182,192,140162,1,0,0:0:0:0:
182,192,140330,128,0,140499:0:0:0:0:
329,192,140330,1,0,0:0:0:0:
36,192,140499,128,0,140667:0:0:0:0:
109,192,140499,1,0,0:0:0:0:
475,192,140667,128,0,141229:0:0:0:0:
256,192,140667,128,0,141341:0:0:0:0:
182,192,140667,1,0,0:0:0:0:
329,192,140667,1,0,0:0:0:0:
109,192,141004,128,0,141678:0:0:0:0:
182,192,141004,1,0,0:0:0:0:
402,192,141004,1,0,0:0:0:0:
329,192,141117,1,0,0:0:0:0:
36,192,141117,1,0,0:0:0:0:
182,192,141229,1,0,0:0:0:0:
402,192,141229,1,0,0:0:0:0:
329,192,141341,128,0,142016:0:0:0:0:
475,192,141341,1,0,0:0:0:0:
36,192,141341,1,0,0:0:0:0:
182,192,141678,128,0,142016:0:0:0:0:
36,192,141678,1,0,0:0:0:0:
475,192,141678,1,0,0:0:0:0:
109,192,141791,1,0,0:0:0:0:
402,192,141791,1,0,0:0:0:0:
36,192,141903,1,0,0:0:0:0:
475,192,141903,1,0,0:0:0:0:
402,192,142016,128,0,143364:0:0:0:0:
109,192,142016,1,0,0:0:0:0:
256,192,142016,1,0,0:0:0:0:
36,192,142353,1,0,0:0:0:0:
182,192,142353,1,0,0:0:0:0:
256,192,142465,1,0,0:0:0:0:
329,192,142465,1,0,0:0:0:0:
182,192,142577,1,0,0:0:0:0:
36,192,142577,1,0,0:0:0:0:
109,192,142690,128,0,143364:0:0:0:0:
256,192,142690,1,0,0:0:0:0:
475,192,142690,1,0,0:0:0:0:
329,192,142802,1,0,0:0:0:0:
182,192,142802,1,0,0:0:0:0:
475,192,142914,1,0,0:0:0:0:
36,192,142914,1,0,0:0:0:0:
329,192,143027,1,0,0:0:0:0:
182,192,143027,1,0,0:0:0:0:
475,192,143195,1,0,0:0:0:0:
36,192,143195,1,0,0:0:0:0:
329,192,143280,1,0,0:0:0:0:
182,192,143280,1,0,0:0:0:0:
256,192,143364,1,0,0:0:0:0:
36,192,143364,128,0,144038:0:0:0:0:
475,192,143364,128,0,143701:0:0:0:0:
402,192,143532,1,0,0:0:0:0:
109,192,143532,1,0,0:0:0:0:
329,192,143701,128,0,144038:0:0:0:0:
256,192,144038,128,0,144712:0:0:0:0:
182,192,144038,128,0,144375:0:0:0:0:
36,192,144375,128,0,144712:0:0:0:0:
475,192,144712,128,0,145049:0:0:0:0:
402,192,144712,1,0,0:0:0:0:
182,192,144712,1,0,0:0:0:0:
329,192,144881,1,0,0:0:0:0:
109,192,144881,1,0,0:0:0:0:
329,192,145386,128,0,145723:0:0:0:0:
182,192,145386,1,0,0:0:0:0:
36,192,145386,1,0,0:0:0:0:
109,192,145555,1,0,0:0:0:0:
256,192,145555,1,0,0:0:0:0:
402,192,145723,128,0,146060:0:0:0:0:
36,192,146060,128,0,147409:0:0:0:0:
109,192,146060,1,0,0:0:0:0:
182,192,146060,1,0,0:0:0:0:
475,192,146060,1,0,0:0:0:0:
182,192,146229,1,0,0:0:0:0:
256,192,146229,1,0,0:0:0:0:
475,192,146229,1,0,0:0:0:0:
256,192,146398,1,0,0:0:0:0:
329,192,146398,1,0,0:0:0:0:
475,192,146398,1,0,0:0:0:0:
329,192,146566,1,0,0:0:0:0:
402,192,146566,1,0,0:0:0:0:
475,192,146566,1,0,0:0:0:0:
256,192,146735,1,0,0:0:0:0:
329,192,146735,1,0,0:0:0:0:
475,192,146735,1,0,0:0:0:0:
475,192,146903,1,0,0:0:0:0:
256,192,146903,1,0,0:0:0:0:
182,192,146903,1,0,0:0:0:0:
475,192,147072,1,0,0:0:0:0:
182,192,147072,1,0,0:0:0:0:
109,192,147072,1,0,0:0:0:0:
475,192,147240,1,0,0:0:0:0:
329,192,147240,1,0,0:0:0:0:
182,192,147409,128,0,148251:0:0:0:0:
256,192,147409,1,0,0:0:0:0:
402,192,147451,1,0,0:0:0:0:
475,192,148757,128,0,151369:0:0:0:0:
109,192,148757,1,0,0:0:0:0:
36,192,149431,128,0,151369:0:0:0:0:
256,192,149431,1,0,0:0:0:0:
182,192,150105,128,0,151369:0:0:0:0:
402,192,150105,1,0,0:0:0:0:
329,192,150780,128,0,151369:0:0:0:0:
256,192,150780,1,0,0:0:0:0:
109,192,151454,1,0,0:0:0:0:
256,192,151454,1,0,0:0:0:0:
36,192,151454,128,0,152044:0:0:0:0:
475,192,151454,128,0,151538:0:0:0:0:
402,192,151538,128,0,151622:0:0:0:0:
182,192,151622,1,0,0:0:0:0:
329,192,151622,128,0,151707:0:0:0:0:
256,192,151707,1,0,0:0:0:0:
329,192,151791,1,0,0:0:0:0:
182,192,151791,128,0,152128:0:0:0:0:
109,192,151791,1,0,0:0:0:0:
475,192,151791,128,0,151875:0:0:0:0:
402,192,151875,128,0,151959:0:0:0:0:
109,192,151959,1,0,0:0:0:0:
329,192,151959,128,0,152044:0:0:0:0:
256,192,152044,128,0,152128:0:0:0:0:
475,192,152128,128,0,152381:0:0:0:0:
109,192,152128,128,0,152212:0:0:0:0:
402,192,152128,128,0,152212:0:0:0:0:
36,192,152128,128,0,152212:0:0:0:0:
182,192,152212,128,0,152296:0:0:0:0:
256,192,152296,128,0,152381:0:0:0:0:
36,192,152296,128,0,152381:0:0:0:0:
329,192,152381,128,0,152465:0:0:0:0:
109,192,152465,128,0,152718:0:0:0:0:
36,192,152465,128,0,152549:0:0:0:0:
402,192,152465,128,0,152549:0:0:0:0:
182,192,152465,128,0,152549:0:0:0:0:
475,192,152549,128,0,152634:0:0:0:0:
256,192,152634,128,0,152802:0:0:0:0:
182,192,152634,1,0,0:0:0:0:
36,192,152634,1,0,0:0:0:0:
329,192,152718,1,0,0:0:0:0:
402,192,152802,128,0,153139:0:0:0:0:
182,192,152802,128,0,152886:0:0:0:0:
475,192,152802,1,0,0:0:0:0:
109,192,152802,1,0,0:0:0:0:
36,192,152886,128,0,152971:0:0:0:0:
256,192,152971,128,0,153055:0:0:0:0:
475,192,152971,1,0,0:0:0:0:
109,192,153055,128,0,153139:0:0:0:0:
475,192,153139,128,0,153392:0:0:0:0:
329,192,153139,128,0,153223:0:0:0:0:
36,192,153139,1,0,0:0:0:0:
256,192,153139,1,0,0:0:0:0:
182,192,153223,128,0,153308:0:0:0:0:
402,192,153308,128,0,153392:0:0:0:0:
109,192,153308,1,0,0:0:0:0:
256,192,153392,128,0,153476:0:0:0:0:
36,192,153476,128,0,153729:0:0:0:0:
329,192,153476,128,0,153560:0:0:0:0:
402,192,153476,1,0,0:0:0:0:
182,192,153476,1,0,0:0:0:0:
475,192,153560,128,0,153645:0:0:0:0:
256,192,153645,128,0,153729:0:0:0:0:
109,192,153645,1,0,0:0:0:0:
402,192,153729,128,0,153813:0:0:0:0:
475,192,153813,128,0,154066:0:0:0:0:
182,192,153813,128,0,153898:0:0:0:0:
36,192,153813,1,0,0:0:0:0:
256,192,153813,1,0,0:0:0:0:
329,192,153898,128,0,153982:0:0:0:0:
109,192,153982,128,0,154066:0:0:0:0:
36,192,153982,1,0,0:0:0:0:
256,192,154066,128,0,154150:0:0:0:0:
402,192,154150,128,0,154487:0:0:0:0:
36,192,154150,128,0,154235:0:0:0:0:
329,192,154150,128,0,154235:0:0:0:0:
182,192,154150,128,0,154235:0:0:0:0:
475,192,154150,128,0,154235:0:0:0:0:
36,192,154319,128,0,154403:0:0:0:0:
329,192,154319,128,0,154403:0:0:0:0:
475,192,154319,128,0,154403:0:0:0:0:
182,192,154487,128,0,154825:0:0:0:0:
109,192,154487,128,0,154572:0:0:0:0:
256,192,154487,128,0,154572:0:0:0:0:
329,192,154487,128,0,154572:0:0:0:0:
475,192,154487,128,0,154572:0:0:0:0:
402,192,154656,128,0,154740:0:0:0:0:
36,192,154656,128,0,154740:0:0:0:0:
475,192,154656,128,0,154740:0:0:0:0:
329,192,154825,128,0,155077:0:0:0:0:
109,192,154825,128,0,154909:0:0:0:0:
256,192,154825,128,0,154909:0:0:0:0:
402,192,154825,128,0,154909:0:0:0:0:
475,192,154825,128,0,154909:0:0:0:0:
36,192,154993,128,0,155077:0:0:0:0:
182,192,154993,128,0,155077:0:0:0:0:
256,192,154993,128,0,155077:0:0:0:0:
402,192,154993,128,0,155077:0:0:0:0:
182,192,155162,1,0,0:0:0:0:
329,192,155162,1,0,0:0:0:0:
256,192,155330,128,0,155667:0:0:0:0:
36,192,155330,128,0,156004:0:0:0:0:
475,192,155330,128,0,155414:0:0:0:0:
402,192,155330,128,0,155414:0:0:0:0:
109,192,155330,128,0,155414:0:0:0:0:
329,192,155667,128,0,155836:0:0:0:0:
475,192,155667,1,0,0:0:0:0:
109,192,155667,1,0,0:0:0:0:
182,192,155751,1,0,0:0:0:0:
475,192,155836,128,0,156004:0:0:0:0:
256,192,155836,1,0,0:0:0:0:
109,192,155836,1,0,0:0:0:0:
402,192,155836,1,0,0:0:0:0:
329,192,155920,1,0,0:0:0:0:
256,192,156004,128,0,156173:0:0:0:0:
182,192,156004,1,0,0:0:0:0:
109,192,156089,1,0,0:0:0:0:
329,192,156173,128,0,156341:0:0:0:0:
36,192,156173,1,0,0:0:0:0:
475,192,156173,1,0,0:0:0:0:
402,192,156173,1,0,0:0:0:0:
182,192,156257,1,0,0:0:0:0:
475,192,156341,128,0,156510:0:0:0:0:
109,192,156341,128,0,156510:0:0:0:0:
256,192,156341,1,0,0:0:0:0:
329,192,156426,1,0,0:0:0:0:
256,192,156510,128,0,156678:0:0:0:0:
402,192,156510,128,0,156678:0:0:0:0:
36,192,156510,1,0,0:0:0:0:
182,192,156594,1,0,0:0:0:0:
475,192,156678,128,0,156847:0:0:0:0:
329,192,156678,1,0,0:0:0:0:
109,192,156678,128,0,156847:0:0:0:0:
256,192,156763,1,0,0:0:0:0:
402,192,156847,1,0,0:0:0:0:
36,192,156847,128,0,157100:0:0:0:0:
182,192,156847,1,0,0:0:0:0:
329,192,156847,128,0,156931:0:0:0:0:
256,192,156931,128,0,157016:0:0:0:0:
182,192,157016,128,0,157100:0:0:0:0:
402,192,157016,128,0,157100:0:0:0:0:
109,192,157100,128,0,157184:0:0:0:0:
475,192,157184,128,0,157521:0:0:0:0:
182,192,157184,128,0,157268:0:0:0:0:
329,192,157184,128,0,157268:0:0:0:0:
36,192,157184,128,0,157268:0:0:0:0:
256,192,157268,128,0,157353:0:0:0:0:
329,192,157353,128,0,157437:0:0:0:0:
109,192,157353,128,0,157437:0:0:0:0:
402,192,157437,128,0,157521:0:0:0:0:
182,192,157521,128,0,157858:0:0:0:0:
36,192,157521,128,0,157605:0:0:0:0:
256,192,157521,128,0,157605:0:0:0:0:
329,192,157521,128,0,157605:0:0:0:0:
109,192,157605,128,0,157690:0:0:0:0:
475,192,157690,128,0,157774:0:0:0:0:
402,192,157690,128,0,157774:0:0:0:0:
256,192,157774,128,0,157858:0:0:0:0:
329,192,157858,128,0,158195:0:0:0:0:
36,192,157858,128,0,157942:0:0:0:0:
475,192,157858,128,0,157942:0:0:0:0:
109,192,157858,128,0,157942:0:0:0:0:
402,192,157942,128,0,158027:0:0:0:0:
109,192,158027,128,0,158532:0:0:0:0:
182,192,158027,128,0,158111:0:0:0:0:
256,192,158027,128,0,158111:0:0:0:0:
475,192,158195,128,0,158532:0:0:0:0:
402,192,158195,128,0,158280:0:0:0:0:
256,192,158195,128,0,158280:0:0:0:0:
329,192,158364,128,0,158448:0:0:0:0:
182,192,158364,128,0,158448:0:0:0:0:
36,192,158364,128,0,158701:0:0:0:0:
256,192,158532,128,0,158617:0:0:0:0:
402,192,158532,128,0,158617:0:0:0:0:
182,192,158532,128,0,158869:0:0:0:0:
329,192,158701,128,0,158785:0:0:0:0:
475,192,158701,128,0,158785:0:0:0:0:
109,192,158701,128,0,159038:0:0:0:0:
402,192,158869,128,0,158954:0:0:0:0:
256,192,158869,128,0,158954:0:0:0:0:
36,192,158869,128,0,159207:0:0:0:0:
475,192,158869,128,0,158954:0:0:0:0:
329,192,159038,128,0,159122:0:0:0:0:
182,192,159038,128,0,159122:0:0:0:0:
475,192,159038,128,0,159375:0:0:0:0:
402,192,159207,128,0,159544:0:0:0:0:
109,192,159207,128,0,159291:0:0:0:0:
256,192,159207,128,0,159291:0:0:0:0:
329,192,159375,128,0,159712:0:0:0:0:
182,192,159375,128,0,159459:0:0:0:0:
36,192,159375,128,0,159459:0:0:0:0:
256,192,159544,128,0,159881:0:0:0:0:
36,192,159544,128,0,159628:0:0:0:0:
182,192,159544,128,0,159628:0:0:0:0:
402,192,159628,128,0,159712:0:0:0:0:
109,192,159628,128,0,159712:0:0:0:0:
475,192,159712,128,0,159796:0:0:0:0:
182,192,159712,128,0,159796:0:0:0:0:
329,192,159796,128,0,159881:0:0:0:0:
109,192,159881,128,0,160218:0:0:0:0:
402,192,159881,128,0,159965:0:0:0:0:
36,192,159881,128,0,159965:0:0:0:0:
182,192,159881,128,0,159965:0:0:0:0:
256,192,159965,128,0,160049:0:0:0:0:
329,192,160049,128,0,160134:0:0:0:0:
475,192,160049,128,0,160134:0:0:0:0:
402,192,160134,128,0,160218:0:0:0:0:
329,192,160218,128,0,160723:0:0:0:0:
36,192,160218,128,0,160302:0:0:0:0:
182,192,160218,128,0,160302:0:0:0:0:
256,192,160218,128,0,160302:0:0:0:0:
109,192,160302,128,0,160386:0:0:0:0:
182,192,160386,128,0,160471:0:0:0:0:
475,192,160386,128,0,160471:0:0:0:0:
256,192,160471,128,0,160555:0:0:0:0:
402,192,160555,128,0,160892:0:0:0:0:
36,192,160555,128,0,160639:0:0:0:0:
109,192,160555,128,0,160639:0:0:0:0:
475,192,160555,128,0,160639:0:0:0:0:
182,192,160639,128,0,160723:0:0:0:0:
36,192,160723,128,0,161313:0:0:0:0:
256,192,160723,128,0,160808:0:0:0:0:
109,192,160723,128,0,160808:0:0:0:0:
182,192,160808,128,0,160892:0:0:0:0:
109,192,160892,128,0,161229:0:0:0:0:
475,192,160892,128,0,160976:0:0:0:0:
256,192,160892,128,0,161060:0:0:0:0:
402,192,160976,128,0,161060:0:0:0:0:
182,192,160976,128,0,161145:0:0:0:0:
475,192,161060,128,0,161229:0:0:0:0:
329,192,161060,128,0,161145:0:0:0:0:
402,192,161145,128,0,161313:0:0:0:0:
256,192,161145,128,0,161229:0:0:0:0:
182,192,161229,128,0,161313:0:0:0:0:
329,192,161229,128,0,161398:0:0:0:0:
475,192,161313,128,0,161482:0:0:0:0:
109,192,161313,128,0,161398:0:0:0:0:
256,192,161313,128,0,161482:0:0:0:0:
36,192,161398,128,0,161482:0:0:0:0:
402,192,161398,128,0,161566:0:0:0:0:
182,192,161398,128,0,161566:0:0:0:0:
109,192,161482,128,0,162156:0:0:0:0:
329,192,161482,128,0,161735:0:0:0:0:
36,192,161566,128,0,161819:0:0:0:0:
256,192,161566,128,0,161650:0:0:0:0:
475,192,161566,128,0,161650:0:0:0:0:
402,192,161650,128,0,161819:0:0:0:0:
182,192,161650,128,0,161735:0:0:0:0:
475,192,161735,128,0,161903:0:0:0:0:
256,192,161735,128,0,161819:0:0:0:0:
182,192,161819,128,0,161987:0:0:0:0:
329,192,161819,128,0,161903:0:0:0:0:
402,192,161903,128,0,161987:0:0:0:0:
36,192,161903,128,0,162156:0:0:0:0:
256,192,161903,128,0,162072:0:0:0:0:
475,192,161987,128,0,162072:0:0:0:0:
329,192,161987,128,0,162156:0:0:0:0:
182,192,162072,128,0,162156:0:0:0:0:
402,192,162072,128,0,162240:0:0:0:0:
475,192,162156,128,0,162325:0:0:0:0:
256,192,162156,128,0,162240:0:0:0:0:
36,192,162240,128,0,162577:0:0:0:0:
109,192,162240,128,0,162325:0:0:0:0:
182,192,162240,128,0,162325:0:0:0:0:
329,192,162240,128,0,162325:0:0:0:0:
256,192,162325,128,0,162409:0:0:0:0:
182,192,162409,128,0,162493:0:0:0:0:
402,192,162409,128,0,162493:0:0:0:0:
329,192,162493,128,0,162577:0:0:0:0:
109,192,162493,128,0,162577:0:0:0:0:
402,192,162577,128,0,162662:0:0:0:0:
256,192,162577,128,0,162662:0:0:0:0:
182,192,162577,128,0,162662:0:0:0:0:
475,192,162577,128,0,162914:0:0:0:0:
109,192,162662,128,0,162746:0:0:0:0:
36,192,162746,128,0,162830:0:0:0:0:
329,192,162746,128,0,162830:0:0:0:0:
256,192,162830,128,0,162914:0:0:0:0:
182,192,162914,128,0,162999:0:0:0:0:
402,192,162914,128,0,163251:0:0:0:0:
36,192,162914,128,0,162999:0:0:0:0:
329,192,162914,128,0,162999:0:0:0:0:
475,192,162999,128,0,163083:0:0:0:0:
256,192,163083,128,0,163167:0:0:0:0:
109,192,163083,128,0,163167:0:0:0:0:
36,192,163251,128,0,163336:0:0:0:0:
182,192,163251,128,0,163336:0:0:0:0:
329,192,163251,128,0,163336:0:0:0:0:
475,192,163251,128,0,163504:0:0:0:0:
256,192,163336,128,0,163420:0:0:0:0:
36,192,163420,128,0,163504:0:0:0:0:
402,192,163420,128,0,163926:0:0:0:0:
329,192,163420,128,0,163504:0:0:0:0:
109,192,163504,128,0,163589:0:0:0:0:
182,192,163589,128,0,163673:0:0:0:0:
329,192,163589,128,0,163673:0:0:0:0:
475,192,163589,128,0,163673:0:0:0:0:
256,192,163673,128,0,163757:0:0:0:0:
329,192,163757,128,0,163841:0:0:0:0:
36,192,163757,128,0,163841:0:0:0:0:
475,192,163841,128,0,163926:0:0:0:0:
109,192,163926,128,0,164516:0:0:0:0:
182,192,163926,128,0,164010:0:0:0:0:
256,192,163926,128,0,164010:0:0:0:0:
36,192,163926,128,0,164010:0:0:0:0:
329,192,164010,128,0,164094:0:0:0:0:
402,192,164094,128,0,164178:0:0:0:0:
182,192,164094,128,0,164178:0:0:0:0:
475,192,164178,128,0,164263:0:0:0:0:
402,192,164263,128,0,164516:0:0:0:0:
329,192,164263,128,0,164347:0:0:0:0:
256,192,164263,128,0,164347:0:0:0:0:
36,192,164263,128,0,164347:0:0:0:0:
182,192,164431,128,0,164516:0:0:0:0:
256,192,164431,128,0,164516:0:0:0:0:
475,192,164431,128,0,164516:0:0:0:0:
36,192,164600,128,0,164937:0:0:0:0:
182,192,164600,128,0,164768:0:0:0:0:
329,192,164600,128,0,164768:0:0:0:0:
475,192,164600,128,0,164937:0:0:0:0:
109,192,164600,128,0,164684:0:0:0:0:
402,192,164600,128,0,164684:0:0:0:0:
402,192,164768,1,0,0:0:0:0:
109,192,164768,1,0,0:0:0:0:
256,192,164768,1,0,0:0:0:0:
109,192,164937,128,0,165274:0:0:0:0:
402,192,164937,128,0,165105:0:0:0:0:
182,192,164937,1,0,0:0:0:0:
329,192,165021,1,0,0:0:0:0:
256,192,165105,128,0,165274:0:0:0:0:
475,192,165105,1,0,0:0:0:0:
182,192,165105,1,0,0:0:0:0:
36,192,165190,1,0,0:0:0:0:
402,192,165274,128,0,165611:0:0:0:0:
329,192,165274,128,0,165442:0:0:0:0:
182,192,165274,1,0,0:0:0:0:
36,192,165358,1,0,0:0:0:0:
182,192,165442,128,0,165611:0:0:0:0:
256,192,165442,1,0,0:0:0:0:
109,192,165527,1,0,0:0:0:0:
36,192,165611,128,0,165948:0:0:0:0:
475,192,165611,128,0,165780:0:0:0:0:
256,192,165611,1,0,0:0:0:0:
329,192,165611,1,0,0:0:0:0:
329,192,165780,128,0,165948:0:0:0:0:
182,192,165780,1,0,0:0:0:0:
109,192,165780,1,0,0:0:0:0:
402,192,165780,1,0,0:0:0:0:
256,192,165864,1,0,0:0:0:0:
475,192,165948,1,0,0:0:0:0:
36,192,166117,128,0,166622:0:0:0:0:
109,192,166117,128,0,166201:0:0:0:0:
256,192,166117,128,0,166201:0:0:0:0:
402,192,166117,128,0,166201:0:0:0:0:
475,192,166117,128,0,166622:0:0:0:0:
182,192,166454,1,0,0:0:0:0:
329,192,166538,1,0,0:0:0:0:
109,192,166622,1,0,0:0:0:0:
256,192,166707,1,0,0:0:0:0:
402,192,166791,1,0,0:0:0:0:
109,192,166791,1,0,0:0:0:0:
329,192,166875,1,0,0:0:0:0:
182,192,166875,1,0,0:0:0:0:
475,192,166959,128,0,167128:0:0:0:0:
402,192,166959,128,0,167044:0:0:0:0:
256,192,166959,128,0,167044:0:0:0:0:
109,192,166959,128,0,167044:0:0:0:0:
36,192,166959,128,0,167044:0:0:0:0:
36,192,167128,128,0,167381:0:0:0:0:
109,192,167128,128,0,167212:0:0:0:0:
182,192,167128,128,0,167212:0:0:0:0:
256,192,167128,128,0,167212:0:0:0:0:
329,192,167128,128,0,167212:0:0:0:0:
109,192,167296,128,0,167465:0:0:0:0:
182,192,167296,128,0,167381:0:0:0:0:
256,192,167296,128,0,167381:0:0:0:0:
329,192,167296,128,0,167381:0:0:0:0:
402,192,167296,128,0,167381:0:0:0:0:
182,192,167465,128,0,167634:0:0:0:0:
256,192,167465,128,0,167549:0:0:0:0:
329,192,167465,128,0,167549:0:0:0:0:
402,192,167465,128,0,167549:0:0:0:0:
475,192,167465,128,0,167549:0:0:0:0:
256,192,167634,128,0,167802:0:0:0:0:
329,192,167634,128,0,167718:0:0:0:0:
402,192,167634,128,0,167718:0:0:0:0:
475,192,167634,128,0,167718:0:0:0:0:
36,192,167634,128,0,167802:0:0:0:0:
182,192,167802,128,0,167971:0:0:0:0:
475,192,167802,128,0,167971:0:0:0:0:
329,192,167802,1,0,0:0:0:0:
109,192,167971,128,0,168139:0:0:0:0:
402,192,167971,128,0,168139:0:0:0:0:
256,192,167971,1,0,0:0:0:0:
182,192,168139,1,0,0:0:0:0:
329,192,168139,1,0,0:0:0:0:
36,192,168308,128,0,168476:0:0:0:0:
109,192,168308,128,0,168392:0:0:0:0:
182,192,168308,128,0,168392:0:0:0:0:
256,192,168308,128,0,168392:0:0:0:0:
402,192,168308,128,0,168392:0:0:0:0:
475,192,168476,128,0,168645:0:0:0:0:
402,192,168476,128,0,168560:0:0:0:0:
329,192,168476,128,0,168560:0:0:0:0:
256,192,168476,128,0,168560:0:0:0:0:
182,192,168476,128,0,168560:0:0:0:0:
402,192,168645,128,0,168813:0:0:0:0:
329,192,168645,128,0,168729:0:0:0:0:
256,192,168645,128,0,168729:0:0:0:0:
182,192,168645,128,0,168729:0:0:0:0:
109,192,168645,128,0,168729:0:0:0:0:
329,192,168813,128,0,168982:0:0:0:0:
256,192,168813,128,0,168898:0:0:0:0:
182,192,168813,128,0,168898:0:0:0:0:
109,192,168813,128,0,168898:0:0:0:0:
36,192,168813,128,0,168898:0:0:0:0:
256,192,168982,128,0,169150:0:0:0:0:
182,192,168982,128,0,169066:0:0:0:0:
109,192,168982,128,0,169066:0:0:0:0:
36,192,168982,128,0,169066:0:0:0:0:
475,192,168982,128,0,169150:0:0:0:0:
329,192,169150,128,0,169319:0:0:0:0:
36,192,169150,128,0,169319:0:0:0:0:
182,192,169150,1,0,0:0:0:0:
402,192,169319,128,0,169487:0:0:0:0:
109,192,169319,128,0,169487:0:0:0:0:
256,192,169319,1,0,0:0:0:0:
475,192,169487,128,0,169656:0:0:0:0:
182,192,169487,128,0,169656:0:0:0:0:
329,192,169487,1,0,0:0:0:0:
402,192,169656,1,0,0:0:0:0:
256,192,169656,1,0,0:0:0:0:
36,192,169656,128,0,170330:0:0:0:0:
109,192,169656,1,0,0:0:0:0:
182,192,169825,128,0,169993:0:0:0:0:
329,192,169825,1,0,0:0:0:0:
475,192,169825,1,0,0:0:0:0:
402,192,169993,128,0,170162:0:0:0:0:
256,192,169993,1,0,0:0:0:0:
109,192,169993,1,0,0:0:0:0:
256,192,170162,128,0,170330:0:0:0:0:
182,192,170162,1,0,0:0:0:0:
329,192,170162,1,0,0:0:0:0:
475,192,170330,128,0,171594:0:0:0:0:
329,192,170330,128,0,171004:0:0:0:0:
402,192,170330,1,0,0:0:0:0:
109,192,170330,1,0,0:0:0:0:
182,192,170372,1,0,0:0:0:0:
256,192,170414,1,0,0:0:0:0:
36,192,170499,1,0,0:0:0:0:
182,192,170499,1,0,0:0:0:0:
256,192,170667,1,0,0:0:0:0:
109,192,170667,1,0,0:0:0:0:
402,192,170667,1,0,0:0:0:0:
36,192,170836,1,0,0:0:0:0:
182,192,170836,1,0,0:0:0:0:
182,192,171004,128,0,171678:0:0:0:0:
109,192,171004,1,0,0:0:0:0:
256,192,171004,1,0,0:0:0:0:
402,192,171004,1,0,0:0:0:0:
329,192,171173,1,0,0:0:0:0:
36,192,171173,1,0,0:0:0:0:
109,192,171341,1,0,0:0:0:0:
256,192,171341,1,0,0:0:0:0:
402,192,171341,1,0,0:0:0:0:
329,192,171510,1,0,0:0:0:0:
36,192,171510,1,0,0:0:0:0:
36,192,171678,128,0,172353:0:0:0:0:
402,192,171678,128,0,172353:0:0:0:0:
109,192,171678,1,0,0:0:0:0:
256,192,171678,1,0,0:0:0:0:
475,192,171678,1,0,0:0:0:0:
182,192,171763,1,0,0:0:0:0:
329,192,171847,1,0,0:0:0:0:
256,192,172016,1,0,0:0:0:0:
109,192,172016,1,0,0:0:0:0:
475,192,172016,1,0,0:0:0:0:
182,192,172184,128,0,172353:0:0:0:0:
256,192,172353,128,0,172858:0:0:0:0:
475,192,172353,128,0,172521:0:0:0:0:
109,192,172353,1,0,0:0:0:0:
329,192,172353,1,0,0:0:0:0:
36,192,172465,1,0,0:0:0:0:
402,192,172465,1,0,0:0:0:0:
329,192,172521,128,0,172690:0:0:0:0:
109,192,172577,1,0,0:0:0:0:
475,192,172577,1,0,0:0:0:0:
182,192,172690,128,0,172858:0:0:0:0:
402,192,172690,1,0,0:0:0:0:
36,192,172690,1,0,0:0:0:0:
109,192,172802,1,0,0:0:0:0:
329,192,172802,1,0,0:0:0:0:
36,192,172858,128,0,173027:0:0:0:0:
402,192,172914,1,0,0:0:0:0:
182,192,172914,1,0,0:0:0:0:
109,192,173027,128,0,173111:0:0:0:0:
256,192,173027,128,0,173111:0:0:0:0:
475,192,173027,1,0,0:0:0:0:
256,192,173364,128,0,173448:0:0:0:0:
402,192,173364,128,0,173448:0:0:0:0:
109,192,173364,1,0,0:0:0:0:
329,192,173701,128,0,173785:0:0:0:0:
475,192,173701,128,0,173785:0:0:0:0:
182,192,173701,1,0,0:0:0:0:
36,192,174038,128,0,174544:0:0:0:0:
182,192,174207,128,0,174544:0:0:0:0:
256,192,174375,1,0,0:0:0:0:
475,192,174375,1,0,0:0:0:0:
402,192,174544,128,0,174628:0:0:0:0:
329,192,174544,1,0,0:0:0:0:
109,192,174712,128,0,174796:0:0:0:0:
182,192,174712,1,0,0:0:0:0:
36,192,174712,1,0,0:0:0:0:
475,192,175049,128,0,175555:0:0:0:0:
402,192,175049,1,0,0:0:0:0:
36,192,175049,1,0,0:0:0:0:
329,192,175162,1,0,0:0:0:0:
109,192,175162,1,0,0:0:0:0:
36,192,175274,1,0,0:0:0:0:
402,192,175274,1,0,0:0:0:0:
256,192,175386,1,0,0:0:0:0:
329,192,175386,1,0,0:0:0:0:
109,192,175386,1,0,0:0:0:0:
182,192,175555,1,0,0:0:0:0:
329,192,175723,128,0,175892:0:0:0:0:
475,192,175723,128,0,176060:0:0:0:0:
109,192,175723,1,0,0:0:0:0:
36,192,175723,1,0,0:0:0:0:
182,192,175892,128,0,176060:0:0:0:0:
256,192,175892,1,0,0:0:0:0:
36,192,176060,128,0,176229:0:0:0:0:
109,192,176060,1,0,0:0:0:0:
329,192,176060,1,0,0:0:0:0:
256,192,176229,128,0,176398:0:0:0:0:
402,192,176229,128,0,176566:0:0:0:0:
182,192,176229,1,0,0:0:0:0:
475,192,176229,1,0,0:0:0:0:
109,192,176566,128,0,176735:0:0:0:0:
256,192,176566,1,0,0:0:0:0:
36,192,176566,1,0,0:0:0:0:
475,192,176566,1,0,0:0:0:0:
256,192,176903,128,0,178083:0:0:0:0:
402,192,176903,1,0,0:0:0:0:
109,192,176903,1,0,0:0:0:0:
36,192,176903,1,0,0:0:0:0:
475,192,176903,1,0,0:0:0:0:
329,192,177240,1,0,0:0:0:0:
182,192,177240,1,0,0:0:0:0:
475,192,177409,1,0,0:0:0:0:
36,192,177409,1,0,0:0:0:0:
402,192,177577,1,0,0:0:0:0:
109,192,177577,1,0,0:0:0:0:
329,192,177746,1,0,0:0:0:0:
182,192,177746,1,0,0:0:0:0:
402,192,177914,1,0,0:0:0:0:
109,192,177914,1,0,0:0:0:0:
475,192,178083,1,0,0:0:0:0:
36,192,178083,1,0,0:0:0:0:
182,192,178083,128,0,178420:0:0:0:0:
329,192,178083,1,0,0:0:0:0:
402,192,178251,1,0,0:0:0:0:
109,192,178251,1,0,0:0:0:0:
329,192,178420,128,0,178757:0:0:0:0:
475,192,178420,1,0,0:0:0:0:
36,192,178420,1,0,0:0:0:0:
256,192,178420,1,0,0:0:0:0:
109,192,178589,1,0,0:0:0:0:
402,192,178589,1,0,0:0:0:0:
36,192,178757,128,0,179094:0:0:0:0:
182,192,178757,128,0,178841:0:0:0:0:
256,192,178757,1,0,0:0:0:0:
475,192,178757,1,0,0:0:0:0:
329,192,178869,1,0,0:0:0:0:
402,192,178926,1,0,0:0:0:0:
182,192,178926,1,0,0:0:0:0:
256,192,179094,1,0,0:0:0:0:
475,192,179094,1,0,0:0:0:0:
109,192,179263,128,0,179600:0:0:0:0:
256,192,179263,128,0,179347:0:0:0:0:
402,192,179263,1,0,0:0:0:0:
475,192,179375,1,0,0:0:0:0:
329,192,179431,1,0,0:0:0:0:
182,192,179431,1,0,0:0:0:0:
36,192,179600,1,0,0:0:0:0:
256,192,179600,1,0,0:0:0:0:
402,192,179768,128,0,180442:0:0:0:0:
182,192,179768,1,0,0:0:0:0:
256,192,180442,128,0,180780:0:0:0:0:
36,192,180442,1,0,0:0:0:0:
109,192,180780,128,0,181117:0:0:0:0:
329,192,181201,128,0,181622:0:0:0:0:
109,192,181201,1,0,0:0:0:0:
475,192,181201,1,0,0:0:0:0:
475,192,181903,128,0,182296:0:0:0:0:
256,192,181903,1,0,0:0:0:0:
329,192,182296,128,0,182634:0:0:0:0:
109,192,182577,1,0,0:0:0:0:
256,192,182605,1,0,0:0:0:0:
182,192,182634,128,0,182971:0:0:0:0:
402,192,182634,1,0,0:0:0:0:
36,192,182971,128,0,183308:0:0:0:0:
475,192,183251,1,0,0:0:0:0:
182,192,183392,128,0,183729:0:0:0:0:
329,192,183729,128,0,183982:0:0:0:0:
475,192,183982,128,0,185499:0:0:0:0:
182,192,183982,1,0,0:0:0:0:
36,192,185372,1,0,0:0:0:0:
182,192,185414,1,0,0:0:0:0:
329,192,185457,1,0,0:0:0:0:
109,192,185541,1,0,0:0:0:0:
256,192,185541,1,0,0:0:0:0:
329,192,188027,1,0,0:0:0:0:
109,192,188111,128,0,189038:0:0:0:0:
256,192,188153,1,0,0:0:0:0:
182,192,188251,1,0,0:0:0:0:
475,192,188251,1,0,0:0:0:0:
402,192,188645,1,0,0:0:0:0:
329,192,188982,1,0,0:0:0:0:
402,192,189038,128,0,189796:0:0:0:0:
182,192,189319,1,0,0:0:0:0:
36,192,189684,1,0,0:0:0:0:
256,192,189796,128,0,190471:0:0:0:0:
475,192,190049,1,0,0:0:0:0:
329,192,190414,1,0,0:0:0:0:
109,192,190471,128,0,191145:0:0:0:0:
182,192,191566,1,0,0:0:0:0:
475,192,191735,128,0,192577:0:0:0:0:
329,192,191735,1,0,0:0:0:0:
256,192,191763,1,0,0:0:0:0:
109,192,191763,1,0,0:0:0:0:
36,192,192156,1,0,0:0:0:0:
182,192,192156,1,0,0:0:0:0:
109,192,192493,1,0,0:0:0:0:
256,192,192493,1,0,0:0:0:0:
402,192,192577,128,0,193420:0:0:0:0:
329,192,192858,1,0,0:0:0:0:
109,192,193251,1,0,0:0:0:0:
182,192,193280,1,0,0:0:0:0:
256,192,193308,1,0,0:0:0:0:
329,192,193336,1,0,0:0:0:0:
36,192,193420,128,0,195442:0:0:0:0:
475,192,194291,1,0,0:0:0:0:
182,192,196538,1,0,0:0:0:0:
402,192,196622,128,0,200667:0:0:0:0:
109,192,196622,1,0,0:0:0:0:
329,192,196707,1,0,0:0:0:0:
36,192,196707,1,0,0:0:0:0:
256,192,196735,1,0,0:0:0:0:
182,192,196763,1,0,0:0:0:0:
36,192,197296,1,0,0:0:0:0:
182,192,197296,1,0,0:0:0:0:
109,192,197465,1,0,0:0:0:0:
256,192,197465,1,0,0:0:0:0:
182,192,197662,1,0,0:0:0:0:
256,192,197886,1,0,0:0:0:0:
182,192,198336,1,0,0:0:0:0:
109,192,198617,1,0,0:0:0:0:
36,192,198813,1,0,0:0:0:0:
256,192,198813,1,0,0:0:0:0:
109,192,199066,1,0,0:0:0:0:
182,192,199347,1,0,0:0:0:0:
256,192,199656,1,0,0:0:0:0:
329,192,200105,1,0,0:0:0:0:
256,192,200527,1,0,0:0:0:0:
109,192,200976,1,0,0:0:0:0:
475,192,201426,1,0,0:0:0:0:
256,192,201426,1,0,0:0:0:0:
36,192,201510,1,0,0:0:0:0:
182,192,201566,1,0,0:0:0:0:
329,192,201594,1,0,0:0:0:0:
