osu file format v14

[General]
AudioFilename: Kotoba no Iranai Yakusoku.mp3
AudioLeadIn: 2000
PreviewTime: 61959
Countdown: 0
SampleSet: Soft
StackLeniency: 0.7
Mode: 0
LetterboxInBreaks: 0
WidescreenStoryboard: 1

[Editor]
DistanceSpacing: 2
BeatDivisor: 4
GridSize: 8
TimelineZoom: 5.300003

[Metadata]
Title:Kotoba no Iranai Yakusoku (TV size)
TitleUnicode:言葉のいらない約束 (TV size)
Artist:sana
ArtistUnicode:sana
Creator:monstrata
Version:Six Paths
Source:NARUTO -ナルト- 疾風伝
Tags:milan- honeyworks naruto shippuuden madara uchiha senju hashirama kyuubi ending ED 33 Akatsuki Zukuyo
BeatmapID:699318
BeatmapSetID:313239

[Difficulty]
HPDrainRate:6.5
CircleSize:4
OverallDifficulty:8.5
ApproachRate:9
SliderMultiplier:1.8
SliderTickRate:1

[Events]
//Background and Video events
0,0,"maxresdefault.jpg",0,0
//Break Periods
//Storyboard Layer 0 (Background)
//Storyboard Layer 1 (Fail)
//Storyboard Layer 2 (Pass)
//Storyboard Layer 3 (Foreground)
//Storyboard Sound Samples

[TimingPoints]
371,375,4,2,1,50,1,0
371,-133.333333333333,4,2,1,50,0,0
746,352.941176470588,4,2,1,50,1,0
746,-133.333333333333,4,2,1,50,0,0
1804,352.941176470588,4,2,1,50,1,0
1804,-133.333333333333,4,2,1,50,0,0
7791,352.941176470588,4,2,1,50,1,0
7791,-133.333333333333,4,2,1,50,0,0
8849,352.941176470588,4,2,1,50,1,0
8849,-133.333333333333,4,2,1,50,0,0
10260,-166.666666666667,4,2,1,50,0,0
10986,352.941176470588,4,2,1,50,1,0
10986,-166.666666666667,4,2,1,50,0,0
11700,352.941176470588,4,1,0,50,1,0
13106,352.941176470588,4,1,0,50,1,0
22974,352.941176470588,4,2,1,50,1,0
22974,-133.333333333333,4,2,1,50,0,0
32856,-100,4,2,1,50,0,0
34277,352.941176470588,4,1,0,50,1,0
44865,-100,4,1,0,30,0,0
45571,-133.333333333333,4,2,1,50,0,0
47170,352.941176470588,4,2,1,50,1,0
47170,-133.333333333333,4,2,1,50,0,0
48405,352.941176470588,4,2,1,50,1,0
48405,-133.333333333333,4,2,1,50,0,0
51052,361.44578313253,4,2,1,50,1,8
51232,352.941176470588,4,2,1,50,1,0
51232,-133.333333333333,4,2,1,50,0,0
54584,331.491712707182,4,2,1,50,1,8
54749,352.941176470588,4,2,1,50,1,0
54749,-133.333333333333,4,2,1,50,0,0
55454,352.941176470588,4,2,1,50,1,0
56841,355.555555555556,4,2,1,50,1,0
56841,-133.333333333333,4,2,1,50,0,0
57552,350.36496350365,4,2,1,50,1,0
57552,-133.333333333333,4,2,1,50,0,0
58252,360.902255639098,4,2,1,50,1,0
58252,-133.333333333333,4,2,1,50,0,0
58973,352.941176470588,4,2,1,50,1,0
58973,-133.333333333333,4,2,1,50,0,0
59678,352.941176470588,4,2,1,50,1,0
59678,-200,4,2,1,50,0,0
59766,-200,4,2,1,5,0,0
60736,-200,4,2,1,50,0,0
61089,-200,4,1,0,50,0,0
62148,340.909090909091,4,2,1,50,1,0
62148,-133.333333333333,4,2,1,50,0,0
62403,-133.333333333333,4,2,0,5,0,0
62508,352.941176470588,4,1,0,50,1,1
68066,-83.3333333333333,4,1,0,5,0,1
68155,-100,4,1,0,50,0,1
72566,-101.010101010101,4,1,0,50,0,1
79360,-101.010101010101,4,1,0,5,0,1
79449,-101.010101010101,4,1,0,50,0,1
85096,-133.333333333333,4,2,1,50,0,0
86495,360.902255639098,4,2,1,50,1,0
86495,-133.333333333333,4,2,1,50,0,0
87568,360.902255639098,4,2,0,50,1,0

[Colours]
Combo1 : 254,149,109
Combo2 : 38,197,249
Combo3 : 255,255,0
Combo4 : 223,67,16

[HitObjects]
144,133,371,6,0,P|117:94|23:83,1,135.000005149842,0|2,0:0|0:2,0:0:0:0:
61,164,922,1,0,0:0:0:0:
213,190,1098,2,0,P|270:179|299:152,1,67.5000025749208,0|0,0:0|0:0,0:0:0:0:
226,101,1451,1,2,0:2:0:0:
144,133,1628,1,0,0:0:0:0:
199,279,1804,6,0,P|236:324|274:334,2,67.5000025749208,0|0|2,0:0|0:0|0:2,0:0:0:0:
213,190,2333,1,0,0:0:0:0:
365,213,2509,2,0,P|370:246|364:278,1,67.5000025749208,0|0,0:0|0:0,0:0:0:0:
282,245,2862,1,2,0:2:0:0:
295,157,3039,1,0,0:0:0:0:
448,180,3215,6,0,L|511:229,2,67.5000025749208,0|0|2,0:0|0:0|0:0,0:0:0:0:
377,124,3745,1,0,0:0:0:0:
213,190,3921,2,0,L|138:219,2,67.5000025749208,0|0|2,0:0|0:0|0:0,0:0:0:0:
295,157,4451,1,0,0:0:0:0:
434,268,4627,6,0,P|431:334|385:381,1,135.000005149842,0|2,0:0|0:0,0:0:0:0:
351,301,5156,1,0,0:0:0:0:
446,180,5333,2,0,P|477:190|502:212,1,67.5000025749208,0|0,0:0|0:0,0:0:0:0:
364,213,5686,1,2,0:0:0:0:
295,157,5862,1,0,0:0:0:0:
390,36,6039,6,0,P|448:72|464:134,1,135.000005149842,0|2,0:0|0:0,0:0:0:0:
377,124,6568,1,0,0:0:0:0:
226,101,6745,2,0,P|207:164|238:226,1,135.000005149842,0|2,0:0|0:0,0:0:0:0:
295,157,7274,1,0,0:0:0:0:
131,223,7451,6,0,L|46:256,1,67.5000025749208,0|0,0:0|0:0,0:0:0:0:
194,298,7791,2,0,L|270:328,1,67.5000025749208,2|0,0:0|0:0,0:0:0:0:
295,157,8143,2,0,L|210:190,1,67.5000025749208,0|0,0:0|0:0,0:0:0:0:
358,232,8496,2,0,L|434:262,1,67.5000025749208,2|0,0:0|0:0,0:0:0:0:
459,91,8849,6,0,P|436:57|402:38,1,67.5000025749208,2|0,0:0|0:0,0:0:0:0:
295,157,9201,1,0,0:0:0:0:
377,124,9378,1,0,0:0:0:0:
307,69,9554,1,2,0:0:0:0:
282,245,9731,1,0,0:0:0:0:
364,213,9907,1,0,0:0:0:0:
295,157,10084,1,0,0:0:0:0:
199,279,10260,6,0,P|237:323|351:300,1,161.999995056153,2|0,0:2|0:0,0:0:0:0:
364,213,10986,2,0,P|326:169|216:185,1,161.999995056153,0|0,0:0|0:0,0:0:0:0:
116,313,11700,5,4,0:0:0:0:
282,245,11876,2,0,L|290:189,2,45,0|0|8,0:0|0:0|0:0,0:0:0:0:
199,279,12228,1,0,0:0:0:0:
364,213,12405,1,2,0:3:0:0:
213,190,12581,1,0,0:0:0:0:
170,206,12670,1,0,0:0:0:0:
128,222,12758,1,8,0:0:0:0:
282,245,12934,1,0,0:0:0:0:
144,133,13106,6,0,P|68:157|53:270,1,180,4|8,0:0|0:0,0:0:0:0:
199,279,13635,1,0,0:0:0:0:
226,101,13811,1,0,0:0:0:0:
128,222,13988,1,0,0:0:0:0:
120,266,14076,1,0,0:0:0:0:
112,310,14164,1,8,0:0:0:0:
282,245,14341,1,0,0:0:0:0:
144,133,14517,5,2,0:3:0:0:
199,279,14694,2,0,L|190:337,2,45,0|0|8,0:0|0:0|0:0,0:0:0:0:
295,157,15047,1,0,0:0:0:0:
269,333,15223,1,2,0:3:0:0:
213,190,15400,1,0,0:0:0:0:
219,145,15488,1,0,0:0:0:0:
225,100,15576,1,8,0:0:0:0:
282,245,15753,1,0,0:0:0:0:
116,313,15929,6,0,P|66:290|40:244,1,90,2|0,0:3|0:0,0:0:0:0:
139,132,16282,2,0,P|189:155|215:201,1,90,8|0,0:0|0:0,0:0:0:0:
187,366,16635,1,2,0:3:0:0:
128,222,16811,1,0,1:1:0:0:
131,192,16900,1,0,1:1:0:0:
135,162,16988,1,8,1:1:0:0:
139,132,17076,1,0,1:1:0:0:
143,103,17164,1,0,1:1:0:0:
147,73,17253,1,0,1:1:0:0:
151,43,17341,5,4,1:1:0:0:
307,69,17517,2,0,L|366:46,2,45,0|0|8,0:0|0:0|0:0,0:0:0:0:
139,132,17870,1,0,0:0:0:0:
282,245,18047,1,2,0:3:0:0:
226,101,18223,1,0,0:0:0:0:
209,59,18311,1,0,0:0:0:0:
192,17,18400,1,8,0:0:0:0:
128,222,18576,1,0,0:0:0:0:
364,213,18753,6,0,P|383:152|300:67,1,180,4|8,0:0|0:0,0:0:0:0:
213,190,19282,1,0,0:0:0:0:
351,301,19458,1,2,0:3:0:0:
295,157,19635,1,0,0:0:0:0:
260,128,19723,1,0,0:0:0:0:
226,101,19811,1,8,0:0:0:0:
199,279,19988,1,0,0:0:0:0:
364,213,20164,5,2,0:3:0:0:
213,190,20341,2,0,L|161:209,2,45,0|0|8,0:0|0:0|0:0,0:0:0:0:
377,124,20694,1,0,0:0:0:0:
282,245,20870,1,2,0:3:0:0:
307,69,21047,1,0,0:0:0:0:
446,180,21223,1,8,0:0:0:0:
390,36,21400,1,0,0:0:0:0:
295,157,21576,6,0,L|278:278,1,90,4|0,0:3|0:0,0:0:0:0:
316,274,21841,1,0,0:0:0:0:
351,301,21929,1,4,0:3:0:0:
377,124,22105,1,0,0:0:0:0:
213,190,22282,1,4,0:3:0:0:
364,212,22458,2,0,L|407:246,2,45,0|0|8,0:0|0:0|0:0,0:0:0:0:
226,101,22811,1,0,0:0:0:0:
199,279,22974,6,0,L|186:362,1,67.5000025749208
282,245,23327,1,2,0:2:0:0:
295,157,23503,1,0,0:0:0:0:
145,134,23679,2,0,P|127:162|124:196,1,67.5000025749208,0|0,0:0|0:0,0:0:0:0:
226,101,24032,1,2,0:2:0:0:
157,47,24209,1,0,0:0:0:0:
213,190,24385,6,0,P|271:242|284:245,1,67.5000025749208,0|0,0:0|0:0,0:0:0:0:
377,124,24738,1,2,0:0:0:0:
295,157,24915,1,0,0:0:0:0:
269,333,25091,2,0,L|190:363,1,67.5000025749208,0|0,0:0|0:0,0:0:0:0:
282,245,25444,1,2,0:0:0:0:
351,300,25621,1,0,0:0:0:0:
199,279,25797,6,0,B|178:277|151:263|131:230|131:230|69:230,1,135.000005149842,0|2,0:0|0:2,0:0:0:0:
213,190,26326,1,0,0:0:0:0:
295,157,26503,2,0,B|316:159|342:172|363:206|363:206|425:206,1,135.000005149842,0|2,0:0|0:0,0:0:0:0:
502,199,27033,1,0,0:0:0:0:
463,282,27209,6,0,L|506:346,1,67.5000025749208,0|0,0:0|0:0,0:0:0:0:
371,288,27562,1,2,0:0:0:0:
411,206,27738,1,0,0:0:0:0:
421,362,27915,2,0,P|386:376|339:373,1,67.5000025749208,0|0,0:0|0:0,0:0:0:0:
321,213,28267,1,2,0:0:0:0:
411,206,28444,1,0,0:0:0:0:
279,294,28620,6,0,L|193:298,1,67.5000025749208,0|0,0:0|0:0,0:0:0:0:
160,220,28973,1,2,0:0:0:0:
390,30,29326,1,0,0:0:0:0:
471,68,29503,1,0,0:0:0:0:
397,119,29679,1,2,0:0:0:0:
156,81,30032,6,0,L|109:152,1,67.5000025749208,0|0,0:0|0:0,0:0:0:0:
160,220,30385,1,2,0:0:0:0:
390,354,30738,1,0,0:0:0:0:
471,316,30914,1,0,0:0:0:0:
397,264,31091,1,2,0:0:0:0:
186,305,31444,6,0,L|211:388,1,67.5000025749208,0|0,0:0|0:0,0:0:0:0:
247,240,31797,2,0,L|161:219,2,67.5000025749208,2|0|0,0:0|0:0|0:0,0:0:0:0:
273,325,32326,1,0,0:0:0:0:
333,261,32503,2,0,P|335:227|324:195,1,67.5000025749208,2|0,0:0|0:0,0:0:0:0:
186,305,32856,6,0,L|291:329,1,90,2|0,0:2|0:0,0:0:0:0:
247,240,33209,1,0,0:0:0:0:
100,285,33385,2,0,P|103:338|138:381,1,90,2|0,0:0|0:0,0:0:0:0:
247,240,33738,1,0,0:0:0:0:
74,200,33914,2,0,P|29:229|9:280,1,90,2|0,0:3|0:0,0:0:0:0:
273,325,34277,6,0,L|374:348,1,90,4|0,0:2|0:0,0:0:0:0:
308,176,34629,2,0,L|409:153,1,90,8|0,0:0|0:0,0:0:0:0:
333,261,34982,1,2,0:3:0:0:
247,240,35159,1,0,0:0:0:0:
222,155,35335,2,0,P|256:103|307:86,1,90,8|0,0:0|0:0,0:0:0:0:
419,282,35688,6,0,P|385:334|334:351,2,90,2|0|8,0:3|0:0|0:0,0:0:0:0:
394,197,36217,1,0,0:0:0:0:
222,155,36394,1,2,0:3:0:0:
333,261,36570,1,2,0:3:0:0:
282,90,36747,2,0,P|244:69|197:69,1,90,8|0,0:0|0:0,0:0:0:0:
247,240,37100,6,0,L|278:342,1,90,2|0,0:3|0:0,0:0:0:0:
136,135,37453,2,0,L|32:110,1,90,8|0,0:0|0:0,0:0:0:0:
308,176,37806,1,2,0:3:0:0:
186,305,37982,1,0,0:0:0:0:
221,155,38159,2,0,P|242:115|279:90,1,90,8|0,0:0|0:0,0:0:0:0:
420,280,38512,6,0,P|399:320|347:349,1,90,2|0,0:3|0:0,0:0:0:0:
160,220,38865,2,0,L|237:138,1,90,8|0,0:0|0:0,0:0:0:0:
370,113,39217,1,2,0:3:0:0:
333,261,39394,1,2,0:3:0:0:
282,91,39570,2,0,P|309:48|345:27,1,90,8|0,0:0|0:0,0:0:0:0:
394,195,39923,6,0,L|333:261,1,90,2|0,0:3|0:0,0:0:0:0:
100,285,40276,2,0,P|75:246|76:187,1,90,8|0,0:0|0:0,0:0:0:0:
221,155,40629,2,0,P|245:193|248:237,1,90,2|0,0:3|0:0,0:0:0:0:
125,369,40982,2,0,L|37:348,1,90,8|0,0:0|0:0,0:0:0:0:
160,220,41335,6,0,L|237:138,1,90,2|0,0:3|0:0,0:0:0:0:
110,48,41688,2,0,L|33:130,1,90,8|0,0:0|0:0,0:0:0:0:
100,285,42041,1,2,0:3:0:0:
136,135,42217,1,8,0:2:0:0:
15,265,42394,2,0,P|19:318|51:359,1,90,8|0,0:0|0:0,0:0:0:0:
247,240,42747,6,0,P|244:192|211:147,1,90,2|0,0:3|0:0,0:0:0:0:
125,369,43100,2,0,L|211:386,1,90,8|0,0:0|0:0,0:0:0:0:
77,200,43453,2,0,P|37:223|14:265,1,90,2|0,0:2|0:0,0:0:0:0:
186,305,43806,1,8,0:0:0:0:
136,135,43982,1,0,0:0:0:0:
100,285,44159,5,2,0:3:0:0:
273,325,44335,1,0,0:0:0:0:
125,369,44512,1,8,0:0:0:0:
247,240,44688,1,0,0:0:0:0:
247,240,44776,1,0,0:0:0:0:
247,240,44865,2,0,P|293:238|359:345,1,180,8|2,0:3|0:2,0:0:0:0:
186,305,45394,1,0,0:0:0:0:
186,305,45482,1,0,0:0:0:0:
186,305,45571,6,0,L|144:167,1,135.000005149842,2|2,0:2|0:2,0:0:0:0:
100,285,46100,1,0,0:0:0:0:
247,240,46276,2,0,L|315:219,1,67.5000025749208,2|0,0:3|0:0,0:0:0:0:
398,194,46629,1,2,0:2:0:0:
377,280,46806,1,0,0:0:0:0:
334,132,46982,5,2,0:2:0:0:
462,255,47170,2,0,P|464:289|455:321,2,67.5000025749208,2|0|0,0:3|0:2|0:0,0:0:0:0:
419,108,47699,2,0,P|403:76|363:47,2,67.5000025749208,2|0|2,0:3|0:0|0:2,0:0:0:0:
377,280,48228,1,0,0:0:0:0:
377,280,48317,1,0,0:0:0:0:
377,280,48405,6,0,L|239:321,1,135.000005149842,2|2,0:2|0:2,0:0:0:0:
356,366,48934,1,0,0:0:0:0:
314,219,49110,2,0,L|292:146,1,67.5000025749208,2|0,0:3|0:0,0:0:0:0:
267,67,49463,1,2,0:2:0:0:
206,131,49640,1,0,0:0:0:0:
353,88,49816,5,2,0:2:0:0:
181,46,49993,2,0,P|136:74|124:116,2,67.5000025749208,2|2|0,0:3|0:2|0:0,0:0:0:0:
328,3,50522,1,2,0:3:0:0:
353,88,50699,1,0,0:0:0:0:
206,131,50875,1,2,0:2:0:0:
267,67,51052,1,0,0:0:0:0:
314,219,51232,6,0,L|355:357,1,135.000005149842,2|2,0:2|0:2,0:0:0:0:
253,283,51761,1,0,0:0:0:0:
375,155,51937,2,0,L|429:97,1,67.5000025749208,2|0,0:3|0:0,0:0:0:0:
399,239,52290,1,2,0:2:0:0:
314,219,52467,1,0,0:0:0:0:
459,176,52643,5,2,0:2:0:0:
339,302,52820,2,0,L|258:285,2,67.5000025749208,2|2|0,0:3|0:2|0:0,0:0:0:0:
425,323,53349,2,0,L|445:387,1,67.5000025749208,2|0,0:3|0:0,0:0:0:0:
487,259,53702,2,0,L|554:192,1,67.5000025749208,2|0,0:2|0:0,0:0:0:0:
375,155,54055,6,0,P|313:130|252:155,1,135.000005149842,2|2,0:2|0:2,0:0:0:0:
314,219,54584,1,0,0:0:0:0:
436,91,54749,2,0,L|503:24,1,67.5000025749208,2|0,0:3|0:0,0:0:0:0:
350,70,55101,1,2,0:2:0:0:
399,239,55278,1,0,0:0:0:0:
399,239,55366,1,0,0:0:0:0:
399,239,55454,5,2,0:2:0:0:
459,176,55631,1,2,0:3:0:0:
290,136,55806,1,2,0:2:0:0:
314,219,55984,1,0,0:0:0:0:
436,91,56160,1,2,0:3:0:0:
231,199,56337,1,0,0:0:0:0:
399,239,56512,1,2,0:2:0:0:
88,360,56841,6,0,B|127:369|127:369|180:362|180:362|221:370,1,135.000005149842,2|0,0:0|0:0,0:0:0:0:
356,296,57552,2,0,B|316:286|316:286|263:293|263:293|222:285,1,135.000005149842,0|0,0:0|0:0,0:0:0:0:
136,200,58252,6,0,B|175:209|175:209|228:202|228:202|269:210,1,135.000005149842,2|0,0:0|0:0,0:0:0:0:
404,136,58973,2,0,B|364:126|364:126|311:133|311:133|270:125,1,135.000005149842,0|0,0:0|0:0,0:0:0:0:
216,280,59678,6,0,P|257:377|296:279,1,270,2|0,0:0|0:0,0:0:0:0:
136,155,61089,5,4,0:1:0:0:
374,227,61266,1,4,0:2:0:0:
93,230,61795,5,4,0:1:0:0:
416,151,61972,1,4,0:2:0:0:
256,192,62148,2,0,P|259:265|290:299,1,101.250003862381,0|0,0:2|0:0,0:0:0:0:
342,218,62508,6,0,L|255:192,1,90,4|0,0:0|0:0,0:0:0:0:
82,140,62860,1,8,0:0:0:0:
187,255,63037,1,0,0:0:0:0:
321,133,63213,1,2,0:3:0:0:
168,166,63390,1,0,0:0:0:0:
205,343,63566,1,8,0:0:0:0:
342,218,63743,1,0,0:0:0:0:
149,77,63919,6,0,P|110:97|84:133,1,90,2|0,0:0|0:0,0:0:0:0:
272,283,64272,1,8,0:0:0:0:
321,133,64449,1,0,0:0:0:0:
187,255,64625,1,2,0:3:0:0:
357,311,64802,1,0,0:0:0:0:
236,105,64978,1,8,0:0:0:0:
205,343,65155,1,0,0:0:0:0:
405,157,65331,6,0,P|406:112|386:72,1,90,2|0,0:0|0:0,0:0:0:0:
236,105,65684,1,8,0:0:0:0:
342,218,65860,1,0,0:0:0:0:
186,254,66037,2,0,P|142:252|103:231,1,90,2|0,0:3|0:0,0:0:0:0:
256,192,66390,1,8,0:0:0:0:
205,343,66566,1,0,0:0:0:0:
169,166,66743,6,0,L|146:62,1,90,2|0,0:0|0:0,0:0:0:0:
256,192,67096,2,0,L|236:279,1,90,8|0,0:0|0:0,0:0:0:0:
231,301,67360,1,0,0:0:0:0:
226,323,67448,1,0,0:0:0:0:
170,219,67625,1,0,0:0:0:0:
341,164,67802,2,0,L|469:123,1,135,10|0,0:0|0:0,0:0:0:0:
402,61,68155,6,0,P|379:132|480:213,1,180,4|8,0:0|0:0,0:0:0:0:
488,36,68684,1,0,0:0:0:0:
295,177,68860,1,2,0:3:0:0:
341,321,69037,1,0,0:0:0:0:
379,151,69213,2,0,P|342:102|297:88,1,90,8|0,0:0|0:0,0:0:0:0:
192,290,69566,6,0,P|229:339|274:353,1,90,2|0,0:0|0:0,0:0:0:0:
465,177,69919,2,0,L|378:151,1,90,8|0,0:0|0:0,0:0:0:0:
229,118,70272,1,2,0:3:0:0:
276,264,70449,1,0,0:0:0:0:
314,90,70625,1,8,0:0:0:0:
144,146,70802,1,0,0:0:0:0:
379,150,70978,6,0,P|402:94|392:48,1,90,2|0,0:0|0:0,0:0:0:0:
125,233,71331,2,0,P|102:289|112:335,1,90,8|0,0:0|0:0,0:0:0:0:
360,236,71684,2,0,P|419:227|454:196,1,90,2|0,0:0|0:0,0:0:0:0:
144,146,72037,2,0,P|84:154|49:185,1,90,8|0,0:0|0:0,0:0:0:0:
341,321,72390,5,2,0:0:0:0:
379,150,72566,1,0,3:1:0:0:
339,139,72654,1,0,3:1:0:0:
299,140,72742,1,8,3:1:0:0:
260,153,72830,1,0,3:1:0:0:
221,165,72918,1,2,3:1:0:0:
181,161,73007,1,0,3:1:0:0:
143,145,73096,2,0,L|24:96,1,89.0999997280884,2|0,3:1|3:1,0:0:0:0:
57,88,73360,1,0,3:1:0:0:
54,66,73448,1,12,3:1:0:0:
254,82,73625,1,0,3:0:0:0:
254,82,73713,1,0,3:0:0:0:
254,82,73802,6,0,L|221:165,1,89.0999997280884,6|0,0:2|0:0,0:0:0:0:
133,378,74155,1,8,0:0:0:0:
110,226,74331,1,0,0:0:0:0:
253,283,74508,1,2,0:3:0:0:
77,307,74684,1,0,0:0:0:0:
286,202,74860,1,8,0:0:0:0:
220,364,75037,1,0,0:0:0:0:
198,212,75213,6,0,P|207:161|245:122,1,89.0999997280884,2|0,0:0|0:0,0:0:0:0:
372,190,75566,1,8,0:0:0:0:
220,364,75743,1,0,0:0:0:0:
110,164,75919,2,0,L|72:71,1,89.0999997280884,2|0,0:3|0:0,0:0:0:0:
308,36,76272,2,0,L|346:134,1,89.0999997280884,8|0,0:0|0:0,0:0:0:0:
144,246,76625,6,0,P|92:251|45:226,1,89.0999997280884,2|0,0:0|0:0,0:0:0:0:
220,25,76978,1,8,0:0:0:0:
284,189,77155,1,0,0:0:0:0:
110,164,77331,2,0,P|80:122|78:69,1,89.0999997280884,2|0,0:3|0:0,0:0:0:0:
249,107,77684,1,8,0:0:0:0:
144,246,77860,1,0,0:0:0:0:
220,25,78037,6,0,L|337:40,1,89.0999997280884,2|0,0:0|0:0,0:0:0:0:
408,284,78390,2,0,P|356:290|309:265,1,89.0999997280884,8|0,0:0|0:0,0:0:0:0:
163,93,78743,1,2,0:0:0:0:
373,201,78919,1,0,0:0:0:0:
178,330,79096,2,0,P|96:322|58:271,1,133.649999592133,10|0,0:0|2:0,0:0:0:0:
27,202,79449,6,0,L|135:181,1,89.0999997280884,4|0,0:0|0:0,0:0:0:0:
288,151,79802,1,8,0:0:0:0:
142,101,79978,1,0,0:0:0:0:
260,235,80155,1,2,0:3:0:0:
317,65,80331,1,0,0:0:0:0:
173,253,80507,1,8,0:0:0:0:
347,217,80684,1,0,0:0:0:0:
170,16,80860,6,0,P|123:14|67:54,1,89.0999997280884,4|0,0:0|0:0,0:0:0:0:
86,271,81213,1,8,0:0:0:0:
260,235,81390,1,0,0:0:0:0:
142,101,81566,1,2,0:3:0:0:
173,253,81743,1,0,0:0:0:0:
347,217,81919,1,8,0:0:0:0:
201,169,82096,1,0,0:0:0:0:
320,301,82272,6,0,P|370:300|416:273,1,89.0999997280884,2|0,0:0|0:0,0:0:0:0:
228,85,82625,2,0,P|177:85|131:112,1,89.0999997280884,8|0,0:0|0:0,0:0:0:0:
233,319,82978,2,0,P|258:362|305:388,1,89.0999997280884,2|0,0:0|0:0,0:0:0:0:
314,67,83331,2,0,P|288:23|241:-2,1,89.0999997280884,8|0,0:0|0:0,0:0:0:0:
86,271,83684,5,4,0:0:0:0:
320,301,83860,1,0,0:0:0:0:
228,85,84037,1,8,0:0:0:0:
172,253,84213,1,0,0:0:0:0:
202,286,84301,1,0,0:0:0:0:
233,319,84390,2,0,L|320:301,1,89.0999997280884,2|0,0:3|0:0,0:0:0:0:
347,215,84743,1,8,0:0:0:0:
259,234,84919,1,0,0:0:0:0:
408,282,85096,6,0,B|459:234|453:145|370:96|297:136|297:136|261:155|217:163|155:112,1,405.000015449525,4|0,0:0|0:0,0:0:0:0:
63,108,86495,6,0,B|55:151|55:151|71:196|71:196|63:239,2,135.000005149842,2|0|0,0:0|0:0|0:0,0:0:0:0:
127,22,87568,1,0,0:0:0:0:
170,123,87928,1,0,0:0:0:0:
