osu file format v14

[General]
AudioFilename: Kotoba no Iranai Yakusoku.mp3
AudioLeadIn: 2000
PreviewTime: 62837
Countdown: 0
SampleSet: Soft
StackLeniency: 0.7
Mode: 0
LetterboxInBreaks: 0
WidescreenStoryboard: 0

[Editor]
DistanceSpacing: 1
BeatDivisor: 2
GridSize: 8
TimelineZoom: 2.400001

[Metadata]
Title:Kotoba no Iranai Yakusoku (TV size)
TitleUnicode:言葉のいらない約束 (TV size)
Artist:sana
ArtistUnicode:sana
Creator:PurpleHawk
Version:Normal
Source:NARUTO - ナルト - 疾風伝
Tags:shippuden ending ed 33 ultrarik chamue cl8n honeyworks happyrocket88
BeatmapID:690460
BeatmapSetID:306381

[Difficulty]
HPDrainRate:4
CircleSize:3
OverallDifficulty:4
ApproachRate:5
SliderMultiplier:1.1
SliderTickRate:1

[Events]
//Background and Video events
Video,-15,"ED.avi"
0,0,"BG.jpg",0,0
//Break Periods
//Storyboard Layer 0 (Background)
//Storyboard Layer 1 (Fail)
//Storyboard Layer 2 (Pass)
//Storyboard Layer 3 (Foreground)
//Storyboard Sound Samples

[TimingPoints]
1060,375,4,2,5,55,1,0
1435,352.941176470588,4,2,5,55,1,8
1435,-117.647058823529,4,2,5,55,0,0
2493,352.941176470588,4,2,5,55,1,0
2493,-117.647058823529,4,2,5,55,0,0
8480,352.941176470588,4,2,5,55,1,8
9538,352.941176470588,4,2,5,55,1,8
11675,352.941176470588,4,2,5,55,1,0
12389,352.941176470588,4,1,5,75,1,0
13795,352.941176470588,4,1,5,75,1,0
23663,352.941176470588,4,2,5,50,1,0
34966,352.941176470588,4,1,5,70,1,8
46260,-100,4,1,5,55,0,0
47859,352.941176470588,4,1,5,55,1,0
49094,352.941176470588,4,1,5,55,1,0
51741,361.44578313253,4,1,5,55,1,8
51921,352.941176470588,4,1,5,55,1,0
55273,331.491712707182,4,1,5,55,1,8
55438,352.941176470588,4,1,5,55,1,8
56143,352.941176470588,4,1,5,55,1,0
57530,355.555555555556,4,2,5,55,1,0
58241,350.36496350365,4,2,5,50,1,8
58941,360.902255639098,4,2,5,50,1,0
59662,352.941176470588,4,2,5,50,1,8
60367,352.941176470588,4,2,5,50,1,0
61778,-100,4,1,5,50,0,0
62837,340.909090909091,4,1,5,50,1,8
63197,352.941176470588,4,1,5,80,1,1
85785,-100,4,2,5,50,0,0
87184,360.902255639098,4,2,5,50,1,0
88257,360.902255639098,4,2,5,50,1,0

[Colours]
Combo1 : 118,0,236
Combo2 : 255,104,32
Combo3 : 170,167,55
Combo4 : 198,0,99
Combo5 : 255,132,9
Combo6 : 0,79,157
Combo7 : 168,0,0
Combo8 : 255,255,55

[HitObjects]
440,208,1060,6,0,B|401:259|327:227,1,110
260,184,1787,1,0,0:0:0:0:
184,132,2140,1,0,0:0:0:0:
112,72,2493,2,0,P|96:168|176:224,1,187.000003566742,0|2,0:0|0:0,0:0:0:0:
240,264,3551,1,0,0:0:0:0:
328,296,3904,2,0,P|384:304|428:280,1,93.500001783371
472,216,4610,1,2,0:0:0:0:
440,132,4963,2,0,P|393:127|340:144,1,93.500001783371
264,180,5669,5,0,0:0:0:0:
172,192,6022,1,2,0:0:0:0:
100,132,6375,1,0,0:0:0:0:
156,60,6728,2,0,P|184:44|256:52,1,93.500001783371
336,60,7434,1,2,0:0:0:0:
408,120,7787,1,0,0:0:0:0:
448,200,8140,1,0,0:0:0:0:
344,184,8480,6,0,P|304:152|228:156,1,110,0|2,0:0|0:0,0:0:0:0:
264,256,9185,1,0,0:0:0:0:
168,208,9538,2,0,P|146:159|160:92,1,110
248,48,10243,2,0,P|296:52|348:92,1,110,2|0,0:0|0:0,0:0:0:0:
256,160,10949,2,0,P|256:188|208:252,1,110
128,100,12389,6,2,P|96:154|117:210,1,110,6|2,0:0|0:0,0:0:0:0:
136,248,12918,1,2,0:0:0:0:
180,284,13094,2,2,P|219:310|300:304,1,110
332,296,13624,1,2,0:0:0:0:
372,260,13795,2,2,P|388:208|368:148,1,110,6|2,0:0|0:0,0:0:0:0:
272,204,14500,2,2,B|216:240|160:208,1,110
120,184,15030,1,2,0:0:0:0:
92,136,15206,6,2,P|76:112|100:24,2,110,6|2|2,0:0|0:0|0:0,0:0:0:0:
144,232,16265,2,0,P|160:264|192:288,1,55,2|2,0:0|0:0,0:0:0:0:
224,304,16618,2,2,B|280:336|344:312,1,110
384,304,17147,1,2,0:0:0:0:
432,272,17324,2,2,P|456:248|464:208,1,55
472,176,17677,2,2,P|473:142|451:107,1,55
424,88,18030,6,2,B|366:76|366:76|325:81|307:90,1,110
216,96,18736,2,2,B|224:152|280:184,1,110
336,192,19265,1,0,0:0:0:0:
384,168,19442,2,2,P|419:214|427:269,1,110,6|2,0:0|0:0,0:0:0:0:
328,288,20147,2,2,P|270:303|216:296,1,110
176,256,20677,1,0,0:0:0:0:
200,208,20853,2,2,P|250:177|300:167,1,110,6|2,0:0|0:0,0:0:0:0:
374,243,21559,2,2,P|425:237|480:208,1,110
480,144,22089,1,2,0:0:0:0:
440,120,22265,6,2,L|328:72,1,110
288,56,22794,2,2,P|256:48|224:48,1,55
176,56,23147,2,2,P|143:61|113:73,1,55
72,88,23500,1,2,0:0:0:0:
48,128,23663,6,0,P|48:216|160:240,1,220
272,224,24721,1,0,0:0:0:0:
376,264,25074,2,0,P|422:235|452:177,1,110
344,160,25780,2,0,P|292:128|236:128,1,110,2|0,0:0|0:0,0:0:0:0:
184,216,26486,2,0,P|104:240|112:112,1,220,2|0,0:0|0:0,0:0:0:0:
128,40,27545,5,0,0:0:0:0:
184,40,27721,2,0,B|256:48|256:112|344:128,1,165
424,160,28604,2,0,P|486:194|464:344,2,220
312,168,30368,2,0,P|260:152|229:102,1,110
152,32,31074,6,0,P|97:37|52:85,1,110,2|0,0:0|0:0,0:0:0:0:
16,176,31780,1,2,0:0:0:0:
64,272,32133,2,0,P|160:328|264:272,1,220
168,200,33192,2,0,P|208:168|264:160,1,110,2|0,0:0|0:0,0:0:0:0:
312,152,33721,1,0,0:0:0:0:
408,132,34074,2,0,L|440:87,2,55
380,180,34604,2,0,L|346:230,1,55
324,272,34966,6,2,B|300:308|300:308|272:320|232:316,1,110
128,288,35671,1,2,0:0:0:0:
56,204,36024,1,2,0:0:0:0:
136,132,36377,2,2,B|160:172|160:172|188:192|220:200,1,110
324,224,37083,6,2,L|344:168,2,55
236,288,37789,2,2,P|280:324|332:332,1,110
440,324,38495,2,2,P|484:272|488:212,1,110
394,213,39201,2,2,P|409:161|452:128,1,110
356,72,39907,6,2,L|304:56,2,55
284,160,40613,2,2,L|168:120,1,110
128,28,41318,2,2,P|80:68|68:128,1,110
68,224,42024,2,2,P|96:280|144:308,1,110
244,304,42730,6,2,L|256:240,2,55
352,320,43436,2,2,B|392:316|392:316|424:296|432:256,1,110
432,152,44142,2,2,B|424:116|392:96|392:96|352:92,1,110
336,200,44848,2,2,B|296:196|296:196|264:176|248:144,1,110
232,96,45377,1,2,0:0:0:0:
192,64,45554,2,2,P|116:76|80:104,1,110
168,168,46260,6,2,P|191:239|272:280,1,165
320,296,46965,2,0,B|400:320|400:320|472:296|456:176,1,220
432,128,47859,2,2,B|400:132|368:116|368:116|324:140,1,110
280,152,48388,2,2,P|224:208|272:272,1,165
284,320,49094,6,2,B|156:324|124:256,1,165
120,216,49799,2,0,L|136:88,1,110
160,56,50329,1,0,0:0:0:0:
208,24,50505,2,2,B|260:4|260:4|336:40|348:92,1,165
352,128,51211,2,2,P|352:172|340:204,1,55
240,312,51921,6,2,P|140:308|92:244,1,165
88,208,52626,2,0,P|120:152|160:168,1,110
200,184,53156,2,0,P|272:224|320:216,1,110
352,208,53685,2,0,L|384:152,1,55
408,112,54038,1,0,0:0:0:0:
192,56,54744,6,2,P|119:90|97:167,1,165
104,216,55438,2,2,P|144:284|223:298,1,165
280,304,56143,2,2,L|344:331,2,55
328,272,56672,2,2,L|382:292,2,55
376,240,57201,1,2,0:0:0:0:
256,192,57530,12,0,60367,0:0:0:0:
48,72,61778,6,4,L|72:144,1,55
236,68,62484,2,4,L|264:136,1,55
412,84,63197,6,2,P|412:156|376:188,1,110
324,208,63726,1,0,0:0:0:0:
267,219,63902,2,2,P|207:215|160:176,1,110,2|2,1:0|1:0,1:0:0:0:
136,144,64432,2,0,P|132:108|152:80,1,55,0|2,0:0|0:0,0:0:0:0:
224,32,64961,1,2,0:0:0:0:
332,40,65314,2,2,P|388:68|404:116,1,110
376,212,66020,6,2,P|328:252|272:240,1,110
296,128,66726,2,2,P|248:88|192:100,1,110
144,176,67432,2,2,P|88:204|44:180,1,110
80,296,68138,1,2,0:0:0:0:
80,296,68491,1,2,0:0:0:0:
204,304,68844,6,2,P|292:300|328:280,1,110
252,184,69549,1,2,0:0:0:0:
252,184,69902,1,2,0:0:0:0:
132,196,70255,2,2,P|116:140|160:96,2,110
224,276,71314,1,2,0:0:0:0:
224,276,71667,6,2,P|316:284|340:260,1,110
296,156,72373,2,2,P|316:124|292:48,1,110
176,44,73079,2,2,P|136:60|128:88,1,55
124,132,73432,2,2,P|148:172|176:176,1,55
216,196,73785,2,2,P|248:208|256:236,1,55
272,288,74138,2,2,P|260:324|224:324,1,55
180,332,74491,5,2,0:0:0:0:
96,244,74844,1,2,0:0:0:0:
124,132,75197,2,2,P|180:80|228:72,1,110
344,76,75902,1,2,0:0:0:0:
420,168,76255,1,2,0:0:0:0:
304,192,76608,2,2,P|269:172|184:192,1,110
240,296,77314,6,2,P|191:329|132:328,1,110
108,212,78020,2,2,P|111:152|88:100,1,110
200,48,78726,2,2,P|276:60|304:104,1,110
304,208,79432,2,2,L|360:240,2,55
216,284,80138,6,2,P|138:308|96:296,1,110
144,188,80844,1,2,0:0:0:0:
144,188,81196,1,2,0:0:0:0:
156,80,81549,2,2,P|212:100|248:160,1,110
288,248,82255,2,2,P|320:288|388:304,1,110
384,200,82961,6,2,P|352:160|284:144,1,110
192,168,83667,2,2,P|156:208|148:272,1,110
248,324,84373,2,2,L|312:344,2,55
228,268,84902,2,2,L|292:288,2,55
212,212,85432,1,2,0:0:0:0:
176,112,85785,102,0,B|232:72|256:36|256:36|280:72|336:112,1,220
496,208,87184,2,0,P|473:257|426:285,1,110
320,296,87905,1,0,0:0:0:0:
216,280,88257,1,0,0:0:0:0:
128,216,88617,1,0,0:0:0:0:
