osu file format v14

[General]
AudioFilename: Kotoba no Iranai Yakusoku.mp3
AudioLeadIn: 2000
PreviewTime: 62837
Countdown: 0
SampleSet: Soft
StackLeniency: 0.7
Mode: 0
LetterboxInBreaks: 0
WidescreenStoryboard: 0

[Editor]
Bookmarks: 56495,56848
DistanceSpacing: 1.5
BeatDivisor: 4
GridSize: 4
TimelineZoom: 3.900004

[Metadata]
Title:Kotoba no Iranai Yakusoku (TV size)
TitleUnicode:言葉のいらない約束 (TV size)
Artist:sana
ArtistUnicode:sana
Creator:PurpleHawk
Version:Insane
Source:NARUTO - ナルト - 疾風伝
Tags:shippuden ending ed 33 ultrarik chamue cl8n honeyworks happyrocket88
BeatmapID:723643
BeatmapSetID:306381

[Difficulty]
HPDrainRate:6.5
CircleSize:4
OverallDifficulty:7
ApproachRate:9
SliderMultiplier:1.7
SliderTickRate:2

[Events]
//Background and Video events
0,0,"BG.jpg",0,0
Video,-15,"ED.avi"
//Break Periods
2,59862,61178
//Storyboard Layer 0 (Background)
//Storyboard Layer 1 (Fail)
//Storyboard Layer 2 (Pass)
//Storyboard Layer 3 (Foreground)
//Storyboard Sound Samples

[TimingPoints]
1060,375,4,2,5,50,1,0
1060,-133.333333333333,4,2,5,50,0,0
1435,352.941176470588,4,2,5,50,1,8
1435,-133.333333333333,4,2,5,50,0,8
2493,352.941176470588,4,2,5,50,1,0
2493,-133.333333333333,4,2,5,50,0,0
8480,352.941176470588,4,2,5,50,1,8
8480,-133.333333333333,4,2,5,50,0,8
9538,352.941176470588,4,2,5,50,1,0
9538,-133.333333333333,4,2,5,50,0,0
11675,352.941176470588,4,2,5,50,1,0
11675,-133.333333333333,4,2,5,50,0,0
12389,352.941176470588,4,1,5,70,1,0
13795,352.941176470588,4,1,5,70,1,0
23663,352.941176470588,4,2,5,45,1,0
23663,-133.333333333333,4,2,5,45,0,0
33545,-133.333333333333,4,2,5,50,0,0
34251,-133.333333333333,4,2,5,55,0,0
34966,352.941176470588,4,1,5,60,1,0
34966,-133.333333333333,4,1,5,60,0,0
46260,-153.846153846154,4,1,5,50,0,0
47671,-153.846153846154,4,1,5,50,0,0
47859,352.941176470588,4,1,5,50,1,8
47859,-153.846153846154,4,1,5,50,0,8
49094,352.941176470588,4,1,5,50,1,0
49094,-153.846153846154,4,1,5,50,0,0
51741,361.44578313253,4,1,5,50,1,8
51741,-153.846153846154,4,1,5,50,0,8
51921,352.941176470588,4,1,5,50,1,0
51921,-153.846153846154,4,1,5,50,0,0
55273,331.491712707182,4,1,5,50,1,8
55273,-153.846153846154,4,1,5,50,0,8
55438,352.941176470588,4,1,5,50,1,8
55438,-153.846153846154,4,1,5,50,0,8
56143,352.941176470588,4,1,5,50,1,0
56143,-133.333333333333,4,1,5,50,0,0
57530,355.555555555556,4,2,5,40,1,0
58241,350.36496350365,4,2,5,40,1,8
58941,360.902255639098,4,2,5,40,1,0
59662,352.941176470588,4,2,5,40,1,8
60367,352.941176470588,4,2,5,20,1,0
61778,-100,4,1,5,80,0,0
62837,340.909090909091,4,1,5,80,1,8
63197,352.941176470588,4,1,5,80,1,1
85432,-100,4,1,5,70,0,1
87184,360.902255639098,4,2,5,40,1,0
88257,360.902255639098,4,2,5,40,1,0

[Colours]
Combo1 : 118,0,236
Combo2 : 255,104,32
Combo3 : 170,167,55
Combo4 : 198,0,99
Combo5 : 255,132,9
Combo6 : 0,79,157
Combo7 : 168,0,0
Combo8 : 255,255,55

[HitObjects]
440,280,1060,6,0,P|396:280|316:244,1,127.500004863739
244,168,1611,1,0,0:0:0:0:
312,92,1787,1,0,0:0:0:0:
392,176,1964,2,0,P|401:205|398:237,1,63.7500024318696
364,312,2317,1,0,0:0:0:0:
296,240,2493,6,0,P|252:194|194:167,1,127.500004863739
88,148,3022,1,0,0:0:0:0:
48,248,3198,1,0,0:0:0:0:
160,236,3375,1,0,0:0:0:0:
224,140,3551,2,0,P|233:110|230:78,1,63.7500024318696
388,56,3904,6,0,P|429:102|431:165,1,127.500004863739,0|0,2:0|2:0,2:0:0:0:
318,130,4434,2,0,P|355:161|440:162,1,127.500004863739,0|0,2:0|2:0,2:0:0:0:
464,256,4963,1,0,2:0:0:0:
348,264,5140,1,0,2:0:0:0:
240,232,5316,6,0,P|190:192|162:135,1,127.500004863739
248,60,5845,1,0,0:0:0:0:
248,60,6022,1,0,0:0:0:0:
384,60,6198,2,0,L|360:136,1,63.7500024318696
328,260,6551,1,0,0:0:0:0:
428,292,6728,6,0,P|419:211|379:167,1,127.500004863739
328,260,7257,1,0,2:0:0:0:
248,320,7434,1,0,0:0:0:0:
152,324,7610,2,0,P|108:305|82:279,1,63.7500024318696
36,216,7963,1,0,0:0:0:0:
128,192,8140,2,0,P|158:202|184:221,1,63.7500024318696
268,276,8480,5,0,2:0:0:0:
336,360,8656,1,0,0:0:0:0:
404,276,8832,2,0,P|404:244|395:213,1,63.7500024318696
348,116,9185,1,0,0:0:0:0:
272,40,9362,1,0,2:0:0:0:
376,12,9538,2,0,P|438:15|484:57,1,127.500004863739,0|0,2:0|2:0,2:0:0:0:
504,164,10067,6,0,P|441:157|389:190,1,127.500004863739,0|0,2:0|2:0,2:0:0:0:
344,288,10596,1,0,2:0:0:0:
452,300,10773,1,0,2:0:0:0:
452,192,10949,6,0,P|451:147|394:65,1,127.500004863739,0|0,2:0|2:0,2:0:0:0:
328,292,11675,5,0,2:0:0:0:
316,272,12027,1,0,2:0:0:0:
108,300,12389,6,0,P|84:260|92:188,1,85
176,184,12741,2,0,P|209:151|281:143,1,85,8|0,0:0|0:0,0:0:0:0:
340,180,13094,2,0,P|336:226|288:280,1,85
292,288,13359,1,0,0:0:0:0:
268,316,13447,2,0,P|234:342|193:351,1,85,8|0,0:0|0:0,0:0:0:0:
64,256,13795,6,0,L|11:188,1,85,6|0,0:0|0:0,0:0:0:0:
212,124,14147,2,0,B|256:101|294:113,1,85,8|0,0:0|0:0,0:0:0:0:
160,312,14500,2,0,P|112:272|88:232,1,85
76,208,14765,1,0,0:0:0:0:
84,168,14853,2,0,P|100:120|136:96,1,85,8|0,0:0|0:0,0:0:0:0:
256,180,15206,6,0,L|336:268,1,85,6|0,0:0|0:0,0:0:0:0:
448,304,15559,2,0,P|446:253|421:217,1,85,8|0,0:0|0:0,0:0:0:0:
356,120,15912,1,0,0:0:0:0:
272,208,16089,1,0,0:0:0:0:
272,208,16177,1,0,0:0:0:0:
272,208,16265,1,8,0:0:0:0:
388,260,16442,1,0,0:0:0:0:
472,164,16618,6,0,L|460:52,1,85,6|0,0:0|0:0,0:0:0:0:
336,88,16971,1,8,0:0:0:0:
336,88,17059,1,0,0:0:0:0:
336,88,17147,1,0,0:0:0:0:
396,254,17324,2,0,P|455:215|470:150,1,127.5
352,156,17677,2,0,P|316:124|280:104,1,85,8|0,0:0|0:0,0:0:0:0:
168,48,18030,6,0,L|164:144,1,85,6|0,0:0|0:0,0:0:0:0:
152,260,18383,2,0,P|152:308|116:344,1,85,8|0,0:0|0:0,0:0:0:0:
36,252,18736,2,0,P|40:209|87:132,1,127.5
200,88,19089,2,0,P|238:131|266:147,1,85,8|0,0:0|0:0,0:0:0:0:
380,196,19442,6,0,P|426:177|457:140,1,85,6|0,0:0|0:0,0:0:0:0:
384,44,19794,1,8,0:0:0:0:
280,116,19971,1,0,0:0:0:0:
332,232,20147,2,0,P|365:266|448:292,1,127.5
488,284,20500,2,0,P|502:234|492:191,1,85,8|0,0:0|0:0,0:0:0:0:
480,72,20853,6,0,P|411:117|333:93,1,170,6|8,0:0|0:0,2:0:0:0:
228,20,21383,1,0,0:0:0:0:
200,140,21559,2,0,P|188:202|211:261,1,127.5
248,280,21912,2,0,P|286:262|328:257,1,85,8|0,0:0|0:0,0:0:0:0:
484,188,22265,1,0,0:0:0:0:
460,356,22442,1,0,0:0:0:0:
384,204,22618,1,8,0:0:0:0:
256,316,22794,1,0,0:0:0:0:
200,156,22971,5,10,0:0:0:0:
196,148,23059,1,2,0:0:0:0:
192,140,23147,1,2,0:0:0:0:
188,132,23236,1,2,0:0:0:0:
184,124,23324,1,10,0:0:0:0:
180,116,23412,1,2,0:0:0:0:
176,108,23500,1,2,0:0:0:0:
172,100,23589,1,2,0:0:0:0:
168,92,23663,2,0,P|124:60|44:72,1,127.500004863739
0,132,24192,1,0,0:0:0:0:
140,264,24545,1,0,0:0:0:0:
160,304,24721,1,0,0:0:0:0:
280,276,24898,1,0,0:0:0:0:
284,204,25074,6,0,P|298:137|340:75,1,127.500004863739
432,28,25604,1,0,0:0:0:0:
408,188,25957,1,0,0:0:0:0:
484,236,26133,1,0,0:0:0:0:
412,284,26310,1,0,0:0:0:0:
432,72,26486,2,0,B|364:49|313:125,1,127.500004863739
272,236,27015,1,0,0:0:0:0:
232,72,27368,5,0,0:0:0:0:
164,140,27545,2,0,P|152:180|172:211,1,63.7500024318696
220,276,27898,2,0,P|272:268|348:296,1,127.500004863739
428,336,28427,1,0,0:0:0:0:
332,172,28780,5,0,0:0:0:0:
244,136,28957,2,0,P|204:176|200:188,1,63.7500024318696
172,263,29310,2,0,P|111:279|56:252,1,127.500004863739
124,184,29839,2,0,P|156:160|168:140,1,63.7500024318696
220,60,30192,1,0,0:0:0:0:
308,24,30368,1,0,0:0:0:0:
304,120,30545,1,0,0:0:0:0:
256,204,30721,6,0,P|209:159|212:94,1,127.500004863739
304,120,31251,1,0,0:0:0:0:
372,244,31604,1,0,0:0:0:0:
464,224,31780,1,0,0:0:0:0:
392,152,31957,1,0,0:0:0:0:
300,184,32133,6,0,P|256:196|192:272,1,127.500004863739
164,344,32662,1,0,0:0:0:0:
44,192,33015,5,0,0:0:0:0:
116,128,33192,2,0,B|137:96|176:96,1,63.7500024318696
264,88,33545,1,0,0:0:0:0:
244,180,33721,2,0,L|324:212,1,63.7500024318696
400,216,34074,6,0,P|377:158|404:102,1,127.500004863739
484,164,34604,5,0,0:0:0:0:
488,260,34780,1,0,0:0:0:0:
384,324,34966,6,0,L|308:296,1,63.7500024318696,2|0,0:0|0:0,0:0:0:0:
232,276,35318,1,10,0:0:0:0:
156,220,35495,1,0,0:0:0:0:
108,136,35671,6,0,P|132:72|200:56,1,127.500004863739,0|8,0:0|0:0,0:0:0:0:
212,152,36201,1,0,0:0:0:0:
284,224,36377,2,2,P|340:208|372:180,1,95.6250036478044,2|0,0:0|0:0,0:0:0:0:
368,152,36730,2,2,B|369:113|338:90,1,63.7500024318696,10|2,0:0|0:0,0:0:0:0:
268,156,37083,5,2,0:0:0:0:
252,256,37260,1,2,0:0:0:0:
468,220,37436,2,0,P|484:162|479:141,1,63.7500024318696,8|0,0:0|0:0,0:0:0:0:
400,64,37789,6,0,P|307:64|267:103,1,127.500004863739,2|10,0:0|0:0,0:0:0:0:
212,148,38318,1,0,0:0:0:0:
140,212,38495,2,0,P|102:259|99:280,1,63.7500024318696
168,336,38848,2,0,P|205:288|208:267,1,63.7500024318696,8|0,0:0|0:0,0:0:0:0:
232,188,39201,2,0,P|267:139|287:130,1,63.7500024318696
372,136,39554,2,0,P|408:184|404:212,1,63.7500024318696,10|0,0:0|0:0,0:0:0:0:
444,308,39907,5,2,0:0:0:0:
484,164,40083,1,2,0:0:0:0:
348,296,40260,2,0,B|313:332|267:319,1,63.7500024318696,10|0,0:0|0:0,0:0:0:0:
184,316,40613,6,2,P|150:263|177:192,1,127.500004863739,2|10,0:0|0:0,0:0:0:0:
200,100,41142,1,0,0:0:0:0:
272,180,41318,2,2,P|320:203|357:201,1,63.7500024318696,2|0,0:0|0:0,0:0:0:0:
440,144,41671,2,0,P|406:104|375:100,1,63.7500024318696,10|0,0:0|0:0,0:0:0:0:
288,36,42024,2,0,L|332:108,1,63.7500024318696,2|0,0:0|0:0,0:0:0:0:
388,197,42377,2,0,P|390:228|378:257,1,63.7500024318696,10|0,0:0|0:0,0:0:0:0:
232,344,42730,5,2,0:0:0:0:
184,224,42907,1,2,0:0:0:0:
328,176,43083,2,2,B|373:197|403:199,1,63.7500024318696,10|2,0:0|0:0,0:0:0:0:
476,88,43436,2,2,P|421:60|360:77,1,127.500004863739,2|10,0:0|0:0,0:0:0:0:
140,204,44142,6,0,P|151:233|172:257,1,63.7500024318696,2|0,0:0|0:0,0:0:0:0:
372,204,44495,2,0,P|360:233|339:257,1,63.7500024318696,10|0,0:0|0:0,0:0:0:0:
256,320,44848,1,2,0:0:0:0:
256,224,45024,2,8,L|256:140,1,63.7500024318696,0|8,0:0|0:0,0:0:0:0:
148,196,45377,1,10,0:0:0:0:
132,168,45465,1,10,0:0:0:0:
128,136,45554,6,2,P|151:61|198:29,1,127.500004863739,2|2,0:0|0:0,0:0:0:0:
340,176,46083,1,10,0:0:0:0:
352,204,46171,1,10,0:0:0:0:
360,232,46260,6,2,P|337:307|300:344,1,110.499994941712
228,304,46789,1,0,0:0:0:0:
252,212,46965,2,0,P|250:176|192:126,1,110.499994941712
152,208,47495,2,0,P|148:240|152:284,1,55.2499974708558,2|10,0:0|0:0,0:0:0:0:
56,192,47859,2,0,B|62:132|127:118,1,110.499994941712
328,68,48388,2,0,P|309:134|317:190,1,110.499994941712,8|0,0:0|0:0,0:0:0:0:
352,280,48917,5,8,0:0:0:0:
376,296,49006,1,8,0:0:0:0:
404,296,49094,2,0,P|447:247|459:194,1,110.499994941712,0|0,0:0|0:0,0:0:0:0:
460,116,49623,1,0,0:0:0:0:
380,152,49799,2,0,P|333:179|262:162,1,110.499994941712
216,112,50329,1,0,0:0:0:0:
312,88,50505,6,0,P|356:76|388:80,1,55.2499974708558,0|0,0:0|0:0,0:0:0:0:
296,188,50858,2,0,P|347:172|368:178,1,55.2499974708558,0|0,0:0|0:0,0:0:0:0:
268,284,51211,2,0,P|319:268|340:274,1,55.2499974708558,8|0,0:0|0:0,0:0:0:0:
416,312,51564,1,0,0:0:0:0:
508,232,51741,1,0,0:0:0:0:
343,159,51921,6,0,P|267:135|206:187,1,165.749992412568
172,292,52626,2,0,P|208:318|248:312,1,82.8749962062838,8|0,0:0|0:0,0:0:0:0:
368,200,52979,1,0,0:0:0:0:
416,284,53156,2,0,L|444:348,1,55.2499974708558
270,302,53509,2,0,P|218:317|171:291,1,110.499994941712
116,180,54038,1,8,0:0:0:0:
180,24,54391,2,0,L|228:72,1,55.2499974708558
280,120,54744,6,0,P|360:138|380:72,1,165.749992412568,0|0,0:3|0:3,0:3:0:0:
460,116,55438,2,0,P|412:200|384:208,1,110.499994941712,0|0,0:3|0:3,0:3:0:0:
264,200,55967,2,10,L|300:208,2,27.6249987354279
132,176,56319,5,2,0:0:0:0:
152,300,56495,1,2,0:0:0:0:
288,160,56672,1,10,0:0:0:0:
264,352,56848,1,10,0:0:0:0:
216,148,57025,1,10,0:0:0:0:
368,280,57201,1,0,0:0:0:0:
256,192,57530,12,0,59662,0:0:0:0:
152,156,61778,5,12,0:0:0:0:
352,312,61955,1,12,0:0:0:0:
124,320,62484,5,12,0:0:0:0:
328,180,62661,1,12,0:0:0:0:
272,112,62837,6,0,P|232:80|184:80,1,85
96,136,63197,6,0,P|136:164|204:180,1,85,6|0,0:0|0:0,0:0:0:0:
304,208,63549,1,10,0:0:0:0:
312,48,63726,1,2,0:0:0:0:
416,172,63902,2,0,L|392:308,1,127.5,2|0,0:0|0:0,0:0:0:0:
372,336,64255,2,0,P|330:346|260:332,1,85,10|0,0:0|0:0,0:0:0:0:
112,256,64608,5,2,0:0:0:0:
76,116,64785,1,2,0:0:0:0:
208,144,64961,2,0,B|260:160|292:152,1,85,10|0,0:0|0:0,0:0:0:0:
456,116,65314,1,2,0:0:0:0:
424,264,65491,1,2,0:0:0:0:
312,316,65667,2,0,P|260:336|176:336,1,127.5,8|0,0:0|0:0,0:0:0:0:
192,296,66020,2,0,P|217:255|217:202,1,85
184,48,66373,5,10,0:0:0:0:
24,144,66549,1,2,0:0:0:0:
184,228,66726,2,2,L|264:264,1,85,2|0,0:0|0:0,0:0:0:0:
468,316,67079,6,0,P|448:228|432:204,1,85,8|0,0:0|0:0,0:0:0:0:
316,56,67432,2,0,L|344:148,1,85
388,288,67785,1,10,0:0:0:0:
504,156,67961,1,10,0:0:0:0:
504,156,68049,1,10,0:0:0:0:
504,156,68138,1,10,0:0:0:0:
380,56,68314,1,2,0:0:0:0:
232,104,68491,2,2,P|182:133|132:176,1,85,10|2,0:0|0:0,0:0:0:0:
44,328,68844,1,6,0:0:0:0:
44,328,69197,6,2,L|136:268,1,85,10|2,0:0|0:0,0:0:0:0:
308,340,69549,2,2,P|356:312|392:256,1,85,2|0,0:0|0:0,0:0:0:0:
472,128,69902,2,0,L|500:16,1,85,6|0,0:0|0:0,0:0:0:0:
236,28,70255,2,0,L|216:112,1,85,6|0,0:0|0:0,0:0:0:0:
348,176,70608,6,2,P|326:212|298:244,1,85,10|0,0:0|0:0,0:0:0:0:
192,352,70961,1,2,0:0:0:0:
184,320,71138,1,0,0:0:0:0:
160,200,71314,2,2,L|144:88,1,85,10|0,0:0|0:0,0:0:0:0:
228,56,71667,5,10,0:0:0:0:
356,96,71844,1,2,0:0:0:0:
332,212,72020,5,10,0:0:0:0:
224,296,72197,1,2,0:0:0:0:
124,124,72373,5,10,0:0:0:0:
280,212,72549,1,10,0:0:0:0:
460,76,72726,1,10,0:0:0:0:
416,228,72902,2,8,P|373:272|334:295,1,85
192,268,73255,5,2,0:0:0:0:
176,256,73344,1,2,0:0:0:0:
160,240,73432,1,2,0:0:0:0:
148,224,73520,1,2,0:0:0:0:
140,204,73608,1,2,0:0:0:0:
132,184,73697,1,2,0:0:0:0:
124,164,73785,1,2,0:0:0:0:
96,64,73961,1,10,0:0:0:0:
96,64,74049,1,2,0:0:0:0:
96,64,74138,1,10,0:0:0:0:
280,88,74314,2,0,L|292:128,1,42.5,10|0,0:0|0:0,0:0:0:0:
304,168,74491,2,2,P|362:182|468:133,1,170,2|10,0:0|0:0,0:0:0:0:
512,232,75020,1,0,0:0:0:0:
392,272,75197,2,2,L|272:292,1,85,2|0,0:0|0:0,0:0:0:0:
116,280,75549,5,10,0:0:0:0:
200,168,75726,2,0,P|248:144|284:148,1,85
416,208,76079,1,2,0:0:0:0:
484,44,76255,2,2,L|412:136,1,85,10|0,0:0|0:0,0:0:0:0:
316,240,76608,1,2,0:0:0:0:
444,304,76785,1,2,0:0:0:0:
504,172,76961,1,10,0:0:0:0:
372,116,77138,1,2,0:0:0:0:
164,68,77314,2,2,B|72:40,1,85,2|0,0:0|0:0,0:0:0:0:
128,240,77667,5,10,0:0:0:0:
256,44,77844,1,2,0:0:0:0:
260,148,78020,2,2,B|260:272,1,85,2|0,0:0|0:0,0:0:0:0:
256,344,78373,5,10,0:0:0:0:
460,292,78549,2,0,P|472:176|363:138,1,212.5,2|0,0:0|0:0,0:0:0:0:
332,144,79079,2,2,P|272:176|244:208,1,85,10|0,0:0|0:0,0:0:0:0:
148,296,79432,5,10,0:0:0:0:
64,240,79608,1,10,0:0:0:0:
24,148,79785,2,0,P|24:84|44:44,1,85,8|0,0:0|0:0,0:0:0:0:
304,316,80138,5,8,0:0:0:0:
428,248,80491,2,2,L|520:196,1,85,10|0,0:0|0:0,0:0:0:0:
404,120,80844,2,2,L|300:176,1,85,2|0,0:0|0:0,0:0:0:0:
196,216,81196,5,10,0:0:0:0:
84,76,81373,1,10,0:0:0:0:
328,48,81549,2,2,P|396:40|440:44,1,85,10|2,0:0|0:0,0:0:0:0:
496,140,81902,2,2,P|480:220|452:260,1,127.5,8|0,0:0|0:0,0:0:0:0:
416,224,82255,6,2,L|400:136,1,85,2|0,0:0|0:0,0:0:0:0:
204,40,82608,2,2,L|216:124,1,85,10|0,0:0|0:0,0:0:0:0:
240,252,82961,2,2,P|198:273|156:267,1,85,2|0,0:0|0:0,0:0:0:0:
68,236,83314,1,10,0:0:0:0:
32,64,83491,1,0,0:0:0:0:
184,172,83667,2,2,P|226:165|288:90,1,127.5,2|0,0:0|0:0,0:0:0:0:
336,80,84020,6,2,L|360:176,1,85,10|0,0:0|0:0,0:0:0:0:
376,308,84373,1,2,0:0:0:0:
256,340,84549,1,2,0:0:0:0:
144,312,84726,1,10,0:0:0:0:
256,188,84902,2,2,L|256:236,2,42.5
180,32,85432,6,2,P|221:38|253:65,1,85,10|2,0:0|0:0,0:0:0:0:
256,220,85785,1,6,0:0:0:0:
256,192,85961,12,0,88617,0:0:0:0:
