osu file format v14

[General]
AudioFilename: kokuhakuyokou.mp3
AudioLeadIn: 0
PreviewTime: 27282
Countdown: 0
SampleSet: Soft
StackLeniency: 0.3
Mode: 0
LetterboxInBreaks: 0
WidescreenStoryboard: 0

[Editor]
Bookmarks: 16904,79255
DistanceSpacing: 1
BeatDivisor: 4
GridSize: 4
TimelineZoom: 2.999999

[Metadata]
Title:Kokuhaku Yokou Renshuu
TitleUnicode:告白予行練習
Artist:sana
ArtistUnicode:鎖那
Creator:deetz
Version:Normal
Source:
Tags:honeyworks milan- confession rehearsal 好きなひと。 Suki na Hito. shito
BeatmapID:675171
BeatmapSetID:275283

[Difficulty]
HPDrainRate:4
CircleSize:3.5
OverallDifficulty:4.5
ApproachRate:5.5
SliderMultiplier:1.1
SliderTickRate:1

[Events]
//Background and Video events
0,0,"whitespace.png",0,0
//Break Periods
2,79174,97508
2,144887,146156
//Storyboard Layer 0 (Background)
//Storyboard Layer 1 (Fail)
//Storyboard Layer 2 (Pass)
//Storyboard Layer 3 (Foreground)
//Storyboard Sound Samples

[TimingPoints]
1337,324.324324324324,4,2,4,40,1,0
15607,-100,4,3,0,70,0,0
16742,-100,4,2,4,40,0,0
17228,-100,4,2,4,60,0,0
24688,-100,4,2,4,60,0,0
26634,-100,4,3,4,60,0,0
27282,-100,4,2,4,50,0,0
31174,-100,4,2,4,50,0,0
32472,-100,4,2,4,50,0,0
37661,-100,4,2,4,60,0,0
46742,-100,4,2,4,60,0,0
48039,-100,4,2,4,50,0,0
49661,-100,4,3,4,60,0,0
50634,-100,4,2,4,60,0,0
51931,-100,4,3,4,60,0,0
53228,-100,4,2,4,35,0,0
55823,-100,4,2,4,60,0,0
58093,-100,4,2,4,60,0,0
58336,-100,4,2,4,5,0,0
58418,-100,4,2,4,70,0,1
62958,-100,4,3,4,70,0,1
63607,-100,4,2,4,70,0,1
67985,-100,4,2,4,70,0,1
68796,-100,4,2,4,40,0,0
69039,-100,4,2,4,5,0,0
69120,-100,4,2,4,60,0,0
79174,324.324324324324,3,2,4,50,1,0
100579,324.324324324324,4,2,4,40,1,0
103173,-100,4,2,4,60,0,0
104470,-100,4,2,4,40,0,0
105768,-100,4,2,4,60,0,0
109660,-100,4,2,4,60,0,0
110957,-100,4,2,4,50,0,0
112578,-100,4,3,4,60,0,0
113551,-100,4,2,4,50,0,0
114849,-100,4,3,4,60,0,0
116146,-100,4,2,4,40,0,0
118741,-100,4,2,4,60,0,0
120038,-100,4,2,4,60,0,0
121335,-100,4,2,4,70,0,1
125876,-100,4,3,0,70,0,1
126524,-100,4,2,4,70,0,1
130903,-100,4,2,4,70,0,1
131714,-100,4,2,4,60,0,0
132038,-100,4,2,4,60,0,0
140795,-100,4,2,4,60,0,0
147281,-100,4,2,4,45,0,0
152470,-100,4,2,4,35,0,0

[HitObjects]
108,160,1337,6,0,P|144:160|192:96,1,110,2|0,0:0|0:0,0:0:0:0:
179,54,1823,2,0,L|291:70,1,110,0|0,0:0|0:0,0:0:0:0:
355,156,2472,2,0,L|243:172,1,110,2|0,0:0|0:0,0:0:0:0:
202,204,2958,1,0,0:0:0:0:
134,290,3282,2,0,L|62:282,2,55,2|0|2,0:0|0:0|0:0,0:0:0:0:
237,328,3931,6,0,B|293:336|293:336|361:316,1,110,2|0,0:0|0:0,0:0:0:0:
395,299,4418,2,0,P|403:267|375:183,1,110,0|0,0:0|0:0,0:0:0:0:
313,109,5066,2,0,B|265:125|265:125|201:129,1,110,2|0,0:0|0:0,0:0:0:0:
150,125,5553,1,0,0:0:0:0:
99,222,5877,2,0,L|163:230,1,55,0|0,0:0|0:0,0:0:0:0:
195,262,6201,2,0,L|259:270,1,55,0|0,0:0|0:0,0:0:0:0:
295,302,6526,6,0,P|323:282|339:198,1,110,0|2,0:0|0:0,0:0:0:0:
364,161,7012,2,0,L|252:137,1,110,0|0,0:0|0:0,0:0:0:0:
149,112,7661,2,0,P|117:136|105:216,1,110,0|0,0:0|0:0,0:0:0:0:
171,285,8309,2,0,L|65:317,2,110,0|0|2,0:0|0:0|0:0,0:0:0:0:
217,314,9120,6,0,L|329:282,1,110,0|2,0:0|0:0,0:0:0:0:
371,257,9607,2,0,P|347:193|299:169,1,110,0|0,0:0|0:0,0:0:0:0:
210,208,10255,2,0,P|148:216|97:181,1,110,0|0,0:0|0:0,0:0:0:0:
78,147,10742,1,2,0:0:0:0:
142,58,11066,2,0,L|263:55,1,110,2|0,0:0|0:0,0:0:0:0:
361,45,11715,6,0,P|393:57|437:121,1,110,0|2,0:0|0:0,0:0:0:0:
462,164,12201,2,0,L|353:180,1,110,0|0,0:0|0:0,0:0:0:0:
297,276,12850,2,0,L|188:259,1,110,0|0,0:0|0:0,0:0:0:0:
135,272,13336,1,2,0:0:0:0:
82,255,13499,2,0,P|56:222|56:140,1,110,0|0,0:0|0:0,0:0:0:0:
70,104,13985,2,0,L|134:87,1,55,2|2,0:0|0:0,0:0:0:0:
170,61,14309,6,0,P|222:50|270:76,1,110,0|0,0:0|0:0,0:0:0:0:
322,92,14796,2,0,L|323:202,1,110,0|0,0:0|0:0,0:0:0:0:
331,256,15282,2,0,L|276:259,1,55,2|0,0:0|0:0,0:0:0:0:
245,305,15607,2,0,P|175:331|87:286,2,165,0|0|0,0:0|0:0|0:0,0:0:0:0:
171,97,17228,6,0,L|60:73,2,110,4|0|8,0:0|0:0|0:0,0:0:0:0:
267,150,18201,2,0,P|301:189|301:262,1,110,0|8,0:0|0:0,0:0:0:0:
294,354,18850,2,0,L|366:335,1,55,0|0,0:0|0:0,0:0:0:0:
401,329,19174,1,8,0:0:0:0:
418,221,19499,2,0,L|407:97,1,110,0|8,0:0|0:0,0:0:0:0:
310,61,20147,2,0,L|238:80,1,55,0|0,0:0|0:0,0:0:0:0:
205,93,20471,1,8,0:0:0:0:
149,188,20796,6,0,L|86:175,2,55,0|0|4,0:0|0:0|0:0,0:0:0:0:
169,296,21445,2,0,L|106:283,2,55,0|0|4,0:0|0:0|0:0,0:0:0:0:
256,229,22093,2,0,P|303:239|376:232,1,110,0|8,0:0|0:0,0:0:0:0:
457,175,22742,2,0,L|454:241,1,55,0|0,0:0|0:0,0:0:0:0:
449,284,23066,1,8,0:0:0:0:
357,345,23391,6,0,P|270:336|186:349,2,165,0|0|8,0:0|0:0|0:0,0:0:0:0:
449,284,24688,1,0,0:0:0:0:
256,192,24850,12,8,25985,0:0:0:0:
451,202,27282,6,0,P|410:198|352:153,1,110,4|2,0:0|0:0,0:0:0:0:
334,107,27769,1,0,0:0:0:0:
314,55,27931,2,0,L|188:46,1,110,0|2,0:0|0:0,0:0:0:0:
149,47,28418,2,0,P|145:89|107:154,1,110,0|0,0:0|0:0,0:0:0:0:
58,162,28904,1,2,0:0:0:0:
32,268,29228,2,0,L|155:283,1,110,0|2,0:0|0:0,0:0:0:0:
236,224,29877,6,0,P|272:216|348:176,1,110,0|2,0:0|0:0,0:0:0:0:
360,132,30364,2,0,L|488:172,1,110
468,220,30850,1,0,0:0:0:0:
384,296,31174,2,0,L|315:291,1,55,8|8,0:0|0:0,0:0:0:0:
292,332,31499,2,0,L|223:327,1,55,8|8,0:0|0:0,0:0:0:0:
212,280,31823,2,0,L|143:275,1,55,8|8,0:0|0:0,0:0:0:0:
120,316,32148,2,0,L|51:311,1,55,8|0,0:0|0:0,0:0:0:0:
32,268,32472,6,0,P|29:219|43:147,1,110,4|8,0:0|0:0,0:0:0:0:
94,147,32958,2,0,B|111:163|142:177|142:177|174:173|193:162,1,110,0|0,0:0|0:0,0:0:0:0:
228,120,33445,1,8,0:0:0:0:
331,84,33769,2,0,L|329:200,1,110,0|8,0:0|0:0,0:0:0:0:
327,248,34255,2,0,P|287:237|196:251,1,110,0|0,0:0|0:0,0:0:0:0:
174,274,34742,1,8,0:0:0:0:
109,362,35066,6,0,P|78:339|63:264,1,110,0|8,0:0|0:0,0:0:0:0:
100,233,35553,2,0,P|123:209|128:128,1,110,0|0,0:0|0:0,0:0:0:0:
150,84,36039,2,0,L|212:75,1,55,8|0,0:0|0:0,0:0:0:0:
258,91,36364,6,0,B|270:118|302:126|327:116|327:116|334:159|384:215|455:218|506:168|513:110,1,330,2|8,0:0|0:0,0:0:0:0:
430,49,37661,6,0,B|312:34,1,110,4|8,0:0|0:0,0:0:0:0:
266,38,38147,1,0,0:0:0:0:
258,91,38309,2,0,P|237:117|160:146,1,110,0|8,0:0|0:0,0:0:0:0:
119,173,38796,2,0,B|137:224|137:224|192:258,1,110,0|0,0:0|0:0,0:0:0:0:
238,240,39282,1,8,0:0:0:0:
336,288,39607,2,0,L|332:354,2,55,0|0|8,0:0|0:0|0:0,0:0:0:0:
420,217,40255,5,0,0:0:0:0:
420,217,40418,2,0,P|419:163|372:107,1,110,0|0,0:0|0:0,0:0:0:0:
337,137,40904,2,0,L|281:124,1,55,0|0,0:0|0:0,0:0:0:0:
245,84,41228,2,0,L|189:97,1,55,8|0,0:0|0:0,0:0:0:0:
176,148,41553,2,0,P|143:162|58:166,1,110,0|8,0:0|0:0,0:0:0:0:
28,272,42201,2,0,P|82:273|134:291,1,110,0|8,0:0|0:0,0:0:0:0:
232,344,42850,6,0,P|272:337|322:283,1,110,0|8,0:0|0:0,0:0:0:0:
331,235,43336,2,0,B|339:182|339:182|363:130,1,110,0|0,0:0|0:0,0:0:0:0:
412,106,43823,1,8,0:0:0:0:
492,180,44147,2,0,L|479:297,1,110,0|8,0:0|0:0,0:0:0:0:
471,343,44634,2,0,B|414:324|414:324|343:334,1,110,0|0,0:0|0:0,0:0:0:0:
312,348,45120,1,8,0:0:0:0:
214,296,45445,6,0,P|168:271|102:263,1,110,0|8,0:0|0:0,0:0:0:0:
57,273,45931,2,0,P|43:233|79:160,1,110,0|0,0:0|0:0,0:0:0:0:
119,159,46418,2,0,L|192:154,1,55,8|0,0:0|0:0,0:0:0:0:
227,166,46742,6,0,P|262:154|239:52,2,165,8|8|8,3:0|3:0|0:0,0:0:0:0:
150,245,48039,6,0,L|263:265,1,110,4|8,0:0|0:0,0:0:0:0:
312,276,48526,1,8,0:0:0:0:
366,284,48688,2,0,P|388:245|388:161,1,110,0|8,0:0|0:0,0:0:0:0:
285,154,49336,2,0,P|232:160|178:146,1,110,4|8,0:0|3:0,0:0:0:0:
139,105,49823,2,0,B|112:148|112:148|53:190,2,110,8|8|8,3:0|3:0|3:0,0:0:0:0:
169,58,50634,6,0,L|296:57,1,110,4|8,0:0|0:0,0:0:0:0:
333,55,51120,1,8,0:0:0:0:
387,56,51282,2,0,P|405:98|393:161,1,110,0|8,0:0|0:0,0:0:0:0:
283,167,51931,2,0,P|276:209|279:265,2,82.5,8|0|8,0:0|0:0|0:0,0:0:0:0:
264,115,52580,2,0,L|196:112,1,55,0|0,0:0|0:0,0:0:0:0:
166,146,52904,1,8,0:0:0:0:
124,247,53228,6,0,B|153:288|153:288|210:269|263:276|315:338,1,220,2|2,0:0|0:0,0:0:0:0:
416,334,54201,1,2,0:0:0:0:
456,231,54526,2,0,L|347:227,1,110,2|2,0:0|0:0,0:0:0:0:
266,151,55174,2,0,L|375:147,1,110,2|2,0:0|0:0,0:0:0:0:
479,108,55823,6,0,B|441:52|441:52|404:68|344:70|275:46,2,220,4|4|0,0:0|0:0|0:0,0:0:0:0:
458,270,58093,5,0,0:0:0:0:
458,270,58418,6,0,P|387:245|336:256,1,110,4|0,0:0|0:0,0:0:0:0:
304,274,58904,2,0,P|249:276|200:253,1,110,8|8,0:0|0:0,0:0:0:0:
195,198,59391,1,0,0:0:0:0:
219,150,59553,2,0,L|221:33,1,110,8|8,0:0|0:0,0:0:0:0:
330,34,60201,2,0,L|331:143,1,110,8|8,0:0|0:0,0:0:0:0:
385,159,60688,2,0,L|399:225,1,55,0|8,0:0|0:0,0:0:0:0:
437,249,61012,6,0,P|406:290|334:299,1,110,0|0,0:0|0:0,0:0:0:0:
301,277,61499,2,0,B|248:264|248:264|183:272,1,110,8|8,0:0|0:0,0:0:0:0:
103,334,62147,2,0,P|59:333|35:267,1,110,8|8,0:0|0:0,0:0:0:0:
52,228,62634,1,0,0:0:0:0:
154,189,62958,2,0,L|276:202,1,110,0|0,0:0|0:0,0:0:0:0:
285,92,63607,6,0,L|401:104,1,110,4|0,0:0|0:0,0:0:0:0:
439,135,64093,2,0,P|457:182|439:250,1,110,8|8,0:0|0:0,0:0:0:0:
391,247,64580,1,0,0:0:0:0:
343,274,64742,2,0,P|293:260|221:268,1,110,8|8,0:0|0:0,0:0:0:0:
141,206,65391,2,0,L|238:151,1,110,8|8,0:0|0:0,0:0:0:0:
280,119,65877,2,0,P|308:136|332:162,1,55,0|8,0:0|0:0,0:0:0:0:
328,206,66201,6,0,P|372:208|430:256,1,110,4|8,0:0|0:0,0:0:0:0:
438,299,66688,2,0,B|313:316,1,110,4|0,0:0|0:0,0:0:0:0:
235,256,67336,2,0,B|195:269|195:269|123:262,1,110,8|0,0:0|0:0,0:0:0:0:
48,187,67985,2,0,P|48:151|117:110,1,110,4|0,0:0|0:0,0:0:0:0:
157,116,68472,1,8,0:0:0:0:
252,170,68796,1,0,0:0:0:0:
252,170,69120,6,0,P|237:222|191:260,2,110,4|0|8,0:0|0:0|0:0,0:0:0:0:
233,61,70093,2,0,L|346:68,1,110,0|8,0:0|0:0,0:0:0:0:
385,102,70580,1,0,0:0:0:0:
425,139,70742,2,0,P|428:184|408:259,1,110,0|8,0:0|0:0,0:0:0:0:
339,325,71391,6,0,P|265:328|211:324,1,110,0|8,0:0|0:0,0:0:0:0:
178,228,72039,2,0,P|252:225|306:229,1,110,0|8,0:0|0:0,0:0:0:0:
340,243,72526,1,0,0:0:0:0:
390,220,72688,2,0,L|408:148,2,55,0|0|8,0:0|0:0|0:0,0:0:0:0:
470,294,73336,2,0,L|488:366,2,55,0|0|8,0:0|0:0|0:0,0:0:0:0:
364,326,73985,6,0,P|308:340|232:335,1,110,4|8,0:0|0:0,0:0:0:0:
180,259,74634,2,0,P|236:245|312:250,1,110,0|8,0:0|0:0,0:0:0:0:
397,240,75282,2,0,P|406:198|383:135,1,110,0|8,0:0|0:0,0:0:0:0:
275,116,75931,2,0,B|229:142|229:142|157:146,1,110,0|8,0:0|0:0,0:0:0:0:
71,191,76580,6,0,L|81:246,1,55,4|0,0:0|0:0,0:0:0:0:
61,296,76904,1,0,0:0:0:0:
160,342,77228,2,0,P|217:304|263:293,1,110,0|4,0:0|0:0,0:0:0:0:
364,271,77877,1,0,0:0:0:0:
457,328,78201,6,0,P|470:294|446:202,1,123.75,0|0,0:0|0:0,0:0:0:0:
256,192,98633,12,0,100255,0:0:0:0:
83,213,100903,6,0,P|78:172|225:91,1,220,2|2,0:0|0:0,0:0:0:0:
378,221,102200,2,0,P|383:262|236:343,1,220,2|2,0:0|0:0,0:0:0:0:
193,258,103173,6,0,L|68:266,1,110,4|2,0:0|0:0,0:0:0:0:
30,168,103822,2,0,L|155:176,1,110,0|2,0:0|0:0,0:0:0:0:
180,72,104470,5,0,0:0:0:0:
256,152,104795,1,0,0:0:0:0:
316,60,105119,1,0,0:0:0:0:
384,144,105443,1,0,0:0:0:0:
456,60,105768,6,0,B|475:114|475:114|462:176,1,110,0|8,0:0|0:0,0:0:0:0:
432,208,106254,2,0,L|412:328,1,110,0|0,0:0|0:0,0:0:0:0:
364,340,106741,1,8,0:0:0:0:
256,348,107065,2,0,P|204:352|144:316,1,110,0|8,0:0|0:0,0:0:0:0:
147,272,107551,2,0,P|174:229|173:170,1,110,0|0,0:0|0:0,0:0:0:0:
133,133,108038,1,8,0:0:0:0:
71,42,108362,6,0,L|188:47,1,110,0|8,0:0|0:0,0:0:0:0:
214,90,108849,2,0,P|230:112|311:122,1,110,0|0,0:0|0:0,0:0:0:0:
356,100,109335,2,0,L|385:147,1,55,8|0,0:0|0:0,0:0:0:0:
409,196,109660,6,0,P|426:217|503:152,2,165,8|8|8,3:0|3:0|3:0,0:0:0:0:
299,183,110957,6,0,P|263:166|183:169,1,110,4|8,0:0|0:0,0:0:0:0:
166,213,111443,1,8,0:0:0:0:
182,265,111606,2,0,P|182:298|137:362,1,110,0|8,0:0|0:0,0:0:0:0:
48,300,112254,2,0,B|64:248|64:248|60:192,1,110,4|8,0:0|0:0,0:0:0:0:
44,140,112741,2,0,P|84:132|104:64,2,110,8|8|8,0:0|0:0|0:0,0:0:0:0:
8,180,113551,6,0,L|132:204,1,110,4|8,0:0|0:0,0:0:0:0:
144,248,114038,1,8,0:0:0:0:
184,284,114200,2,0,P|220:272|244:196,1,110,0|8,0:0|0:0,0:0:0:0:
204,108,114849,2,0,L|308:100,2,82.5,8|0|8,0:0|0:0|0:0,0:0:0:0:
156,132,115497,2,0,L|100:128,1,55,0|0,0:0|0:0,0:0:0:0:
48,140,115822,1,8,0:0:0:0:
41,247,116146,6,0,B|92:248|92:248|144:235|144:235|176:240|176:240|200:232|200:232|276:224,1,220,2|2,0:0|0:0,0:0:0:0:
336,304,117119,2,0,P|368:304|396:152,1,220,2|2,0:0|0:0,0:0:0:0:
312,100,118092,2,0,P|276:116|200:112,1,110,2|2,0:0|0:0,0:0:0:0:
100,88,118741,6,0,L|64:312,1,220,4|4,0:0|0:0,0:0:0:0:
284,324,120038,2,0,B|328:320|344:292|344:292|372:328|428:324|472:316|484:256|488:212|448:176|420:160|348:176,1,385,0|0,0:0|0:0,0:0:0:0:
324,212,121335,6,0,P|280:208|212:168,1,110,4|0,0:0|0:0,0:0:0:0:
232,124,121822,2,0,P|168:148|116:140,1,110,8|8,0:0|0:0,0:0:0:0:
73,135,122308,1,0,0:0:0:0:
20,152,122470,2,0,P|20:196|56:256,1,110,8|8,0:0|0:0,0:0:0:0:
120,340,123119,2,0,P|144:312|152:232,1,110,8|8,0:0|0:0,0:0:0:0:
140,188,123606,2,0,L|196:172,1,55,0|8,0:0|0:0,0:0:0:0:
240,200,123930,6,0,P|276:192|324:128,1,110,0|0,0:0|0:0,0:0:0:0:
360,100,124416,2,0,L|424:208,1,110,8|8,0:0|0:0,0:0:0:0:
472,288,125065,2,0,P|408:292|344:316,1,110,8|8,0:0|0:0,0:0:0:0:
325,344,125551,2,0,L|262:338,1,55,0|8,0:0|0:0,0:0:0:0:
225,306,125876,2,0,L|101:306,1,110,0|0,0:0|0:0,0:0:0:0:
60,212,126524,6,0,B|120:204|120:204|184:168,1,110,4|0,0:0|0:0,0:0:0:0:
199,138,127011,2,0,P|247:106|317:123,1,110,8|8,0:0|0:0,0:0:0:0:
341,142,127497,1,0,0:0:0:0:
344,197,127660,2,0,L|458:188,1,110,8|8,0:0|0:0,0:0:0:0:
489,292,128308,2,0,L|375:283,1,110,8|8,0:0|0:0,0:0:0:0:
342,324,128795,2,0,L|272:310,1,55,0|8,0:0|0:0,0:0:0:0:
239,339,129119,6,0,P|234:288|206:237,1,110,0|0,0:0|0:0,0:0:0:0:
151,228,129606,2,0,L|158:118,1,110,8|8,0:0|0:0,0:0:0:0:
232,37,130254,2,0,L|348:62,1,110,8|0,0:0|0:0,0:0:0:0:
418,122,130903,2,0,P|400:158|408:232,1,110,0|0,0:0|0:0,0:0:0:0:
433,273,131389,2,0,L|366:282,1,55,0|0,0:0|0:0,0:0:0:0:
343,322,131714,5,0,0:0:0:0:
257,253,132038,2,0,P|227:227|155:203,2,110,4|0|8,0:0|0:0|0:0,0:0:0:0:
343,322,133011,2,0,L|345:198,1,110,0|8,0:0|0:0,0:0:0:0:
376,106,133660,2,0,P|321:84|256:82,1,110,0|8,0:0|0:0,0:0:0:0:
163,106,134308,6,0,L|194:233,2,110,4|8|0,0:0|0:0|0:0,0:0:0:0:
65,157,135281,1,8,0:0:0:0:
100,261,135606,2,0,P|204:314|289:244,1,220,0|0,0:0|0:0,0:0:0:0:
263,154,136578,1,8,0:0:0:0:
343,79,136903,6,0,L|359:202,1,110,4|8,0:0|0:0,0:0:0:0:
383,294,137551,2,0,B|327:280|327:280|272:298,1,110,0|8,0:0|0:0,0:0:0:0:
175,338,138200,2,0,P|128:317|108:258,1,110,0|8,0:0|0:0,0:0:0:0:
44,174,138849,2,0,L|167:156,1,110,0|8,0:0|0:0,0:0:0:0:
240,224,139497,6,0,P|256:168|256:112,1,110,4|8,0:0|0:0,0:0:0:0:
336,40,140146,2,0,P|339:101|360:160,1,110,0|8,0:0|0:0,0:0:0:0:
464,140,140795,2,0,L|455:365,1,220,4|0,0:0|0:0,0:0:0:0:
402,375,141606,1,8,0:0:0:0:
357,342,141768,2,0,P|328:325|295:322,1,55,8|8,0:0|0:0,0:0:0:0:
252,328,142092,5,4,0:0:0:0:
256,192,142254,12,0,144687,0:0:0:0:
108,193,147281,6,0,B|165:208|165:208|236:183,1,110,0|2,0:0|0:0,0:0:0:0:
230,138,147768,2,0,B|278:121|278:121|335:136,1,110,0|0,0:0|0:0,0:0:0:0:
380,227,148416,2,0,P|368:259|289:272,1,110,0|0,0:0|0:0,0:0:0:0:
193,306,149065,2,0,P|150:279|80:277,1,110,0|0,0:0|0:0,0:0:0:0:
42,297,149551,2,0,L|33:231,1,55,2|2,0:0|0:0,0:0:0:0:
53,190,149876,6,0,L|182:161,1,110,0|2,0:0|0:0,0:0:0:0:
213,179,150362,2,0,P|246:159|336:161,1,110,0|0,0:0|0:0,0:0:0:0:
403,220,151011,2,0,P|403:258|357:335,1,110,0|0,0:0|0:0,0:0:0:0:
319,334,151497,1,2,0:0:0:0:
208,336,151822,2,0,L|80:329,1,110,0|0,0:0|0:0,0:0:0:0:
121,222,152470,6,0,P|165:204|177:129,1,110,2|0,0:0|0:0,0:0:0:0:
167,95,152957,2,0,L|294:92,1,110,0|0,0:0|0:0,0:0:0:0:
353,171,153606,2,0,B|297:175|297:175|249:216,1,110,2|0,0:0|0:0,0:0:0:0:
226,315,154254,2,0,P|191:288|121:289,1,110,0|0,0:0|0:0,0:0:0:0:
75,305,154741,2,0,L|62:241,1,55,0|0,0:0|0:0,0:0:0:0:
90,202,155065,6,0,P|132:180|159:119,1,110,2|0,0:0|0:0,0:0:0:0:
180,75,155551,2,0,L|304:85,1,110,0|0,0:0|0:0,0:0:0:0:
368,160,156200,2,0,L|244:170,1,110,2|0,0:0|0:0,0:0:0:0:
207,190,156687,2,0,P|196:217|197:253,1,55,0|0,0:0|0:0,0:0:0:0:
223,289,157011,2,0,L|281:298,2,55,2|2|2,0:0|0:0|0:0,0:0:0:0:
181,325,157497,1,2,0:0:0:0:
