osu file format v14

[General]
AudioFilename: kokuhakuyokou.mp3
AudioLeadIn: 0
PreviewTime: 27282
Countdown: 0
SampleSet: Soft
StackLeniency: 0.6
Mode: 0
LetterboxInBreaks: 0
WidescreenStoryboard: 0

[Editor]
Bookmarks: 16904,79255
DistanceSpacing: 1.2
BeatDivisor: 4
GridSize: 4
TimelineZoom: 3.999998

[Metadata]
Title:Kokuhaku Yokou Renshuu
TitleUnicode:告白予行練習
Artist:sana
ArtistUnicode:鎖那
Creator:deetz
Version:Hard
Source:
Tags:honeyworks milan- confession rehearsal 好きなひと。 Suki na Hito. shito
BeatmapID:679231
BeatmapSetID:275283

[Difficulty]
HPDrainRate:5
CircleSize:4
OverallDifficulty:6
ApproachRate:8
SliderMultiplier:1.4
SliderTickRate:1

[Events]
//Background and Video events
0,0,"whitespace.png",0,0
//Break Periods
2,144887,145883
//Storyboard Layer 0 (Background)
//Storyboard Layer 1 (Fail)
//Storyboard Layer 2 (Pass)
//Storyboard Layer 3 (Foreground)
//Storyboard Sound Samples

[TimingPoints]
1337,324.324324324324,4,2,4,40,1,0
1337,-133.333333333333,4,2,4,40,0,0
15607,-133.333333333333,4,3,0,70,0,0
16742,-200,4,2,4,40,0,0
17228,-100,4,2,4,60,0,0
24688,-100,4,2,4,60,0,0
26634,-100,4,3,4,60,0,0
27282,-125,4,2,4,50,0,0
31174,-125,4,2,4,50,0,0
32472,-125,4,2,4,50,0,0
37661,-100,4,2,4,60,0,0
46742,-100,4,2,4,60,0,0
48039,-133.333333333333,4,2,4,50,0,0
49661,-133.333333333333,4,3,4,60,0,0
50634,-133.333333333333,4,2,4,60,0,0
51931,-133.333333333333,4,3,4,60,0,0
53228,-133.333333333333,4,2,4,35,0,0
55823,-100,4,2,4,60,0,0
58093,-83.3333333333333,4,2,4,60,0,0
58336,-83.3333333333333,4,2,4,5,0,0
58418,-95.2380952380952,4,2,4,70,0,1
62958,-95.2380952380952,4,3,4,70,0,1
63607,-95.2380952380952,4,2,4,70,0,1
67985,-133.333333333333,4,2,4,70,0,1
68796,-133.333333333333,4,2,4,40,0,0
69039,-133.333333333333,4,2,4,5,0,0
69120,-100,4,2,4,60,0,0
79174,324.324324324324,3,2,4,50,1,0
79174,-133.333333333333,3,2,4,50,0,0
84363,-133.333333333333,3,3,0,50,0,0
85011,-133.333333333333,3,2,4,50,0,0
86309,-133.333333333333,3,3,0,50,0,0
86957,-133.333333333333,3,2,4,50,0,0
97660,-133.333333333333,3,3,0,50,0,0
98633,-133.333333333333,3,2,4,50,0,0
100579,324.324324324324,4,2,4,40,1,0
103173,-100,4,2,4,60,0,0
104470,-100,4,2,4,40,0,0
105768,-100,4,2,4,60,0,0
109660,-100,4,2,4,60,0,0
110957,-100,4,2,4,50,0,0
112578,-100,4,3,4,60,0,0
113551,-100,4,2,4,50,0,0
114849,-100,4,3,4,60,0,0
116146,-133.333333333333,4,2,4,40,0,0
118741,-100,4,2,4,60,0,0
120038,-200,4,2,4,60,0,0
121335,-95.2380952380952,4,2,4,70,0,1
125876,-95.2380952380952,4,3,0,70,0,1
126524,-95.2380952380952,4,2,4,70,0,1
130903,-133.333333333333,4,2,4,70,0,1
131714,-133.333333333333,4,2,4,60,0,0
132038,-100,4,2,4,60,0,0
140795,-133.333333333333,4,2,4,60,0,0
147281,-133.333333333333,4,2,4,45,0,0
152470,-133.333333333333,4,2,4,35,0,0

[HitObjects]
156,184,1337,6,0,P|144:208|104:232,1,52.5000020027161,2|0,0:0|0:0,0:0:0:0:
84,156,1661,1,0,0:0:0:0:
144,104,1823,2,0,P|192:108|232:172,1,105.000004005432,0|0,0:0|0:0,0:0:0:0:
232,228,2309,1,0,0:0:0:0:
232,228,2472,2,0,L|296:120,1,105.000004005432,2|0,0:0|0:0,0:0:0:0:
352,96,2958,2,0,P|396:108|412:128,1,52.5000020027161,0|0,0:0|0:0,0:0:0:0:
456,176,3282,2,0,P|414:195|402:217,1,52.5000020027161,2|0,0:0|0:0,0:0:0:0:
340,248,3607,2,0,P|377:274|385:298,1,52.5000020027161,2|0,0:0|0:0,0:0:0:0:
364,356,3931,6,0,P|322:375|298:369,1,52.5000020027161,2|0,0:0|0:0,0:0:0:0:
280,304,4255,1,0,0:0:0:0:
200,292,4418,2,0,L|232:168,1,105.000004005432,0|0,0:0|0:0,0:0:0:0:
244,116,4904,1,0,0:0:0:0:
284,184,5066,2,0,P|256:193|182:160,1,105.000004005432,2|0,0:0|0:0,0:0:0:0:
152,96,5553,2,0,L|148:32,1,52.5000020027161
56,96,5877,6,0,P|36:144|32:168,1,52.5000020027161,0|0,0:0|0:0,0:0:0:0:
100,216,6201,2,0,P|120:168|124:144,1,52.5000020027161,0|0,0:0|0:0,0:0:0:0:
24,240,6526,6,0,P|48:276|72:288,1,52.5000020027161,0|0,0:0|0:0,0:0:0:0:
132,288,6850,1,2,0:0:0:0:
180,224,7012,2,0,P|236:236|296:272,1,105.000004005432,0|0,0:0|0:0,0:0:0:0:
328,316,7499,1,2,0:0:0:0:
396,356,7661,6,0,L|416:296,1,52.5000020027161,0|0,0:0|0:0,0:0:0:0:
484,272,7985,2,0,L|464:212,1,52.5000020027161,0|2,0:0|0:0,0:0:0:0:
396,188,8309,2,0,L|416:128,1,52.5000020027161,0|0,0:0|0:0,0:0:0:0:
436,64,8634,2,0,P|480:104|484:116,2,52.5000020027161,0|2|2,0:0|0:0|0:0,0:0:0:0:
364,92,9120,6,0,P|324:96|288:96,1,52.5000020027161,0|0,0:0|0:0,0:0:0:0:
240,60,9445,1,2,0:0:0:0:
212,132,9607,2,0,L|100:104,1,105.000004005432,0|0,0:0|0:0,0:0:0:0:
32,92,10093,1,2,0:0:0:0:
20,168,10255,6,0,L|121:193,1,105.000004005432,0|0,0:0|0:0,0:0:0:0:
200,212,10742,2,0,P|196:256|180:284,1,52.5000020027161,2|0,0:0|0:0,0:0:0:0:
168,340,11066,2,0,L|224:344,1,52.5000020027161,2|0,0:0|0:0,0:0:0:0:
288,300,11391,1,0,0:0:0:0:
288,300,11715,6,0,L|364:300,1,52.5000020027161,0|0,0:0|0:0,0:0:0:0:
412,268,12039,1,2,0:0:0:0:
484,232,12201,2,0,P|453:199|380:196,1,105.000004005432,0|0,0:0|0:0,0:0:0:0:
316,196,12688,1,2,0:0:0:0:
236,196,12850,6,0,L|240:124,1,52.5000020027161,0|0,0:0|0:0,0:0:0:0:
164,116,13174,2,0,L|161:168,1,52.5000020027161,0|2,0:0|0:0,0:0:0:0:
86,140,13499,2,0,L|89:88,1,52.5000020027161,0|0,0:0|0:0,0:0:0:0:
148,36,13823,1,0,0:0:0:0:
224,60,13985,1,2,0:0:0:0:
240,136,14147,1,2,0:0:0:0:
184,192,14309,6,0,P|164:248|104:268,1,105.000004005432,0|0,0:0|0:0,0:0:0:0:
52,244,14796,2,0,L|124:332,1,105.000004005432,0|0,0:0|0:0,0:0:0:0:
188,364,15282,1,2,0:0:0:0:
232,296,15445,1,0,0:0:0:0:
304,328,15607,6,0,P|352:320|396:280,1,105.000004005432,0|0,0:0|0:0,0:0:0:0:
472,288,16093,2,0,L|448:160,1,105.000004005432,0|0,0:0|0:0,0:0:0:0:
376,212,16580,1,0,0:0:0:0:
376,212,16742,6,0,L|388:132,1,70,0|0,0:0|0:0,0:0:0:0:
464,108,17228,6,0,P|440:76|328:80,1,140,4|0,0:0|0:0,0:0:0:0:
305,140,17715,1,0,0:0:0:0:
232,100,17877,2,0,P|172:108|144:108,1,70,8|0,0:0|0:0,0:0:0:0:
88,144,18201,6,0,L|20:172,1,70,0|0,0:0|0:0,0:0:0:0:
144,192,18526,2,0,L|115:259,1,70,8|0,0:0|0:0,0:0:0:0:
217,186,18850,2,0,L|244:254,1,70,0|0,0:0|0:0,0:0:0:0:
276,328,19174,1,8,0:0:0:0:
276,328,19336,1,0,0:0:0:0:
276,328,19499,6,0,P|312:298|410:311,1,140,0|8,0:0|0:0,0:0:0:0:
464,252,19985,1,0,0:0:0:0:
464,168,20147,2,0,L|396:144,1,70,0|0,0:0|0:0,0:0:0:0:
328,192,20472,2,0,L|288:132,1,70,8|0,0:0|0:0,0:0:0:0:
232,88,20796,5,0,0:0:0:0:
232,88,20958,1,0,0:0:0:0:
232,88,21120,2,0,L|148:92,1,70,4|0,0:0|0:0,0:0:0:0:
96,172,21445,1,0,0:0:0:0:
96,172,21607,1,0,0:0:0:0:
96,172,21769,2,0,L|180:176,1,70,4|0,0:0|0:0,0:0:0:0:
272,180,22093,6,0,P|270:219|224:316,1,140,0|8,0:0|0:0,0:0:0:0:
304,352,22580,1,0,0:0:0:0:
388,344,22742,2,0,L|460:316,1,70,0|0,0:0|0:0,0:0:0:0:
452,236,23066,1,8,0:0:0:0:
452,236,23228,1,0,0:0:0:0:
452,236,23391,6,0,P|456:176|424:100,1,140,0|8,0:0|0:0,0:0:0:0:
348,72,23877,2,0,L|180:88,1,140,0|0,0:0|0:0,0:0:0:0:
152,148,24364,2,0,P|168:204|168:232,1,70,8|0,0:0|0:0,0:0:0:0:
144,296,24688,5,0,0:0:0:0:
256,192,24850,12,2,26634,0:0:0:0:
147,160,27282,6,0,P|199:169|225:233,1,112,4|2,0:0|0:0,0:0:0:0:
204,299,27769,1,0,0:0:0:0:
287,292,27931,2,0,L|350:277,2,56,0|0|2,0:0|0:0|0:0,0:0:0:0:
204,299,28418,6,0,P|157:309|86:273,1,112,0|0,0:0|0:0,0:0:0:0:
78,204,28904,2,0,L|68:140,1,56,2|0,0:0|0:0,0:0:0:0:
146,115,29228,2,0,L|154:170,1,56,0|2,0:0|0:0,0:0:0:0:
237,185,29553,1,2,0:0:0:0:
237,185,29877,6,0,P|267:207|351:198,1,112,0|2,0:0|0:0,0:0:0:0:
414,167,30364,2,0,L|417:286,1,112,0|0,0:0|0:0,0:0:0:0:
420,362,30850,2,0,L|349:350,1,56,2|0,0:0|0:0,0:0:0:0:
281,358,31174,6,0,L|274:302,1,56,8|8,0:0|0:0,0:0:0:0:
190,290,31499,2,0,L|183:234,1,56,8|8,0:0|0:0,0:0:0:0:
260,201,31823,2,0,P|297:193|340:196,1,56,8|8,0:0|0:0,0:0:0:0:
380,140,32147,2,0,P|383:111|369:72,1,56,8|8,0:0|0:0,0:0:0:0:
292,84,32472,6,0,B|256:88|224:72|224:72|208:92|176:96,1,112,4|8,0:0|0:0,0:0:0:0:
148,168,32958,2,0,B|184:164|216:180|216:180|232:160|264:156,1,112,0|0,0:0|0:0,0:0:0:0:
288,236,33445,2,0,P|296:284|292:308,1,56,8|0,0:0|0:0,0:0:0:0:
236,352,33769,6,0,P|196:356|140:308,1,112,0|8,0:0|0:0,0:0:0:0:
116,236,34255,2,0,P|156:232|212:280,1,112,0|0,0:0|0:0,0:0:0:0:
295,290,34742,2,0,P|295:262|288:236,1,56,8|0,0:0|0:0,0:0:0:0:
252,160,35066,6,0,B|240:108|240:108|264:48,1,112,0|8,0:0|0:0,0:0:0:0:
340,28,35553,2,0,B|352:80|352:80|328:140,1,112,0|0,0:0|0:0,0:0:0:0:
316,216,36039,2,0,L|384:224,1,56,8|0,0:0|0:0,0:0:0:0:
420,292,36364,6,0,P|444:264|456:232,1,56,2|0,0:0|0:0,0:0:0:0:
336,296,36688,2,0,P|312:324|300:356,1,56,10|2,0:0|0:0,0:0:0:0:
380,364,37012,2,0,P|412:376|452:368,1,56,2|2,0:0|0:0,0:0:0:0:
420,292,37336,2,0,L|420:224,1,56,8|0,0:0|0:0,0:0:0:0:
420,208,37580,1,0,0:0:0:0:
420,176,37661,6,0,P|384:160|348:160,1,70,4|0,0:0|0:0,0:0:0:0:
260,208,37985,2,0,P|291:222|326:224,1,70,8|0,0:0|0:0,0:0:0:0:
280,128,38309,2,0,P|232:132|176:208,1,140,0|8,0:0|0:0,0:0:0:0:
212,276,38796,1,0,0:0:0:0:
296,284,38958,6,0,P|332:256|340:208,1,70,0|0,0:0|0:0,0:0:0:0:
360,152,39282,2,0,P|375:120|404:102,1,70,8|0,0:0|0:0,0:0:0:0:
488,108,39607,2,0,L|480:256,1,140,0|8,0:0|0:0,0:0:0:0:
412,296,40093,1,0,0:0:0:0:
360,228,40255,6,0,P|308:204|280:204,1,70,0|0,0:0|0:0,0:0:0:0:
220,244,40580,1,8,0:0:0:0:
220,244,40742,1,0,0:0:0:0:
196,324,40904,2,0,L|126:316,1,70,0|0,0:0|0:0,0:0:0:0:
88,240,41228,1,8,0:0:0:0:
88,240,41391,1,0,0:0:0:0:
156,168,41553,6,0,P|96:144|4:184,1,140,0|8,0:0|0:0,0:0:0:0:
0,244,42039,1,0,0:0:0:0:
49,326,42201,2,0,P|105:334|145:318,1,70,0|0,0:0|0:0,0:0:0:0:
172,252,42526,2,0,P|206:248|240:257,1,70,8|0,0:0|0:0,0:0:0:0:
312,300,42850,6,0,P|320:244|268:180,1,140,0|8,0:0|0:0,0:0:0:0:
208,144,43336,2,0,P|248:176|344:128,1,140,0|0,0:0|0:0,0:0:0:0:
364,80,43823,2,0,B|400:88|400:88|432:116,1,70,8|0,0:0|0:0,0:0:0:0:
468,180,44147,6,0,P|480:224|460:332,1,140,0|8,0:0|0:0,0:0:0:0:
384,316,44634,2,0,P|370:247|383:179,1,140,0|0,0:0|0:0,0:0:0:0:
424,109,45120,2,0,B|400:88|400:88|364:80,1,70,8|0,0:0|0:0,0:0:0:0:
280,80,45445,6,0,P|224:108|264:168,1,140,0|8,0:0|0:0,0:0:0:0:
320,184,45931,2,0,P|268:168|184:204,1,140,0|0,0:0|0:0,0:0:0:0:
160,276,46418,2,0,L|88:252,1,70,8|0,0:0|0:0,0:0:0:0:
72,172,46742,6,0,L|64:120,4,35,8|0|0|0|0,3:0|3:0|3:0|3:0|3:0,0:0:0:0:
148,136,47228,2,0,L|140:84,4,35,8|0|0|0|0,3:0|3:0|3:0|3:0|3:0,0:0:0:0:
224,100,47715,1,8,0:0:0:0:
240,104,48039,6,0,L|308:116,1,52.5000020027161,4|0,0:0|0:0,0:0:0:0:
340,176,48364,1,8,0:0:0:0:
340,176,48526,1,8,0:0:0:0:
288,236,48688,2,0,L|236:245,1,52.5000020027161,0|0,0:0|0:0,0:0:0:0:
184,184,49012,2,0,L|132:174,1,52.5000020027161,8|0,0:0|0:0,0:0:0:0:
52,176,49336,6,0,P|60:212|80:240,1,52.5000020027161,4|0,0:0|0:0,0:0:0:0:
136,264,49661,2,0,L|128:336,1,52.5000020027161,8|8,3:0|3:0,0:0:0:0:
212,260,49985,2,0,L|204:332,1,52.5000020027161,0|8,3:0|3:0,0:0:0:0:
288,256,50309,2,0,L|280:328,1,52.5000020027161,0|8,3:0|3:0,0:0:0:0:
364,252,50634,6,0,P|368:288|420:332,1,105.000004005432,4|8,0:0|0:0,0:0:0:0:
440,256,51120,1,8,0:0:0:0:
404,184,51282,2,0,L|344:164,1,52.5000020027161,0|0,0:0|0:0,0:0:0:0:
324,92,51607,2,0,L|264:112,1,52.5000020027161,8|0,0:0|0:0,0:0:0:0:
204,144,51931,6,0,P|172:104|156:60,2,78.7500030040742,8|0|8,0:0|0:0|0:0,0:0:0:0:
272,184,52580,2,0,P|244:216|216:220,1,52.5000020027161,0|0,0:0|0:0,0:0:0:0:
160,248,52904,1,8,0:0:0:0:
288,336,53228,6,0,P|320:344|412:220,1,210.000008010865,2|2,0:0|0:0,0:0:0:0:
288,216,54201,1,2,0:0:0:0:
288,336,54526,2,0,L|176:336,1,105.000004005432,2|2,0:0|0:0,0:0:0:0:
68,288,55174,1,2,0:0:0:0:
88,172,55499,2,0,P|128:176|152:184,1,52.5000020027161,2|0,0:0|0:0,0:0:0:0:
160,196,55742,1,0,0:0:0:0:
172,224,55823,6,0,P|228:232|284:144,1,140,4|0,0:0|0:0,0:0:0:0:
344,120,56309,1,0,0:0:0:0:
420,156,56472,2,0,L|408:304,1,140,4|0,0:0|0:0,0:0:0:0:
332,332,56958,1,0,0:0:0:0:
248,320,57120,5,0,0:0:0:0:
212,320,57769,5,0,0:0:0:0:
188,320,58093,6,0,P|140:276|192:228,1,125.999996154785,0|0,0:0|0:0,0:0:0:0:
208,220,58418,6,0,P|248:184|256:156,1,73.4999977569581,4|8,0:0|0:0,0:0:0:0:
228,84,58742,1,0,0:0:0:0:
228,84,58904,2,0,B|288:132|288:132|332:208,1,146.999995513916,8|8,0:0|0:0,0:0:0:0:
412,192,59391,1,0,0:0:0:0:
492,228,59553,6,0,P|500:196|492:156,1,73.4999977569581,8|0,0:0|0:0,0:0:0:0:
432,92,59877,2,0,L|352:92,1,73.4999977569581,8|0,0:0|0:0,0:0:0:0:
272,96,60201,2,0,P|236:156|280:232,1,146.999995513916,8|8,0:0|0:0,0:0:0:0:
324,288,60688,2,0,P|277:309|243:309,1,73.4999977569581,0|8,0:0|0:0,0:0:0:0:
172,280,61012,6,0,P|108:300|32:276,1,146.999995513916,0|0,0:0|0:0,0:0:0:0:
32,188,61499,2,0,P|96:168|172:192,1,146.999995513916,8|8,0:0|0:0,0:0:0:0:
248,232,61985,1,0,0:0:0:0:
320,180,62147,6,0,P|332:140|332:96,2,73.4999977569581,8|0|8,0:0|0:0|0:0,0:0:0:0:
248,232,62634,2,0,P|292:264|336:264,1,73.4999977569581,0|8,0:0|0:0,0:0:0:0:
396,264,62958,2,0,L|420:300,2,36.749998878479,0|0|0,0:0|0:0|0:0,0:0:0:0:
400,176,63282,2,0,L|443:173,2,36.749998878479,0|0|0,0:0|0:0|0:0,0:0:0:0:
325,128,63607,6,0,L|366:40,1,73.4999977569581,4|8,0:0|0:0,0:0:0:0:
276,32,63931,1,0,0:0:0:0:
206,129,64093,2,0,B|256:160|256:160|272:196|304:208|336:204,1,146.999995513916,8|8,0:0|0:0,0:0:0:0:
404,164,64580,1,0,0:0:0:0:
484,132,64742,6,0,P|484:200|476:220,1,73.4999977569581,8|0,0:0|0:0,0:0:0:0:
424,272,65066,2,0,L|336:272,1,73.4999977569581,8|0,0:0|0:0,0:0:0:0:
272,316,65391,2,0,P|212:324|112:272,1,146.999995513916,8|8,0:0|0:0,0:0:0:0:
92,216,65877,2,0,P|111:179|140:156,1,73.4999977569581,0|8,0:0|0:0,0:0:0:0:
172,80,66201,6,0,L|84:72,2,73.4999977569581,4|8|8,0:0|0:0|0:0,0:0:0:0:
240,136,66688,2,0,L|328:128,2,73.4999977569581,4|0|0,0:0|0:0|0:0,0:0:0:0:
156,164,67174,1,8,0:0:0:0:
76,200,67336,6,0,P|68:248|72:280,1,73.4999977569581,8|0,0:0|0:0,0:0:0:0:
144,324,67661,2,0,P|152:276|148:244,1,73.4999977569581,0|0,0:0|0:0,0:0:0:0:
156,164,67985,2,0,L|264:184,1,105.000004005432,4|0,0:0|0:0,0:0:0:0:
259,183,68472,1,8,0:0:0:0:
334,328,68796,6,0,L|255:328,1,78.7500030040742,0|0,0:0|0:0,0:0:0:0:
212,328,69120,6,0,P|160:300|152:276,1,70,4|0,0:0|0:0,0:0:0:0:
220,188,69445,2,0,P|221:247|204:265,1,70,0|0,0:0|0:0,0:0:0:0:
144,216,69769,2,0,P|142:156|159:138,1,70,8|0,0:0|0:0,0:0:0:0:
212,100,70093,6,0,P|284:120|312:184,1,140,0|8,0:0|0:0,0:0:0:0:
312,260,70580,1,0,0:0:0:0:
395,268,70742,2,0,L|377:115,1,140,0|8,0:0|0:0,0:0:0:0:
450,86,71228,1,0,0:0:0:0:
379,45,71391,6,0,L|234:66,1,140,0|8,0:0|0:0,0:0:0:0:
183,127,71877,1,0,0:0:0:0:
253,172,72039,2,0,L|391:151,1,140,0|8,0:0|0:0,0:0:0:0:
455,205,72526,1,0,0:0:0:0:
397,266,72688,2,0,L|317:261,2,70,0|0|8,0:0|0:0|0:0,0:0:0:0:
455,205,73174,1,0,0:0:0:0:
470,122,73336,2,0,L|471:48,2,70,0|0|8,0:0|0:0|0:0,0:0:0:0:
470,122,73985,6,0,P|410:98|331:107,1,140,4|8,0:0|0:0,0:0:0:0:
279,167,74472,1,0,0:0:0:0:
259,248,74634,2,0,L|103:253,1,140,0|8,0:0|0:0,0:0:0:0:
35,262,75120,1,0,0:0:0:0:
24,180,75282,6,0,B|16:108|16:108|48:36,1,140,0|8,0:0|0:0,0:0:0:0:
136,60,75769,1,0,0:0:0:0:
136,60,75931,2,0,B|144:132|144:132|112:204,1,140,0|8,0:0|0:0,0:0:0:0:
60,256,76418,1,0,0:0:0:0:
32,336,76580,6,0,P|80:336|112:320,1,70,4|0,0:0|0:0,0:0:0:0:
152,260,76904,2,0,P|200:260|232:276,1,70,0|0,0:0|0:0,0:0:0:0:
268,336,77228,2,0,L|332:296,1,70,0|0,0:0|0:0,0:0:0:0:
392,248,77553,2,0,P|392:204|376:180,1,70,4|0,0:0|0:0,0:0:0:0:
300,152,77877,1,0,0:0:0:0:
132,132,78201,6,0,B|116:168|136:204|136:204|100:224|92:272,1,157.5,0|0,0:0|0:0,0:0:0:0:
92,270,79174,6,0,B|100:324|100:324|152:356,2,105.000004005432,0|8|8,0:0|0:0|0:0,0:0:0:0:
68,168,80146,2,0,B|17:189|17:189|0:248,2,105.000004005432,0|8|8,0:0|0:0|0:0,0:0:0:0:
172,156,81119,6,0,P|184:108|144:72,2,105.000004005432,0|8|8,0:0|0:0|0:0,0:0:0:0:
136,256,82092,2,0,L|252:240,1,105.000004005432,0|8,0:0|0:0,0:0:0:0:
288,220,82579,1,8,0:0:0:0:
332,196,82741,2,0,L|388:188,1,52.5000020027161,8|8,0:0|0:0,0:0:0:0:
436,184,83065,6,0,P|464:228|460:284,2,105.000004005432,0|8|8,0:0|0:0|0:0,0:0:0:0:
376,96,84038,1,0,0:0:0:0:
272,96,84363,2,0,L|204:96,1,52.5000020027161,8|0,0:0|0:0,0:0:0:0:
176,64,84687,2,0,L|112:64,1,52.5000020027161,4|0,0:0|0:0,0:0:0:0:
92,108,85011,6,0,P|56:140|8:104,2,105.000004005432,0|8|8,0:0|0:0|0:0,0:0:0:0:
176,64,85984,2,0,L|176:184,2,105.000004005432,0|8|4,0:0|0:3|0:3,0:0:0:0:
260,108,86957,6,0,P|296:140|344:104,2,105.000004005432,0|8|8,0:0|0:0|0:0,0:0:0:0:
176,64,87930,2,0,L|176:184,1,105.000004005432,0|8,0:0|0:0,0:0:0:0:
176,220,88417,1,8,0:0:0:0:
176,272,88579,2,0,P|168:308|148:332,1,52.5000020027161,8|8,0:0|0:0,0:0:0:0:
116,348,88903,6,0,P|76:332|64:256,2,105.000004005432,0|8|8,0:0|0:0|0:0,0:0:0:0:
220,352,89876,2,0,L|344:328,1,105.000004005432,0|8,0:0|0:0,0:0:0:0:
372,316,90363,2,0,L|248:292,1,105.000004005432,8|8,0:0|0:0,0:0:0:0:
216,288,90849,6,0,P|196:252|216:176,2,105.000004005432,0|8|8,0:0|0:0|0:0,0:0:0:0:
164,380,91822,2,0,L|64:308,1,105.000004005432,0|8,0:0|0:0,0:0:0:0:
80,264,92309,1,8,0:0:0:0:
80,212,92471,1,8,0:0:0:0:
164,148,92795,6,0,P|180:112|160:52,2,105.000004005432,0|8|8,0:0|0:0|0:0,0:0:0:0:
220,208,93768,2,0,P|259:203|301:156,2,105.000004005432,0|8|8,0:0|0:0|0:0,0:0:0:0:
196,286,94741,6,0,P|219:317|281:330,1,105.000004005432,0|8,0:0|0:0,0:0:0:0:
332,312,95228,1,8,0:0:0:0:
368,276,95390,1,8,0:0:0:0:
384,228,95552,1,8,0:0:0:0:
376,176,95714,2,0,P|344:152|344:72,1,105.000004005432,0|8,0:0|0:0,0:0:0:0:
372,52,96201,2,0,L|244:64,1,105.000004005432,8|8,0:0|0:0,0:0:0:0:
228,100,96687,6,0,B|188:108|188:108|104:108,2,105.000004005432,0|8|8,0:0|0:0|0:0,0:0:0:0:
324,140,97660,1,0,0:0:0:0:
384,224,97984,1,0,0:0:0:0:
380,328,98309,1,0,0:0:0:0:
324,140,98633,5,0,0:0:0:0:
256,192,98795,12,0,100579,0:0:0:0:
248,256,100903,5,2,0:0:0:0:
221,247,101551,5,2,0:0:0:0:
193,254,102200,5,2,0:0:0:0:
166,245,102849,5,2,0:0:0:0:
150,250,103173,6,0,P|107:240|81:214,1,70,4|0,0:0|0:0,0:0:0:0:
92,139,103497,2,0,P|135:149|161:175,1,70,2|2,0:0|0:0,0:0:0:0:
227,207,103822,2,0,B|264:210|264:210|300:200,1,70,0|0,0:0|0:0,0:0:0:0:
332,125,104146,2,0,B|363:116|363:116|400:119,1,70,2|8,0:0|0:0,0:0:0:0:
428,139,104389,1,8,0:0:0:0:
455,160,104470,6,0,P|472:213|456:304,3,140,0|0|0|0,0:0|0:0|0:0|0:0,0:0:0:0:
460,295,105768,6,0,P|413:304|311:248,1,140,0|8,0:0|0:0,0:0:0:0:
271,210,106254,2,0,P|209:178|140:185,1,140,0|0,0:0|0:0,0:0:0:0:
61,215,106741,2,0,P|84:252|132:262,1,70,8|0,0:0|0:0,0:0:0:0:
193,271,107065,6,0,L|208:129,1,140,0|8,0:0|0:0,0:0:0:0:
288,108,107551,2,0,L|303:250,1,140,0|0,0:0|0:0,0:0:0:0:
319,329,108038,2,0,P|357:339|401:332,1,70,8|0,0:0|0:0,0:0:0:0:
467,310,108362,6,0,P|494:282|459:171,1,140,0|8,0:0|0:0,0:0:0:0:
405,155,108849,2,0,B|337:159|337:159|252:129,1,140,0|0,0:0|0:0,0:0:0:0:
206,79,109335,2,0,L|126:82,1,70,8|0,0:0|0:0,0:0:0:0:
105,160,109660,6,0,L|50:165,4,35,8|0|0|0|0,3:0|3:0|3:0|3:0|3:0,0:0:0:0:
77,239,110146,2,0,L|22:244,4,35,8|0|0|0|0,3:0|3:0|3:0|3:0|3:0,0:0:0:0:
160,225,110633,1,8,3:0:0:0:
183,223,110957,6,0,L|258:215,1,70,4|0,0:0|0:0,0:0:0:0:
331,243,111281,1,8,0:0:0:0:
331,243,111443,1,8,0:0:0:0:
280,310,111606,2,0,L|205:302,1,70,0|0,0:0|0:0,0:0:0:0:
132,330,111930,1,8,0:0:0:0:
132,330,112092,1,0,0:0:0:0:
64,280,112254,6,0,P|51:240|55:198,1,70,4|0,0:0|0:0,0:0:0:0:
119,162,112578,2,0,L|127:85,1,70,8|8,0:0|0:0,0:0:0:0:
201,131,112903,2,0,L|209:54,1,70,0|8,0:0|0:0,0:0:0:0:
283,100,113227,2,0,L|291:23,1,70,0|8,0:0|0:0,0:0:0:0:
373,38,113551,6,0,P|408:69|397:182,1,140,4|8,0:0|0:0,0:0:0:0:
335,187,114038,1,8,0:0:0:0:
304,265,114200,2,0,L|389:276,1,70,0|0,0:0|0:0,0:0:0:0:
337,350,114524,2,0,L|252:339,1,70,8|0,0:0|0:0,0:0:0:0:
219,271,114849,6,0,P|232:209|282:178,2,105,8|0|8,0:0|0:0|0:0,0:0:0:0:
179,344,115497,2,0,L|101:304,1,70,0|0,0:0|0:0,0:0:0:0:
107,228,115822,1,8,0:0:0:0:
183,128,116146,6,0,B|207:137|232:129|253:111|253:111|274:141|308:162|348:164|392:150,1,210.000008010865,2|2,0:0|0:0,0:0:0:0:
425,41,117119,2,0,P|389:65|433:206,1,210.000008010865,2|2,0:0|0:0,0:0:0:0:
430,210,118092,1,2,0:0:0:0:
430,210,118416,2,0,L|369:224,1,52.5000020027161,2|0,0:0|0:0,0:0:0:0:
352,218,118660,1,0,0:0:0:0:
328,223,118741,6,0,P|283:264|197:246,1,140,4|0,0:0|0:0,0:0:0:0:
171,172,119227,1,0,0:0:0:0:
171,172,119308,1,0,0:0:0:0:
171,172,119389,2,0,L|306:109,1,140,4|0,0:0|0:0,0:0:0:0:
366,52,119876,1,0,0:0:0:0:
429,126,120038,6,0,B|414:167|364:174|364:174|397:211|403:269|367:304|337:313,1,245,0|0,0:0|0:0,0:0:0:0:
260,335,121335,6,0,P|217:332|185:309,1,73.4999977569581,4|8,0:0|0:0,0:0:0:0:
176,229,121660,1,0,0:0:0:0:
230,159,121822,2,0,P|244:113|152:58,1,146.999995513916,8|8,0:0|0:0,0:0:0:0:
102,97,122308,1,0,0:0:0:0:
33,152,122470,6,0,P|69:177|105:183,1,73.4999977569581,8|0,0:0|0:0,0:0:0:0:
176,229,122795,2,0,P|211:237|240:259,1,73.4999977569581,8|0,0:0|0:0,0:0:0:0:
236,348,123119,2,0,P|296:348|396:308,1,146.999995513916,8|8,0:0|0:0,0:0:0:0:
432,248,123606,2,0,L|347:235,1,73.4999977569581,0|8,0:0|0:0,0:0:0:0:
281,196,123930,6,0,P|258:148|293:53,1,146.999995513916
342,127,124416,2,0,L|171:127,1,146.999995513916,8|8,0:0|0:0,0:0:0:0:
111,156,124903,1,0,0:0:0:0:
90,241,125065,6,0,L|4:228,2,73.4999977569581,8|0|8,0:0|0:0|0:0,0:0:0:0:
173,213,125551,2,0,P|217:229|245:253,1,73.4999977569581,0|8,0:0|0:0,0:0:0:0:
294,313,125876,2,0,L|281:368,2,36.749998878479,0|0|0,0:0|0:0|0:0,0:0:0:0:
379,292,126200,2,0,L|366:347,2,36.749998878479,0|0|0,0:0|0:0|0:0,0:0:0:0:
464,269,126524,6,0,P|459:227|438:188,1,73.4999977569581,4|8,0:0|0:0,0:0:0:0:
380,138,126849,1,0,0:0:0:0:
317,233,127011,2,0,B|245:209|245:209|187:140,1,146.999995513916,8|8,0:0|0:0,0:0:0:0:
206,66,127497,1,0,0:0:0:0:
294,57,127660,6,0,L|376:61,1,73.4999977569581,8|0,0:0|0:0,0:0:0:0:
456,44,127984,2,0,L|459:121,1,73.4999977569581,8|0,0:0|0:0,0:0:0:0:
428,200,128308,2,0,P|380:244|376:344,1,146.999995513916,8|8,0:0|0:0,0:0:0:0:
284,348,128795,2,0,P|288:306|285:269,1,73.4999977569581,0|8,0:0|0:0,0:0:0:0:
275,198,129119,6,0,P|221:162|189:160,1,73.4999977569581,0|8,0:0|0:0,0:0:0:0:
125,160,129443,1,0,0:0:0:0:
113,247,129606,2,0,L|39:237,2,73.4999977569581,8|0|8,0:0|0:0|0:0,0:0:0:0:
202,247,130092,1,0,0:0:0:0:
258,314,130254,6,0,P|291:274|299:224,1,73.4999977569581,8|0,0:0|0:0,0:0:0:0:
258,174,130578,1,0,0:0:0:0:
258,174,130741,1,0,0:0:0:0:
258,174,130903,2,0,L|375:146,1,105.000004005432,0|0,0:0|0:0,0:0:0:0:
412,91,131389,2,0,L|472:80,1,52.5000020027161,0|0,0:0|0:0,0:0:0:0:
488,156,131714,6,0,L|498:226,1,52.5000020027161,0|0,0:0|0:0,0:0:0:0:
474,251,131957,1,0,0:0:0:0:
474,251,132038,6,0,P|436:282|386:282,1,70,4|0,0:0|0:0,0:0:0:0:
348,236,132362,2,0,P|310:205|260:205,1,70,0|0,0:0|0:0,0:0:0:0:
258,279,132687,2,0,L|179:297,1,70,8|0,0:0|0:0,0:0:0:0:
110,265,133011,6,0,P|91:216|111:124,1,140,0|8,0:0|0:0,0:0:0:0:
182,97,133497,1,0,0:0:0:0:
256,136,133660,2,0,L|405:104,1,140,0|8,0:0|0:0,0:0:0:0:
467,145,134146,1,0,0:0:0:0:
468,228,134308,6,0,L|312:232,1,140,4|8,0:0|0:0,0:0:0:0:
264,287,134795,1,0,0:0:0:0:
205,226,134957,2,0,B|174:188|174:188|83:150,1,140,0|8,0:0|0:0,0:0:0:0:
52,77,135443,1,0,0:0:0:0:
136,79,135606,6,0,P|192:73|292:44,1,140,0|8,0:0|0:0,0:0:0:0:
353,73,136092,1,0,0:0:0:0:
399,142,136254,2,0,L|403:216,2,70,0|0|8,0:0|0:0|0:0,0:0:0:0:
399,142,136903,6,0,P|334:151|275:102,1,140,4|8,0:0|0:0,0:0:0:0:
204,67,137389,1,0,0:0:0:0:
123,92,137551,2,0,L|153:252,1,140,0|8,0:0|0:0,0:0:0:0:
151,313,138038,1,0,0:0:0:0:
234,313,138200,6,0,B|268:275|268:275|272:182,1,140,0|8,0:0|0:0,0:0:0:0:
266,101,138687,1,0,0:0:0:0:
190,138,138849,2,0,L|116:129,1,70,0|0,0:0|0:0,0:0:0:0:
145,49,139173,2,0,L|52:41,1,70,8|0,0:0|0:0,0:0:0:0:
44,121,139497,6,0,P|36:169|64:257,1,140,4|8,0:0|0:0,0:0:0:0:
144,228,139984,1,0,0:0:0:0:
220,264,140146,2,0,P|272:264|304:260,1,70,0|0,0:0|0:0,0:0:0:0:
352,208,140470,2,0,P|404:208|436:212,1,70,8|0,0:0|0:0,0:0:0:0:
488,264,140795,6,0,P|508:216|408:124,1,210.000008010865,4|0,0:0|0:0,0:0:0:0:
312,120,141606,1,8,0:0:0:0:
256,208,141768,2,0,L|268:276,1,52.5000020027161,8|8,0:0|0:0,0:0:0:0:
265,259,142092,5,4,0:0:0:0:
256,192,142254,12,0,144687,0:0:0:0:
232,224,146633,6,0,L|296:224,1,52.5000020027161,0|0,0:0|0:0,0:0:0:0:
308,148,146957,2,0,L|244:148,1,52.5000020027161,0|0,0:0|0:0,0:0:0:0:
176,136,147281,6,0,P|148:124|124:96,1,52.5000020027161,0|0,0:0|0:0,0:0:0:0:
64,64,147606,1,2,0:0:0:0:
28,132,147768,2,0,L|36:256,1,105.000004005432,0|0,0:0|0:0,0:0:0:0:
104,276,148254,1,2,0:0:0:0:
168,324,148416,6,0,L|224:312,1,52.5000020027161,0|0,0:0|0:0,0:0:0:0:
260,248,148741,2,0,L|316:260,1,52.5000020027161,0|2,0:0|0:0,0:0:0:0:
360,320,149065,2,0,L|416:308,1,52.5000020027161,0|0,0:0|0:0,0:0:0:0:
472,260,149389,2,0,L|500:324,2,52.5000020027161,0|2|2,0:0|0:0|0:0,0:0:0:0:
408,216,149876,6,0,L|368:160,1,52.5000020027161,0|0,0:0|0:0,0:0:0:0:
368,96,150200,1,2,0:0:0:0:
288,88,150362,2,0,P|272:137|235:173,1,105.000004005432,0|0,0:0|0:0,0:0:0:0:
156,160,150849,1,2,0:0:0:0:
100,216,151011,6,0,L|200:268,1,105.000004005432,0|0,0:0|0:0,0:0:0:0:
228,336,151497,2,0,L|288:320,1,52.5000020027161,2|0,0:0|0:0,0:0:0:0:
348,280,151822,2,0,L|340:224,1,52.5000020027161,0|0,0:0|0:0,0:0:0:0:
332,152,152146,1,0,0:0:0:0:
332,152,152470,6,0,L|272:132,1,52.5000020027161,2|0,0:0|0:0,0:0:0:0:
220,84,152795,1,0,0:0:0:0:
144,100,152957,2,0,L|132:220,1,105.000004005432,0|0,0:0|0:0,0:0:0:0:
76,260,153443,1,0,0:0:0:0:
108,332,153606,6,2,L|228:296,1,105.000004005432,2|0,0:0|0:0,0:0:0:0:
264,248,154092,1,0,0:0:0:0:
336,276,154254,1,0,0:0:0:0:
336,276,154578,2,0,L|332:328,2,52.5000020027161,0|0|0,0:0|0:0|0:0,0:0:0:0:
388,216,155065,6,0,P|416:164|412:108,1,105.000004005432,2|0,0:0|0:0,0:0:0:0:
368,56,155551,2,0,P|340:108|344:164,1,105.000004005432,0|0,0:0|0:0,0:0:0:0:
388,216,156038,1,0,0:0:0:0:
388,216,156200,6,0,L|268:184,1,105.000004005432,2|0,0:0|0:0,0:0:0:0:
224,236,156687,2,0,L|156:236,1,52.5000020027161,0|0,0:0|0:0,0:0:0:0:
108,192,157011,5,2,0:0:0:0:
100,112,157173,1,2,0:0:0:0:
176,136,157335,1,2,0:0:0:0:
168,56,157497,1,2,0:0:0:0:
