osu file format v14

[General]
AudioFilename: kokuhakuyokou.mp3
AudioLeadIn: 0
PreviewTime: 27282
Countdown: 0
SampleSet: Soft
StackLeniency: 0.7
Mode: 0
LetterboxInBreaks: 0
WidescreenStoryboard: 0

[Editor]
Bookmarks: 16904,79255
DistanceSpacing: 1.5
BeatDivisor: 4
GridSize: 4
TimelineZoom: 3.499999

[Metadata]
Title:Kokuhaku Yokou Renshuu
TitleUnicode:告白予行練習
Artist:sana
ArtistUnicode:鎖那
Creator:deetz
Version:Expert
Source:
Tags:honeyworks milan- confession rehearsal 好きなひと。 Suki na Hito. shito
BeatmapID:679226
BeatmapSetID:275283

[Difficulty]
HPDrainRate:7
CircleSize:4
OverallDifficulty:8.5
ApproachRate:9
SliderMultiplier:1.8
SliderTickRate:1

[Events]
//Background and Video events
0,0,"whitespace.png",0,0
//Break Periods
2,144887,146681
//Storyboard Layer 0 (Background)
//Storyboard Layer 1 (Fail)
//Storyboard Layer 2 (Pass)
//Storyboard Layer 3 (Foreground)
//Storyboard Sound Samples

[TimingPoints]
1337,324.324324324324,4,2,4,40,1,0
1337,-133.333333333333,4,2,4,40,0,0
15607,-133.333333333333,4,3,0,70,0,0
16742,-166.666666666667,4,2,4,40,0,0
17228,-100,4,2,4,60,0,0
24688,-100,4,2,4,60,0,0
26472,-100,4,2,4,60,0,0
26634,-100,4,3,4,60,0,0
27282,-125,4,2,4,50,0,0
32472,-125,4,2,4,50,0,0
37661,-100,4,2,4,60,0,0
48039,-133.333333333333,4,2,4,50,0,0
49661,-133.333333333333,4,3,4,60,0,0
50634,-133.333333333333,4,2,4,60,0,0
51931,-133.333333333333,4,3,4,60,0,0
53228,-133.333333333333,4,2,4,35,0,0
55823,-100,4,2,4,60,0,0
58093,-66.6666666666667,4,2,4,60,0,0
58336,-66.6666666666667,4,2,4,5,0,0
58418,-80,4,2,4,70,0,1
62958,-80,4,3,4,70,0,1
63607,-80,4,2,4,70,0,1
67985,-133.333333333333,4,2,4,70,0,1
68796,-133.333333333333,4,2,4,40,0,0
69039,-133.333333333333,4,2,4,5,0,0
69120,-100,4,2,4,60,0,0
79174,324.324324324324,3,2,4,50,1,0
79174,-133.333333333333,3,2,4,50,0,0
84363,-133.333333333333,3,3,0,50,0,0
85011,-133.333333333333,3,2,4,50,0,0
86309,-133.333333333333,3,3,0,50,0,0
86957,-133.333333333333,3,2,4,50,0,0
97660,-133.333333333333,3,3,0,50,0,0
98633,-133.333333333333,3,2,4,50,0,0
100579,324.324324324324,4,2,4,40,1,0
103173,-100,4,2,4,60,0,0
104470,-100,4,2,4,40,0,0
105768,-100,4,2,4,60,0,0
110957,-100,4,2,4,50,0,0
112578,-100,4,3,4,60,0,0
113551,-100,4,2,4,50,0,0
114849,-100,4,3,4,60,0,0
116146,-133.333333333333,4,2,4,40,0,0
118741,-100,4,2,4,60,0,0
120038,-133.333333333333,4,2,4,60,0,0
121335,-80,4,2,4,70,0,1
125876,-80,4,3,0,70,0,1
126524,-80,4,2,4,70,0,1
130903,-133.333333333333,4,2,4,70,0,1
131714,-133.333333333333,4,2,4,60,0,0
132038,-100,4,2,4,60,0,0
140795,-133.333333333333,4,2,4,60,0,0
147281,-133.333333333333,4,2,4,45,0,0
152470,-133.333333333333,4,2,4,35,0,0

[HitObjects]
100,176,1337,6,0,L|188:160,1,67.5000025749208,2|0,0:0|0:0,0:0:0:0:
264,144,1661,1,0,0:0:0:0:
364,264,1823,2,0,L|200:232,1,135.000005149842,0|0,0:0|0:0,0:0:0:0:
240,340,2309,1,0,0:0:0:0:
404,340,2472,2,0,P|448:296|424:208,1,135.000005149842,2|0,0:0|0:0,0:0:0:0:
356,172,2958,2,0,L|284:164,1,67.5000025749208,0|0,0:0|0:0,0:0:0:0:
92,156,3282,1,2,0:0:0:0:
192,136,3445,1,0,0:0:0:0:
124,68,3607,1,2,0:0:0:0:
160,224,3769,1,0,0:0:0:0:
280,176,3931,6,0,L|200:136,1,67.5000025749208,2|0,0:0|0:0,0:0:0:0:
180,240,4255,1,0,0:0:0:0:
344,268,4418,2,0,P|412:268|408:200,1,135.000005149842
328,168,4904,1,0,0:0:0:0:
236,264,5066,2,0,L|212:116,1,135.000005149842,2|0,0:0|0:0,0:0:0:0:
136,44,5553,2,0,L|144:132,1,67.5000025749208
20,152,5877,6,0,L|104:172,1,67.5000025749208,0|0,0:0|0:0,0:0:0:0:
164,232,6201,2,0,L|80:252,1,67.5000025749208,0|0,0:0|0:0,0:0:0:0:
240,120,6526,6,0,L|240:200,1,67.5000025749208,0|0,0:0|0:0,0:0:0:0:
220,288,6850,1,2,0:0:0:0:
320,147,7012,2,0,P|333:212|389:244,1,135.000005149842
456,168,7499,1,2,0:0:0:0:
296,232,7661,6,0,P|252:224|224:208,1,67.5000025749208,0|0,0:0|0:0,0:0:0:0:
140,172,7985,2,0,P|96:180|68:196,1,67.5000025749208,0|2,0:0|0:0,0:0:0:0:
144,360,8309,2,0,P|172:336|128:252,1,135.000005149842,0|0,0:0|0:0,0:0:0:0:
64,340,8796,1,2,0:0:0:0:
244,352,8958,1,2,0:0:0:0:
240,220,9120,6,0,L|304:244,1,67.5000025749208,0|0,0:0|0:0,0:0:0:0:
336,340,9445,1,2,0:0:0:0:
168,268,9607,2,0,P|152:220|192:144,1,135.000005149842,0|0,0:0|0:0,0:0:0:0:
288,144,10093,1,2,0:0:0:0:
384,256,10255,6,0,L|248:232,1,135.000005149842,0|0,0:0|0:0,0:0:0:0:
184,108,10742,2,0,L|268:128,1,67.5000025749208,2|0,0:0|0:0,0:0:0:0:
120,216,11066,2,0,L|36:236,1,67.5000025749208,2|0,0:0|0:0,0:0:0:0:
144,336,11391,1,0,0:0:0:0:
168,336,11715,6,0,L|260:308,1,67.5000025749208
280,224,12039,1,2,0:0:0:0:
380,236,12201,2,0,P|384:300|312:304,1,135.000005149842,0|0,0:0|0:0,0:0:0:0:
260,236,12688,1,2,0:0:0:0:
324,160,12850,6,0,L|396:144,1,67.5000025749208,0|0,0:0|0:0,0:0:0:0:
232,96,13174,2,0,L|160:80,1,67.5000025749208,0|2,0:0|0:0,0:0:0:0:
124,264,13499,2,0,P|174:224|163:161,1,135.000005149842,0|0,0:0|0:0,0:0:0:0:
32,232,13985,1,2,0:0:0:0:
32,232,14147,1,2,0:0:0:0:
132,344,14309,6,0,L|284:300,1,135.000005149842,0|0,0:0|0:0,0:0:0:0:
468,312,14796,2,0,P|408:328|340:296,1,135.000005149842,0|0,0:0|0:0,0:0:0:0:
300,164,15282,2,0,L|300:260,1,67.5000025749208,2|0,0:0|0:0,0:0:0:0:
204,208,15607,5,0,0:0:0:0:
204,208,15688,1,0,0:0:0:0:
204,208,15769,1,0,0:0:0:0:
384,172,15931,1,0,0:0:0:0:
248,104,16093,5,0,0:0:0:0:
248,104,16174,1,0,0:0:0:0:
248,104,16255,1,0,0:0:0:0:
284,284,16417,1,0,0:0:0:0:
440,244,16580,1,0,0:0:0:0:
440,244,16661,1,0,0:0:0:0:
440,244,16742,6,0,P|472:216|488:144,1,107.999996704102
432,92,17228,6,0,P|384:120|256:104,1,180,4|0,0:0|0:0,0:0:0:0:
132,136,17715,1,0,0:0:0:0:
228,276,17877,2,0,L|236:180,1,90,8|0,0:0|0:0,0:0:0:0:
104,232,18201,5,0,0:0:0:0:
228,304,18364,1,0,0:0:0:0:
232,140,18526,1,8,0:0:0:0:
80,244,18688,1,0,0:0:0:0:
256,376,18850,2,0,P|292:348|304:296,1,90,0|0,0:0|0:0,0:0:0:0:
204,68,19174,2,0,P|168:96|156:148,1,90,8|0,0:0|0:0,0:0:0:0:
264,216,19499,5,0,0:0:0:0:
380,148,19661,1,0,0:0:0:0:
452,260,19823,1,8,0:0:0:0:
252,244,19985,1,0,0:0:0:0:
380,72,20147,2,0,P|440:96|452:128,1,90
252,320,20472,2,0,P|192:296|180:264,1,90,8|0,0:0|0:0,0:0:0:0:
208,144,20796,5,0,0:0:0:0:
208,144,20958,1,0,0:0:0:0:
384,104,21120,2,0,L|360:256,1,135,4|0,0:0|0:0,0:0:0:0:
356,272,21445,6,0,P|304:272|260:288,1,90,0|0,0:0|0:0,0:0:0:0:
504,336,21769,2,0,L|484:240,1,90,4|0,0:0|0:0,0:0:0:0:
488,204,22012,1,0,0:0:0:0:
488,204,22093,5,0,0:0:0:0:
384,80,22255,1,0,0:0:0:0:
348,244,22418,1,8,0:0:0:0:
472,112,22580,1,0,0:0:0:0:
388,320,22742,2,0,P|324:328|292:304,1,90,0|0,0:0|0:0,0:0:0:0:
248,196,23066,1,8,0:0:0:0:
396,236,23228,1,0,0:0:0:0:
212,176,23391,6,0,L|180:280,1,90,0|0,0:0|0:0,0:0:0:0:
52,260,23715,1,8,0:0:0:0:
112,140,23877,1,0,0:0:0:0:
208,336,24039,2,0,P|156:332|112:300,1,90,0|0,0:0|0:0,0:0:0:0:
88,60,24364,2,0,P|140:64|184:96,1,90,8|0,0:0|0:0,0:0:0:0:
240,200,24688,5,0,0:0:0:0:
372,176,24850,1,0,0:0:0:0:
252,112,25012,1,8,0:0:0:0:
316,244,25174,1,0,0:0:0:0:
316,244,25255,1,0,0:0:0:0:
316,244,25336,5,0,0:0:0:0:
396,152,25499,1,0,0:0:0:0:
396,304,25661,1,8,0:0:0:0:
224,236,25823,1,0,0:0:0:0:
304,140,25985,5,8,0:0:0:0:
304,140,26066,1,0,0:0:0:0:
304,140,26147,1,0,0:0:0:0:
280,328,26309,1,0,0:0:0:0:
108,216,26472,1,8,0:2:0:0:
380,108,26634,5,2,0:0:0:0:
384,152,26715,1,0,0:0:0:0:
365,192,26796,1,0,0:0:0:0:
328,217,26877,1,0,0:0:0:0:
283,219,26958,1,2,0:0:0:0:
244,198,27039,1,0,0:0:0:0:
221,160,27120,1,0,0:0:0:0:
221,115,27201,1,0,0:0:0:0:
240,64,27282,6,0,P|208:48|168:44,1,72,4|0,0:0|0:0,0:0:0:0:
312,24,27607,2,0,P|308:108|280:136,1,108,2|0,0:0|0:0,0:0:0:0:
256,140,27931,2,0,L|304:228,1,72,0|0,0:0|0:0,0:0:0:0:
364,168,28255,1,2,0:0:0:0:
216,224,28418,1,0,0:0:0:0:
364,168,28580,6,0,L|388:248,1,72,0|0,0:0|0:0,0:0:0:0:
444,148,28904,2,0,P|432:100|408:72,1,72,2|0,0:0|0:0,0:0:0:0:
312,84,29228,1,0,0:0:0:0:
280,188,29391,1,2,0:0:0:0:
220,100,29553,2,0,L|140:116,1,72,2|0,0:0|0:0,0:0:0:0:
106,185,29877,6,0,L|64:128,1,72,0|0,0:0|0:0,0:0:0:0:
164,256,30201,2,0,L|92:264,1,72,2|0,0:0|0:0,0:0:0:0:
253,241,30526,2,0,L|224:306,1,72,0|0,0:0|0:0,0:0:0:0:
284,156,30850,2,0,L|326:213,1,72,2|0,0:0|0:0,0:0:0:0:
380,284,31174,5,8,0:0:0:0:
496,224,31336,1,8,0:0:0:0:
472,336,31499,1,8,0:0:0:0:
408,172,31661,1,8,0:0:0:0:
332,268,31823,1,8,0:0:0:0:
500,248,31985,1,8,0:0:0:0:
424,132,32147,1,8,0:0:0:0:
408,360,32309,1,8,0:0:0:0:
508,248,32472,6,0,P|512:200|504:168,1,72,4|0,0:0|0:0,0:0:0:0:
440,92,32796,1,8,0:0:0:0:
332,96,32958,2,0,P|272:72|260:56,1,72,0|0,0:0|0:0,0:0:0:0:
160,72,33282,1,0,0:0:0:0:
144,180,33445,2,0,L|236:160,1,72,8|0,0:0|0:0,0:0:0:0:
292,268,33769,6,0,L|200:248,1,72,0|0,0:0|0:0,0:0:0:0:
112,180,34093,1,8,0:0:0:0:
240,92,34255,2,0,P|272:116|296:168,1,72,0|0,0:0|0:0,0:0:0:0:
316,280,34580,1,0,0:0:0:0:
184,336,34742,2,0,L|192:252,1,72,8|0,0:0|0:0,0:0:0:0:
156,104,35066,6,0,P|140:152|148:204,1,72,0|0,0:0|0:0,0:0:0:0:
76,240,35391,1,8,0:0:0:0:
0,88,35553,2,0,L|80:76,1,72,0|0,0:0|0:0,0:0:0:0:
184,20,35877,1,0,0:0:0:0:
248,148,36039,2,0,L|156:140,1,72,8|0,0:0|0:0,0:0:0:0:
80,192,36364,5,2,0:0:0:0:
272,152,36526,1,0,0:0:0:0:
88,100,36688,1,10,0:0:0:0:
300,156,36850,1,2,0:0:0:0:
176,308,37012,2,0,L|164:232,1,72,2|2,0:0|0:0,0:0:0:0:
324,160,37336,2,0,L|312:236,1,72,8|0,0:0|0:0,0:0:0:0:
340,264,37580,1,0,0:0:0:0:
340,264,37661,5,4,0:0:0:0:
388,92,37823,1,0,0:0:0:0:
212,136,37985,2,0,P|164:156|108:144,1,90,8|0,0:0|0:0,0:0:0:0:
288,40,38309,2,0,L|312:128,1,90,0|0,0:0|0:0,0:0:0:0:
400,192,38634,1,8,0:0:0:0:
295,334,38796,6,0,P|263:303|256:260,1,90,0|0,0:0|0:0,0:0:0:0:
432,192,39120,1,0,0:0:0:0:
280,88,39282,2,0,L|156:108,1,90,8|0,0:0|0:0,0:0:0:0:
136,196,39607,1,0,0:0:0:0:
328,172,39769,1,0,0:0:0:0:
216,24,39931,2,0,L|120:32,1,90,8|0,0:0|0:0,0:0:0:0:
56,144,40255,5,0,0:0:0:0:
96,272,40418,2,0,P|156:276|196:256,1,90,0|8,0:0|0:0,0:0:0:0:
236,140,40742,1,0,0:0:0:0:
368,104,40904,2,0,L|360:212,1,90,0|0,0:0|0:0,0:0:0:0:
244,260,41228,1,8,0:0:0:0:
224,72,41391,1,0,0:0:0:0:
448,40,41553,6,0,L|436:212,1,135,0|0,0:0|0:0,0:0:0:0:
464,212,41877,2,0,P|432:260|388:280,1,90,8|0,0:0|0:0,0:0:0:0:
248,288,42201,1,0,0:0:0:0:
472,324,42364,1,0,0:0:0:0:
272,272,42526,2,0,L|280:168,1,90,8|0,0:0|0:0,0:0:0:0:
388,104,42850,6,0,P|396:168|392:204,1,90,0|0,0:0|0:0,0:0:0:0:
264,152,43174,1,8,0:0:0:0:
440,252,43336,2,0,P|380:268|344:248,1,90
244,128,43661,1,0,0:0:0:0:
296,316,43823,2,0,P|248:331|190:293,1,90,8|0,0:0|0:0,0:0:0:0:
76,248,44147,6,0,L|248:220,1,135,0|0,0:0|0:0,0:0:0:0:
252,248,44472,1,8,0:0:0:0:
132,328,44634,1,0,0:0:0:0:
132,328,44715,1,0,0:0:0:0:
132,328,44796,1,0,0:0:0:0:
136,160,44958,1,0,0:0:0:0:
280,232,45120,2,0,L|288:344,1,90,8|0,0:0|0:0,0:0:0:0:
84,232,45445,6,0,P|56:184|64:116,1,90,0|0,0:0|0:0,0:0:0:0:
168,64,45769,1,8,0:0:0:0:
280,156,45931,2,0,P|274:200|249:237,1,90,0|0,0:0|0:0,0:0:0:0:
156,152,46255,1,0,0:0:0:0:
292,76,46418,2,0,L|388:60,1,90,8|0,0:0|0:0,0:0:0:0:
468,192,46742,6,0,P|464:252|448:268,1,45,8|0,3:0|3:0,3:0:0:0:
328,272,46904,2,0,P|332:212|348:196,1,45,0|0,3:0|3:0,3:0:0:0:
380,136,47066,1,0,3:0:0:0:
412,276,47228,1,8,3:0:0:0:
398,318,47309,1,0,3:0:0:0:
365,348,47390,1,0,3:0:0:0:
322,356,47471,1,0,3:0:0:0:
280,340,47552,1,0,3:0:0:0:
248,220,47715,1,8,0:0:0:0:
248,192,48039,6,0,L|124:188,1,101.250003862381,4|0,0:0|0:0,0:0:0:0:
112,188,48364,1,8,0:0:0:0:
196,108,48526,1,8,0:0:0:0:
52,140,48688,2,0,P|32:188|44:220,1,67.5000025749208,0|0,0:0|0:0,0:0:0:0:
164,304,49012,2,0,P|184:256|172:224,1,67.5000025749208,8|0,0:0|0:0,0:0:0:0:
92,340,49336,6,0,P|128:376|204:368,1,101.250003862381,4|0,0:0|0:0,0:0:0:0:
220,356,49661,1,8,3:0:0:0:
352,324,49823,1,8,3:0:0:0:
268,228,49985,1,0,3:0:0:0:
200,380,50147,1,8,3:0:0:0:
384,352,50309,1,0,3:0:0:0:
264,188,50471,1,8,3:0:0:0:
250,324,50634,6,0,L|354:324,1,101.250003862381,4|0,0:0|0:0,0:0:0:0:
360,292,50958,1,8,0:0:0:0:
228,256,51120,1,8,0:0:0:0:
316,152,51282,2,0,P|320:185|311:217,1,67.5000025749208,0|0,0:0|0:0,0:0:0:0:
196,260,51607,1,8,0:0:0:0:
388,272,51769,1,0,0:0:0:0:
164,268,51931,5,8,0:0:0:0:
140,244,52012,1,0,0:0:0:0:
133,211,52093,1,0,0:0:0:0:
144,180,52174,1,0,0:0:0:0:
168,156,52255,1,8,0:0:0:0:
179,124,52336,1,0,0:0:0:0:
172,92,52418,1,8,0:0:0:0:
148,68,52498,1,0,0:0:0:0:
115,58,52580,6,0,L|57:64,1,33.7500012874604
40,163,52742,2,0,L|73:159,1,33.7500012874604,0|0,0:0|0:0,0:0:0:0:
256,140,52904,1,8,0:0:0:0:
285,135,53228,6,0,L|294:213,1,67.5000025749208,2|0,0:0|0:0,0:0:0:0:
379,162,53553,2,0,L|388:240,1,67.5000025749208,0|0,0:0|0:0,0:0:0:0:
327,350,53877,2,0,L|318:272,1,67.5000025749208,2|0,0:0|0:0,0:0:0:0:
233,323,54202,2,0,L|224:245,1,67.5000025749208,2|0,0:0|0:0,0:0:0:0:
119,172,54526,6,0,P|162:160|199:179,1,67.5000025749208,2|0,0:0|0:0,0:0:0:0:
196,80,54850,2,0,P|236:95|254:133,1,67.5000025749208,2|0,0:0|0:0,0:0:0:0:
251,269,55174,2,0,L|254:190,1,67.5000025749208,2|0,0:0|0:0,0:0:0:0:
358,115,55499,1,2,0:0:0:0:
387,246,55661,1,0,0:0:0:0:
387,246,55742,1,0,0:0:0:0:
387,246,55823,5,4,0:0:0:0:
241,181,55985,1,0,0:0:0:0:
414,218,56147,1,0,0:0:0:0:
254,288,56309,1,0,0:0:0:0:
254,288,56391,1,0,0:0:0:0:
254,288,56472,5,4,0:0:0:0:
279,109,56634,1,0,0:0:0:0:
345,326,56796,1,0,0:0:0:0:
167,235,56958,1,0,0:0:0:0:
388,180,57120,5,0,0:0:0:0:
224,136,57769,5,0,0:0:0:0:
224,136,58093,6,0,P|216:116|312:144,1,202.500007724762
240,220,58418,6,0,P|176:204|140:148,1,112.5,4|8,0:0|0:0,0:0:0:0:
140,52,58742,1,0,0:0:0:0:
324,184,58904,1,8,0:0:0:0:
208,300,59066,1,0,0:0:0:0:
304,96,59228,1,8,0:0:0:0:
396,240,59391,1,0,0:0:0:0:
148,132,59553,6,0,P|179:78|241:61,1,112.5,8|0,0:0|0:0,0:0:0:0:
100,216,59877,2,0,P|37:215|-7:170,1,112.5,8|0,0:0|0:0,0:0:0:0:
192,212,60201,2,0,P|222:265|142:365,1,168.75,8|0,0:0|0:0,0:0:0:0:
152,364,60526,1,8,0:0:0:0:
236,140,60688,1,0,0:0:0:0:
324,272,60850,1,8,0:0:0:0:
196,64,61012,6,0,P|272:64|316:96,1,112.5,0|8,0:0|0:0,0:0:0:0:
352,188,61336,1,0,0:0:0:0:
132,268,61499,2,0,P|112:208|144:144,1,112.5,8|0,0:0|0:0,0:0:0:0:
272,212,61823,1,8,0:0:0:0:
40,300,61985,1,0,0:0:0:0:
16,88,62147,6,0,L|208:88,1,168.75,8|0,0:0|0:0,0:0:0:0:
212,88,62472,1,8,0:0:0:0:
272,212,62634,2,0,P|212:204|168:136,1,112.5,0|8,0:0|0:0,0:0:0:0:
322,38,62958,5,0,0:0:0:0:
352,62,63039,1,0,0:0:0:0:
370,96,63120,1,0,0:0:0:0:
372,135,63201,1,0,0:0:0:0:
362,173,63282,1,0,0:0:0:0:
364,212,63363,1,0,0:0:0:0:
382,246,63444,1,0,0:0:0:0:
412,270,63525,1,0,0:0:0:0:
450,280,63607,6,0,P|355:309|316:359,1,112.5,4|8,0:0|0:0,0:0:0:0:
272,212,63931,1,0,0:0:0:0:
440,64,64093,1,8,0:0:0:0:
444,188,64255,1,0,0:0:0:0:
236,136,64418,1,8,0:0:0:0:
304,28,64580,1,0,0:0:0:0:
316,284,64742,6,0,B|280:304|224:292|196:248|196:248|164:208|108:220,1,225,8|8,0:0|0:0,0:0:0:0:
132,300,65228,1,0,0:0:0:0:
36,116,65391,2,0,L|164:136,1,112.5,8|0,0:0|0:0,0:0:0:0:
276,148,65715,1,8,0:0:0:0:
244,244,65877,1,0,0:0:0:0:
208,68,66039,1,8,0:0:0:0:
378,124,66201,5,4,0:0:0:0:
174,168,66364,1,8,0:0:0:0:
174,168,66445,1,0,0:0:0:0:
174,168,66526,1,8,0:0:0:0:
308,48,66688,1,4,0:0:0:0:
344,224,66850,1,0,0:0:0:0:
208,68,67012,1,0,0:0:0:0:
378,124,67174,1,8,0:0:0:0:
244,244,67336,1,0,0:0:0:0:
244,244,67418,1,0,0:0:0:0:
244,244,67499,5,8,0:0:0:0:
308,48,67661,1,0,0:0:0:0:
344,224,67823,1,0,0:0:0:0:
176,164,67985,6,0,B|24:208,1,135.000005149842,4|0,0:0|0:0,0:0:0:0:
60,96,68472,1,8,0:0:0:0:
244,72,68634,1,0,0:0:0:0:
60,97,68796,6,0,B|88:32|88:32|96:64,1,101.250003862381
128,152,69120,6,0,P|80:180|16:180,1,90,4|0,0:0|0:0,0:0:0:0:
184,84,69445,1,0,0:0:0:0:
216,168,69607,1,0,0:0:0:0:
156,236,69769,1,8,0:0:0:0:
68,228,69931,1,0,0:0:0:0:
216,168,70093,6,0,P|260:216|264:256,1,90,0|0,0:0|0:0,0:0:0:0:
408,292,70418,2,0,P|364:244|360:204,1,90,8|0,0:0|0:0,0:0:0:0:
352,68,70742,2,0,P|396:116|400:156,1,90,0|0,0:0|0:0,0:0:0:0:
320,144,71066,1,8,0:0:0:0:
452,64,71228,1,0,0:0:0:0:
320,144,71391,6,0,P|276:96|272:56,1,90,0|0,0:0|0:0,0:0:0:0:
368,212,71715,2,0,P|348:274|315:297,1,90,8|0,0:0|0:0,0:0:0:0:
202,226,72039,2,0,P|244:211|288:220,1,90,0|0,0:0|0:0,0:0:0:0:
248,292,72364,1,8,0:0:0:0:
128,196,72526,1,0,0:0:0:0:
260,296,72688,5,0,0:0:0:0:
192,148,72850,1,0,0:0:0:0:
272,300,73012,2,0,L|372:328,1,90,8|0,0:0|0:0,0:0:0:0:
184,276,73336,1,0,0:0:0:0:
100,240,73499,1,0,0:0:0:0:
172,188,73661,1,8,0:0:0:0:
112,328,73823,1,0,0:0:0:0:
180,172,73985,6,0,P|240:144|280:144,1,90,4|0,0:0|0:0,0:0:0:0:
399,256,74309,2,0,P|360:234|332:200,1,90,8|0,0:0|0:0,0:0:0:0:
359,21,74634,2,0,P|359:66|344:108,1,90,0|0,0:0|0:0,0:0:0:0:
178,160,74958,2,0,P|240:137|280:141,1,90,8|0,0:0|0:0,0:0:0:0:
136,236,75282,6,0,P|73:258|33:255,1,90,0|0,0:0|0:0,0:0:0:0:
224,232,75607,2,0,P|272:248|304:328,1,135,8|0,0:0|0:0,0:0:0:0:
296,340,75931,2,0,P|352:308|388:304,1,90,0|0,0:0|0:0,0:0:0:0:
480,332,76255,2,0,L|468:240,1,90,8|0,0:0|0:0,0:0:0:0:
360,116,76580,5,4,0:0:0:0:
464,204,76742,1,0,0:0:0:0:
296,184,76904,2,0,L|264:272,1,90
236,139,77228,2,0,L|154:185,1,90,0|0,0:0|0:0,0:0:0:0:
219,66,77472,1,0,0:0:0:0:
219,66,77553,2,0,L|126:49,1,90,4|0,0:0|0:0,0:0:0:0:
328,80,77877,5,0,0:0:0:0:
456,121,78201,6,0,B|468:168|436:204|436:204|476:228|480:268|464:304,1,202.5
287,202,78850,1,0,0:0:0:0:
287,202,78931,1,0,0:0:0:0:
287,202,79012,1,0,0:0:0:0:
287,202,79093,1,0,0:0:0:0:
287,202,79174,6,0,P|248:160|223:73,1,135.000005149842,0|8,0:0|0:0,0:0:0:0:
305,27,79660,1,0,0:0:0:0:
378,96,79822,2,0,B|381:126|381:126|371:161,1,67.5000025749208,8|0,0:0|0:0,0:0:0:0:
453,348,80146,6,0,L|461:191,1,135.000005149842,0|8,0:0|0:0,0:0:0:0:
457,111,80633,1,0,0:0:0:0:
380,236,80795,2,0,P|335:224|302:201,1,67.5000025749208,8|0,0:0|0:0,0:0:0:0:
248,139,81119,6,0,L|241:283,1,135.000005149842,0|8,0:0|0:0,0:0:0:0:
170,346,81606,1,0,0:0:0:0:
91,212,81768,2,0,P|135:205|172:220,1,67.5000025749208,8|0,0:0|0:0,0:0:0:0:
327,248,82092,5,0,0:0:0:0:
351,260,82417,1,8,0:0:0:0:
384,129,82579,1,8,0:0:0:0:
253,96,82741,1,8,0:0:0:0:
220,227,82903,1,8,0:0:0:0:
383,331,83065,6,0,P|423:286|414:215,1,135.000005149842,0|8,0:0|0:0,0:0:0:0:
316,187,83552,1,0,0:0:0:0:
278,280,83714,2,0,P|220:290|190:276,1,67.5000025749208,8|0,0:0|0:0,0:0:0:0:
164,217,84038,6,0,L|169:359,1,135.000005149842,0|8,0:0|0:0,0:0:0:0:
168,351,84525,1,0,0:0:0:0:
81,300,84687,2,0,L|72:223,1,67.5000025749208,4|0,0:0|0:0,0:0:0:0:
188,143,85011,6,0,P|223:166|228:255,1,135.000005149842,0|8,0:0|0:0,0:0:0:0:
278,341,85498,1,0,0:0:0:0:
375,314,85660,2,0,L|353:230,1,67.5000025749208,8|0,0:0|0:0,0:0:0:0:
380,150,85984,5,0,0:0:0:0:
360,142,86309,6,0,L|204:180,1,135.000005149842,8|4,0:3|0:3,0:0:0:0:
206,155,86957,6,0,P|196:213|123:197,1,135.000005149842,0|8,0:0|0:0,0:0:0:0:
116,108,87444,1,0,0:0:0:0:
276,52,87606,2,0,L|283:141,1,67.5000025749208,8|0,0:0|0:0,0:0:0:0:
291,219,87930,5,0,0:0:0:0:
299,197,88255,1,8,0:0:0:0:
266,328,88417,1,8,0:0:0:0:
397,361,88579,1,8,0:0:0:0:
430,230,88741,1,8,0:0:0:0:
281,119,88903,6,0,P|240:143|244:248,1,135.000005149842,0|8,0:0|0:0,0:0:0:0:
295,301,89390,1,0,0:0:0:0:
161,349,89552,2,0,L|170:263,1,67.5000025749208,8|0,0:0|0:0,0:0:0:0:
138,173,89876,6,0,P|119:139|30:167,1,135.000005149842,0|8,0:0|0:0,0:0:0:0:
0,224,90363,2,0,P|19:258|108:230,1,135.000005149842,8|8,0:0|0:0,0:0:0:0:
241,244,90849,6,0,L|222:98,1,135.000005149842,0|8,0:0|0:0,0:0:0:0:
138,54,91336,1,0,0:0:0:0:
79,175,91498,2,0,L|149:157,1,67.5000025749208,8|0,0:0|0:0,0:0:0:0:
306,115,91822,5,0,0:0:0:0:
301,87,92146,1,8,0:0:0:0:
369,204,92309,1,8,0:0:0:0:
208,184,92471,1,8,0:0:0:0:
194,166,92795,6,0,L|176:299,1,135.000005149842,0|8,0:0|0:0,0:0:0:0:
74,287,93282,1,0,0:0:0:0:
50,188,93444,2,0,L|141:209,1,67.5000025749208,8|0,0:0|0:0,0:0:0:0:
262,254,93768,6,0,L|410:219,1,135.000005149842,0|8,0:0|0:0,0:0:0:0:
476,164,94255,1,0,0:0:0:0:
481,310,94417,2,0,L|400:297,1,67.5000025749208,8|0,0:0|0:0,0:0:0:0:
315,166,94741,5,0,0:0:0:0:
320,140,95065,1,8,0:0:0:0:
204,209,95227,1,8,0:0:0:0:
273,325,95389,1,8,0:0:0:0:
389,255,95551,1,8,0:0:0:0:
197,127,95714,6,0,P|145:146|132:240,1,135.000005149842,0|8,0:0|0:0,0:0:0:0:
209,290,96201,2,0,P|261:271|274:177,1,135.000005149842,8|8,0:0|0:0,0:0:0:0:
199,96,96687,6,0,L|41:79,2,135.000005149842,0|8|8,0:0|0:0|0:0,0:0:0:0:
397,140,97660,5,0,0:0:0:0:
308,333,97984,1,0,0:0:0:0:
115,244,98309,1,0,0:0:0:0:
204,51,98633,1,0,0:0:0:0:
256,192,98795,12,0,100255,0:0:0:0:
252,184,100903,5,2,0:0:0:0:
242,168,101551,5,2,0:0:0:0:
226,159,102200,5,2,0:0:0:0:
208,154,102849,5,2,0:0:0:0:
190,155,103173,6,0,P|143:175|92:171,1,90,4|0,0:0|0:0,0:0:0:0:
236,80,103497,2,0,P|283:60|334:64,1,90,2|2,0:0|0:0,0:0:0:0:
152,84,103822,2,0,P|97:70|64:40,1,90,0|0,0:0|0:0,0:0:0:0:
276,152,104146,2,0,P|331:166|364:196,1,90,2|8,0:0|0:0,0:0:0:0:
364,208,104389,1,8,0:0:0:0:
364,232,104470,5,0,0:0:0:0:
193,289,104795,1,0,0:0:0:0:
364,232,105119,1,0,0:0:0:0:
193,289,105444,1,0,0:0:0:0:
364,232,105768,6,0,P|369:173|347:139,1,90,0|0,0:0|0:0,0:0:0:0:
208,256,106092,1,8,0:0:0:0:
328,320,106254,2,0,L|431:314,1,90
184,244,106579,1,0,0:0:0:0:
336,236,106741,1,8,0:0:0:0:
247,343,106903,1,0,0:0:0:0:
119,169,107065,6,0,L|218:160,1,90,0|0,0:0|0:0,0:0:0:0:
328,65,107389,1,8,0:0:0:0:
152,84,107551,2,0,L|60:80,1,90
156,256,107876,1,0,0:0:0:0:
344,256,108038,1,8,0:0:0:0:
256,148,108200,1,0,0:0:0:0:
403,121,108362,6,0,P|458:138|485:203,1,90,0|0,0:0|0:0,0:0:0:0:
476,300,108687,1,8,0:0:0:0:
329,308,108849,2,0,L|341:211,1,90,0|0,0:0|0:0,0:0:0:0:
384,100,109173,1,0,0:0:0:0:
235,75,109335,2,0,L|247:172,1,90,8|0,0:0|0:0,0:0:0:0:
230,299,109660,6,0,L|155:316,1,45,8|0,3:0|3:0,3:0:0:0:
129,191,109822,2,0,L|177:203,1,45,0|0,3:0|3:0,3:0:0:0:
268,235,109984,1,0,3:0:0:0:
73,259,110146,1,8,3:0:0:0:
46,223,110227,1,0,3:0:0:0:
42,178,110308,1,0,3:0:0:0:
61,138,110389,1,0,3:0:0:0:
98,113,110470,1,0,3:0:0:0:
210,173,110633,1,8,3:0:0:0:
230,186,110957,6,0,P|288:215|362:183,1,135,4|0,0:0|0:0,0:0:0:0:
374,155,111281,1,8,0:0:0:0:
219,106,111443,1,8,0:0:0:0:
226,272,111606,2,0,P|276:286|342:278,1,90,0|0,0:0|0:0,0:0:0:0:
391,240,111930,1,8,0:0:0:0:
362,112,112092,1,0,0:0:0:0:
481,200,112254,6,0,P|484:260|424:321,1,135,4|0,0:0|0:0,0:0:0:0:
393,319,112578,1,8,0:0:0:0:
360,159,112741,1,8,0:0:0:0:
264,289,112903,1,0,0:0:0:0:
413,228,113065,1,8,0:0:0:0:
269,124,113227,1,0,0:0:0:0:
292,304,113389,1,8,0:0:0:0:
446,151,113551,6,0,P|422:101|342:80,1,135,4|0,0:0|0:0,0:0:0:0:
326,117,113876,1,8,0:0:0:0:
203,222,114038,1,8,0:0:0:0:
177,62,114200,2,0,P|225:96|246:133,1,90,0|0,0:0|0:0,0:0:0:0:
273,271,114524,1,8,0:0:0:0:
119,217,114687,1,0,0:0:0:0:
285,173,114849,5,8,0:0:0:0:
327,185,114930,1,0,0:0:0:0:
360,215,115011,1,0,0:0:0:0:
377,257,115092,1,0,0:0:0:0:
373,301,115173,1,8,0:0:0:0:
350,339,115254,1,0,0:0:0:0:
313,364,115335,1,8,0:0:0:0:
269,369,115416,1,0,0:0:0:0:
227,355,115497,6,0,L|208:287,1,45,0|0,0:0|0:0,0:0:0:0:
285,173,115660,2,0,L|304:241,1,45,0|0,0:0|0:0,0:0:0:0:
362,358,115822,1,8,0:0:0:0:
373,378,116146,6,0,P|405:357|426:320,1,67.5000025749208,2|0,0:0|0:0,0:0:0:0:
491,366,116470,2,0,P|498:328|487:287,1,67.5000025749208,0|0,0:0|0:0,0:0:0:0:
368,247,116795,2,0,P|336:226|315:189,1,67.5000025749208,2|0,0:0|0:0,0:0:0:0:
250,235,117119,2,0,P|242:197|253:156,1,67.5000025749208,2|0,0:0|0:0,0:0:0:0:
385,107,117443,6,0,L|389:183,1,67.5000025749208
310,310,117768,2,0,L|306:234,1,67.5000025749208,2|0,0:0|0:0,0:0:0:0:
242,167,118092,2,0,L|318:163,1,67.5000025749208,2|0,0:0|0:0,0:0:0:0:
382,250,118416,1,2,0:0:0:0:
213,305,118578,1,0,0:0:0:0:
213,305,118660,1,0,0:0:0:0:
213,305,118741,5,4,0:0:0:0:
156,159,118903,1,0,0:0:0:0:
279,238,119065,1,0,0:0:0:0:
89,198,119227,1,0,0:0:0:0:
89,198,119308,1,0,0:0:0:0:
89,198,119389,5,4,0:0:0:0:
264,131,119551,1,0,0:0:0:0:
141,299,119714,1,0,0:0:0:0:
153,59,119876,1,0,0:0:0:0:
340,175,120038,6,0,B|310:208|285:222|238:225|206:208|190:176|182:144|182:144|156:136|156:136|128:104|128:104|80:88|37:106|0:124|-12:180|0:216|24:252,1,506.250019311906
48,264,121335,6,0,P|101:280|151:258,1,112.5,4|8,0:0|0:0,0:0:0:0:
264,64,121660,1,0,0:0:0:0:
300,228,121822,1,8,0:0:0:0:
192,164,121984,1,0,0:0:0:0:
392,116,122146,1,8,0:0:0:0:
324,314,122308,1,0,0:0:0:0:
480,91,122470,6,0,P|503:142|497:209,1,112.5,8|0,0:0|0:0,0:0:0:0:
512,329,122795,2,0,L|384:283,1,112.5,8|0,0:0|0:0,0:0:0:0:
239,325,123119,2,0,P|175:269|223:177,1,168.75,8|0,0:0|0:0,0:0:0:0:
217,181,123443,1,8,0:0:0:0:
326,234,123606,1,0,0:0:0:0:
115,347,123768,1,8,0:0:0:0:
77,127,123930,6,0,L|196:104,1,112.5,0|8,0:0|0:0,0:0:0:0:
298,86,124254,1,0,0:0:0:0:
387,281,124416,2,0,L|268:258,1,112.5,8|0,0:0|0:0,0:0:0:0:
166,240,124740,1,8,0:0:0:0:
336,183,124903,1,0,0:0:0:0:
319,359,125065,6,0,L|134:323,1,168.75,8|0,0:0|0:0,0:0:0:0:
126,319,125389,1,8,0:0:0:0:
226,144,125551,2,0,P|258:209|261:268,1,112.5,0|8,0:0|0:0,0:0:0:0:
121,167,125876,5,0,0:0:0:0:
121,167,125957,1,0,0:0:0:0:
121,167,126038,2,0,L|61:210,1,56.25,0|0,0:0|0:0,0:0:0:0:
213,44,126200,1,0,0:0:0:0:
213,44,126281,1,0,0:0:0:0:
213,44,126362,2,0,L|125:46,1,56.25,0|0,0:0|0:0,0:0:0:0:
317,123,126524,6,0,P|370:166|428:167,1,112.5,4|8,0:0|0:0,0:0:0:0:
400,84,126849,1,0,0:0:0:0:
272,212,127011,1,8,0:0:0:0:
424,248,127173,1,0,0:0:0:0:
328,40,127335,1,8,0:0:0:0:
200,248,127497,1,0,0:0:0:0:
454,329,127660,6,0,P|519:246|460:160,1,225,8|8,0:0|0:0,0:0:0:0:
312,244,128146,1,0,0:0:0:0:
344,68,128308,2,0,L|376:184,1,112.5,8|0,0:0|0:0,0:0:0:0:
296,328,128633,1,8,0:0:0:0:
252,168,128795,1,0,0:0:0:0:
148,280,128957,1,8,0:0:0:0:
312,244,129119,5,0,0:0:0:0:
460,112,129281,1,8,0:0:0:0:
288,84,129443,1,0,0:0:0:0:
472,212,129606,5,8,0:0:0:0:
384,32,129768,1,0,0:0:0:0:
337,218,129930,1,8,0:0:0:0:
476,20,130092,5,0,0:0:0:0:
216,36,130254,2,0,P|204:96|240:156,1,112.5,8|0,0:0|0:0,0:0:0:0:
412,263,130578,2,0,P|424:203|388:143,1,112.5,0|0,0:0|0:0,0:0:0:0:
152,232,130903,6,0,L|308:198,1,135.000005149842
304,80,131389,1,0,0:0:0:0:
348,240,131551,1,0,0:0:0:0:
304,80,131714,2,0,L|384:92,1,67.5000025749208
454,106,131957,1,0,0:0:0:0:
454,106,132038,6,0,P|360:95|280:169,1,180,4|0,0:0|0:0,0:0:0:0:
281,249,132524,1,0,0:0:0:0:
195,315,132687,2,0,P|150:318|110:298,1,90,8|0,0:0|0:0,0:0:0:0:
281,249,133011,6,0,P|325:245|365:265,1,90,0|0,0:0|0:0,0:0:0:0:
393,339,133335,2,0,P|348:342|308:322,1,90,8|0,0:0|0:0,0:0:0:0:
305,84,133660,2,0,P|345:64|390:67,1,90,0|0,0:0|0:0,0:0:0:0:
362,141,133984,2,0,P|322:161|278:158,1,90,8|0,0:0|0:0,0:0:0:0:
183,95,134308,6,0,L|200:296,1,180,4|8,0:0|0:0,0:0:0:0:
304,251,134795,1,0,0:0:0:0:
95,174,134957,2,0,L|120:275,1,90,0|0,0:0|0:0,0:0:0:0:
348,313,135281,2,0,P|381:246|375:220,1,90,8|0,0:0|0:0,0:0:0:0:
254,84,135606,6,0,P|230:130|328:137,1,180,0|8,0:0|0:0,0:0:0:0:
377,59,136092,1,0,0:0:0:0:
512,151,136254,2,0,P|503:199|406:163,1,180,0|8,0:0|0:0,0:0:0:0:
424,44,136741,1,0,0:0:0:0:
319,126,136903,6,0,P|275:160|236:159,1,90,4|0,0:0|0:0,0:0:0:0:
177,118,137227,2,0,P|221:84|260:85,1,90,8|0,0:0|0:0,0:0:0:0:
409,104,137551,2,0,L|417:204,1,90,0|0,0:0|0:0,0:0:0:0:
330,295,137876,2,0,L|338:195,1,90,8|0,0:0|0:0,0:0:0:0:
505,282,138200,6,0,L|410:268,1,90,0|0,0:0|0:0,0:0:0:0:
337,205,138524,2,0,L|242:191,1,90,8|0,0:0|0:0,0:0:0:0:
157,295,138849,2,0,L|252:281,1,90,0|0,0:0|0:0,0:0:0:0:
323,112,139173,2,0,L|418:98,1,90,8|0,0:0|0:0,0:0:0:0:
481,181,139497,6,0,P|468:233|346:226,1,180,4|8,0:0|0:0,0:0:0:0:
272,175,139984,1,0,0:0:0:0:
192,247,140146,2,0,L|89:224,1,90,0|0,0:0|0:0,0:0:0:0:
78,122,140470,2,0,L|181:145,1,90,8|0,0:0|0:0,0:0:0:0:
276,90,140795,6,0,B|327:99|352:133|359:171|346:203|346:203|401:210|437:243|446:295,1,270.000010299683,4|0,0:0|0:0,0:0:0:0:
357,291,141606,1,8,0:0:0:0:
473,109,141768,2,0,L|457:207,1,67.5000025749208,8|8,0:0|0:0,0:0:0:0:
328,276,142092,5,4,0:0:0:0:
256,192,142173,12,0,144687,0:0:0:0:
134,268,147281,6,0,P|192:249|213:222,1,67.5000025749208,0|0,0:0|0:0,0:0:0:0:
240,177,147606,1,2,0:0:0:0:
320,186,147768,2,0,L|298:337,1,135.000005149842,0|0,0:0|0:0,0:0:0:0:
300,319,148254,1,2,0:0:0:0:
378,297,148416,6,0,L|451:282,1,67.5000025749208
241,227,148741,2,0,L|168:212,1,67.5000025749208,0|2,0:0|0:0,0:0:0:0:
332,107,149065,2,0,P|375:120|388:220,1,135.000005149842,0|0,0:0|0:0,0:0:0:0:
355,267,149551,1,2,0:0:0:0:
281,301,149714,1,2,0:0:0:0:
200,302,149876,6,0,P|159:249|173:174,1,135.000005149842,0|2,0:0|0:0,0:0:0:0:
339,124,150362,2,0,P|305:178|227:207,1,135.000005149842,0|0,0:0|0:0,0:0:0:0:
231,64,150849,1,2,0:0:0:0:
231,64,151011,6,0,P|236:104|228:150,1,67.5000025749208
164,196,151335,1,0,0:0:0:0:
323,264,151497,2,0,L|310:182,1,67.5000025749208,2|0,0:0|0:0,0:0:0:0:
424,248,151822,2,0,L|408:332,1,67.5000025749208
256,304,152146,1,0,0:0:0:0:
244,281,152470,6,0,B|210:277|210:277|169:251,1,67.5000025749208,2|0,0:0|0:0,0:0:0:0:
84,258,152795,1,0,0:0:0:0:
206,183,152957,2,0,P|217:141|129:124,1,135.000005149842,0|0,0:0|0:0,0:0:0:0:
103,214,153443,1,0,0:0:0:0:
285,213,153606,6,0,L|355:193,1,67.5000025749208,2|0,0:0|0:0,0:0:0:0:
452,288,153930,2,0,L|382:268,1,67.5000025749208,0|0,0:0|0:0,0:0:0:0:
378,115,154254,2,0,P|422:124|414:212,1,135.000005149842
360,348,154741,2,0,L|297:301,1,67.5000025749208,0|0,0:0|0:0,0:0:0:0:
284,213,155065,6,0,P|243:173|148:191,1,135.000005149842,2|0,0:0|0:0,0:0:0:0:
95,207,155551,2,0,P|136:247|231:229,1,135.000005149842,0|0,0:0|0:0,0:0:0:0:
284,212,156038,1,0,0:0:0:0:
364,228,156200,6,0,L|364:72,1,135.000005149842,2|0,0:0|0:0,0:0:0:0:
272,64,156687,2,0,L|284:144,1,67.5000025749208,0|0,0:0|0:0,0:0:0:0:
364,228,157011,5,2,0:0:0:0:
240,284,157173,1,2,0:0:0:0:
384,280,157335,1,2,0:0:0:0:
192,216,157497,1,2,0:0:0:0:
