osu file format v9

[General]
AudioFilename: diving.mp3
AudioLeadIn: 1900
PreviewTime: 41878
Countdown: 0
SampleSet: Soft
StackLeniency: 0.7
Mode: 0
LetterboxInBreaks: 0

[Editor]
DistanceSpacing: 1
BeatDivisor: 4
GridSize: 4

[Metadata]
Title:diving
Artist:sakuzyo
Creator:Shiirn
Version:Hyper
Source:
Tags:Makar8000 xcherry

[Difficulty]
HPDrainRate:6
CircleSize:4
OverallDifficulty:7
ApproachRate:8
SliderMultiplier:1.69
SliderTickRate:1

[Events]
//Background and Video events
0,0,"bg.png"
//Break Periods
//Storyboard Layer 0 (Background)
Sprite,Background,Centre,"bg.png",320,240 MY,1,-1900,4462,103,380 MX,0,-1900,8924,471,396 MY,2,4462,13386,380,248 MX,1,8924,17848,396,300 MY,0,13386,22310,248,99 MX,2,17848,26772,300,449 MY,1,22310,31234,99,257 MX,0,26772,35696,449,203 MY,2,31234,40158,257,113 MX,1,35696,44621,203,152 MY,0,40158,47364,113,247 MX,2,44621,50107,152,224 MY,1,47364,52850,247,360 MX,1,50107,55593,224,147 MY,2,52850,58336,360,199 MX,2,55593,61079,147,282 MY,0,58336,63822,199,191 MX,1,61079,66565,282,500 MY,2,63822,69000,191,103 MX,2,66565,70100,500,381
//Storyboard Layer 1 (Fail)
//Storyboard Layer 2 (Pass)
//Storyboard Layer 3 (Foreground)
Sprite,Foreground,Centre,"water0hk.jpg",320,240 L,-1900,18 MX,1,0,1000,320,270 MY,2,0,1000,330,240 R,0,0,4000,0,6.283185 MX,2,1000,1500,270,320 MY,1,1000,1500,240,150 MX,1,1500,2500,320,390 MY,2,1500,2500,150,240 MX,2,2500,4000,390,320 MY,1,2500,4000,240,330 L,-1900,15 F,0,0,1500,0.1,0.2 F,0,1500,3000,0.2,0.1 L,45650,16 F,2,0,1372,0.25,0.15 S,0,0,,2 P,0,0,,A F,2,42000,44621,0.2,0.25 F,2,44621,45650,0.4,0.15
Sprite,Foreground,Centre,"water0hk.jpg",320,240 L,-1900,12 MX,1,0,1500,320,300 MY,2,0,1500,330,240 R,0,0,6000,6.283185,0 MX,2,1500,3000,300,320 MY,1,1500,3000,240,150 MX,1,3000,4500,320,340 MY,2,3000,4500,150,240 MX,2,4500,6000,340,320 MY,1,4500,6000,240,330 L,-1900,15 F,0,0,1500,0.2,0.1 F,0,1500,3000,0.1,0.2 L,44964,16 F,2,0,1372,0.25,0.15 S,0,0,,2.2 P,0,0,,A F,2,42000,44621,0.2,0.25 F,2,44621,44964,0.4,0.15
//Storyboard Sound Samples
//Background Colour Transformations
3,100,163,162,255

[TimingPoints]
736,342.857142857143,4,2,1,100,1,0
3478,-100,4,1,0,50,0,0
3578,-100,4,2,1,100,0,0
6221,-100,4,1,0,50,0,0
6321,-100,4,2,1,100,0,0
8964,-100,4,1,0,50,0,0
9064,-100,4,2,1,100,0,0
12393,-100,4,1,1,5,0,0
12564,-100,4,2,1,100,0,0
14450,-100,4,1,0,50,0,0
14550,-100,4,2,1,100,0,0
17193,-100,4,1,0,50,0,0
17293,-100,4,2,1,100,0,0
19936,-100,4,1,0,50,0,0
20036,-100,4,2,1,100,0,0
22678,-100,4,1,0,50,0,0
22778,-100,4,2,1,100,0,0
44621,-100,4,2,1,100,0,1
55507,-100,4,2,1,100,0,0
55593,-100,4,2,1,100,0,1
66564,-100,4,2,1,70,0,0

[Colours]
Combo1 : 111,60,196
Combo2 : 41,203,158
Combo3 : 39,114,205
Combo4 : 61,184,116

[HitObjects]
184,272,735,2,0,B|240:208|208:112,1,169,4|8
120,128,1250,2,0,B|104:168|64:192,1,84.5,2|0
32,280,1593,1,2
32,280,1764,2,0,B|80:272|112:320,1,84.5,8|2
176,352,2107,6,0,B|272:336,1,84.5,0|2
384,288,2450,2,0,B|300:274,1,84.5,8|2
176,224,2793,2,0,B|272:208,1,84.5,0|2
384,160,3136,2,0,B|288:144,2,84.5,8|2|4
496,40,3821,5,8
456,112,3993,1,2
400,48,4164,1,0
328,96,4336,2,0,B|296:64|296:16,1,84.5,2|8
256,136,4678,1,2
176,84,4850,6,0,B|208:52|208:4,1,84.5,0|2
180,92,5193,2,0,B|148:124|148:172,1,84.5,8|2
64,208,5536,1,0
64,208,5621,1,0
64,208,5707,1,2
40,296,5878,1,8
136,356,6050,1,2
40,296,6221,6,0,B|120:248|224:288,1,169,4|8
280,344,6736,2,0,B|368:360,1,84.5,2|0
368,280,7078,2,0,B|472:264,1,84.5,2|8
480,176,7421,5,2
480,176,7507,1,0
480,176,7593,2,0,B|440:160|432:112,1,84.5,2|2
344,56,7936,2,0,B|328:144,1,84.5,8|2
248,80,8278,1,0
248,80,8450,1,2
248,80,8621,2,0,B|232:168,1,84.5,8|2
128,152,8964,6,0,B|176:224|112:312,1,169,4|8
16,256,9478,1,2
16,256,9564,1,0
16,256,9650,1,0
8,152,9821,2,0,B|72:88,1,84.5,2|8
168,128,10164,1,2
256,152,10336,6,0,B|288:112,2,42.25,0|0|2
256,152,10678,2,0,B|248:192|272:232,1,84.5,8|2
360,296,11021,2,0,B|328:336,2,42.25,0|0|2
360,296,11363,2,0,B|368:256|344:216,1,84.5,8|2
344,128,11707,6,2,B|376:96|432:96,1,84.5,4|10
496,144,12050,1,0
420,96,12221,2,2,B|400:184|440:272,1,169
472,344,12736,2,0,B|432:368|376:352,1,84.5,8|2
312,312,13078,5,0
248,272,13250,1,2
212,340,13421,1,8
136,344,13593,2,0,B|96:352|56:328,1,84.5,2|0
104,272,13936,2,2,B|152:272|184:224,2,84.5,2|8|2
91,184,14450,6,0,B|155:256|267:232,1,169,4|8
296,176,14964,1,2
376,192,15136,1,0
320,256,15307,2,0,B|320:304|368:336,2,84.5,2|8|2
376,192,15821,6,0,B|416:176|464:184,1,84.5,0|2
352,120,16164,2,0,B|384:88|448:80,1,84.5,8|2
272,88,16507,1,0
336,32,16678,2,2,B|368:16|416:8,2,84.5,2|8|2
416,8,17193,6,0,B|440:88|360:168,1,169,4|8
304,208,17707,2,0,B|288:248|312:296,1,84.5,2|0
208,208,18050,1,2
208,208,18136,1,0
208,208,18221,2,0,B|224:248|200:296,1,84.5,8|0
232,360,18564,6,0,B|152:384,1,84.5,0|2
320,384,18907,2,0,B|400:360,1,84.5,8|2
448,288,19250,1,0
448,288,19421,2,0,B|416:256|424:208,1,84.5,2|8
488,152,19764,1,2
488,152,19936,6,0,B|440:222|342:222,1,169,4|8
256,192,20450,1,2
256,192,20621,2,0,B|272:152|272:152|304:120,1,84.5,0|2
256,192,20964,2,0,B|240:152|240:152|208:120,1,84.5,8|2
312,256,21307,6,0,B|336:272|336:272|384:272|384:272|392:280,1,84.5,0|2
200,256,21650,2,0,B|176:272|176:272|128:272|128:272|120:280,1,84.5,8|2
56,328,21993,1,0
24,240,22164,1,2
56,160,22336,2,0,B|96:136|144:152,1,84.5,8|2
56,160,22678,6,0,B|126:223|211:173,1,169,4|8
288,104,23193,1,2
288,104,23364,2,0,B|280:152|320:176,1,84.5,0|2
384,232,23707,2,0,B|328:304,1,84.5,8|2
236,336,24050,5,0
236,336,24136,1,0
236,336,24221,1,2
176,280,24393,2,0,B|84:280,1,84.5,8|2
0,256,24736,1,2
0,256,24822,1,0
0,256,24907,1,2
60,200,25079,2,0,B|152:200,1,84.5,8|2
240,220,25421,6,0,B|296:284|340:192|400:248,1,169,4|8
440,312,25936,1,2
348,340,26107,1,0
256,316,26278,1,2
160,296,26450,1,2
88,352,26621,1,2
196,92,26964,5,0
256,44,27136,1,2
316,92,27307,1,2
256,352,27650,2,2,B|304:276|264:180,1,169
168,184,28164,1,4
100,252,28336,5,2
24,300,28507,1,8
20,216,28678,1,2
320,336,29021,1,2
20,216,29364,1,2
406,358,29707,5,2
378,275,29878,1,2
320,336,30049,1,2
104,296,30393,1,2
448,228,30736,1,2
378,275,30907,1,4
372,192,31078,5,2
444,144,31250,1,8
364,108,31421,1,2
136,200,31764,1,2
364,108,32107,1,2
216,52,32450,5,2
136,80,32621,1,0
68,132,32793,1,0
32,208,32964,2,2,B|72:224|88:272,1,84.5
144,332,33307,1,0
228,348,33478,2,0,B|272:272|364:248,2,169,2|2|2
224,180,34507,1,2
224,180,34678,2,0,B|260:208|320:184,1,84.5,8|2
360,124,35021,6,2,B|456:140,1,84.5
336,48,35364,2,0,B|432:64,1,84.5,0|2
164,68,35878,1,0
164,68,36050,2,2,B|64:68|44:168,1,169,2|6
64,312,36736,1,8
64,312,36907,1,2
232,308,37250,2,0,B|256:272|260:224,1,84.5,8|8
252,144,37593,5,0
252,144,37764,2,0,B|272:224|380:240,1,169,8|8
376,156,38278,2,0,B|212:256,1,169,2|2
160,288,38793,1,8
408,320,39136,6,8,B|496:272|440:176,1,169,4|0
392,80,39650,2,0,B|304:128|360:224,2,169,2|8|2
296,36,40507,1,2
296,36,40678,2,0,B|224:112,1,84.5,0|8
176,160,41021,1,2
164,64,41193,1,8
164,64,41364,2,0,B|92:140,1,84.5,2|2
44,188,41707,1,2
44,188,41878,6,0,B|76:212|68:268,1,84.5,4|2
68,264,42221,1,10
68,264,42393,2,2,B|184:228|280:312|404:256,1,338
452,192,43250,6,0,B|432:152|448:108,1,84.5,0|2
447,109,43593,2,0,B|396:92|400:36,1,84.5,8|0
400,45,43936,2,0,B|364:72|316:56,1,84.5,0|2
297,136,44278,2,0,B|324:108|320:57,1,84.5,8|2
320,57,44621,6,0,B|236:28|152:64,1,169,4|8
84,128,45136,1,2
56,220,45307,2,0,B|96:236|112:280,1,84.5,0|2
184,352,45650,2,0,B|264:288,1,84.5,8|2
309,222,45993,6,0,B|349:234|376:272,1,84.5,0|2
456,248,46336,2,0,B|476:212|468:160,2,84.5,8|2|0
376,272,46850,1,2
316,328,47021,1,10
232,308,47193,1,2
148,308,47364,6,0,B|64:292,1,84.5,4|2
44,212,47707,1,8
44,212,47878,2,0,B|128:196,1,84.5,2|2
148,116,48221,1,2
148,116,48393,2,0,B|232:100,1,84.5,8|2
264,196,48736,6,0,B|352:152|420:216,1,169,8|2
332,272,49250,2,0,B|364:104,1,169,8|2
380,32,49764,1,8
380,32,49936,1,2
444,104,50107,6,0,B|404:144|348:96|280:144,1,169,4|8
212,200,50621,2,0,B|176:220|128:204,1,84.5,2|0
140,284,50964,1,2
224,212,51136,2,2,B|244:248|228:296,1,84.5,8|2
228,293,51478,6,0,B|312:328,1,84.5,0|2
460,316,51821,2,0,B|376:281,1,84.5,8|2
344,208,52164,1,2
344,208,52336,1,2
344,208,52507,2,0,B|376:180|384:132,1,84.5,8|2
344,208,52850,6,2,B|372:124|324:44,1,169,0|8
187,45,53364,2,2,B|140:124|167:207,1,169,2|0
248,240,53878,1,8
248,240,54221,6,2,B|164:268|84:220,1,169,0|8
85,84,54735,2,2,B|163:36|247:64,1,169
280,144,55249,1,8
280,144,55421,1,2
280,144,55593,5,4
48,328,55936,1,8
48,328,56107,2,0,B|80:308|84:256,1,84.5,2|0
124,184,56450,2,0,B|212:168,1,84.5,2|8
256,240,56793,1,2
256,240,56964,6,0,B|256:328,1,84.5,0|2
328,356,57307,2,0,B|364:336|352:280,1,84.5,8|2
184,356,57650,2,0,B|148:336|160:280,1,84.5,0|2
100,208,57993,1,8
32,248,58164,1,2
24,328,58336,5,4
248,212,58678,1,8
248,212,58850,1,2
348,180,59021,1,0
348,180,59193,1,2
436,152,59364,2,0,B|464:184|484:168|512:188,1,84.5,8|2
432,256,59707,6,0,B|412:172|464:80,1,169,2|8
368,48,60221,2,0,B|220:168,1,169,8|2
180,72,60736,1,8
180,72,60907,1,2
180,72,61078,6,2,B|200:112|176:156,2,84.5,2|2|10
180,72,61593,2,0,B|144:144|180:240,1,169,2|8
178,236,62107,1,8
178,236,62278,1,2
228,316,62450,6,0,B|272:300|324:312,2,84.5,0|2|8
144,348,62964,1,2
380,152,63307,1,2
144,348,63650,1,2
144,348,63821,2,2,B|108:268|148:172,1,169,2|8
216,280,64336,2,0,B|235:190|335:179,1,169,2|2
436,224,64850,1,8
488,128,65021,1,4
256,192,65193,12,4,66564
