osu file format v9

[General]
AudioFilename: BALLISTA.mp3
AudioLeadIn: 0
PreviewTime: 66824
Countdown: 0
SampleSet: Soft
StackLeniency: 0.7
Mode: 0
LetterboxInBreaks: 1

[Editor]
DistanceSpacing: 1.1
BeatDivisor: 4
GridSize: 4

[Metadata]
Title:VALLISTA
Artist:sakuzyo
Creator:Shiirn
Version:ziin's Normal
Source:BMS
Tags:BMS of Fighters 2011 zelos ziin odaril backfire

[Difficulty]
HPDrainRate:3
CircleSize:3
OverallDifficulty:3
ApproachRate:5
SliderMultiplier:0.8660254
SliderTickRate:1

[Events]
//Background and Video events
Video,0,"shootinmyarrows.avi"
0,0,"abstractcrap.png"
//Break Periods
2,99032,102299
//Storyboard Layer 0 (Background)
Sprite,Background,Centre,"makeitlastawhile.jpg",320,240 F,0,0,122824,1,0
//Storyboard Layer 1 (Fail)
//Storyboard Layer 2 (Pass)
//Storyboard Layer 3 (Foreground)
//Storyboard Sound Samples
//Background Colour Transformations
3,100,163,162,255

[TimingPoints]
166,333.333333333333,4,2,0,80,1,0
13332,-100,4,1,0,50,0,0
13415,-100,4,2,0,80,0,0
14665,-100,4,1,0,50,0,0
14749,-100,4,2,0,80,0,0
15999,-100,4,1,0,50,0,0
16082,-100,4,2,0,80,0,0
17332,-100,4,1,0,50,0,0
17415,-100,4,2,0,80,0,0
18665,-100,4,1,0,50,0,0
18749,-100,4,2,0,70,0,0
19999,-100,4,1,0,40,0,0
20082,-100,4,2,0,60,0,0
23832,-100,4,1,0,80,0,0
40415,-100,4,1,1,80,0,0
40582,-100,4,1,0,80,0,0
41749,-100,4,1,1,80,0,0
41915,-100,4,1,0,80,0,0
43082,-100,4,1,1,80,0,0
43249,-100,4,1,0,80,0,0
45499,-100,4,2,0,95,0,0
56165,-100,4,1,0,65,0,0
56665,-100,4,2,0,85,0,0
56832,-100,4,1,0,65,0,0
57332,-100,4,2,0,85,0,0
57499,-100,4,1,0,65,0,0
57999,-100,4,2,0,85,0,0
58165,-100,4,1,0,65,0,0
58665,-100,4,2,0,85,0,0
58832,-100,4,1,0,85,0,0
61499,-100,4,1,0,65,0,0
61999,-100,4,2,0,85,0,0
62165,-100,4,1,0,65,0,0
62665,-100,4,2,0,85,0,0
62832,-100,4,1,0,65,0,0
63332,-100,4,2,0,85,0,0
63499,-100,4,1,0,65,0,0
63999,-100,4,2,0,85,0,0
64165,-100,4,1,0,85,0,0
66832,-100,4,2,0,95,0,0
72165,-100,4,1,0,85,0,1
76165,-100,4,1,0,85,0,0
77499,-100,4,1,0,85,0,1
83165,-100,4,2,0,100,0,1
83249,-100,4,1,0,85,0,1
90832,-100,4,1,0,85,0,0
93499,-100,4,1,0,85,0,1
97499,-100,4,1,0,40,0,0
103499,-100,4,1,0,60,0,0
104165,-100,4,1,0,70,0,0
109499,-100,4,1,0,90,0,1
114665,-100,4,1,0,90,0,0
114832,-100,4,1,0,90,0,1
114932,-100,4,1,0,90,0,0

[Colours]
Combo1 : 99,145,250
Combo2 : 156,10,235
Combo3 : 5,5,240
Combo4 : 98,33,133

[HitObjects]
384,28,12165,1,8
260,104,12665,1,0
236,92,12832,2,4,B|232:48|176:24|136:40,1,129.90381,12|4
128,68,13499,5,8
252,144,13999,1,0
276,132,14165,2,4,B|280:88|336:64|376:80,1,129.90381,12|4
384,108,14832,5,8
260,184,15332,1,0
236,172,15499,2,4,B|232:128|176:104|136:120,1,129.90381,12|4
128,148,16166,5,8
252,224,16666,1,0
276,212,16832,2,4,B|280:168|336:144|376:160,1,129.90381,12|4
384,188,17499,5,8
260,264,17999,1,0
236,252,18165,2,4,B|232:208|176:184|136:200,1,129.90381,12|4
128,228,18833,5,8
252,304,19333,1,0
276,292,19499,2,4,B|280:248|336:224|376:240,1,129.90381,12|4
384,268,20165,5,8
256,192,20332,12,0,22832
256,192,23832,5,4
191,148,24165,2,0,B|165:171|72:160|30:87|32:48,1,216.50635,0|0
32,23,25165,1,0
111,20,25499,2,0,B|117:64|169:89|211:57,1,129.90381,0|0
273,104,26332,1,0
161,193,26832,6,0,B|116:216|105:267|130:306,1,129.90381,2|0
194,263,27665,1,0
332,226,28165,1,2
324,253,28332,2,0,B|318:290|373:288|367:321,1,86.60254
387,339,28832,2,0,B|405:347|433:343,2,43.30127,0|0|0
307,354,29499,6,0,B|238:325|211:271,1,129.90381,0|0
240,196,30332,1,0
288,136,30665,1,0
300,112,30832,2,0,B|274:59|204:29,1,129.90381,0|0
125,45,31665,2,0,B|107:37|79:41,2,43.30127,0|0|0
143,64,32165,6,0,B|126:88|119:126|140:160|168:176,2,129.90381,2|0|0
207,108,33499,2,0,B|224:95|247:99,2,43.30127,2|0|8
169,177,34165,2,0,B|185:188|209:184,2,43.30127,0|0|8
256,192,34832,12,0,36165
256,72,37165,5,8
316,120,37499,2,0,B|340:156|392:144,1,86.60254,0|8
316,264,38332,1,0
290,263,38499,1,8
256,192,38832,6,0,B|214:212|211:261,1,86.60254,0|8
116,152,39665,1,0
92,140,39832,1,8
86,61,40165,6,0,B|123:36|174:39|217:60|233:100,1,173.20508
310,114,41165,1,8
371,162,41499,6,0,B|375:206|346:249|307:276|263:270,1,173.20508
214,330,42499,1,8
141,358,42832,6,0,B|100:338|77:293|73:245|100:210,1,173.20508
74,138,43832,1,8
150,151,44165,5,0
222,181,44499,2,0,B|225:217|259:234,2,64.951905,8|0|0
228,155,45165,1,8
304,172,45499,6,0,B|318:121|381:74|434:75,1,173.20508,8|0
222,151,46832,2,0,B|171:137|124:74|125:21,1,173.20508,8|0
204,232,48165,6,0,B|279:321|362:293|446:266|455:150,1,346.41016,8|8
380,127,49832,1,0
333,189,50165,1,2
257,174,50499,1,0
304,113,50832,6,0,B|273:31,2,86.60254,8|0|0
99,206,52165,2,0,B|112:257|175:304|228:303,1,173.20508,8|0
256,80,53499,5,8
452,192,54165,1,0
256,304,54832,1,8
60,192,55499,1,0
284,240,56165,6,0,B|319:259|376:192|350:160,1,129.90381,4|0
300,164,56832,2,0,B|319:128|252:71|220:97,1,129.90381
224,148,57499,2,0,B|188:128|131:195|157:227,1,129.90381
208,223,58166,2,0,B|188:258|255:315|287:289,1,129.90381
424,280,59165,6,0,B|460:228|448:156,1,129.90381
332,72,60165,2,0,B|296:124|308:196,1,129.90381
232,320,61165,1,0
228,240,61499,6,0,B|192:260|135:193|161:161,1,129.90381,4|0
212,164,62166,2,0,B|192:129|259:72|291:98,1,129.90381
288,148,62833,2,0,B|323:129|380:196|354:228,1,129.90381
304,223,63500,2,0,B|323:259|256:316|224:290,1,129.90381
184,296,64165,1,0
88,280,64499,6,0,B|52:228|64:156,1,129.90381
180,72,65499,2,0,B|216:124|204:196,1,129.90381
280,320,66499,1,0
296,244,66832,6,0,B|316:180|316:112,2,129.90381,4|2|0
216,244,68165,2,0,B|196:180|196:112,1,129.90381
224,112,68832,2,0,B|239:108|255:104|271:108|287:111,2,64.951905,0|0|2
200,96,69499,5,2
320,176,69999,1,0
200,256,70499,1,0
200,176,70832,2,2,B|112:176,2,86.60254,2|10|2
280,176,71832,1,2
239,244,72165,6,0,B|240:272|268:300|295:300,1,86.60254
336,232,72832,2,0,B|384:236|408:196,1,86.60254
364,132,73499,2,0,B|344:96|308:68,1,86.60254
244,112,74165,2,0,B|200:120|164:144,1,86.60254
256,192,74832,12,4,76165
36,280,77499,5,6
76,196,77832,2,0,B|92:180|116:180,1,43.30127
204,212,78332,1,4
208,116,78665,1,2
284,176,78999,1,4
288,80,79332,1,2
364,140,79665,2,0,B|372:92,1,43.30127,4|8
448,156,80165,6,2,B|501:177|516:248|476:310|420:313,1,216.50635,2|4
380,224,81332,1,2
304,164,81666,1,4
300,260,81999,1,2
224,200,82332,1,4
96,308,82832,6,0,B|61:274|66:231,1,86.60254,0|4
100,64,83665,2,0,B|132:36|180:32,2,86.60254,4|0|4
100,64,84499,1,8
212,192,84999,1,4
212,192,85165,1,8
316,212,85499,5,2
151,182,85999,1,0
122,348,86499,1,10
287,377,86999,1,8
225,248,87499,1,10
164,319,87832,1,0
258,335,88165,5,4
432,192,88832,1,0
256,52,89499,1,0
80,192,90165,1,0
256,332,90832,5,0
172,124,91499,2,6,B|185:94|224:76,2,64.951905,6|4|4
185,146,92165,2,6,B|164:171|165:214,2,64.951905,6|4|4
256,176,92999,1,4
314,227,93332,1,4
341,229,93499,6,0,B|392:236|416:196,1,86.60254,8|0
352,152,94165,2,0,B|360:104|324:72,1,86.60254,8|0
276,136,94832,6,0,B|228:152|197:120,1,86.60254,8|0
249,63,95499,2,0,B|214:32|168:46,1,86.60254,8|0
92,32,96165,6,0,B|84:80|124:112,1,86.60254,8|8
148,184,96832,2,0,B|156:232|116:264,1,86.60254,8|8
256,192,97499,12,4,98832
396,64,103499,5,0
372,72,103665,2,0,B|328:80|304:120,1,86.60254,8|8
292,144,104165,5,4
68,175,104832,2,0,B|100:144,1,43.30127
165,271,105499,5,0
196,48,106165,2,0,B|165:79,1,43.30127
124,216,106832,6,2,B|128:144|232:192|236:104,3,173.20508,2|0|0|2
308,136,109165,1,0
377,175,109499,6,0,B|415:197,2,43.30127,4|4|8
376,97,110165,2,0,B|414:75,2,43.30127,4|4|8
307,57,110832,2,8,B|307:13,2,43.30127,4|4|8
238,95,111499,2,0,B|199:73,2,43.30127,4|4|8
172,164,112165,5,4
215,326,112665,1,4
365,112,113332,5,4
283,163,113665,1,4
408,274,114165,5,4
242,240,114665,2,0,B|294:250,1,43.30127,4|4
